  0
SECTION
  2
HEADER
  9
$ACADVER
  1
AC1015
  9
$ACADMAINTVER
 70
     6
  9
$DWGCODEPAGE
  3
ANSI_1252
  9
$INSBASE
 10
0.0
 20
0.0
 30
0.0
  9
$EXTMIN
 10
0.0
 20
0.0
 30
0.0
  9
$EXTMAX
 10
594.0
 20
420.0
 30
0.0
  9
$LIMMIN
 10
0.0
 20
0.0
  9
$LIMMAX
 10
594.0
 20
420.0
  9
$ORTHOMODE
 70
     0
  9
$REGENMODE
 70
     1
  9
$FILLMODE
 70
     1
  9
$QTEXTMODE
 70
     0
  9
$MIRRTEXT
 70
     1
  9
$LTSCALE
 40
1.0
  9
$ATTMODE
 70
     1
  9
$TEXTSIZE
 40
3.5
  9
$TRACEWID
 40
1.0
  9
$TEXTSTYLE
  7
STANDARD
  9
$CLAYER
  8
0
  9
$CELTYPE
  6
ByLayer
  9
$CECOLOR
 62
   256
  9
$CELTSCALE
 40
1.0
  9
$DISPSILH
 70
     0
  9
$DIMSCALE
 40
1.0
  9
$DIMASZ
 40
3.302
  9
$DIMEXO
 40
1.0
  9
$DIMDLI
 40
3.75
  9
$DIMRND
 40
0.0
  9
$DIMDLE
 40
0.0
  9
$DIMEXE
 40
1.0
  9
$DIMTP
 40
0.0
  9
$DIMTM
 40
0.0
  9
$DIMTXT
 40
3.5
  9
$DIMCEN
 40
2.5
  9
$DIMTSZ
 40
0.0
  9
$DIMTOL
 70
     0
  9
$DIMLIM
 70
     0
  9
$DIMTIH
 70
     1
  9
$DIMTOH
 70
     1
  9
$DIMSE1
 70
     0
  9
$DIMSE2
 70
     0
  9
$DIMTAD
 70
     1
  9
$DIMZIN
 70
     0
  9
$DIMBLK
  1

  9
$DIMASO
 70
     1
  9
$DIMSHO
 70
     1
  9
$DIMPOST
  1

  9
$DIMAPOST
  1

  9
$DIMALT
 70
     0
  9
$DIMALTD
 70
     3
  9
$DIMALTF
 40
0.0393700787
  9
$DIMLFAC
 40
1.0
  9
$DIMTOFL
 70
     1
  9
$DIMTVP
 40
0.0
  9
$DIMTIX
 70
     0
  9
$DIMSOXD
 70
     0
  9
$DIMSAH
 70
     0
  9
$DIMBLK1
  1

  9
$DIMBLK2
  1

  9
$DIMSTYLE
  2
ISO-25
  9
$DIMCLRD
 70
     0
  9
$DIMCLRE
 70
     0
  9
$DIMCLRT
 70
     0
  9
$DIMTFAC
 40
1.0
  9
$DIMGAP
 40
3.0
  9
$DIMJUST
 70
     0
  9
$DIMSD1
 70
     0
  9
$DIMSD2
 70
     0
  9
$DIMTOLJ
 70
     0
  9
$DIMTZIN
 70
     0
  9
$DIMALTZ
 70
     0
  9
$DIMALTTZ
 70
     0
  9
$DIMUPT
 70
     0
  9
$DIMDEC
 70
     2
  9
$DIMTDEC
 70
     2
  9
$DIMALTU
 70
     2
  9
$DIMALTTD
 70
     3
  9
$DIMTXSTY
  7
STANDARD
  9
$DIMAUNIT
 70
     0
  9
$DIMADEC
 70
     2
  9
$DIMALTRND
 40
0.0
  9
$DIMAZIN
 70
     0
  9
$DIMDSEP
 70
    44
  9
$DIMATFIT
 70
     3
  9
$DIMFRAC
 70
     0
  9
$DIMLDRBLK
  1

  9
$DIMLUNIT
 70
     2
  9
$DIMLWD
 70
    -2
  9
$DIMLWE
 70
    -2
  9
$DIMTMOVE
 70
     0
  9
$LUNITS
 70
     2
  9
$LUPREC
 70
     2
  9
$SKETCHINC
 40
1.0
  9
$FILLETRAD
 40
10.0
  9
$AUNITS
 70
     0
  9
$AUPREC
 70
     2
  9
$MENU
  1
.
  9
$ELEVATION
 40
0.0
  9
$PELEVATION
 40
0.0
  9
$THICKNESS
 40
0.0
  9
$LIMCHECK
 70
     0
  9
$CHAMFERA
 40
0.0
  9
$CHAMFERB
 40
0.0
  9
$CHAMFERC
 40
0.0
  9
$CHAMFERD
 40
0.0
  9
$SKPOLY
 70
     0
  9
$TDCREATE
 40
2459551.456816366
  9
$TDUCREATE
 40
2459551.415149699
  9
$TDUPDATE
 40
2459551.45682132
  9
$TDUUPDATE
 40
2459551.415154653
  9
$TDINDWG
 40
0.0000000116
  9
$TDUSRTIMER
 40
0.0000000116
  9
$USRTIMER
 70
     1
  9
$ANGBASE
 50
0.0
  9
$ANGDIR
 70
     0
  9
$PDMODE
 70
     0
  9
$PDSIZE
 40
-1.0
  9
$PLINEWID
 40
0.0
  9
$SPLFRAME
 70
     0
  9
$SPLINETYPE
 70
     6
  9
$SPLINESEGS
 70
     8
  9
$HANDSEED
  5
7DA
  9
$SURFTAB1
 70
     6
  9
$SURFTAB2
 70
     6
  9
$SURFTYPE
 70
     6
  9
$SURFU
 70
     6
  9
$SURFV
 70
     6
  9
$UCSBASE
  2

  9
$UCSNAME
  2

  9
$UCSORG
 10
0.0
 20
0.0
 30
0.0
  9
$UCSXDIR
 10
1.0
 20
0.0
 30
0.0
  9
$UCSYDIR
 10
0.0
 20
1.0
 30
0.0
  9
$UCSORTHOREF
  2

  9
$UCSORTHOVIEW
 70
     0
  9
$UCSORGTOP
 10
0.0
 20
0.0
 30
0.0
  9
$UCSORGBOTTOM
 10
0.0
 20
0.0
 30
0.0
  9
$UCSORGLEFT
 10
0.0
 20
0.0
 30
0.0
  9
$UCSORGRIGHT
 10
0.0
 20
0.0
 30
0.0
  9
$UCSORGFRONT
 10
0.0
 20
0.0
 30
0.0
  9
$UCSORGBACK
 10
0.0
 20
0.0
 30
0.0
  9
$PUCSBASE
  2

  9
$PUCSNAME
  2

  9
$PUCSORG
 10
0.0
 20
0.0
 30
0.0
  9
$PUCSXDIR
 10
1.0
 20
0.0
 30
0.0
  9
$PUCSYDIR
 10
0.0
 20
1.0
 30
0.0
  9
$PUCSORTHOREF
  2

  9
$PUCSORTHOVIEW
 70
     0
  9
$PUCSORGTOP
 10
0.0
 20
0.0
 30
0.0
  9
$PUCSORGBOTTOM
 10
0.0
 20
0.0
 30
0.0
  9
$PUCSORGLEFT
 10
0.0
 20
0.0
 30
0.0
  9
$PUCSORGRIGHT
 10
0.0
 20
0.0
 30
0.0
  9
$PUCSORGFRONT
 10
0.0
 20
0.0
 30
0.0
  9
$PUCSORGBACK
 10
0.0
 20
0.0
 30
0.0
  9
$USERI1
 70
     0
  9
$USERI2
 70
     0
  9
$USERI3
 70
     0
  9
$USERI4
 70
     0
  9
$USERI5
 70
     0
  9
$USERR1
 40
0.0
  9
$USERR2
 40
0.0
  9
$USERR3
 40
0.0
  9
$USERR4
 40
0.0
  9
$USERR5
 40
0.0
  9
$WORLDVIEW
 70
     1
  9
$SHADEDGE
 70
     3
  9
$SHADEDIF
 70
    70
  9
$TILEMODE
 70
     1
  9
$MAXACTVP
 70
    64
  9
$PINSBASE
 10
0.0
 20
0.0
 30
0.0
  9
$PLIMCHECK
 70
     0
  9
$PEXTMIN
 10
1.0000000000E+20
 20
1.0000000000E+20
 30
1.0000000000E+20
  9
$PEXTMAX
 10
-1.0000000000E+20
 20
-1.0000000000E+20
 30
-1.0000000000E+20
  9
$PLIMMIN
 10
0.0
 20
0.0
  9
$PLIMMAX
 10
420.0
 20
297.0
  9
$UNITMODE
 70
     0
  9
$VISRETAIN
 70
     1
  9
$PLINEGEN
 70
     0
  9
$PSLTSCALE
 70
     1
  9
$TREEDEPTH
 70
  3020
  9
$CMLSTYLE
  2
Standard
  9
$CMLJUST
 70
     0
  9
$CMLSCALE
 40
20.0
  9
$PROXYGRAPHICS
 70
     1
  9
$MEASUREMENT
 70
     1
  9
$CELWEIGHT
370
    -1
  9
$ENDCAPS
280
     0
  9
$JOINSTYLE
280
     0
  9
$LWDISPLAY
290
     1
  9
$INSUNITS
 70
     4
  9
$HYPERLINKBASE
  1

  9
$STYLESHEET
  1

  9
$XEDIT
290
     1
  9
$CEPSNTYPE
380
     0
  9
$PSTYLEMODE
290
     1
  9
$FINGERPRINTGUID
  2
{34fb6be6-7c90-4083-9fe1-26c3ac58da6e}
  9
$VERSIONGUID
  2
{FAEB1C32-E019-11D5-929B-00C0DF256EC4}
  9
$EXTNAMES
290
     1
  9
$PSVPSCALE
 40
0.0
  9
$OLESTARTUP
290
     0
  0
ENDSEC
  0
SECTION
  2
CLASSES
  0
CLASS
  1
ACDBDICTIONARYWDFLT
  2
AcDbDictionaryWithDefault
  3
ObjectDBX Classes
 90
        0
280
     0
281
     0
  0
CLASS
  1
VISUALSTYLE
  2
AcDbVisualStyle
  3
ObjectDBX Classes
 90
     4095
280
     0
281
     0
  0
CLASS
  1
MATERIAL
  2
AcDbMaterial
  3
ObjectDBX Classes
 90
     1153
280
     0
281
     0
  0
CLASS
  1
SCALE
  2
AcDbScale
  3
ObjectDBX Classes
 90
     1153
280
     0
281
     0
  0
CLASS
  1
TABLESTYLE
  2
AcDbTableStyle
  3
ObjectDBX Classes
 90
     4095
280
     0
281
     0
  0
CLASS
  1
MLEADERSTYLE
  2
AcDbMLeaderStyle
  3
ACDB_MLEADERSTYLE_CLASS
 90
     4095
280
     0
281
     0
  0
CLASS
  1
SUN
  2
AcDbSun
  3
SCENEOE
 90
     1153
280
     0
281
     0
  0
CLASS
  1
ACDBPLACEHOLDER
  2
AcDbPlaceHolder
  3
ObjectDBX Classes
 90
        0
280
     0
281
     0
  0
CLASS
  1
LAYOUT
  2
AcDbLayout
  3
ObjectDBX Classes
 90
        0
280
     0
281
     0
  0
ENDSEC
  0
SECTION
  2
TABLES
  0
TABLE
  2
VPORT
  5
8
330
0
100
AcDbSymbolTable
 70
     1
  0
VPORT
  5
29
330
8
100
AcDbSymbolTableRecord
100
AcDbViewportTableRecord
  2
*Active
 70
     0
 10
0.0
 20
0.0
 11
1.0
 21
1.0
 12
297.0
 22
210.0
 13
0.0
 23
0.0
 14
10.0
 24
10.0
 15
10.0
 25
10.0
 16
0.0
 26
0.0
 36
1.0
 17
0.0
 27
0.0
 37
0.0
 40
420.0
 41
1.4142857143
 42
50.0
 43
0.0
 44
0.0
 50
0.0
 51
0.0
 71
     0
 72
  2000
 73
     1
 74
     3
 75
     0
 76
     0
 77
     0
 78
     0
281
     0
 65
     1
110
0.0
120
0.0
130
0.0
111
1.0
121
0.0
131
0.0
112
0.0
122
1.0
132
0.0
 79
     0
146
0.0
  0
ENDTAB
  0
TABLE
  2
LTYPE
  5
5
330
0
100
AcDbSymbolTable
 70
     6
  0
LTYPE
  5
14
330
5
100
AcDbSymbolTableRecord
100
AcDbLinetypeTableRecord
  2
ByBlock
 70
     0
  3

 72
    65
 73
     0
 40
0.0
  0
LTYPE
  5
15
330
5
100
AcDbSymbolTableRecord
100
AcDbLinetypeTableRecord
  2
ByLayer
 70
     0
  3

 72
    65
 73
     0
 40
0.0
  0
LTYPE
  5
16
330
5
100
AcDbSymbolTableRecord
100
AcDbLinetypeTableRecord
  2
Continuous
 70
     0
  3
Solid line
 72
    65
 73
     0
 40
0.0
  0
LTYPE
  5
6E
330
5
100
AcDbSymbolTableRecord
100
AcDbLinetypeTableRecord
  2
HIDDEN
 70
     0
  3
Hidden __ __ __ __ __ __ __ __ __ __ __ __ __ __
 72
    65
 73
     2
 40
1.905
 49
1.27
 74
     0
 49
-0.635
 74
     0
  0
LTYPE
  5
6F
330
5
100
AcDbSymbolTableRecord
100
AcDbLinetypeTableRecord
  2
PHANTOM
 70
     0
  3
Phantom ______  __  __  ______  __  __  ______
 72
    65
 73
     6
 40
12.7
 49
6.35
 74
     0
 49
-1.27
 74
     0
 49
1.27
 74
     0
 49
-1.27
 74
     0
 49
1.27
 74
     0
 49
-1.27
 74
     0
  0
LTYPE
  5
70
330
5
100
AcDbSymbolTableRecord
100
AcDbLinetypeTableRecord
  2
CENTER
 70
     0
  3
Center ____ _ ____ _ ____ _ ____ _ ____ _ ____
 72
    65
 73
     4
 40
10.16
 49
6.35
 74
     0
 49
-1.27
 74
     0
 49
1.27
 74
     0
 49
-1.27
 74
     0
  0
LTYPE
  5
71
330
5
100
AcDbSymbolTableRecord
100
AcDbLinetypeTableRecord
  2
CENTERX2
 70
     0
  3
Center (2x) ________  __  ________  __  _____
 72
    65
 73
     4
 40
20.32
 49
12.7
 74
     0
 49
-2.54
 74
     0
 49
2.54
 74
     0
 49
-2.54
 74
     0
  0
LTYPE
  5
72
330
5
100
AcDbSymbolTableRecord
100
AcDbLinetypeTableRecord
  2
DOT2
 70
     0
  3
Dot (.5x) ........................................
 72
    65
 73
     2
 40
0.635
 49
0.0
 74
     0
 49
-0.635
 74
     0
  0
ENDTAB
  0
TABLE
  2
LAYER
  5
2
330
0
100
AcDbSymbolTable
 70
     7
  0
LAYER
  5
10
330
2
100
AcDbSymbolTableRecord
100
AcDbLayerTableRecord
  2
0
 70
     0
 62
     7
  6
Continuous
370
    -3
390
F
  0
LAYER
  5
73
330
2
100
AcDbSymbolTableRecord
100
AcDbLayerTableRecord
  2
FORMAT
 70
     0
 62
     7
  6
Continuous
370
    -3
390
F
  0
LAYER
  5
74
330
2
100
AcDbSymbolTableRecord
100
AcDbLayerTableRecord
  2
VORLAGE
 70
     0
 62
     7
  6
Continuous
370
    -3
390
F
  0
LAYER
  5
75
330
2
100
AcDbSymbolTableRecord
100
AcDbLayerTableRecord
  2
1
 70
     0
 62
   179
  6
Continuous
370
    -3
390
F
  0
LAYER
  5
76
330
2
100
AcDbSymbolTableRecord
100
AcDbLayerTableRecord
  2
LAYER0
 70
     0
 62
     7
  6
Continuous
370
    -3
390
F
  0
LAYER
  5
77
330
2
100
AcDbSymbolTableRecord
100
AcDbLayerTableRecord
  2
BEMASSUNG
 70
     0
 62
     1
  6
Continuous
370
    -3
390
F
  0
LAYER
  5
78
330
2
100
AcDbSymbolTableRecord
100
AcDbLayerTableRecord
  2
ÄNDERUNG
 70
     0
 62
     1
  6
Continuous
370
    -3
390
F
  0
ENDTAB
  0
TABLE
  2
STYLE
  5
3
330
0
100
AcDbSymbolTable
 70
     5
  0
STYLE
  5
11
330
3
100
AcDbSymbolTableRecord
100
AcDbTextStyleTableRecord
  2
STANDARD
 70
     0
 40
0.0
 41
1.0
 50
0.0
 71
     0
 42
3.5
  3
ARIAL.TTF
  4

1001
ACAD
1000
ARIAL
1071
       34
  0
STYLE
  5
83
330
3
100
AcDbSymbolTableRecord
100
AcDbTextStyleTableRecord
  2
SLDTEXTSTYLE0
 70
     0
 40
0.0
 41
0.948
 50
0.0
 71
     0
 42
3.5
  3
ARIAL.TTF
  4

1001
ACAD
1000
Arial
1071
      290
  0
STYLE
  5
DC
330
3
100
AcDbSymbolTableRecord
100
AcDbTextStyleTableRecord
  2
SLDTEXTSTYLE1
 70
     0
 40
0.0
 41
1.0
 50
0.0
 71
     0
 42
3.5
  3
ARIALUNI.TTF
  4

1001
ACAD
1000
Arial Unicode MS
1071
 33554722
  0
STYLE
  5
E2
330
3
100
AcDbSymbolTableRecord
100
AcDbTextStyleTableRecord
  2
SLDTEXTSTYLE2
 70
     0
 40
0.0
 41
0.87
 50
0.0
 71
     0
 42
3.5
  3
ARIALN.TTF
  4

1001
ACAD
1000
Arial Narrow
1071
      290
  0
STYLE
  5
107
330
3
100
AcDbSymbolTableRecord
100
AcDbTextStyleTableRecord
  2
SLDTEXTSTYLE3
 70
     0
 40
0.0
 41
0.948
 50
0.0
 71
     0
 42
3.5
  3
ARIALBD.TTF
  4

1001
ACAD
1000
Arial
1071
 33554722
  0
ENDTAB
  0
TABLE
  2
VIEW
  5
6
330
0
100
AcDbSymbolTable
 70
     0
  0
ENDTAB
  0
TABLE
  2
UCS
  5
7
330
0
100
AcDbSymbolTable
 70
     0
  0
ENDTAB
  0
TABLE
  2
APPID
  5
9
330
0
100
AcDbSymbolTable
 70
     1
  0
APPID
  5
12
330
9
100
AcDbSymbolTableRecord
100
AcDbRegAppTableRecord
  2
ACAD
 70
     0
  0
ENDTAB
  0
TABLE
  2
DIMSTYLE
  5
A
330
0
100
AcDbSymbolTable
 70
     6
100
AcDbDimStyleTable
  0
DIMSTYLE
105
27
330
A
100
AcDbSymbolTableRecord
100
AcDbDimStyleTableRecord
  2
ISO-25
 70
     0
 41
2.5
 42
0.625
 43
3.75
 44
1.25
 73
     0
 74
     0
 77
     1
 78
     8
140
2.5
141
2.5
143
0.0393700787
147
0.625
171
     3
172
     1
178
     0
271
     2
272
     2
274
     3
278
    44
283
     0
284
     8
340
11
  0
DIMSTYLE
105
1D6
102
{ACAD_REACTORS
330
1D5
330
1E0
330
1EA
330
1F4
330
1FE
330
215
330
21F
330
5FA
330
64C
330
6B7
330
6C1
330
6F2
330
72E
330
738
330
78C
330
796
330
7A0
102
}
330
A
100
AcDbSymbolTableRecord
100
AcDbDimStyleTableRecord
  2
SLDDIMSTYLE0
 70
     0
 41
3.302
 44
0.0
 45
0.000000001
 73
     0
 74
     0
 77
     1
 78
    12
 79
     3
140
3.5
147
0.875
173
     1
178
     0
271
     2
272
     2
276
     2
284
    12
340
83
  0
DIMSTYLE
105
209
102
{ACAD_REACTORS
330
208
102
}
330
A
100
AcDbSymbolTableRecord
100
AcDbDimStyleTableRecord
  2
SLDDIMSTYLE1
 70
     0
 41
3.302
 44
0.0
 45
0.000000001
 73
     0
 74
     0
 77
     1
 78
    12
 79
     3
140
3.5
147
0.875
173
     1
178
     0
271
     0
272
     2
276
     2
284
    12
340
83
  0
DIMSTYLE
105
22B
102
{ACAD_REACTORS
330
22A
330
5B8
330
5C4
330
5D0
330
5E0
330
5EE
330
6AB
330
6CB
330
6E5
330
7AA
102
}
330
A
100
AcDbSymbolTableRecord
100
AcDbDimStyleTableRecord
  2
SLDDIMSTYLE2
 70
     0
 41
3.302
 44
0.0
 45
0.000000001
 73
     0
 74
     0
 77
     1
 78
    12
 79
     3
140
3.5
147
0.875
172
     1
173
     1
178
     0
271
     2
272
     2
276
     2
284
    12
289
     0
340
83
  0
DIMSTYLE
105
657
102
{ACAD_REACTORS
330
656
330
742
102
}
330
A
100
AcDbSymbolTableRecord
100
AcDbDimStyleTableRecord
  2
SLDDIMSTYLE3
 70
     0
 41
3.302
 44
0.0
 45
0.000000001
 73
     0
 74
     0
 77
     1
 78
    12
 79
     3
140
3.5
141
0.0
147
0.875
173
     1
178
     0
271
     2
272
     2
276
     2
284
    12
340
83
  0
DIMSTYLE
105
7D1
330
A
100
AcDbSymbolTableRecord
100
AcDbDimStyleTableRecord
  2
SLDDIMSTYLE4
 70
     0
 41
1.016
 44
0.0
 45
0.000000001
146
1.016
147
0.0
173
     1
178
     0
271
     0
272
     0
276
     2
340
11
341
7D2
343
7D2
344
7D2
  0
ENDTAB
  0
TABLE
  2
BLOCK_RECORD
  5
1
330
0
100
AcDbSymbolTable
 70
   107
  0
BLOCK_RECORD
  5
1F
330
1
100
AcDbSymbolTableRecord
100
AcDbBlockTableRecord
  2
*Model_Space
340
22
  0
BLOCK_RECORD
  5
1B
330
1
100
AcDbSymbolTableRecord
100
AcDbBlockTableRecord
  2
*Paper_Space
340
1E
  0
BLOCK_RECORD
  5
23
330
1
100
AcDbSymbolTableRecord
100
AcDbBlockTableRecord
  2
*Paper_Space0
340
26
  0
BLOCK_RECORD
  5
79
330
1
100
AcDbSymbolTableRecord
100
AcDbBlockTableRecord
  2
Prüfmaß DE
340
0
  0
BLOCK_RECORD
  5
80
330
1
100
AcDbSymbolTableRecord
100
AcDbBlockTableRecord
  2
SW_NOTE_0
340
0
102
{BLKREFS
331
85
102
}
  0
BLOCK_RECORD
  5
86
330
1
100
AcDbSymbolTableRecord
100
AcDbBlockTableRecord
  2
Werkstückkanten DE
340
0
  0
BLOCK_RECORD
  5
9D
330
1
100
AcDbSymbolTableRecord
100
AcDbBlockTableRecord
  2
SW_NOTE_0_1
340
0
102
{BLKREFS
331
A2
102
}
  0
BLOCK_RECORD
  5
A5
330
1
100
AcDbSymbolTableRecord
100
AcDbBlockTableRecord
  2
Block1_4
340
0
102
{BLKREFS
331
FD
102
}
  0
BLOCK_RECORD
  5
B3
330
1
100
AcDbSymbolTableRecord
100
AcDbBlockTableRecord
  2
SW_NOTE_0_2
340
0
102
{BLKREFS
331
B8
102
}
  0
BLOCK_RECORD
  5
B9
330
1
100
AcDbSymbolTableRecord
100
AcDbBlockTableRecord
  2
Block2_4
340
0
102
{BLKREFS
331
FE
102
}
  0
BLOCK_RECORD
  5
D9
330
1
100
AcDbSymbolTableRecord
100
AcDbBlockTableRecord
  2
SW_NOTE_0_3
340
0
102
{BLKREFS
331
DE
102
}
  0
BLOCK_RECORD
  5
DF
330
1
100
AcDbSymbolTableRecord
100
AcDbBlockTableRecord
  2
SW_NOTE_0_4
340
0
102
{BLKREFS
331
E6
102
}
  0
BLOCK_RECORD
  5
FF
330
1
100
AcDbSymbolTableRecord
100
AcDbBlockTableRecord
  2
SW_NOTE_0_5
340
0
102
{BLKREFS
331
106
102
}
  0
BLOCK_RECORD
  5
119
330
1
100
AcDbSymbolTableRecord
100
AcDbBlockTableRecord
  2
SW_NOTE_0_6
340
0
102
{BLKREFS
331
125
102
}
  0
BLOCK_RECORD
  5
1D7
330
1
100
AcDbSymbolTableRecord
100
AcDbBlockTableRecord
  2
_D
340
0
  0
BLOCK_RECORD
  5
1E1
330
1
100
AcDbSymbolTableRecord
100
AcDbBlockTableRecord
  2
_D_1
340
0
  0
BLOCK_RECORD
  5
1EB
330
1
100
AcDbSymbolTableRecord
100
AcDbBlockTableRecord
  2
_D_2
340
0
  0
BLOCK_RECORD
  5
1F5
330
1
100
AcDbSymbolTableRecord
100
AcDbBlockTableRecord
  2
_D_3
340
0
  0
BLOCK_RECORD
  5
1FF
330
1
100
AcDbSymbolTableRecord
100
AcDbBlockTableRecord
  2
_D_4
340
0
  0
BLOCK_RECORD
  5
20A
330
1
100
AcDbSymbolTableRecord
100
AcDbBlockTableRecord
  2
_D_5
340
0
  0
BLOCK_RECORD
  5
216
330
1
100
AcDbSymbolTableRecord
100
AcDbBlockTableRecord
  2
_D_6
340
0
  0
BLOCK_RECORD
  5
220
330
1
100
AcDbSymbolTableRecord
100
AcDbBlockTableRecord
  2
_D_7
340
0
  0
BLOCK_RECORD
  5
22C
330
1
100
AcDbSymbolTableRecord
100
AcDbBlockTableRecord
  2
_D_8
340
0
  0
BLOCK_RECORD
  5
238
330
1
100
AcDbSymbolTableRecord
100
AcDbBlockTableRecord
  2
SW_CENTERMARKSYMBOL_0
340
0
102
{BLKREFS
331
243
102
}
  0
BLOCK_RECORD
  5
244
330
1
100
AcDbSymbolTableRecord
100
AcDbBlockTableRecord
  2
SW_CENTERMARKSYMBOL_1
340
0
102
{BLKREFS
331
24F
102
}
  0
BLOCK_RECORD
  5
250
330
1
100
AcDbSymbolTableRecord
100
AcDbBlockTableRecord
  2
SW_CENTERMARKSYMBOL_2
340
0
102
{BLKREFS
331
25B
102
}
  0
BLOCK_RECORD
  5
25C
330
1
100
AcDbSymbolTableRecord
100
AcDbBlockTableRecord
  2
SW_CENTERMARKSYMBOL_3
340
0
102
{BLKREFS
331
267
102
}
  0
BLOCK_RECORD
  5
268
330
1
100
AcDbSymbolTableRecord
100
AcDbBlockTableRecord
  2
SW_CENTERMARKSYMBOL_4
340
0
102
{BLKREFS
331
273
102
}
  0
BLOCK_RECORD
  5
274
330
1
100
AcDbSymbolTableRecord
100
AcDbBlockTableRecord
  2
SW_CENTERMARKSYMBOL_5
340
0
102
{BLKREFS
331
27F
102
}
  0
BLOCK_RECORD
  5
280
330
1
100
AcDbSymbolTableRecord
100
AcDbBlockTableRecord
  2
SW_CENTERMARKSYMBOL_6
340
0
102
{BLKREFS
331
28B
102
}
  0
BLOCK_RECORD
  5
28C
330
1
100
AcDbSymbolTableRecord
100
AcDbBlockTableRecord
  2
SW_CENTERMARKSYMBOL_7
340
0
102
{BLKREFS
331
297
102
}
  0
BLOCK_RECORD
  5
298
330
1
100
AcDbSymbolTableRecord
100
AcDbBlockTableRecord
  2
SW_CENTERMARKSYMBOL_8
340
0
102
{BLKREFS
331
2A3
102
}
  0
BLOCK_RECORD
  5
2A4
330
1
100
AcDbSymbolTableRecord
100
AcDbBlockTableRecord
  2
SW_CENTERMARKSYMBOL_9
340
0
102
{BLKREFS
331
2AF
102
}
  0
BLOCK_RECORD
  5
2B0
330
1
100
AcDbSymbolTableRecord
100
AcDbBlockTableRecord
  2
SW_CENTERMARKSYMBOL_10
340
0
102
{BLKREFS
331
2BB
102
}
  0
BLOCK_RECORD
  5
2BC
330
1
100
AcDbSymbolTableRecord
100
AcDbBlockTableRecord
  2
SW_CENTERMARKSYMBOL_11
340
0
102
{BLKREFS
331
2C7
102
}
  0
BLOCK_RECORD
  5
2C8
330
1
100
AcDbSymbolTableRecord
100
AcDbBlockTableRecord
  2
SW_CENTERMARKSYMBOL_12
340
0
102
{BLKREFS
331
2D3
102
}
  0
BLOCK_RECORD
  5
2D4
330
1
100
AcDbSymbolTableRecord
100
AcDbBlockTableRecord
  2
SW_CENTERMARKSYMBOL_13
340
0
102
{BLKREFS
331
2DF
102
}
  0
BLOCK_RECORD
  5
2E0
330
1
100
AcDbSymbolTableRecord
100
AcDbBlockTableRecord
  2
SW_CENTERMARKSYMBOL_14
340
0
102
{BLKREFS
331
2EB
102
}
  0
BLOCK_RECORD
  5
2EC
330
1
100
AcDbSymbolTableRecord
100
AcDbBlockTableRecord
  2
SW_CENTERMARKSYMBOL_15
340
0
102
{BLKREFS
331
2F7
102
}
  0
BLOCK_RECORD
  5
2F8
330
1
100
AcDbSymbolTableRecord
100
AcDbBlockTableRecord
  2
SW_CENTERMARKSYMBOL_16
340
0
102
{BLKREFS
331
303
102
}
  0
BLOCK_RECORD
  5
304
330
1
100
AcDbSymbolTableRecord
100
AcDbBlockTableRecord
  2
SW_CENTERMARKSYMBOL_17
340
0
102
{BLKREFS
331
30F
102
}
  0
BLOCK_RECORD
  5
310
330
1
100
AcDbSymbolTableRecord
100
AcDbBlockTableRecord
  2
SW_CENTERMARKSYMBOL_18
340
0
102
{BLKREFS
331
31B
102
}
  0
BLOCK_RECORD
  5
31C
330
1
100
AcDbSymbolTableRecord
100
AcDbBlockTableRecord
  2
SW_CENTERMARKSYMBOL_19
340
0
102
{BLKREFS
331
327
102
}
  0
BLOCK_RECORD
  5
328
330
1
100
AcDbSymbolTableRecord
100
AcDbBlockTableRecord
  2
SW_CENTERMARKSYMBOL_20
340
0
102
{BLKREFS
331
333
102
}
  0
BLOCK_RECORD
  5
334
330
1
100
AcDbSymbolTableRecord
100
AcDbBlockTableRecord
  2
SW_CENTERMARKSYMBOL_21
340
0
102
{BLKREFS
331
33F
102
}
  0
BLOCK_RECORD
  5
340
330
1
100
AcDbSymbolTableRecord
100
AcDbBlockTableRecord
  2
SW_CENTERMARKSYMBOL_22
340
0
102
{BLKREFS
331
34B
102
}
  0
BLOCK_RECORD
  5
34C
330
1
100
AcDbSymbolTableRecord
100
AcDbBlockTableRecord
  2
SW_CENTERMARKSYMBOL_23
340
0
102
{BLKREFS
331
357
102
}
  0
BLOCK_RECORD
  5
358
330
1
100
AcDbSymbolTableRecord
100
AcDbBlockTableRecord
  2
SW_CENTERMARKSYMBOL_24
340
0
102
{BLKREFS
331
363
102
}
  0
BLOCK_RECORD
  5
364
330
1
100
AcDbSymbolTableRecord
100
AcDbBlockTableRecord
  2
SW_CENTERMARKSYMBOL_25
340
0
102
{BLKREFS
331
36F
102
}
  0
BLOCK_RECORD
  5
370
330
1
100
AcDbSymbolTableRecord
100
AcDbBlockTableRecord
  2
SW_CENTERMARKSYMBOL_26
340
0
102
{BLKREFS
331
37B
102
}
  0
BLOCK_RECORD
  5
37C
330
1
100
AcDbSymbolTableRecord
100
AcDbBlockTableRecord
  2
SW_CENTERMARKSYMBOL_27
340
0
102
{BLKREFS
331
387
102
}
  0
BLOCK_RECORD
  5
388
330
1
100
AcDbSymbolTableRecord
100
AcDbBlockTableRecord
  2
SW_CENTERMARKSYMBOL_28
340
0
102
{BLKREFS
331
393
102
}
  0
BLOCK_RECORD
  5
394
330
1
100
AcDbSymbolTableRecord
100
AcDbBlockTableRecord
  2
SW_CENTERMARKSYMBOL_29
340
0
102
{BLKREFS
331
39F
102
}
  0
BLOCK_RECORD
  5
3A0
330
1
100
AcDbSymbolTableRecord
100
AcDbBlockTableRecord
  2
SW_CENTERMARKSYMBOL_30
340
0
102
{BLKREFS
331
3AB
102
}
  0
BLOCK_RECORD
  5
3AC
330
1
100
AcDbSymbolTableRecord
100
AcDbBlockTableRecord
  2
SW_CENTERMARKSYMBOL_31
340
0
102
{BLKREFS
331
3B7
102
}
  0
BLOCK_RECORD
  5
3B8
330
1
100
AcDbSymbolTableRecord
100
AcDbBlockTableRecord
  2
SW_CENTERMARKSYMBOL_32
340
0
102
{BLKREFS
331
3C3
102
}
  0
BLOCK_RECORD
  5
3C4
330
1
100
AcDbSymbolTableRecord
100
AcDbBlockTableRecord
  2
SW_CENTERMARKSYMBOL_33
340
0
102
{BLKREFS
331
3CF
102
}
  0
BLOCK_RECORD
  5
3D0
330
1
100
AcDbSymbolTableRecord
100
AcDbBlockTableRecord
  2
SW_CENTERMARKSYMBOL_34
340
0
102
{BLKREFS
331
3DB
102
}
  0
BLOCK_RECORD
  5
3DC
330
1
100
AcDbSymbolTableRecord
100
AcDbBlockTableRecord
  2
SW_CENTERMARKSYMBOL_35
340
0
102
{BLKREFS
331
3E7
102
}
  0
BLOCK_RECORD
  5
3E8
330
1
100
AcDbSymbolTableRecord
100
AcDbBlockTableRecord
  2
SW_CENTERMARKSYMBOL_36
340
0
102
{BLKREFS
331
3F3
102
}
  0
BLOCK_RECORD
  5
3F4
330
1
100
AcDbSymbolTableRecord
100
AcDbBlockTableRecord
  2
SW_CENTERMARKSYMBOL_37
340
0
102
{BLKREFS
331
3FF
102
}
  0
BLOCK_RECORD
  5
400
330
1
100
AcDbSymbolTableRecord
100
AcDbBlockTableRecord
  2
SW_CENTERMARKSYMBOL_38
340
0
102
{BLKREFS
331
40B
102
}
  0
BLOCK_RECORD
  5
40C
330
1
100
AcDbSymbolTableRecord
100
AcDbBlockTableRecord
  2
SW_CENTERMARKSYMBOL_39
340
0
102
{BLKREFS
331
417
102
}
  0
BLOCK_RECORD
  5
418
330
1
100
AcDbSymbolTableRecord
100
AcDbBlockTableRecord
  2
SW_CENTERMARKSYMBOL_40
340
0
102
{BLKREFS
331
423
102
}
  0
BLOCK_RECORD
  5
424
330
1
100
AcDbSymbolTableRecord
100
AcDbBlockTableRecord
  2
SW_CENTERMARKSYMBOL_41
340
0
102
{BLKREFS
331
42F
102
}
  0
BLOCK_RECORD
  5
430
330
1
100
AcDbSymbolTableRecord
100
AcDbBlockTableRecord
  2
SW_CENTERMARKSYMBOL_42
340
0
102
{BLKREFS
331
43B
102
}
  0
BLOCK_RECORD
  5
43C
330
1
100
AcDbSymbolTableRecord
100
AcDbBlockTableRecord
  2
SW_CENTERMARKSYMBOL_43
340
0
102
{BLKREFS
331
447
102
}
  0
BLOCK_RECORD
  5
448
330
1
100
AcDbSymbolTableRecord
100
AcDbBlockTableRecord
  2
SW_CENTERMARKSYMBOL_44
340
0
102
{BLKREFS
331
453
102
}
  0
BLOCK_RECORD
  5
454
330
1
100
AcDbSymbolTableRecord
100
AcDbBlockTableRecord
  2
SW_CENTERMARKSYMBOL_45
340
0
102
{BLKREFS
331
45F
102
}
  0
BLOCK_RECORD
  5
460
330
1
100
AcDbSymbolTableRecord
100
AcDbBlockTableRecord
  2
SW_CENTERMARKSYMBOL_46
340
0
102
{BLKREFS
331
46B
102
}
  0
BLOCK_RECORD
  5
46C
330
1
100
AcDbSymbolTableRecord
100
AcDbBlockTableRecord
  2
SW_CENTERMARKSYMBOL_47
340
0
102
{BLKREFS
331
477
102
}
  0
BLOCK_RECORD
  5
478
330
1
100
AcDbSymbolTableRecord
100
AcDbBlockTableRecord
  2
SW_CENTERMARKSYMBOL_48
340
0
102
{BLKREFS
331
483
102
}
  0
BLOCK_RECORD
  5
484
330
1
100
AcDbSymbolTableRecord
100
AcDbBlockTableRecord
  2
SW_CENTERMARKSYMBOL_49
340
0
102
{BLKREFS
331
48F
102
}
  0
BLOCK_RECORD
  5
490
330
1
100
AcDbSymbolTableRecord
100
AcDbBlockTableRecord
  2
SW_CENTERMARKSYMBOL_50
340
0
102
{BLKREFS
331
4A3
102
}
  0
BLOCK_RECORD
  5
4A4
330
1
100
AcDbSymbolTableRecord
100
AcDbBlockTableRecord
  2
SW_CENTERMARKSYMBOL_51
340
0
102
{BLKREFS
331
4B7
102
}
  0
BLOCK_RECORD
  5
4B8
330
1
100
AcDbSymbolTableRecord
100
AcDbBlockTableRecord
  2
SW_CENTERMARKSYMBOL_52
340
0
102
{BLKREFS
331
4CB
102
}
  0
BLOCK_RECORD
  5
4CC
330
1
100
AcDbSymbolTableRecord
100
AcDbBlockTableRecord
  2
SW_CENTERMARKSYMBOL_53
340
0
102
{BLKREFS
331
4DF
102
}
  0
BLOCK_RECORD
  5
4E0
330
1
100
AcDbSymbolTableRecord
100
AcDbBlockTableRecord
  2
SW_CENTERMARKSYMBOL_54
340
0
102
{BLKREFS
331
4EB
102
}
  0
BLOCK_RECORD
  5
4EC
330
1
100
AcDbSymbolTableRecord
100
AcDbBlockTableRecord
  2
SW_CENTERMARKSYMBOL_55
340
0
102
{BLKREFS
331
4F7
102
}
  0
BLOCK_RECORD
  5
4F8
330
1
100
AcDbSymbolTableRecord
100
AcDbBlockTableRecord
  2
SW_CENTERMARKSYMBOL_56
340
0
102
{BLKREFS
331
503
102
}
  0
BLOCK_RECORD
  5
5B9
330
1
100
AcDbSymbolTableRecord
100
AcDbBlockTableRecord
  2
_D_9
340
0
  0
BLOCK_RECORD
  5
5C5
330
1
100
AcDbSymbolTableRecord
100
AcDbBlockTableRecord
  2
_D_10
340
0
  0
BLOCK_RECORD
  5
5D1
330
1
100
AcDbSymbolTableRecord
100
AcDbBlockTableRecord
  2
_D_11
340
0
  0
BLOCK_RECORD
  5
5E1
330
1
100
AcDbSymbolTableRecord
100
AcDbBlockTableRecord
  2
_D_12
340
0
  0
BLOCK_RECORD
  5
5EF
330
1
100
AcDbSymbolTableRecord
100
AcDbBlockTableRecord
  2
_D_13
340
0
  0
BLOCK_RECORD
  5
5FB
330
1
100
AcDbSymbolTableRecord
100
AcDbBlockTableRecord
  2
_D_14
340
0
  0
BLOCK_RECORD
  5
64D
330
1
100
AcDbSymbolTableRecord
100
AcDbBlockTableRecord
  2
_D_15
340
0
  0
BLOCK_RECORD
  5
658
330
1
100
AcDbSymbolTableRecord
100
AcDbBlockTableRecord
  2
_D_16
340
0
  0
BLOCK_RECORD
  5
65F
330
1
100
AcDbSymbolTableRecord
100
AcDbBlockTableRecord
  2
SW_NOTE_0_7
340
0
102
{BLKREFS
331
664
102
}
  0
BLOCK_RECORD
  5
68C
330
1
100
AcDbSymbolTableRecord
100
AcDbBlockTableRecord
  2
SW_HATCH_0
340
0
102
{BLKREFS
331
6AA
102
}
  0
BLOCK_RECORD
  5
6AC
330
1
100
AcDbSymbolTableRecord
100
AcDbBlockTableRecord
  2
_D_17
340
0
  0
BLOCK_RECORD
  5
6B8
330
1
100
AcDbSymbolTableRecord
100
AcDbBlockTableRecord
  2
_D_18
340
0
  0
BLOCK_RECORD
  5
6C2
330
1
100
AcDbSymbolTableRecord
100
AcDbBlockTableRecord
  2
_D_19
340
0
  0
BLOCK_RECORD
  5
6CC
330
1
100
AcDbSymbolTableRecord
100
AcDbBlockTableRecord
  2
_D_20
340
0
  0
BLOCK_RECORD
  5
6E6
330
1
100
AcDbSymbolTableRecord
100
AcDbBlockTableRecord
  2
_D_21
340
0
  0
BLOCK_RECORD
  5
6F3
330
1
100
AcDbSymbolTableRecord
100
AcDbBlockTableRecord
  2
_D_22
340
0
  0
BLOCK_RECORD
  5
6FC
330
1
100
AcDbSymbolTableRecord
100
AcDbBlockTableRecord
  2
SW_CENTERMARKSYMBOL_57
340
0
102
{BLKREFS
331
70F
102
}
  0
BLOCK_RECORD
  5
710
330
1
100
AcDbSymbolTableRecord
100
AcDbBlockTableRecord
  2
SW_CENTERMARKSYMBOL_58
340
0
102
{BLKREFS
331
71B
102
}
  0
BLOCK_RECORD
  5
72F
330
1
100
AcDbSymbolTableRecord
100
AcDbBlockTableRecord
  2
_D_23
340
0
  0
BLOCK_RECORD
  5
739
330
1
100
AcDbSymbolTableRecord
100
AcDbBlockTableRecord
  2
_D_24
340
0
  0
BLOCK_RECORD
  5
743
330
1
100
AcDbSymbolTableRecord
100
AcDbBlockTableRecord
  2
_D_25
340
0
  0
BLOCK_RECORD
  5
74A
330
1
100
AcDbSymbolTableRecord
100
AcDbBlockTableRecord
  2
SW_NOTE_0_8
340
0
102
{BLKREFS
331
74F
102
}
  0
BLOCK_RECORD
  5
772
330
1
100
AcDbSymbolTableRecord
100
AcDbBlockTableRecord
  2
SW_HATCH_1
340
0
102
{BLKREFS
331
78B
102
}
  0
BLOCK_RECORD
  5
78D
330
1
100
AcDbSymbolTableRecord
100
AcDbBlockTableRecord
  2
_D_26
340
0
  0
BLOCK_RECORD
  5
797
330
1
100
AcDbSymbolTableRecord
100
AcDbBlockTableRecord
  2
_D_27
340
0
  0
BLOCK_RECORD
  5
7A1
330
1
100
AcDbSymbolTableRecord
100
AcDbBlockTableRecord
  2
_D_28
340
0
  0
BLOCK_RECORD
  5
7AB
330
1
100
AcDbSymbolTableRecord
100
AcDbBlockTableRecord
  2
_D_29
340
0
  0
BLOCK_RECORD
  5
7CA
330
1
100
AcDbSymbolTableRecord
100
AcDbBlockTableRecord
  2
SW_NOTE_0_9
340
0
102
{BLKREFS
331
7D0
102
}
  0
BLOCK_RECORD
  5
7D2
330
1
100
AcDbSymbolTableRecord
100
AcDbBlockTableRecord
  2
_Dot
340
0
  0
ENDTAB
  0
ENDSEC
  0
SECTION
  2
BLOCKS
  0
BLOCK
  5
20
330
1F
100
AcDbEntity
  8
0
100
AcDbBlockBegin
  2
*Model_Space
 70
     0
 10
0.0
 20
0.0
 30
0.0
  3
*Model_Space
  1

  0
ENDBLK
  5
21
330
1F
100
AcDbEntity
  8
0
100
AcDbBlockEnd
  0
BLOCK
  5
1C
330
1B
100
AcDbEntity
 67
     1
  8
0
100
AcDbBlockBegin
  2
*Paper_Space
 70
     0
 10
0.0
 20
0.0
 30
0.0
  3
*Paper_Space
  1

  0
ENDBLK
  5
1D
330
1B
100
AcDbEntity
 67
     1
  8
0
100
AcDbBlockEnd
  0
BLOCK
  5
24
330
23
100
AcDbEntity
  8
0
100
AcDbBlockBegin
  2
*Paper_Space0
 70
     0
 10
0.0
 20
0.0
 30
0.0
  3
*Paper_Space0
  1

  0
ENDBLK
  5
25
330
23
100
AcDbEntity
  8
0
100
AcDbBlockEnd
  0
BLOCK
  5
7A
330
79
100
AcDbEntity
  8
0
100
AcDbBlockBegin
  2
Prüfmaß DE
 70
     0
 10
0.0
 20
0.0
 30
0.0
  3
Prüfmaß DE
  1

  0
ARC
  5
7C
330
79
100
AcDbEntity
  8
0
  6
Continuous
 62
     7
370
    18
100
AcDbCircle
 10
540.152787322
 20
157.1730042205
 30
0.0
 40
2.041521022103069
100
AcDbArc
 50
270.0
 51
90.0
  0
ARC
  5
7D
330
79
100
AcDbEntity
  8
0
  6
Continuous
 62
     7
370
    18
100
AcDbCircle
 10
533.7278363882
 20
157.1730042205
 30
0.0
 40
2.041521022103069
100
AcDbArc
 50
90.0
 51
270.0
  0
LINE
  5
7E
330
79
100
AcDbEntity
  8
0
  6
Continuous
 62
     7
370
    18
100
AcDbLine
 10
533.7278363882
 20
159.2145252426
 30
0.0
 11
540.152787322
 21
159.2145252426
 31
0.0
  0
LINE
  5
7F
330
79
100
AcDbEntity
  8
0
  6
Continuous
 62
     7
370
    18
100
AcDbLine
 10
540.152787322
 20
155.1314831984
 30
0.0
 11
533.7278363882
 21
155.1314831984
 31
0.0
  0
INSERT
  5
85
330
79
100
AcDbEntity
  8
0
  6
Continuous
 62
     7
370
     0
100
AcDbBlockReference
  2
SW_NOTE_0
 10
545.3826769281
 20
154.3828978528
 30
0.0
  0
ENDBLK
  5
7B
330
79
100
AcDbEntity
  8
0
100
AcDbBlockEnd
  0
BLOCK
  5
81
330
80
100
AcDbEntity
  8
0
100
AcDbBlockBegin
  2
SW_NOTE_0
 70
     0
 10
0.0
 20
0.0
 30
0.0
  3
SW_NOTE_0
  1

  0
MTEXT
  5
84
330
80
100
AcDbEntity
  8
0
  6
Continuous
 62
     0
370
     0
100
AcDbMText
 10
0.0
 20
4.5117370892
 30
0.0
 40
3.5
 41
0.0
 71
     1
 72
     1
  1
Prüfmaß
  7
SLDTEXTSTYLE0
 73
     1
 44
1.0
  0
ENDBLK
  5
82
330
80
100
AcDbEntity
  8
0
100
AcDbBlockEnd
  0
BLOCK
  5
87
330
86
100
AcDbEntity
  8
0
100
AcDbBlockBegin
  2
Werkstückkanten DE
 70
     2
 10
0.0
 20
0.0
 30
0.0
  3
Werkstückkanten DE
  1

  0
LINE
  5
89
330
86
100
AcDbEntity
  8
0
  6
Continuous
 62
     7
370
    18
100
AcDbLine
 10
27.0931409182
 20
7.7123106012
 30
0.0
 11
27.0931409182
 21
12.7123106012
 31
0.0
  0
LINE
  5
8A
330
86
100
AcDbEntity
  8
0
  6
Continuous
 62
     7
370
    18
100
AcDbLine
 10
26.0931409182
 20
6.7123106012
 30
0.0
 11
36.0931409182
 21
6.7123106012
 31
0.0
  0
LINE
  5
8B
330
86
100
AcDbEntity
  8
0
  6
Continuous
 62
     7
370
    18
100
AcDbLine
 10
26.0931409182
 20
6.7123106012
 30
0.0
 11
20.880830317
 21
1.5
 31
0.0
  0
LINE
  5
8C
330
86
100
AcDbEntity
  8
0
  6
Continuous
 62
     7
370
    18
100
AcDbLine
 10
20.880830317
 20
1.5
 30
0.0
 11
22.4158663354
 21
3.5004978875
 31
0.0
  0
LINE
  5
8D
330
86
100
AcDbEntity
  8
0
  6
Continuous
 62
     7
370
    18
100
AcDbLine
 10
22.4158663354
 20
3.5004978875
 30
0.0
 11
22.8813282044
 21
3.0350360185
 31
0.0
  0
LINE
  5
8E
330
86
100
AcDbEntity
  8
0
  6
Continuous
 62
     7
370
    18
100
AcDbLine
 10
22.8813282044
 20
3.0350360185
 30
0.0
 11
20.880830317
 21
1.5
 31
0.0
  0
LINE
  5
8F
330
86
100
AcDbEntity
  8
0
  6
Continuous
 62
     7
370
    35
100
AcDbLine
 10
20.880830317
 20
1.5
 30
0.0
 11
20.880830317
 21
7.5
 31
0.0
  0
LINE
  5
90
330
86
100
AcDbEntity
  8
0
  6
Continuous
 62
     7
370
    35
100
AcDbLine
 10
20.880830317
 20
1.5
 30
0.0
 11
26.880830317
 21
1.5
 31
0.0
  0
LINE
  5
91
330
86
100
AcDbEntity
  8
0
  6
Continuous
 62
     7
370
    35
100
AcDbLine
 10
34.0931409182
 20
3.0
 30
0.0
 11
40.0931409182
 21
3.0
 31
0.0
  0
LINE
  5
92
330
86
100
AcDbEntity
  8
0
  6
Continuous
 62
     7
370
    35
100
AcDbLine
 10
40.0931409182
 20
3.0
 30
0.0
 11
40.0931409182
 21
-3.0
 31
0.0
  0
LINE
  5
93
330
86
100
AcDbEntity
  8
0
  6
Continuous
 62
     7
370
    18
100
AcDbLine
 10
40.0931409182
 20
3.0
 30
0.0
 11
43.8054515194
 21
6.7123106012
 31
0.0
  0
LINE
  5
94
330
86
100
AcDbEntity
  8
0
  6
Continuous
 62
     7
370
    18
100
AcDbLine
 10
43.8054515194
 20
6.7123106012
 30
0.0
 11
53.8054515194
 21
6.7123106012
 31
0.0
  0
LINE
  5
95
330
86
100
AcDbEntity
  8
0
  6
Continuous
 62
     7
370
    18
100
AcDbLine
 10
27.0931409182
 20
7.7123106012
 30
0.0
 11
32.0931409182
 21
7.7123106012
 31
0.0
  0
LINE
  5
96
330
86
100
AcDbEntity
  8
0
  6
Continuous
 62
     7
370
    18
100
AcDbLine
 10
40.0931409182
 20
3.0
 30
0.0
 11
41.6281769367
 21
5.0004978875
 31
0.0
  0
LINE
  5
97
330
86
100
AcDbEntity
  8
0
  6
Continuous
 62
     7
370
    18
100
AcDbLine
 10
41.6281769367
 20
5.0004978875
 30
0.0
 11
42.0936388057
 21
4.5350360185
 31
0.0
  0
LINE
  5
98
330
86
100
AcDbEntity
  8
0
  6
Continuous
 62
     7
370
    18
100
AcDbLine
 10
42.0936388057
 20
4.5350360185
 30
0.0
 11
40.0931409182
 21
3.0
 31
0.0
  0
LINE
  5
99
330
86
100
AcDbEntity
  8
0
  6
Continuous
 62
     7
370
    18
100
AcDbLine
 10
44.8054515194
 20
12.7123106012
 30
0.0
 11
44.8054515194
 21
7.7123106012
 31
0.0
  0
LINE
  5
9A
330
86
100
AcDbEntity
  8
0
  6
Continuous
 62
     7
370
    18
100
AcDbLine
 10
44.8054515194
 20
7.7123106012
 30
0.0
 11
49.8054515194
 21
7.7123106012
 31
0.0
  0
HATCH
  5
9B
330
86
100
AcDbEntity
  8
0
  6
Continuous
 62
     7
100
AcDbHatch
 10
0.0
 20
0.0
 30
0.0
210
0.0
220
0.0
230
1.0
  2
SOLID
 70
     1
 71
     0
 91
        1
 92
        0
 93
        3
 72
     1
 10
20.88083031696525
 20
1.499999999999918
 11
22.41586633542109
 21
3.500497887476778
 72
     1
 10
22.41586633542109
 20
3.500497887476778
 11
22.88132820444211
 21
3.035036018455783
 72
     1
 10
22.88132820444211
 20
3.035036018455783
 11
20.88083031696525
 21
1.499999999999918
 97
        0
 75
     0
 76
     1
 98
        1
 10
0.0
 20
0.0
  0
HATCH
  5
9C
330
86
100
AcDbEntity
  8
0
  6
Continuous
 62
     7
100
AcDbHatch
 10
0.0
 20
0.0
 30
0.0
210
0.0
220
0.0
230
1.0
  2
SOLID
 70
     1
 71
     0
 91
        1
 92
        0
 93
        3
 72
     1
 10
42.0936388056714
 20
4.535036018455754
 11
40.09314091819458
 21
2.999999999999892
 72
     1
 10
40.09314091819458
 20
2.999999999999892
 11
41.6281769366504
 21
5.000497887476764
 72
     1
 10
41.6281769366504
 20
5.000497887476764
 11
42.0936388056714
 21
4.535036018455754
 97
        0
 75
     0
 76
     1
 98
        1
 10
0.0
 20
0.0
  0
INSERT
  5
A2
330
86
100
AcDbEntity
  8
0
  6
Continuous
 62
     7
370
    18
100
AcDbBlockReference
  2
SW_NOTE_0_1
 10
-16.5296667739
 20
8.0719974576
 30
0.0
  0
ATTDEF
  5
A3
330
86
100
AcDbEntity
  8
0
  6
Continuous
 62
     7
370
    18
100
AcDbText
 10
45.5382827001
 20
8.730024094
 30
0.0
 40
3.5
  1
-0,3
 41
0.948
  7
SLDTEXTSTYLE0
 11
45.5382827001
 21
7.6943422758
 31
0.0
100
AcDbAttributeDefinition
  3

  2
WERT_2
 70
     0
 74
     1
  0
ATTDEF
  5
A4
330
86
100
AcDbEntity
  8
0
  6
Continuous
 62
     7
370
    18
100
AcDbText
 10
27.3508161078
 20
8.7387064472
 30
0.0
 40
3.5
  1
+0,3
 41
0.948
  7
SLDTEXTSTYLE0
 11
27.3508161078
 21
7.703024629
 31
0.0
100
AcDbAttributeDefinition
  3

  2
WERT_1
 70
     0
 74
     1
  0
ENDBLK
  5
88
330
86
100
AcDbEntity
  8
0
100
AcDbBlockEnd
  0
BLOCK
  5
9E
330
9D
100
AcDbEntity
  8
0
100
AcDbBlockBegin
  2
SW_NOTE_0_1
 70
     0
 10
0.0
 20
0.0
 30
0.0
  3
SW_NOTE_0_1
  1

  0
MTEXT
  5
A0
330
9D
100
AcDbEntity
  8
0
  6
Continuous
 62
     0
370
    18
100
AcDbMText
 10
0.0
 20
4.5117370892
 30
0.0
 40
3.5
 41
0.0
 71
     1
 72
     1
  1
Werkstückkanten
  7
SLDTEXTSTYLE0
 73
     1
 44
1.0
  0
MTEXT
  5
A1
330
9D
100
AcDbEntity
  8
0
  6
Continuous
 62
     0
370
    18
100
AcDbMText
 10
0.0
 20
0.0006261389
 30
0.0
 40
3.5
 41
0.0
 71
     1
 72
     1
  1
DIN ISO 13715
  7
SLDTEXTSTYLE0
 73
     1
 44
1.0
  0
ENDBLK
  5
9F
330
9D
100
AcDbEntity
  8
0
100
AcDbBlockEnd
  0
BLOCK
  5
A6
330
A5
100
AcDbEntity
  8
0
100
AcDbBlockBegin
  2
Block1_4
 70
     0
 10
0.0
 20
0.0
 30
0.0
  3
Block1_4
  1

  0
CIRCLE
  5
A8
330
A5
100
AcDbEntity
  8
0
  6
Continuous
 62
     7
370
    18
100
AcDbCircle
 10
11.6137544821
 20
9.0896586992
 30
0.0
 40
1.255909011058753
  0
CIRCLE
  5
A9
330
A5
100
AcDbEntity
  8
0
  6
Continuous
 62
     7
370
    18
100
AcDbCircle
 10
11.6137544821
 20
9.0896586992
 30
0.0
 40
2.216014863655655
  0
LINE
  5
AA
330
A5
100
AcDbEntity
  8
0
  6
CENTERX2
 62
     7
370
    18
100
AcDbLine
 10
11.6137544821
 20
9.0896586992
 30
0.0
 11
7.8977396184
 21
9.0896586992
 31
0.0
  0
LINE
  5
AB
330
A5
100
AcDbEntity
  8
0
  6
Continuous
 62
     7
370
    18
100
AcDbLine
 10
8.165753588
 20
6.8736438356
 30
0.0
 11
8.165753588
 21
11.3071584591
 31
0.0
  0
LINE
  5
AC
330
A5
100
AcDbEntity
  8
0
  6
Continuous
 62
     7
370
    18
100
AcDbLine
 10
2.6797147895
 20
10.3455677103
 30
0.0
 11
2.6797147895
 21
7.8337496881
 31
0.0
  0
LINE
  5
AD
330
A5
100
AcDbEntity
  8
0
  6
Continuous
 62
     7
370
    18
100
AcDbLine
 10
2.6797147895
 20
7.8337496881
 30
0.0
 11
8.165753588
 21
6.8736438356
 31
0.0
  0
LINE
  5
AE
330
A5
100
AcDbEntity
  8
0
  6
CENTERX2
 62
     7
370
    18
100
AcDbLine
 10
9.665753588
 20
9.0896586992
 30
0.0
 11
1.1797147895
 21
9.0896586992
 31
0.0
  0
LINE
  5
AF
330
A5
100
AcDbEntity
  8
0
  6
Continuous
 62
     7
370
    18
100
AcDbLine
 10
8.165753588
 20
11.3071584591
 30
0.0
 11
2.6797147895
 21
10.3455677103
 31
0.0
  0
LINE
  5
B0
330
A5
100
AcDbEntity
  8
0
  6
CENTERX2
 62
     7
370
    18
100
AcDbLine
 10
11.6137544821
 20
9.0896586992
 30
0.0
 11
11.6137544821
 21
5.3736438356
 31
0.0
  0
LINE
  5
B1
330
A5
100
AcDbEntity
  8
0
  6
CENTERX2
 62
     7
370
    18
100
AcDbLine
 10
11.6137544821
 20
9.0896586992
 30
0.0
 11
11.6137544821
 21
12.8056735629
 31
0.0
  0
LINE
  5
B2
330
A5
100
AcDbEntity
  8
0
  6
CENTERX2
 62
     7
370
    18
100
AcDbLine
 10
11.6137544821
 20
9.0896586992
 30
0.0
 11
15.3297693458
 21
9.0896586992
 31
0.0
  0
INSERT
  5
B8
330
A5
100
AcDbEntity
  8
0
  6
Continuous
 62
     7
370
     0
100
AcDbBlockReference
  2
SW_NOTE_0_2
 10
2.1031832889
 20
2.3754472768
 30
0.0
  0
ENDBLK
  5
A7
330
A5
100
AcDbEntity
  8
0
100
AcDbBlockEnd
  0
BLOCK
  5
B4
330
B3
100
AcDbEntity
  8
0
100
AcDbBlockBegin
  2
SW_NOTE_0_2
 70
     0
 10
0.0
 20
0.0
 30
0.0
  3
SW_NOTE_0_2
  1

  0
MTEXT
  5
B6
330
B3
100
AcDbEntity
  8
0
  6
Continuous
 62
     0
370
     0
100
AcDbMText
 10
6.590625
 20
2.4492287056
 30
0.0
 40
1.9
 41
0.0
 71
     2
 72
     1
  1
DIN 6  T1 - 
  7
SLDTEXTSTYLE0
 73
     1
 44
1.0
  0
MTEXT
  5
B7
330
B3
100
AcDbEntity
  8
0
  6
Continuous
 62
     0
370
     0
100
AcDbMText
 10
6.6569262624
 20
0.0003397443
 30
0.0
 40
1.9
 41
0.0
 71
     2
 72
     1
  1
Proj.methode 1
  7
SLDTEXTSTYLE0
 73
     1
 44
1.0
  0
ENDBLK
  5
B5
330
B3
100
AcDbEntity
  8
0
100
AcDbBlockEnd
  0
BLOCK
  5
BA
330
B9
100
AcDbEntity
  8
0
100
AcDbBlockBegin
  2
Block2_4
 70
     0
 10
0.0
 20
0.0
 30
0.0
  3
Block2_4
  1

  0
ARC
  5
BC
330
B9
100
AcDbEntity
  8
FORMAT
100
AcDbCircle
 10
236.7496365382
 20
57.0990600997
 30
0.0
 40
3.75000000000001
100
AcDbArc
 50
93.8225537293
 51
266.1774462707
  0
ARC
  5
BD
330
B9
100
AcDbEntity
  8
FORMAT
100
AcDbCircle
 10
236.7496365382
 20
57.0990600997
 30
0.0
 40
3.000000000000012
100
AcDbArc
 50
94.7801918472
 51
265.2198081528
  0
ARC
  5
BE
330
B9
100
AcDbEntity
  8
FORMAT
100
AcDbCircle
 10
236.7496365382
 20
57.0990600997
 30
0.0
 40
3.75000000000001
100
AcDbArc
 50
273.8225537293
 51
86.1774462707
  0
ARC
  5
BF
330
B9
100
AcDbEntity
  8
FORMAT
100
AcDbCircle
 10
236.7496365382
 20
57.0990600997
 30
0.0
 40
3.000000000000012
100
AcDbArc
 50
274.7801918472
 51
85.2198081528
  0
ARC
  5
C0
330
B9
100
AcDbEntity
  8
FORMAT
100
AcDbCircle
 10
236.7496365382
 20
58.2320416436
 30
0.0
 40
0.8604027828068846
100
AcDbArc
 50
304.8395134495
 51
73.1084194601
  0
ARC
  5
C1
330
B9
100
AcDbEntity
  8
FORMAT
100
AcDbCircle
 10
236.7496365382
 20
58.2320416436
 30
0.0
 40
1.402314431660661
100
AcDbArc
 50
313.8988153445
 51
79.7306010333
  0
ARC
  5
C2
330
B9
100
AcDbEntity
  8
FORMAT
100
AcDbCircle
 10
236.7496365382
 20
55.4979572256
 30
0.0
 40
0.4915306686725103
100
AcDbArc
 50
300.5716370086
 51
0.0
  0
ARC
  5
C3
330
B9
100
AcDbEntity
  8
FORMAT
100
AcDbCircle
 10
236.7496365382
 20
58.2320416436
 30
0.0
 40
1.402314431660661
100
AcDbArc
 50
100.2693989667
 51
226.1011846555
  0
ARC
  5
C4
330
B9
100
AcDbEntity
  8
FORMAT
100
AcDbCircle
 10
236.7496365382
 20
55.4979572256
 30
0.0
 40
0.9723464985416115
100
AcDbArc
 50
180.0
 51
255.1013518888
  0
ARC
  5
C5
330
B9
100
AcDbEntity
  8
FORMAT
100
AcDbCircle
 10
236.7496365382
 20
55.4979572256
 30
0.0
 40
0.9723464985416115
100
AcDbArc
 50
284.8986481112
 51
0.0
  0
ARC
  5
C6
330
B9
100
AcDbEntity
  8
FORMAT
100
AcDbCircle
 10
236.7496365382
 20
55.4979572256
 30
0.0
 40
0.4915306686725099
100
AcDbArc
 50
180.0
 51
239.4283629914
  0
ARC
  5
C7
330
B9
100
AcDbEntity
  8
FORMAT
100
AcDbCircle
 10
236.7496365382
 20
58.2320416436
 30
0.0
 40
0.8604027828068846
100
AcDbArc
 50
106.8915805399
 51
235.1604865505
  0
LINE
  5
C8
330
B9
100
AcDbEntity
  8
FORMAT
100
AcDbLine
 10
232.5312401271
 20
52.8806636887
 30
0.0
 11
240.9680329492
 21
52.8806636887
 31
0.0
  0
LINE
  5
C9
330
B9
100
AcDbEntity
  8
FORMAT
100
AcDbLine
 10
232.5312401271
 20
61.3174565107
 30
0.0
 11
240.9680329492
 21
61.3174565107
 31
0.0
  0
LINE
  5
CA
330
B9
100
AcDbEntity
  8
FORMAT
100
AcDbLine
 10
232.5312401271
 20
61.3174565107
 30
0.0
 11
232.5312401271
 21
52.8806636887
 31
0.0
  0
LINE
  5
CB
330
B9
100
AcDbEntity
  8
FORMAT
100
AcDbLine
 10
240.9680329492
 20
61.3174565107
 30
0.0
 11
240.9680329492
 21
52.8806636887
 31
0.0
  0
LINE
  5
CC
330
B9
100
AcDbEntity
  8
FORMAT
100
AcDbLine
 10
236.4996365382
 20
60.8407174865
 30
0.0
 11
236.4996365382
 21
60.0886252855
 31
0.0
  0
LINE
  5
CD
330
B9
100
AcDbEntity
  8
FORMAT
100
AcDbLine
 10
236.9996365382
 20
60.8407174865
 30
0.0
 11
236.9996365382
 21
60.0886252855
 31
0.0
  0
LINE
  5
CE
330
B9
100
AcDbEntity
  8
FORMAT
100
AcDbLine
 10
236.4996365382
 20
54.1094949139
 30
0.0
 11
236.4996365382
 21
53.3574027129
 31
0.0
  0
LINE
  5
CF
330
B9
100
AcDbEntity
  8
FORMAT
100
AcDbLine
 10
236.9996365382
 20
54.1094949139
 30
0.0
 11
236.9996365382
 21
53.3574027129
 31
0.0
  0
LINE
  5
D0
330
B9
100
AcDbEntity
  8
FORMAT
100
AcDbLine
 10
236.9996365382
 20
59.6118915504
 30
0.0
 11
236.9996365382
 21
59.0553234597
 31
0.0
  0
LINE
  5
D1
330
B9
100
AcDbEntity
  8
FORMAT
100
AcDbLine
 10
236.4996365382
 20
59.6118915504
 30
0.0
 11
236.4996365382
 21
59.0553234597
 31
0.0
  0
LINE
  5
D2
330
B9
100
AcDbEntity
  8
FORMAT
100
AcDbLine
 10
235.7772900396
 20
55.4979572256
 30
0.0
 11
235.7772900396
 21
57.2215823164
 31
0.0
  0
LINE
  5
D3
330
B9
100
AcDbEntity
  8
FORMAT
100
AcDbLine
 10
237.7219830367
 20
55.4979572256
 30
0.0
 11
237.7219830367
 21
57.2215823164
 31
0.0
  0
LINE
  5
D4
330
B9
100
AcDbEntity
  8
FORMAT
100
AcDbLine
 10
237.2411672068
 20
55.4979572256
 30
0.0
 11
237.2411672068
 21
57.5258613901
 31
0.0
  0
LINE
  5
D5
330
B9
100
AcDbEntity
  8
FORMAT
100
AcDbLine
 10
236.2581058695
 20
55.4979572256
 30
0.0
 11
236.2581058695
 21
57.5258613901
 31
0.0
  0
LINE
  5
D6
330
B9
100
AcDbEntity
  8
FORMAT
100
AcDbLine
 10
236.4996365382
 20
55.0747523127
 30
0.0
 11
236.4996365382
 21
54.5582989296
 31
0.0
  0
LINE
  5
D7
330
B9
100
AcDbEntity
  8
FORMAT
100
AcDbLine
 10
236.9996365382
 20
55.0747523127
 30
0.0
 11
236.9996365382
 21
54.5582989296
 31
0.0
  0
HATCH
  5
D8
330
B9
100
AcDbEntity
  8
0
  6
Continuous
 62
     7
100
AcDbHatch
 10
0.0
 20
0.0
 30
0.0
210
0.0
220
0.0
230
1.0
  2
SOLID
 70
     1
 71
     0
 91
        5
 92
        0
 93
        4
 72
     1
 10
240.9680329492058
 20
61.31745651073599
 11
240.9680329492058
 21
52.88066368865002
 72
     1
 10
240.9680329492058
 20
52.88066368865002
 11
232.5312401271199
 21
52.88066368865002
 72
     1
 10
232.5312401271199
 20
52.88066368865002
 11
232.5312401271199
 21
61.31745651073599
 72
     1
 10
232.5312401271199
 20
61.31745651073599
 11
240.9680329492058
 21
61.31745651073599
 97
        0
 92
        0
 93
        4
 72
     2
 10
236.7496365381628
 20
57.09906009969301
 40
3.000000000000011
 50
94.78019184719915
 51
265.2198081528016
 73
     0
 72
     1
 10
236.4996365381628
 20
60.08862528546836
 11
236.4996365381628
 21
60.84071748646695
 72
     2
 10
236.7496365381628
 20
57.09906009969301
 40
3.750000000000007
 50
93.82255372927435
 51
266.1774462707265
 73
     1
 72
     1
 10
236.4996365381628
 20
53.35740271291905
 11
236.4996365381628
 21
54.10949491391764
 97
        0
 92
        0
 93
        8
 72
     1
 10
237.7219830367044
 20
55.49795722557887
 11
237.7219830367044
 21
57.22158231636488
 72
     2
 10
236.7496365381628
 20
58.23204164361047
 40
1.402314431660656
 50
313.8988153445118
 51
439.730601033339
 73
     1
 72
     1
 10
236.9996365381628
 20
59.61189155039155
 11
236.9996365381628
 21
59.05532345967459
 72
     2
 10
236.7496365381628
 20
58.23204164361047
 40
0.8604027828068782
 50
286.8915805399266
 51
415.1604865505413
 73
     0
 72
     1
 10
237.2411672068353
 20
57.52586139012261
 11
237.2411672068353
 21
55.49795722557887
 72
     2
 10
236.7496365381628
 20
55.49795722557887
 40
0.4915306686725041
 50
0.0
 51
59.42836299135124
 73
     0
 72
     1
 10
236.9996365381628
 20
55.07475231274628
 11
236.9996365381628
 21
54.55829892958712
 72
     2
 10
236.7496365381628
 20
55.49795722557887
 40
0.9723464985416097
 50
284.8986481111874
 51
360.0000000000008
 73
     1
 97
        0
 92
        0
 93
        8
 72
     2
 10
236.7496365381628
 20
55.49795722557887
 40
0.4915306686725041
 50
120.5716370086484
 51
180.0
 73
     0
 72
     1
 10
236.2581058694904
 20
55.49795722557887
 11
236.2581058694904
 21
57.52586139012261
 72
     2
 10
236.7496365381628
 20
58.23204164361047
 40
0.8604027828068782
 50
124.839513449458
 51
253.108419460075
 73
     0
 72
     1
 10
236.4996365381628
 20
59.05532345967459
 11
236.4996365381628
 21
59.61189155039155
 72
     2
 10
236.7496365381628
 20
58.23204164361047
 40
1.402314431660656
 50
100.2693989666618
 51
226.1011846554898
 73
     1
 72
     1
 10
235.7772900396212
 20
57.22158231636488
 11
235.7772900396212
 21
55.49795722557887
 72
     2
 10
236.7496365381628
 20
55.49795722557887
 40
0.9723464985416097
 50
180.0
 51
255.1013518888143
 73
     1
 72
     1
 10
236.4996365381628
 20
54.55829892958712
 11
236.4996365381628
 21
55.07475231274628
 97
        0
 92
        0
 93
        4
 72
     2
 10
236.7496365381628
 20
57.09906009969301
 40
3.000000000000011
 50
274.7801918471999
 51
445.2198081528016
 73
     0
 72
     1
 10
236.9996365381628
 20
54.10949491391764
 11
236.9996365381628
 21
53.35740271291905
 72
     2
 10
236.7496365381628
 20
57.09906009969301
 40
3.750000000000007
 50
273.8225537292751
 51
446.1774462707265
 73
     1
 72
     1
 10
236.9996365381628
 20
60.84071748646695
 11
236.9996365381628
 21
60.08862528546836
 97
        0
 75
     0
 76
     1
 98
        1
 10
0.0
 20
0.0
  0
INSERT
  5
DE
330
B9
100
AcDbEntity
  8
FORMAT
 62
     7
100
AcDbBlockReference
  2
SW_NOTE_0_3
 10
232.2514665163
 20
47.7232938825
 30
0.0
  0
INSERT
  5
E6
330
B9
100
AcDbEntity
  8
0
  6
Continuous
 62
     7
370
     0
100
AcDbBlockReference
  2
SW_NOTE_0_4
 10
244.0723034979
 20
57.1176018272
 30
0.0
  0
ENDBLK
  5
BB
330
B9
100
AcDbEntity
  8
0
100
AcDbBlockEnd
  0
BLOCK
  5
DA
330
D9
100
AcDbEntity
  8
0
100
AcDbBlockBegin
  2
SW_NOTE_0_3
 70
     0
 10
0.0
 20
0.0
 30
0.0
  3
SW_NOTE_0_3
  1

  0
MTEXT
  5
DD
330
D9
100
AcDbEntity
  8
FORMAT
 62
     0
100
AcDbMText
 10
0.0
 20
3.8651911469
 30
0.0
 40
3.0
 41
0.0
 71
     1
 72
     1
  1
ECO
  7
SLDTEXTSTYLE1
 73
     1
 44
1.0
  0
ENDBLK
  5
DB
330
D9
100
AcDbEntity
  8
0
100
AcDbBlockEnd
  0
BLOCK
  5
E0
330
DF
100
AcDbEntity
  8
0
100
AcDbBlockBegin
  2
SW_NOTE_0_4
 70
     0
 10
0.0
 20
0.0
 30
0.0
  3
SW_NOTE_0_4
  1

  0
MTEXT
  5
E3
330
DF
100
AcDbEntity
  8
0
  6
Continuous
 62
     0
370
     0
100
AcDbMText
 10
0.0
 20
3.2226693494
 30
0.0
 40
2.5
 41
0.0
 71
     1
 72
     1
  1
ECO Schulte GmbH & Co. KG
  7
SLDTEXTSTYLE2
 73
     1
 44
1.0
  0
MTEXT
  5
E4
330
DF
100
AcDbEntity
  8
0
  6
Continuous
 62
     0
370
     0
100
AcDbMText
 10
0.0
 20
-0.2773307586
 30
0.0
 40
2.5
 41
0.0
 71
     1
 72
     1
  1
Postfach 206
  7
SLDTEXTSTYLE2
 73
     1
 44
1.0
  0
MTEXT
  5
E5
330
DF
100
AcDbEntity
  8
0
  6
Continuous
 62
     0
370
     0
100
AcDbMText
 10
0.0
 20
-3.7773308666
 30
0.0
 40
2.5
 41
0.0
 71
     1
 72
     1
  1
58682 Menden
  7
SLDTEXTSTYLE2
 73
     1
 44
1.0
  0
ENDBLK
  5
E1
330
DF
100
AcDbEntity
  8
0
100
AcDbBlockEnd
  0
BLOCK
  5
100
330
FF
100
AcDbEntity
  8
0
100
AcDbBlockBegin
  2
SW_NOTE_0_5
 70
     0
 10
0.0
 20
0.0
 30
0.0
  3
SW_NOTE_0_5
  1

  0
MTEXT
  5
102
330
FF
100
AcDbEntity
  8
FORMAT
 62
     0
100
AcDbMText
 10
0.0
 20
4.5117370892
 30
0.0
 40
3.5
 41
0.0
 71
     1
 72
     1
  1
einsetzbar nur mit separat zu bestellendem 
  7
SLDTEXTSTYLE0
 73
     1
 44
1.0
  0
MTEXT
  5
103
330
FF
100
AcDbEntity
  8
FORMAT
 62
     0
100
AcDbMText
 10
0.0
 20
-0.0090964031
 30
0.0
 40
3.5
 41
0.0
 71
     1
 72
     1
  1
Abdeckwinkel/Abdeckblech!
  7
SLDTEXTSTYLE0
 73
     1
 44
1.0
  0
MTEXT
  5
104
330
FF
100
AcDbEntity
  8
FORMAT
 62
     0
100
AcDbMText
 10
0.0
 20
-4.5299298954
 30
0.0
 40
3.5
 41
0.0
 71
     1
 72
     1
  1
(OBX-3196, OBX-3197, OBX-3198, OBX-3199 
  7
SLDTEXTSTYLE0
 73
     1
 44
1.0
  0
MTEXT
  5
105
330
FF
100
AcDbEntity
  8
FORMAT
 62
     0
100
AcDbMText
 10
0.0
 20
-9.0507633876
 30
0.0
 40
3.5
 41
0.0
 71
     1
 72
     1
  1
oder OBX-3180)
  7
SLDTEXTSTYLE0
 73
     1
 44
1.0
  0
ENDBLK
  5
101
330
FF
100
AcDbEntity
  8
0
100
AcDbBlockEnd
  0
BLOCK
  5
11A
330
119
100
AcDbEntity
  8
0
100
AcDbBlockBegin
  2
SW_NOTE_0_6
 70
     0
 10
0.0
 20
0.0
 30
0.0
  3
SW_NOTE_0_6
  1

  0
MTEXT
  5
11C
330
119
100
AcDbEntity
  8
FORMAT
 62
     0
100
AcDbMText
 10
0.0
 20
2.5781354795
 30
0.0
 40
2.0
 41
0.0
 71
     1
 72
     1
  1
Technische Änderungen und Irrtümer vorbehalten. Aus dem Gebrauch der 
  7
SLDTEXTSTYLE0
 73
     1
 44
1.0
  0
MTEXT
  5
11D
330
119
100
AcDbEntity
  8
FORMAT
 62
     0
100
AcDbMText
 10
0.0
 20
-0.4218645465
 30
0.0
 40
2.0
 41
0.0
 71
     1
 72
     1
  1
Zeichnung können keinerlei Ansprüche (inkl. Schadenersatzansprüche) erhoben 
  7
SLDTEXTSTYLE0
 73
     1
 44
1.0
  0
MTEXT
  5
11E
330
119
100
AcDbEntity
  8
FORMAT
 62
     0
100
AcDbMText
 10
0.0
 20
-3.4218645726
 30
0.0
 40
2.0
 41
0.0
 71
     1
 72
     1
  1
und gegen ECO Schulte geltend gemacht werden. Die Zeichnung bleibt unser 
  7
SLDTEXTSTYLE0
 73
     1
 44
1.0
  0
MTEXT
  5
11F
330
119
100
AcDbEntity
  8
FORMAT
 62
     0
100
AcDbMText
 10
0.0
 20
-6.4218645987
 30
0.0
 40
2.0
 41
0.0
 71
     1
 72
     1
  1
Eigentum. Sämtliche sich aus der Zeichnung ergebenden Ansprüche stehen 
  7
SLDTEXTSTYLE0
 73
     1
 44
1.0
  0
MTEXT
  5
120
330
119
100
AcDbEntity
  8
FORMAT
 62
     0
100
AcDbMText
 10
0.0
 20
-9.4218646248
 30
0.0
 40
2.0
 41
0.0
 71
     1
 72
     1
  1
ausschließlich ECO Schulte zu. 
  7
SLDTEXTSTYLE0
 73
     1
 44
1.0
  0
MTEXT
  5
121
330
119
100
AcDbEntity
  8
FORMAT
 62
     0
100
AcDbMText
 10
0.0
 20
-15.4218646769
 30
0.0
 40
2.0
 41
0.0
 71
     1
 72
     1
  1
Technical changes and errors excepted. No claims (including compensation claims) 
  7
SLDTEXTSTYLE0
 73
     1
 44
1.0
  0
MTEXT
  5
122
330
119
100
AcDbEntity
  8
FORMAT
 62
     0
100
AcDbMText
 10
0.0
 20
-18.421864703
 30
0.0
 40
2.0
 41
0.0
 71
     1
 72
     1
  1
may be raised against ECO Schulte by using of this drawing. The drawing remains 
  7
SLDTEXTSTYLE0
 73
     1
 44
1.0
  0
MTEXT
  5
123
330
119
100
AcDbEntity
  8
FORMAT
 62
     0
100
AcDbMText
 10
0.0
 20
-21.4218647291
 30
0.0
 40
2.0
 41
0.0
 71
     1
 72
     1
  1
the property of ECO Schulte. All claims resulting from this drawing are solely entitled 
  7
SLDTEXTSTYLE0
 73
     1
 44
1.0
  0
MTEXT
  5
124
330
119
100
AcDbEntity
  8
FORMAT
 62
     0
100
AcDbMText
 10
0.0
 20
-24.4218647551
 30
0.0
 40
2.0
 41
0.0
 71
     1
 72
     1
  1
to ECO Schulte.
  7
SLDTEXTSTYLE0
 73
     1
 44
1.0
  0
ENDBLK
  5
11B
330
119
100
AcDbEntity
  8
0
100
AcDbBlockEnd
  0
BLOCK
  5
1D8
330
1D7
100
AcDbEntity
  8
0
100
AcDbBlockBegin
  2
_D
 70
     0
 10
0.0
 20
0.0
 30
0.0
  3
_D
  1

  0
SOLID
  5
1DA
330
1D7
100
AcDbEntity
  8
FORMAT
100
AcDbTrace
 10
136.3619730587
 20
295.0292043295
 30
0.0
 11
135.8539730587
 21
291.7272043295
 31
0.0
 12
136.8699730587
 22
291.7272043295
 32
0.0
 13
136.8699730587
 23
291.7272043295
 33
0.0
  0
SOLID
  5
1DB
330
1D7
100
AcDbEntity
  8
FORMAT
100
AcDbTrace
 10
136.3619730587
 20
267.0292043295
 30
0.0
 11
136.8699730587
 21
270.3312043295
 31
0.0
 12
135.8539730587
 22
270.3312043295
 32
0.0
 13
135.8539730587
 23
270.3312043295
 33
0.0
  0
LINE
  5
1DC
330
1D7
100
AcDbEntity
  8
FORMAT
100
AcDbLine
 10
123.6394171012
 20
295.0292043295
 30
0.0
 11
137.3619730587
 21
295.0292043295
 31
0.0
  0
LINE
  5
1DD
330
1D7
100
AcDbEntity
  8
FORMAT
100
AcDbLine
 10
123.6394171012
 20
267.0292043295
 30
0.0
 11
137.3619730587
 21
267.0292043295
 31
0.0
  0
LINE
  5
1DE
330
1D7
100
AcDbEntity
  8
FORMAT
100
AcDbLine
 10
136.3619730587
 20
295.0292043295
 30
0.0
 11
136.3619730587
 21
267.0292043295
 31
0.0
  0
MTEXT
  5
1DF
330
1D7
100
AcDbEntity
  8
FORMAT
100
AcDbMText
 10
131.8502357367
 20
278.3555932846
 30
0.0
 40
3.5
 41
0.0
 71
     1
 72
     1
  1
28
  7
SLDTEXTSTYLE0
 11
-7.044195017643634E-15
 21
1.0
 31
0.0
 73
     1
 44
1.0
  0
ENDBLK
  5
1D9
330
1D7
100
AcDbEntity
  8
0
100
AcDbBlockEnd
  0
BLOCK
  5
1E2
330
1E1
100
AcDbEntity
  8
0
100
AcDbBlockBegin
  2
_D_1
 70
     0
 10
0.0
 20
0.0
 30
0.0
  3
_D_1
  1

  0
SOLID
  5
1E4
330
1E1
100
AcDbEntity
  8
FORMAT
100
AcDbTrace
 10
136.3619730587
 20
267.0292043295
 30
0.0
 11
135.8539730587
 21
263.7272043295
 31
0.0
 12
136.8699730587
 22
263.7272043295
 32
0.0
 13
136.8699730587
 23
263.7272043295
 33
0.0
  0
SOLID
  5
1E5
330
1E1
100
AcDbEntity
  8
FORMAT
100
AcDbTrace
 10
136.3619730587
 20
239.0292043295
 30
0.0
 11
136.8699730587
 21
242.3312043295
 31
0.0
 12
135.8539730587
 22
242.3312043295
 32
0.0
 13
135.8539730587
 23
242.3312043295
 33
0.0
  0
LINE
  5
1E6
330
1E1
100
AcDbEntity
  8
FORMAT
100
AcDbLine
 10
123.6394171012
 20
267.0292043295
 30
0.0
 11
137.3619730587
 21
267.0292043295
 31
0.0
  0
LINE
  5
1E7
330
1E1
100
AcDbEntity
  8
FORMAT
100
AcDbLine
 10
123.6394171012
 20
239.0292043295
 30
0.0
 11
137.3619730587
 21
239.0292043295
 31
0.0
  0
LINE
  5
1E8
330
1E1
100
AcDbEntity
  8
FORMAT
100
AcDbLine
 10
136.3619730587
 20
267.0292043295
 30
0.0
 11
136.3619730587
 21
239.0292043295
 31
0.0
  0
MTEXT
  5
1E9
330
1E1
100
AcDbEntity
  8
FORMAT
100
AcDbMText
 10
131.8502357367
 20
250.3555932846
 30
0.0
 40
3.5
 41
0.0
 71
     1
 72
     1
  1
28
  7
SLDTEXTSTYLE0
 11
-7.044195017643634E-15
 21
1.0
 31
0.0
 73
     1
 44
1.0
  0
ENDBLK
  5
1E3
330
1E1
100
AcDbEntity
  8
0
100
AcDbBlockEnd
  0
BLOCK
  5
1EC
330
1EB
100
AcDbEntity
  8
0
100
AcDbBlockBegin
  2
_D_2
 70
     0
 10
0.0
 20
0.0
 30
0.0
  3
_D_2
  1

  0
SOLID
  5
1EE
330
1EB
100
AcDbEntity
  8
FORMAT
100
AcDbTrace
 10
143.5773267666
 20
323.0292043295
 30
0.0
 11
143.0693267666
 21
319.7272043295
 31
0.0
 12
144.0853267666
 22
319.7272043295
 32
0.0
 13
144.0853267666
 23
319.7272043295
 33
0.0
  0
SOLID
  5
1EF
330
1EB
100
AcDbEntity
  8
FORMAT
100
AcDbTrace
 10
143.5773267666
 20
211.0292043295
 30
0.0
 11
144.0853267666
 21
214.3312043295
 31
0.0
 12
143.0693267666
 22
214.3312043295
 32
0.0
 13
143.0693267666
 23
214.3312043295
 33
0.0
  0
LINE
  5
1F0
330
1EB
100
AcDbEntity
  8
FORMAT
100
AcDbLine
 10
115.3394171012
 20
323.0292043295
 30
0.0
 11
144.5773267666
 21
323.0292043295
 31
0.0
  0
LINE
  5
1F1
330
1EB
100
AcDbEntity
  8
FORMAT
100
AcDbLine
 10
115.3394171012
 20
211.0292043295
 30
0.0
 11
144.5773267666
 21
211.0292043295
 31
0.0
  0
LINE
  5
1F2
330
1EB
100
AcDbEntity
  8
FORMAT
100
AcDbLine
 10
143.5773267666
 20
323.0292043295
 30
0.0
 11
143.5773267666
 21
211.0292043295
 31
0.0
  0
MTEXT
  5
1F3
330
1EB
100
AcDbEntity
  8
FORMAT
100
AcDbMText
 10
139.0655894446
 20
263.0187877622
 30
0.0
 40
3.5
 41
0.0
 71
     1
 72
     1
  1
112
  7
SLDTEXTSTYLE0
 11
-1.059690869644414E-14
 21
1.0
 31
0.0
 73
     1
 44
1.0
  0
ENDBLK
  5
1ED
330
1EB
100
AcDbEntity
  8
0
100
AcDbBlockEnd
  0
BLOCK
  5
1F6
330
1F5
100
AcDbEntity
  8
0
100
AcDbBlockBegin
  2
_D_3
 70
     0
 10
0.0
 20
0.0
 30
0.0
  3
_D_3
  1

  0
SOLID
  5
1F8
330
1F5
100
AcDbEntity
  8
FORMAT
100
AcDbTrace
 10
149.7888289759
 20
345.0292043295
 30
0.0
 11
149.2808289759
 21
341.7272043295
 31
0.0
 12
150.2968289759
 22
341.7272043295
 32
0.0
 13
150.2968289759
 23
341.7272043295
 33
0.0
  0
SOLID
  5
1F9
330
1F5
100
AcDbEntity
  8
FORMAT
100
AcDbTrace
 10
149.7888289759
 20
189.0292043295
 30
0.0
 11
150.2968289759
 21
192.3312043295
 31
0.0
 12
149.2808289759
 22
192.3312043295
 32
0.0
 13
149.2808289759
 23
192.3312043295
 33
0.0
  0
LINE
  5
1FA
330
1F5
100
AcDbEntity
  8
FORMAT
100
AcDbLine
 10
115.3394171012
 20
345.0292043295
 30
0.0
 11
150.7888289759
 21
345.0292043295
 31
0.0
  0
LINE
  5
1FB
330
1F5
100
AcDbEntity
  8
FORMAT
100
AcDbLine
 10
115.3394171012
 20
189.0292043295
 30
0.0
 11
150.7888289759
 21
189.0292043295
 31
0.0
  0
LINE
  5
1FC
330
1F5
100
AcDbEntity
  8
FORMAT
100
AcDbLine
 10
149.7888289759
 20
345.0292043295
 30
0.0
 11
149.7888289759
 21
189.0292043295
 31
0.0
  0
MTEXT
  5
1FD
330
1F5
100
AcDbEntity
  8
FORMAT
100
AcDbMText
 10
145.2770916539
 20
263.0187877622
 30
0.0
 40
3.5
 41
0.0
 71
     1
 72
     1
  1
156
  7
SLDTEXTSTYLE0
 11
-1.059690869644414E-14
 21
1.0
 31
0.0
 73
     1
 44
1.0
  0
ENDBLK
  5
1F7
330
1F5
100
AcDbEntity
  8
0
100
AcDbBlockEnd
  0
BLOCK
  5
200
330
1FF
100
AcDbEntity
  8
0
100
AcDbBlockBegin
  2
_D_4
 70
     0
 10
0.0
 20
0.0
 30
0.0
  3
_D_4
  1

  0
SOLID
  5
202
330
1FF
100
AcDbEntity
  8
FORMAT
100
AcDbTrace
 10
155.8985032801
 20
357.0292043295
 30
0.0
 11
155.3905032801
 21
353.7272043295
 31
0.0
 12
156.4065032801
 22
353.7272043295
 32
0.0
 13
156.4065032801
 23
353.7272043295
 33
0.0
  0
SOLID
  5
203
330
1FF
100
AcDbEntity
  8
FORMAT
100
AcDbTrace
 10
155.8985032801
 20
177.0292043295
 30
0.0
 11
156.4065032801
 21
180.3312043295
 31
0.0
 12
155.3905032801
 22
180.3312043295
 32
0.0
 13
155.3905032801
 23
180.3312043295
 33
0.0
  0
LINE
  5
204
330
1FF
100
AcDbEntity
  8
FORMAT
100
AcDbLine
 10
115.3394171012
 20
357.0292043295
 30
0.0
 11
156.8985032801
 21
357.0292043295
 31
0.0
  0
LINE
  5
205
330
1FF
100
AcDbEntity
  8
FORMAT
100
AcDbLine
 10
115.3394171012
 20
177.0292043295
 30
0.0
 11
156.8985032801
 21
177.0292043295
 31
0.0
  0
LINE
  5
206
330
1FF
100
AcDbEntity
  8
FORMAT
100
AcDbLine
 10
155.8985032801
 20
357.0292043295
 30
0.0
 11
155.8985032801
 21
177.0292043295
 31
0.0
  0
MTEXT
  5
207
330
1FF
100
AcDbEntity
  8
FORMAT
100
AcDbMText
 10
151.3867659581
 20
263.0187877622
 30
0.0
 40
3.5
 41
0.0
 71
     1
 72
     1
  1
180
  7
SLDTEXTSTYLE0
 11
-1.059690869644414E-14
 21
1.0
 31
0.0
 73
     1
 44
1.0
  0
ENDBLK
  5
201
330
1FF
100
AcDbEntity
  8
0
100
AcDbBlockEnd
  0
BLOCK
  5
20B
330
20A
100
AcDbEntity
  8
0
100
AcDbBlockBegin
  2
_D_5
 70
     0
 10
0.0
 20
0.0
 30
0.0
  3
_D_5
  1

  0
SOLID
  5
20D
330
20A
100
AcDbEntity
  8
FORMAT
100
AcDbTrace
 10
102.4394171012
 20
385.0292043295
 30
0.0
 11
105.7414171012
 21
384.5212043295
 31
0.0
 12
105.7414171012
 22
385.5372043295
 32
0.0
 13
105.7414171012
 23
385.5372043295
 33
0.0
  0
SOLID
  5
20E
330
20A
100
AcDbEntity
  8
FORMAT
100
AcDbTrace
 10
126.2394171012
 20
385.0292043295
 30
0.0
 11
122.9374171012
 21
385.5372043295
 31
0.0
 12
122.9374171012
 22
384.5212043295
 32
0.0
 13
122.9374171012
 23
384.5212043295
 33
0.0
  0
LINE
  5
20F
330
20A
100
AcDbEntity
  8
FORMAT
100
AcDbLine
 10
102.4394171012
 20
323.1292043295
 30
0.0
 11
102.4394171012
 21
386.0292043295
 31
0.0
  0
LINE
  5
210
330
20A
100
AcDbEntity
  8
FORMAT
100
AcDbLine
 10
126.2394171012
 20
323.1292043295
 30
0.0
 11
126.2394171012
 21
343.5292043295
 31
0.0
  0
LINE
  5
211
330
20A
100
AcDbEntity
  8
FORMAT
100
AcDbLine
 10
126.2394171012
 20
346.5292043295
 30
0.0
 11
126.2394171012
 21
355.5292043295
 31
0.0
  0
LINE
  5
212
330
20A
100
AcDbEntity
  8
FORMAT
100
AcDbLine
 10
126.2394171012
 20
358.5292043295
 30
0.0
 11
126.2394171012
 21
386.0292043295
 31
0.0
  0
LINE
  5
213
330
20A
100
AcDbEntity
  8
FORMAT
100
AcDbLine
 10
102.4394171012
 20
385.0292043295
 30
0.0
 11
126.2394171012
 21
385.0292043295
 31
0.0
  0
MTEXT
  5
214
330
20A
100
AcDbEntity
  8
FORMAT
100
AcDbMText
 10
111.6658060563
 20
389.5409416515
 30
0.0
 40
3.5
 41
0.0
 71
     1
 72
     1
  1
24
  7
SLDTEXTSTYLE0
 73
     1
 44
1.0
  0
ENDBLK
  5
20C
330
20A
100
AcDbEntity
  8
0
100
AcDbBlockEnd
  0
BLOCK
  5
217
330
216
100
AcDbEntity
  8
0
100
AcDbBlockBegin
  2
_D_6
 70
     0
 10
0.0
 20
0.0
 30
0.0
  3
_D_6
  1

  0
SOLID
  5
219
330
216
100
AcDbEntity
  8
FORMAT
100
AcDbTrace
 10
25.3394171012
 20
159.0292043295
 30
0.0
 11
25.8474171012
 21
162.3312043295
 31
0.0
 12
24.8314171012
 22
162.3312043295
 32
0.0
 13
24.8314171012
 23
162.3312043295
 33
0.0
  0
SOLID
  5
21A
330
216
100
AcDbEntity
  8
FORMAT
100
AcDbTrace
 10
25.3394171012
 20
375.0292043295
 30
0.0
 11
24.8314171012
 21
371.7272043295
 31
0.0
 12
25.8474171012
 22
371.7272043295
 32
0.0
 13
25.8474171012
 23
371.7272043295
 33
0.0
  0
LINE
  5
21B
330
216
100
AcDbEntity
  8
FORMAT
100
AcDbLine
 10
34.3394171012
 20
159.0292043295
 30
0.0
 11
24.3394171012
 21
159.0292043295
 31
0.0
  0
LINE
  5
21C
330
216
100
AcDbEntity
  8
FORMAT
100
AcDbLine
 10
34.3394171012
 20
375.0292043295
 30
0.0
 11
24.3394171012
 21
375.0292043295
 31
0.0
  0
LINE
  5
21D
330
216
100
AcDbEntity
  8
FORMAT
100
AcDbLine
 10
25.3394171012
 20
159.0292043295
 30
0.0
 11
25.3394171012
 21
375.0292043295
 31
0.0
  0
MTEXT
  5
21E
330
216
100
AcDbEntity
  8
FORMAT
100
AcDbMText
 10
20.8276797791
 20
263.0187877622
 30
0.0
 40
3.5
 41
0.0
 71
     1
 72
     1
  1
216
  7
SLDTEXTSTYLE0
 11
-3.713525943768165E-15
 21
1.0
 31
0.0
 73
     1
 44
1.0
  0
ENDBLK
  5
218
330
216
100
AcDbEntity
  8
0
100
AcDbBlockEnd
  0
BLOCK
  5
221
330
220
100
AcDbEntity
  8
0
100
AcDbBlockBegin
  2
_D_7
 70
     0
 10
0.0
 20
0.0
 30
0.0
  3
_D_7
  1

  0
SOLID
  5
223
330
220
100
AcDbEntity
  8
FORMAT
100
AcDbTrace
 10
35.3394171012
 20
149.0292043295
 30
0.0
 11
38.6414171012
 21
148.5212043295
 31
0.0
 12
38.6414171012
 22
149.5372043295
 32
0.0
 13
38.6414171012
 23
149.5372043295
 33
0.0
  0
SOLID
  5
224
330
220
100
AcDbEntity
  8
FORMAT
100
AcDbTrace
 10
126.3394171012
 20
149.0292043295
 30
0.0
 11
123.0374171012
 21
149.5372043295
 31
0.0
 12
123.0374171012
 22
148.5212043295
 32
0.0
 13
123.0374171012
 23
148.5212043295
 33
0.0
  0
LINE
  5
225
330
220
100
AcDbEntity
  8
FORMAT
100
AcDbLine
 10
35.3394171012
 20
158.0292043295
 30
0.0
 11
35.3394171012
 21
148.0292043295
 31
0.0
  0
LINE
  5
226
330
220
100
AcDbEntity
  8
FORMAT
100
AcDbLine
 10
126.3394171012
 20
187.5292043295
 30
0.0
 11
126.3394171012
 21
178.5292043295
 31
0.0
  0
LINE
  5
227
330
220
100
AcDbEntity
  8
FORMAT
100
AcDbLine
 10
126.3394171012
 20
175.5292043295
 30
0.0
 11
126.3394171012
 21
148.0292043295
 31
0.0
  0
LINE
  5
228
330
220
100
AcDbEntity
  8
FORMAT
100
AcDbLine
 10
35.3394171012
 20
149.0292043295
 30
0.0
 11
126.3394171012
 21
149.0292043295
 31
0.0
  0
MTEXT
  5
229
330
220
100
AcDbEntity
  8
FORMAT
100
AcDbMText
 10
78.1658060563
 20
153.5409416515
 30
0.0
 40
3.5
 41
0.0
 71
     1
 72
     1
  1
91
  7
SLDTEXTSTYLE0
 73
     1
 44
1.0
  0
ENDBLK
  5
222
330
220
100
AcDbEntity
  8
0
100
AcDbBlockEnd
  0
BLOCK
  5
22D
330
22C
100
AcDbEntity
  8
0
100
AcDbBlockBegin
  2
_D_8
 70
     0
 10
0.0
 20
0.0
 30
0.0
  3
_D_8
  1

  0
SOLID
  5
22F
330
22C
100
AcDbEntity
  8
FORMAT
100
AcDbTrace
 10
114.3394171012
 20
306.978343057
 30
0.0
 11
111.0374171012
 21
307.486343057
 31
0.0
 12
111.0374171012
 22
306.470343057
 32
0.0
 13
111.0374171012
 23
306.470343057
 33
0.0
  0
SOLID
  5
230
330
22C
100
AcDbEntity
  8
FORMAT
100
AcDbTrace
 10
117.3394171012
 20
306.978343057
 30
0.0
 11
120.6414171012
 21
306.470343057
 31
0.0
 12
120.6414171012
 22
307.486343057
 32
0.0
 13
120.6414171012
 23
307.486343057
 33
0.0
  0
LINE
  5
231
330
22C
100
AcDbEntity
  8
FORMAT
100
AcDbLine
 10
114.3394171012
 20
322.0292043295
 30
0.0
 11
114.3394171012
 21
305.978343057
 31
0.0
  0
LINE
  5
232
330
22C
100
AcDbEntity
  8
FORMAT
100
AcDbLine
 10
117.3394171012
 20
296.0292043295
 30
0.0
 11
117.3394171012
 21
307.978343057
 31
0.0
  0
LINE
  5
233
330
22C
100
AcDbEntity
  8
FORMAT
100
AcDbLine
 10
114.3394171012
 20
306.978343057
 30
0.0
 11
107.3800485556
 21
306.978343057
 31
0.0
  0
LINE
  5
234
330
22C
100
AcDbEntity
  8
FORMAT
100
AcDbLine
 10
114.3394171012
 20
306.978343057
 30
0.0
 11
117.3394171012
 21
306.978343057
 31
0.0
  0
LINE
  5
235
330
22C
100
AcDbEntity
  8
FORMAT
100
AcDbLine
 10
117.3394171012
 20
306.978343057
 30
0.0
 11
123.6894171012
 21
306.978343057
 31
0.0
  0
MTEXT
  5
236
330
22C
100
AcDbEntity
  8
FORMAT
100
AcDbMText
 10
107.3800485556
 20
311.490080379
 30
0.0
 40
3.5
 41
0.0
 71
     1
 72
     1
  1
3
  7
SLDTEXTSTYLE0
 73
     1
 44
1.0
  0
ENDBLK
  5
22E
330
22C
100
AcDbEntity
  8
0
100
AcDbBlockEnd
  0
BLOCK
  5
239
330
238
100
AcDbEntity
  8
0
100
AcDbBlockBegin
  2
SW_CENTERMARKSYMBOL_0
 70
     0
 10
0.0
 20
0.0
 30
0.0
  3
SW_CENTERMARKSYMBOL_0
  1

  0
LINE
  5
23B
330
238
100
AcDbEntity
  8
FORMAT
 62
     0
100
AcDbLine
 10
0.0
 20
0.0
 30
0.0
 11
0.0
 21
2.5
 31
0.0
  0
LINE
  5
23C
330
238
100
AcDbEntity
  8
FORMAT
 62
     0
100
AcDbLine
 10
0.0
 20
0.0
 30
0.0
 11
-2.5
 21
0.0
 31
0.0
  0
LINE
  5
23D
330
238
100
AcDbEntity
  8
FORMAT
 62
     0
100
AcDbLine
 10
0.0
 20
0.0
 30
0.0
 11
0.0
 21
-2.5
 31
0.0
  0
LINE
  5
23E
330
238
100
AcDbEntity
  8
FORMAT
 62
     0
100
AcDbLine
 10
0.0
 20
0.0
 30
0.0
 11
2.5
 21
0.0
 31
0.0
  0
LINE
  5
23F
330
238
100
AcDbEntity
  8
FORMAT
 62
     0
100
AcDbLine
 10
0.0
 20
5.0
 30
0.0
 11
0.0
 21
6.0
 31
0.0
  0
LINE
  5
240
330
238
100
AcDbEntity
  8
FORMAT
 62
     0
100
AcDbLine
 10
-5.0
 20
0.0
 30
0.0
 11
-6.0
 21
0.0
 31
0.0
  0
LINE
  5
241
330
238
100
AcDbEntity
  8
FORMAT
 62
     0
100
AcDbLine
 10
0.0
 20
-5.0
 30
0.0
 11
0.0
 21
-6.0
 31
0.0
  0
LINE
  5
242
330
238
100
AcDbEntity
  8
FORMAT
 62
     0
100
AcDbLine
 10
5.0
 20
0.0
 30
0.0
 11
6.0
 21
0.0
 31
0.0
  0
ENDBLK
  5
23A
330
238
100
AcDbEntity
  8
0
100
AcDbBlockEnd
  0
BLOCK
  5
245
330
244
100
AcDbEntity
  8
0
100
AcDbBlockBegin
  2
SW_CENTERMARKSYMBOL_1
 70
     0
 10
0.0
 20
0.0
 30
0.0
  3
SW_CENTERMARKSYMBOL_1
  1

  0
LINE
  5
247
330
244
100
AcDbEntity
  8
FORMAT
 62
     0
100
AcDbLine
 10
0.0
 20
0.0
 30
0.0
 11
0.0
 21
2.5
 31
0.0
  0
LINE
  5
248
330
244
100
AcDbEntity
  8
FORMAT
 62
     0
100
AcDbLine
 10
0.0
 20
0.0
 30
0.0
 11
-2.5
 21
0.0
 31
0.0
  0
LINE
  5
249
330
244
100
AcDbEntity
  8
FORMAT
 62
     0
100
AcDbLine
 10
0.0
 20
0.0
 30
0.0
 11
0.0
 21
-2.5
 31
0.0
  0
LINE
  5
24A
330
244
100
AcDbEntity
  8
FORMAT
 62
     0
100
AcDbLine
 10
0.0
 20
0.0
 30
0.0
 11
2.5
 21
0.0
 31
0.0
  0
LINE
  5
24B
330
244
100
AcDbEntity
  8
FORMAT
 62
     0
100
AcDbLine
 10
0.0
 20
5.0
 30
0.0
 11
0.0
 21
6.0
 31
0.0
  0
LINE
  5
24C
330
244
100
AcDbEntity
  8
FORMAT
 62
     0
100
AcDbLine
 10
-5.0
 20
0.0
 30
0.0
 11
-6.0
 21
0.0
 31
0.0
  0
LINE
  5
24D
330
244
100
AcDbEntity
  8
FORMAT
 62
     0
100
AcDbLine
 10
0.0
 20
-5.0
 30
0.0
 11
0.0
 21
-6.0
 31
0.0
  0
LINE
  5
24E
330
244
100
AcDbEntity
  8
FORMAT
 62
     0
100
AcDbLine
 10
5.0
 20
0.0
 30
0.0
 11
6.0
 21
0.0
 31
0.0
  0
ENDBLK
  5
246
330
244
100
AcDbEntity
  8
0
100
AcDbBlockEnd
  0
BLOCK
  5
251
330
250
100
AcDbEntity
  8
0
100
AcDbBlockBegin
  2
SW_CENTERMARKSYMBOL_2
 70
     0
 10
0.0
 20
0.0
 30
0.0
  3
SW_CENTERMARKSYMBOL_2
  1

  0
LINE
  5
253
330
250
100
AcDbEntity
  8
FORMAT
 62
     0
100
AcDbLine
 10
0.0
 20
0.0
 30
0.0
 11
0.0
 21
2.5
 31
0.0
  0
LINE
  5
254
330
250
100
AcDbEntity
  8
FORMAT
 62
     0
100
AcDbLine
 10
0.0
 20
0.0
 30
0.0
 11
-2.5
 21
0.0
 31
0.0
  0
LINE
  5
255
330
250
100
AcDbEntity
  8
FORMAT
 62
     0
100
AcDbLine
 10
0.0
 20
0.0
 30
0.0
 11
0.0
 21
-2.5
 31
0.0
  0
LINE
  5
256
330
250
100
AcDbEntity
  8
FORMAT
 62
     0
100
AcDbLine
 10
0.0
 20
0.0
 30
0.0
 11
2.5
 21
0.0
 31
0.0
  0
LINE
  5
257
330
250
100
AcDbEntity
  8
FORMAT
 62
     0
100
AcDbLine
 10
0.0
 20
5.0
 30
0.0
 11
0.0
 21
5.25
 31
0.0
  0
LINE
  5
258
330
250
100
AcDbEntity
  8
FORMAT
 62
     0
100
AcDbLine
 10
-5.0
 20
0.0
 30
0.0
 11
-5.25
 21
0.0
 31
0.0
  0
LINE
  5
259
330
250
100
AcDbEntity
  8
FORMAT
 62
     0
100
AcDbLine
 10
0.0
 20
-5.0
 30
0.0
 11
0.0
 21
-5.25
 31
0.0
  0
LINE
  5
25A
330
250
100
AcDbEntity
  8
FORMAT
 62
     0
100
AcDbLine
 10
5.0
 20
0.0
 30
0.0
 11
5.25
 21
0.0
 31
0.0
  0
ENDBLK
  5
252
330
250
100
AcDbEntity
  8
0
100
AcDbBlockEnd
  0
BLOCK
  5
25D
330
25C
100
AcDbEntity
  8
0
100
AcDbBlockBegin
  2
SW_CENTERMARKSYMBOL_3
 70
     0
 10
0.0
 20
0.0
 30
0.0
  3
SW_CENTERMARKSYMBOL_3
  1

  0
LINE
  5
25F
330
25C
100
AcDbEntity
  8
FORMAT
 62
     0
100
AcDbLine
 10
0.0
 20
0.0
 30
0.0
 11
0.0
 21
2.5
 31
0.0
  0
LINE
  5
260
330
25C
100
AcDbEntity
  8
FORMAT
 62
     0
100
AcDbLine
 10
0.0
 20
0.0
 30
0.0
 11
-2.5
 21
0.0
 31
0.0
  0
LINE
  5
261
330
25C
100
AcDbEntity
  8
FORMAT
 62
     0
100
AcDbLine
 10
0.0
 20
0.0
 30
0.0
 11
0.0
 21
-2.5
 31
0.0
  0
LINE
  5
262
330
25C
100
AcDbEntity
  8
FORMAT
 62
     0
100
AcDbLine
 10
0.0
 20
0.0
 30
0.0
 11
2.5
 21
0.0
 31
0.0
  0
LINE
  5
263
330
25C
100
AcDbEntity
  8
FORMAT
 62
     0
100
AcDbLine
 10
0.0
 20
5.0
 30
0.0
 11
0.0
 21
5.25
 31
0.0
  0
LINE
  5
264
330
25C
100
AcDbEntity
  8
FORMAT
 62
     0
100
AcDbLine
 10
-5.0
 20
0.0
 30
0.0
 11
-5.25
 21
0.0
 31
0.0
  0
LINE
  5
265
330
25C
100
AcDbEntity
  8
FORMAT
 62
     0
100
AcDbLine
 10
0.0
 20
-5.0
 30
0.0
 11
0.0
 21
-5.25
 31
0.0
  0
LINE
  5
266
330
25C
100
AcDbEntity
  8
FORMAT
 62
     0
100
AcDbLine
 10
5.0
 20
0.0
 30
0.0
 11
5.25
 21
0.0
 31
0.0
  0
ENDBLK
  5
25E
330
25C
100
AcDbEntity
  8
0
100
AcDbBlockEnd
  0
BLOCK
  5
269
330
268
100
AcDbEntity
  8
0
100
AcDbBlockBegin
  2
SW_CENTERMARKSYMBOL_4
 70
     0
 10
0.0
 20
0.0
 30
0.0
  3
SW_CENTERMARKSYMBOL_4
  1

  0
LINE
  5
26B
330
268
100
AcDbEntity
  8
FORMAT
 62
     0
100
AcDbLine
 10
0.0
 20
0.0
 30
0.0
 11
0.0
 21
2.5
 31
0.0
  0
LINE
  5
26C
330
268
100
AcDbEntity
  8
FORMAT
 62
     0
100
AcDbLine
 10
0.0
 20
0.0
 30
0.0
 11
-2.5
 21
0.0
 31
0.0
  0
LINE
  5
26D
330
268
100
AcDbEntity
  8
FORMAT
 62
     0
100
AcDbLine
 10
0.0
 20
0.0
 30
0.0
 11
0.0
 21
-2.5
 31
0.0
  0
LINE
  5
26E
330
268
100
AcDbEntity
  8
FORMAT
 62
     0
100
AcDbLine
 10
0.0
 20
0.0
 30
0.0
 11
2.5
 21
0.0
 31
0.0
  0
LINE
  5
26F
330
268
100
AcDbEntity
  8
FORMAT
 62
     0
100
AcDbLine
 10
0.0
 20
2.5
 30
0.0
 11
0.0
 21
4.0
 31
0.0
  0
LINE
  5
270
330
268
100
AcDbEntity
  8
FORMAT
 62
     0
100
AcDbLine
 10
-2.5
 20
0.0
 30
0.0
 11
-4.0
 21
0.0
 31
0.0
  0
LINE
  5
271
330
268
100
AcDbEntity
  8
FORMAT
 62
     0
100
AcDbLine
 10
0.0
 20
-2.5
 30
0.0
 11
0.0
 21
-4.0
 31
0.0
  0
LINE
  5
272
330
268
100
AcDbEntity
  8
FORMAT
 62
     0
100
AcDbLine
 10
2.5
 20
0.0
 30
0.0
 11
4.0
 21
0.0
 31
0.0
  0
ENDBLK
  5
26A
330
268
100
AcDbEntity
  8
0
100
AcDbBlockEnd
  0
BLOCK
  5
275
330
274
100
AcDbEntity
  8
0
100
AcDbBlockBegin
  2
SW_CENTERMARKSYMBOL_5
 70
     0
 10
0.0
 20
0.0
 30
0.0
  3
SW_CENTERMARKSYMBOL_5
  1

  0
LINE
  5
277
330
274
100
AcDbEntity
  8
FORMAT
 62
     0
100
AcDbLine
 10
0.0
 20
0.0
 30
0.0
 11
0.0
 21
2.5
 31
0.0
  0
LINE
  5
278
330
274
100
AcDbEntity
  8
FORMAT
 62
     0
100
AcDbLine
 10
0.0
 20
0.0
 30
0.0
 11
-2.5
 21
0.0
 31
0.0
  0
LINE
  5
279
330
274
100
AcDbEntity
  8
FORMAT
 62
     0
100
AcDbLine
 10
0.0
 20
0.0
 30
0.0
 11
0.0
 21
-2.5
 31
0.0
  0
LINE
  5
27A
330
274
100
AcDbEntity
  8
FORMAT
 62
     0
100
AcDbLine
 10
0.0
 20
0.0
 30
0.0
 11
2.5
 21
0.0
 31
0.0
  0
LINE
  5
27B
330
274
100
AcDbEntity
  8
FORMAT
 62
     0
100
AcDbLine
 10
0.0
 20
2.5
 30
0.0
 11
0.0
 21
4.0
 31
0.0
  0
LINE
  5
27C
330
274
100
AcDbEntity
  8
FORMAT
 62
     0
100
AcDbLine
 10
-2.5
 20
0.0
 30
0.0
 11
-4.0
 21
0.0
 31
0.0
  0
LINE
  5
27D
330
274
100
AcDbEntity
  8
FORMAT
 62
     0
100
AcDbLine
 10
0.0
 20
-2.5
 30
0.0
 11
0.0
 21
-4.0
 31
0.0
  0
LINE
  5
27E
330
274
100
AcDbEntity
  8
FORMAT
 62
     0
100
AcDbLine
 10
2.5
 20
0.0
 30
0.0
 11
4.0
 21
0.0
 31
0.0
  0
ENDBLK
  5
276
330
274
100
AcDbEntity
  8
0
100
AcDbBlockEnd
  0
BLOCK
  5
281
330
280
100
AcDbEntity
  8
0
100
AcDbBlockBegin
  2
SW_CENTERMARKSYMBOL_6
 70
     0
 10
0.0
 20
0.0
 30
0.0
  3
SW_CENTERMARKSYMBOL_6
  1

  0
LINE
  5
283
330
280
100
AcDbEntity
  8
FORMAT
 62
     0
100
AcDbLine
 10
0.0
 20
0.0
 30
0.0
 11
0.0
 21
2.5
 31
0.0
  0
LINE
  5
284
330
280
100
AcDbEntity
  8
FORMAT
 62
     0
100
AcDbLine
 10
0.0
 20
0.0
 30
0.0
 11
-2.5
 21
0.0
 31
0.0
  0
LINE
  5
285
330
280
100
AcDbEntity
  8
FORMAT
 62
     0
100
AcDbLine
 10
0.0
 20
0.0
 30
0.0
 11
0.0
 21
-2.5
 31
0.0
  0
LINE
  5
286
330
280
100
AcDbEntity
  8
FORMAT
 62
     0
100
AcDbLine
 10
0.0
 20
0.0
 30
0.0
 11
2.5
 21
0.0
 31
0.0
  0
LINE
  5
287
330
280
100
AcDbEntity
  8
FORMAT
 62
     0
100
AcDbLine
 10
0.0
 20
2.5
 30
0.0
 11
0.0
 21
4.0
 31
0.0
  0
LINE
  5
288
330
280
100
AcDbEntity
  8
FORMAT
 62
     0
100
AcDbLine
 10
-2.5
 20
0.0
 30
0.0
 11
-4.0
 21
0.0
 31
0.0
  0
LINE
  5
289
330
280
100
AcDbEntity
  8
FORMAT
 62
     0
100
AcDbLine
 10
0.0
 20
-2.5
 30
0.0
 11
0.0
 21
-4.0
 31
0.0
  0
LINE
  5
28A
330
280
100
AcDbEntity
  8
FORMAT
 62
     0
100
AcDbLine
 10
2.5
 20
0.0
 30
0.0
 11
4.0
 21
0.0
 31
0.0
  0
ENDBLK
  5
282
330
280
100
AcDbEntity
  8
0
100
AcDbBlockEnd
  0
BLOCK
  5
28D
330
28C
100
AcDbEntity
  8
0
100
AcDbBlockBegin
  2
SW_CENTERMARKSYMBOL_7
 70
     0
 10
0.0
 20
0.0
 30
0.0
  3
SW_CENTERMARKSYMBOL_7
  1

  0
LINE
  5
28F
330
28C
100
AcDbEntity
  8
FORMAT
 62
     0
100
AcDbLine
 10
0.0
 20
0.0
 30
0.0
 11
0.0
 21
2.5
 31
0.0
  0
LINE
  5
290
330
28C
100
AcDbEntity
  8
FORMAT
 62
     0
100
AcDbLine
 10
0.0
 20
0.0
 30
0.0
 11
-2.5
 21
0.0
 31
0.0
  0
LINE
  5
291
330
28C
100
AcDbEntity
  8
FORMAT
 62
     0
100
AcDbLine
 10
0.0
 20
0.0
 30
0.0
 11
0.0
 21
-2.5
 31
0.0
  0
LINE
  5
292
330
28C
100
AcDbEntity
  8
FORMAT
 62
     0
100
AcDbLine
 10
0.0
 20
0.0
 30
0.0
 11
2.5
 21
0.0
 31
0.0
  0
LINE
  5
293
330
28C
100
AcDbEntity
  8
FORMAT
 62
     0
100
AcDbLine
 10
0.0
 20
2.5
 30
0.0
 11
0.0
 21
4.0
 31
0.0
  0
LINE
  5
294
330
28C
100
AcDbEntity
  8
FORMAT
 62
     0
100
AcDbLine
 10
-2.5
 20
0.0
 30
0.0
 11
-4.0
 21
0.0
 31
0.0
  0
LINE
  5
295
330
28C
100
AcDbEntity
  8
FORMAT
 62
     0
100
AcDbLine
 10
0.0
 20
-2.5
 30
0.0
 11
0.0
 21
-4.0
 31
0.0
  0
LINE
  5
296
330
28C
100
AcDbEntity
  8
FORMAT
 62
     0
100
AcDbLine
 10
2.5
 20
0.0
 30
0.0
 11
4.0
 21
0.0
 31
0.0
  0
ENDBLK
  5
28E
330
28C
100
AcDbEntity
  8
0
100
AcDbBlockEnd
  0
BLOCK
  5
299
330
298
100
AcDbEntity
  8
0
100
AcDbBlockBegin
  2
SW_CENTERMARKSYMBOL_8
 70
     0
 10
0.0
 20
0.0
 30
0.0
  3
SW_CENTERMARKSYMBOL_8
  1

  0
LINE
  5
29B
330
298
100
AcDbEntity
  8
FORMAT
 62
     0
100
AcDbLine
 10
0.0
 20
0.0
 30
0.0
 11
0.0
 21
2.5
 31
0.0
  0
LINE
  5
29C
330
298
100
AcDbEntity
  8
FORMAT
 62
     0
100
AcDbLine
 10
0.0
 20
0.0
 30
0.0
 11
-2.5
 21
0.0
 31
0.0
  0
LINE
  5
29D
330
298
100
AcDbEntity
  8
FORMAT
 62
     0
100
AcDbLine
 10
0.0
 20
0.0
 30
0.0
 11
0.0
 21
-2.5
 31
0.0
  0
LINE
  5
29E
330
298
100
AcDbEntity
  8
FORMAT
 62
     0
100
AcDbLine
 10
0.0
 20
0.0
 30
0.0
 11
2.5
 21
0.0
 31
0.0
  0
LINE
  5
29F
330
298
100
AcDbEntity
  8
FORMAT
 62
     0
100
AcDbLine
 10
0.0
 20
5.0
 30
0.0
 11
0.0
 21
5.3
 31
0.0
  0
LINE
  5
2A0
330
298
100
AcDbEntity
  8
FORMAT
 62
     0
100
AcDbLine
 10
-5.0
 20
0.0
 30
0.0
 11
-5.3
 21
0.0
 31
0.0
  0
LINE
  5
2A1
330
298
100
AcDbEntity
  8
FORMAT
 62
     0
100
AcDbLine
 10
0.0
 20
-5.0
 30
0.0
 11
0.0
 21
-5.3
 31
0.0
  0
LINE
  5
2A2
330
298
100
AcDbEntity
  8
FORMAT
 62
     0
100
AcDbLine
 10
5.0
 20
0.0
 30
0.0
 11
5.3
 21
0.0
 31
0.0
  0
ENDBLK
  5
29A
330
298
100
AcDbEntity
  8
0
100
AcDbBlockEnd
  0
BLOCK
  5
2A5
330
2A4
100
AcDbEntity
  8
0
100
AcDbBlockBegin
  2
SW_CENTERMARKSYMBOL_9
 70
     0
 10
0.0
 20
0.0
 30
0.0
  3
SW_CENTERMARKSYMBOL_9
  1

  0
LINE
  5
2A7
330
2A4
100
AcDbEntity
  8
FORMAT
 62
     0
100
AcDbLine
 10
0.0
 20
0.0
 30
0.0
 11
0.0
 21
2.5
 31
0.0
  0
LINE
  5
2A8
330
2A4
100
AcDbEntity
  8
FORMAT
 62
     0
100
AcDbLine
 10
0.0
 20
0.0
 30
0.0
 11
-2.5
 21
0.0
 31
0.0
  0
LINE
  5
2A9
330
2A4
100
AcDbEntity
  8
FORMAT
 62
     0
100
AcDbLine
 10
0.0
 20
0.0
 30
0.0
 11
0.0
 21
-2.5
 31
0.0
  0
LINE
  5
2AA
330
2A4
100
AcDbEntity
  8
FORMAT
 62
     0
100
AcDbLine
 10
0.0
 20
0.0
 30
0.0
 11
2.5
 21
0.0
 31
0.0
  0
LINE
  5
2AB
330
2A4
100
AcDbEntity
  8
FORMAT
 62
     0
100
AcDbLine
 10
0.0
 20
5.0
 30
0.0
 11
0.0
 21
5.3
 31
0.0
  0
LINE
  5
2AC
330
2A4
100
AcDbEntity
  8
FORMAT
 62
     0
100
AcDbLine
 10
-5.0
 20
0.0
 30
0.0
 11
-20.8579061425
 21
0.0
 31
0.0
  0
LINE
  5
2AD
330
2A4
100
AcDbEntity
  8
FORMAT
 62
     0
100
AcDbLine
 10
0.0
 20
-5.0
 30
0.0
 11
0.0
 21
-5.3
 31
0.0
  0
LINE
  5
2AE
330
2A4
100
AcDbEntity
  8
FORMAT
 62
     0
100
AcDbLine
 10
5.0
 20
0.0
 30
0.0
 11
5.3
 21
0.0
 31
0.0
  0
ENDBLK
  5
2A6
330
2A4
100
AcDbEntity
  8
0
100
AcDbBlockEnd
  0
BLOCK
  5
2B1
330
2B0
100
AcDbEntity
  8
0
100
AcDbBlockBegin
  2
SW_CENTERMARKSYMBOL_10
 70
     0
 10
0.0
 20
0.0
 30
0.0
  3
SW_CENTERMARKSYMBOL_10
  1

  0
LINE
  5
2B3
330
2B0
100
AcDbEntity
  8
FORMAT
 62
     0
100
AcDbLine
 10
0.0
 20
0.0
 30
0.0
 11
0.0
 21
2.5
 31
0.0
  0
LINE
  5
2B4
330
2B0
100
AcDbEntity
  8
FORMAT
 62
     0
100
AcDbLine
 10
0.0
 20
0.0
 30
0.0
 11
-2.5
 21
0.0
 31
0.0
  0
LINE
  5
2B5
330
2B0
100
AcDbEntity
  8
FORMAT
 62
     0
100
AcDbLine
 10
0.0
 20
0.0
 30
0.0
 11
0.0
 21
-2.5
 31
0.0
  0
LINE
  5
2B6
330
2B0
100
AcDbEntity
  8
FORMAT
 62
     0
100
AcDbLine
 10
0.0
 20
0.0
 30
0.0
 11
2.5
 21
0.0
 31
0.0
  0
LINE
  5
2B7
330
2B0
100
AcDbEntity
  8
FORMAT
 62
     0
100
AcDbLine
 10
0.0
 20
5.0
 30
0.0
 11
0.0
 21
5.3
 31
0.0
  0
LINE
  5
2B8
330
2B0
100
AcDbEntity
  8
FORMAT
 62
     0
100
AcDbLine
 10
-5.0
 20
0.0
 30
0.0
 11
-5.3
 21
0.0
 31
0.0
  0
LINE
  5
2B9
330
2B0
100
AcDbEntity
  8
FORMAT
 62
     0
100
AcDbLine
 10
0.0
 20
-5.0
 30
0.0
 11
0.0
 21
-5.3
 31
0.0
  0
LINE
  5
2BA
330
2B0
100
AcDbEntity
  8
FORMAT
 62
     0
100
AcDbLine
 10
5.0
 20
0.0
 30
0.0
 11
5.3
 21
0.0
 31
0.0
  0
ENDBLK
  5
2B2
330
2B0
100
AcDbEntity
  8
0
100
AcDbBlockEnd
  0
BLOCK
  5
2BD
330
2BC
100
AcDbEntity
  8
0
100
AcDbBlockBegin
  2
SW_CENTERMARKSYMBOL_11
 70
     0
 10
0.0
 20
0.0
 30
0.0
  3
SW_CENTERMARKSYMBOL_11
  1

  0
LINE
  5
2BF
330
2BC
100
AcDbEntity
  8
FORMAT
 62
     0
100
AcDbLine
 10
0.0
 20
0.0
 30
0.0
 11
0.0
 21
2.5
 31
0.0
  0
LINE
  5
2C0
330
2BC
100
AcDbEntity
  8
FORMAT
 62
     0
100
AcDbLine
 10
0.0
 20
0.0
 30
0.0
 11
-2.5
 21
0.0
 31
0.0
  0
LINE
  5
2C1
330
2BC
100
AcDbEntity
  8
FORMAT
 62
     0
100
AcDbLine
 10
0.0
 20
0.0
 30
0.0
 11
0.0
 21
-2.5
 31
0.0
  0
LINE
  5
2C2
330
2BC
100
AcDbEntity
  8
FORMAT
 62
     0
100
AcDbLine
 10
0.0
 20
0.0
 30
0.0
 11
2.5
 21
0.0
 31
0.0
  0
LINE
  5
2C3
330
2BC
100
AcDbEntity
  8
FORMAT
 62
     0
100
AcDbLine
 10
0.0
 20
5.0
 30
0.0
 11
0.0
 21
5.3
 31
0.0
  0
LINE
  5
2C4
330
2BC
100
AcDbEntity
  8
FORMAT
 62
     0
100
AcDbLine
 10
-5.0
 20
0.0
 30
0.0
 11
-5.3
 21
0.0
 31
0.0
  0
LINE
  5
2C5
330
2BC
100
AcDbEntity
  8
FORMAT
 62
     0
100
AcDbLine
 10
0.0
 20
-5.0
 30
0.0
 11
0.0
 21
-5.3
 31
0.0
  0
LINE
  5
2C6
330
2BC
100
AcDbEntity
  8
FORMAT
 62
     0
100
AcDbLine
 10
5.0
 20
0.0
 30
0.0
 11
5.3
 21
0.0
 31
0.0
  0
ENDBLK
  5
2BE
330
2BC
100
AcDbEntity
  8
0
100
AcDbBlockEnd
  0
BLOCK
  5
2C9
330
2C8
100
AcDbEntity
  8
0
100
AcDbBlockBegin
  2
SW_CENTERMARKSYMBOL_12
 70
     0
 10
0.0
 20
0.0
 30
0.0
  3
SW_CENTERMARKSYMBOL_12
  1

  0
LINE
  5
2CB
330
2C8
100
AcDbEntity
  8
FORMAT
 62
     0
100
AcDbLine
 10
0.0
 20
0.0
 30
0.0
 11
0.0
 21
2.5
 31
0.0
  0
LINE
  5
2CC
330
2C8
100
AcDbEntity
  8
FORMAT
 62
     0
100
AcDbLine
 10
0.0
 20
0.0
 30
0.0
 11
-2.5
 21
0.0
 31
0.0
  0
LINE
  5
2CD
330
2C8
100
AcDbEntity
  8
FORMAT
 62
     0
100
AcDbLine
 10
0.0
 20
0.0
 30
0.0
 11
0.0
 21
-2.5
 31
0.0
  0
LINE
  5
2CE
330
2C8
100
AcDbEntity
  8
FORMAT
 62
     0
100
AcDbLine
 10
0.0
 20
0.0
 30
0.0
 11
2.5
 21
0.0
 31
0.0
  0
LINE
  5
2CF
330
2C8
100
AcDbEntity
  8
FORMAT
 62
     0
100
AcDbLine
 10
0.0
 20
5.0
 30
0.0
 11
0.0
 21
6.0
 31
0.0
  0
LINE
  5
2D0
330
2C8
100
AcDbEntity
  8
FORMAT
 62
     0
100
AcDbLine
 10
-5.0
 20
0.0
 30
0.0
 11
-6.0
 21
0.0
 31
0.0
  0
LINE
  5
2D1
330
2C8
100
AcDbEntity
  8
FORMAT
 62
     0
100
AcDbLine
 10
0.0
 20
-5.0
 30
0.0
 11
0.0
 21
-6.0
 31
0.0
  0
LINE
  5
2D2
330
2C8
100
AcDbEntity
  8
FORMAT
 62
     0
100
AcDbLine
 10
5.0
 20
0.0
 30
0.0
 11
6.0
 21
0.0
 31
0.0
  0
ENDBLK
  5
2CA
330
2C8
100
AcDbEntity
  8
0
100
AcDbBlockEnd
  0
BLOCK
  5
2D5
330
2D4
100
AcDbEntity
  8
0
100
AcDbBlockBegin
  2
SW_CENTERMARKSYMBOL_13
 70
     0
 10
0.0
 20
0.0
 30
0.0
  3
SW_CENTERMARKSYMBOL_13
  1

  0
LINE
  5
2D7
330
2D4
100
AcDbEntity
  8
FORMAT
 62
     0
100
AcDbLine
 10
0.0
 20
0.0
 30
0.0
 11
0.0
 21
2.5
 31
0.0
  0
LINE
  5
2D8
330
2D4
100
AcDbEntity
  8
FORMAT
 62
     0
100
AcDbLine
 10
0.0
 20
0.0
 30
0.0
 11
-2.5
 21
0.0
 31
0.0
  0
LINE
  5
2D9
330
2D4
100
AcDbEntity
  8
FORMAT
 62
     0
100
AcDbLine
 10
0.0
 20
0.0
 30
0.0
 11
0.0
 21
-2.5
 31
0.0
  0
LINE
  5
2DA
330
2D4
100
AcDbEntity
  8
FORMAT
 62
     0
100
AcDbLine
 10
0.0
 20
0.0
 30
0.0
 11
2.5
 21
0.0
 31
0.0
  0
LINE
  5
2DB
330
2D4
100
AcDbEntity
  8
FORMAT
 62
     0
100
AcDbLine
 10
0.0
 20
5.0
 30
0.0
 11
0.0
 21
6.0
 31
0.0
  0
LINE
  5
2DC
330
2D4
100
AcDbEntity
  8
FORMAT
 62
     0
100
AcDbLine
 10
-5.0
 20
0.0
 30
0.0
 11
-6.0
 21
0.0
 31
0.0
  0
LINE
  5
2DD
330
2D4
100
AcDbEntity
  8
FORMAT
 62
     0
100
AcDbLine
 10
0.0
 20
-5.0
 30
0.0
 11
0.0
 21
-6.0
 31
0.0
  0
LINE
  5
2DE
330
2D4
100
AcDbEntity
  8
FORMAT
 62
     0
100
AcDbLine
 10
5.0
 20
0.0
 30
0.0
 11
6.0
 21
0.0
 31
0.0
  0
ENDBLK
  5
2D6
330
2D4
100
AcDbEntity
  8
0
100
AcDbBlockEnd
  0
BLOCK
  5
2E1
330
2E0
100
AcDbEntity
  8
0
100
AcDbBlockBegin
  2
SW_CENTERMARKSYMBOL_14
 70
     0
 10
0.0
 20
0.0
 30
0.0
  3
SW_CENTERMARKSYMBOL_14
  1

  0
LINE
  5
2E3
330
2E0
100
AcDbEntity
  8
FORMAT
 62
     0
100
AcDbLine
 10
0.0
 20
0.0
 30
0.0
 11
0.0
 21
2.5
 31
0.0
  0
LINE
  5
2E4
330
2E0
100
AcDbEntity
  8
FORMAT
 62
     0
100
AcDbLine
 10
0.0
 20
0.0
 30
0.0
 11
-2.5
 21
0.0
 31
0.0
  0
LINE
  5
2E5
330
2E0
100
AcDbEntity
  8
FORMAT
 62
     0
100
AcDbLine
 10
0.0
 20
0.0
 30
0.0
 11
0.0
 21
-2.5
 31
0.0
  0
LINE
  5
2E6
330
2E0
100
AcDbEntity
  8
FORMAT
 62
     0
100
AcDbLine
 10
0.0
 20
0.0
 30
0.0
 11
2.5
 21
0.0
 31
0.0
  0
LINE
  5
2E7
330
2E0
100
AcDbEntity
  8
FORMAT
 62
     0
100
AcDbLine
 10
0.0
 20
5.0
 30
0.0
 11
0.0
 21
5.25
 31
0.0
  0
LINE
  5
2E8
330
2E0
100
AcDbEntity
  8
FORMAT
 62
     0
100
AcDbLine
 10
-5.0
 20
0.0
 30
0.0
 11
-5.25
 21
0.0
 31
0.0
  0
LINE
  5
2E9
330
2E0
100
AcDbEntity
  8
FORMAT
 62
     0
100
AcDbLine
 10
0.0
 20
-5.0
 30
0.0
 11
0.0
 21
-5.25
 31
0.0
  0
LINE
  5
2EA
330
2E0
100
AcDbEntity
  8
FORMAT
 62
     0
100
AcDbLine
 10
5.0
 20
0.0
 30
0.0
 11
5.25
 21
0.0
 31
0.0
  0
ENDBLK
  5
2E2
330
2E0
100
AcDbEntity
  8
0
100
AcDbBlockEnd
  0
BLOCK
  5
2ED
330
2EC
100
AcDbEntity
  8
0
100
AcDbBlockBegin
  2
SW_CENTERMARKSYMBOL_15
 70
     0
 10
0.0
 20
0.0
 30
0.0
  3
SW_CENTERMARKSYMBOL_15
  1

  0
LINE
  5
2EF
330
2EC
100
AcDbEntity
  8
FORMAT
 62
     0
100
AcDbLine
 10
0.0
 20
0.0
 30
0.0
 11
0.0
 21
2.5
 31
0.0
  0
LINE
  5
2F0
330
2EC
100
AcDbEntity
  8
FORMAT
 62
     0
100
AcDbLine
 10
0.0
 20
0.0
 30
0.0
 11
-2.5
 21
0.0
 31
0.0
  0
LINE
  5
2F1
330
2EC
100
AcDbEntity
  8
FORMAT
 62
     0
100
AcDbLine
 10
0.0
 20
0.0
 30
0.0
 11
0.0
 21
-2.5
 31
0.0
  0
LINE
  5
2F2
330
2EC
100
AcDbEntity
  8
FORMAT
 62
     0
100
AcDbLine
 10
0.0
 20
0.0
 30
0.0
 11
2.5
 21
0.0
 31
0.0
  0
LINE
  5
2F3
330
2EC
100
AcDbEntity
  8
FORMAT
 62
     0
100
AcDbLine
 10
0.0
 20
5.0
 30
0.0
 11
0.0
 21
5.25
 31
0.0
  0
LINE
  5
2F4
330
2EC
100
AcDbEntity
  8
FORMAT
 62
     0
100
AcDbLine
 10
-5.0
 20
0.0
 30
0.0
 11
-5.25
 21
0.0
 31
0.0
  0
LINE
  5
2F5
330
2EC
100
AcDbEntity
  8
FORMAT
 62
     0
100
AcDbLine
 10
0.0
 20
-5.0
 30
0.0
 11
0.0
 21
-5.25
 31
0.0
  0
LINE
  5
2F6
330
2EC
100
AcDbEntity
  8
FORMAT
 62
     0
100
AcDbLine
 10
5.0
 20
0.0
 30
0.0
 11
5.25
 21
0.0
 31
0.0
  0
ENDBLK
  5
2EE
330
2EC
100
AcDbEntity
  8
0
100
AcDbBlockEnd
  0
BLOCK
  5
2F9
330
2F8
100
AcDbEntity
  8
0
100
AcDbBlockBegin
  2
SW_CENTERMARKSYMBOL_16
 70
     0
 10
0.0
 20
0.0
 30
0.0
  3
SW_CENTERMARKSYMBOL_16
  1

  0
LINE
  5
2FB
330
2F8
100
AcDbEntity
  8
FORMAT
 62
     0
100
AcDbLine
 10
0.0
 20
0.0
 30
0.0
 11
0.0
 21
2.5
 31
0.0
  0
LINE
  5
2FC
330
2F8
100
AcDbEntity
  8
FORMAT
 62
     0
100
AcDbLine
 10
0.0
 20
0.0
 30
0.0
 11
-2.5
 21
0.0
 31
0.0
  0
LINE
  5
2FD
330
2F8
100
AcDbEntity
  8
FORMAT
 62
     0
100
AcDbLine
 10
0.0
 20
0.0
 30
0.0
 11
0.0
 21
-2.5
 31
0.0
  0
LINE
  5
2FE
330
2F8
100
AcDbEntity
  8
FORMAT
 62
     0
100
AcDbLine
 10
0.0
 20
0.0
 30
0.0
 11
2.5
 21
0.0
 31
0.0
  0
LINE
  5
2FF
330
2F8
100
AcDbEntity
  8
FORMAT
 62
     0
100
AcDbLine
 10
0.0
 20
2.5
 30
0.0
 11
0.0
 21
4.0
 31
0.0
  0
LINE
  5
300
330
2F8
100
AcDbEntity
  8
FORMAT
 62
     0
100
AcDbLine
 10
-2.5
 20
0.0
 30
0.0
 11
-4.0
 21
0.0
 31
0.0
  0
LINE
  5
301
330
2F8
100
AcDbEntity
  8
FORMAT
 62
     0
100
AcDbLine
 10
0.0
 20
-2.5
 30
0.0
 11
0.0
 21
-4.0
 31
0.0
  0
LINE
  5
302
330
2F8
100
AcDbEntity
  8
FORMAT
 62
     0
100
AcDbLine
 10
2.5
 20
0.0
 30
0.0
 11
4.0
 21
0.0
 31
0.0
  0
ENDBLK
  5
2FA
330
2F8
100
AcDbEntity
  8
0
100
AcDbBlockEnd
  0
BLOCK
  5
305
330
304
100
AcDbEntity
  8
0
100
AcDbBlockBegin
  2
SW_CENTERMARKSYMBOL_17
 70
     0
 10
0.0
 20
0.0
 30
0.0
  3
SW_CENTERMARKSYMBOL_17
  1

  0
LINE
  5
307
330
304
100
AcDbEntity
  8
FORMAT
 62
     0
100
AcDbLine
 10
0.0
 20
0.0
 30
0.0
 11
0.0
 21
2.5
 31
0.0
  0
LINE
  5
308
330
304
100
AcDbEntity
  8
FORMAT
 62
     0
100
AcDbLine
 10
0.0
 20
0.0
 30
0.0
 11
-2.5
 21
0.0
 31
0.0
  0
LINE
  5
309
330
304
100
AcDbEntity
  8
FORMAT
 62
     0
100
AcDbLine
 10
0.0
 20
0.0
 30
0.0
 11
0.0
 21
-2.5
 31
0.0
  0
LINE
  5
30A
330
304
100
AcDbEntity
  8
FORMAT
 62
     0
100
AcDbLine
 10
0.0
 20
0.0
 30
0.0
 11
2.5
 21
0.0
 31
0.0
  0
LINE
  5
30B
330
304
100
AcDbEntity
  8
FORMAT
 62
     0
100
AcDbLine
 10
0.0
 20
2.5
 30
0.0
 11
0.0
 21
4.0
 31
0.0
  0
LINE
  5
30C
330
304
100
AcDbEntity
  8
FORMAT
 62
     0
100
AcDbLine
 10
-2.5
 20
0.0
 30
0.0
 11
-4.0
 21
0.0
 31
0.0
  0
LINE
  5
30D
330
304
100
AcDbEntity
  8
FORMAT
 62
     0
100
AcDbLine
 10
0.0
 20
-2.5
 30
0.0
 11
0.0
 21
-4.0
 31
0.0
  0
LINE
  5
30E
330
304
100
AcDbEntity
  8
FORMAT
 62
     0
100
AcDbLine
 10
2.5
 20
0.0
 30
0.0
 11
4.0
 21
0.0
 31
0.0
  0
ENDBLK
  5
306
330
304
100
AcDbEntity
  8
0
100
AcDbBlockEnd
  0
BLOCK
  5
311
330
310
100
AcDbEntity
  8
0
100
AcDbBlockBegin
  2
SW_CENTERMARKSYMBOL_18
 70
     0
 10
0.0
 20
0.0
 30
0.0
  3
SW_CENTERMARKSYMBOL_18
  1

  0
LINE
  5
313
330
310
100
AcDbEntity
  8
FORMAT
 62
     0
100
AcDbLine
 10
0.0
 20
0.0
 30
0.0
 11
0.0
 21
2.5
 31
0.0
  0
LINE
  5
314
330
310
100
AcDbEntity
  8
FORMAT
 62
     0
100
AcDbLine
 10
0.0
 20
0.0
 30
0.0
 11
-2.5
 21
0.0
 31
0.0
  0
LINE
  5
315
330
310
100
AcDbEntity
  8
FORMAT
 62
     0
100
AcDbLine
 10
0.0
 20
0.0
 30
0.0
 11
0.0
 21
-2.5
 31
0.0
  0
LINE
  5
316
330
310
100
AcDbEntity
  8
FORMAT
 62
     0
100
AcDbLine
 10
0.0
 20
0.0
 30
0.0
 11
2.5
 21
0.0
 31
0.0
  0
LINE
  5
317
330
310
100
AcDbEntity
  8
FORMAT
 62
     0
100
AcDbLine
 10
0.0
 20
2.5
 30
0.0
 11
0.0
 21
4.0
 31
0.0
  0
LINE
  5
318
330
310
100
AcDbEntity
  8
FORMAT
 62
     0
100
AcDbLine
 10
-2.5
 20
0.0
 30
0.0
 11
-4.0
 21
0.0
 31
0.0
  0
LINE
  5
319
330
310
100
AcDbEntity
  8
FORMAT
 62
     0
100
AcDbLine
 10
0.0
 20
-2.5
 30
0.0
 11
0.0
 21
-4.0
 31
0.0
  0
LINE
  5
31A
330
310
100
AcDbEntity
  8
FORMAT
 62
     0
100
AcDbLine
 10
2.5
 20
0.0
 30
0.0
 11
4.0
 21
0.0
 31
0.0
  0
ENDBLK
  5
312
330
310
100
AcDbEntity
  8
0
100
AcDbBlockEnd
  0
BLOCK
  5
31D
330
31C
100
AcDbEntity
  8
0
100
AcDbBlockBegin
  2
SW_CENTERMARKSYMBOL_19
 70
     0
 10
0.0
 20
0.0
 30
0.0
  3
SW_CENTERMARKSYMBOL_19
  1

  0
LINE
  5
31F
330
31C
100
AcDbEntity
  8
FORMAT
 62
     0
100
AcDbLine
 10
0.0
 20
0.0
 30
0.0
 11
0.0
 21
2.5
 31
0.0
  0
LINE
  5
320
330
31C
100
AcDbEntity
  8
FORMAT
 62
     0
100
AcDbLine
 10
0.0
 20
0.0
 30
0.0
 11
-2.5
 21
0.0
 31
0.0
  0
LINE
  5
321
330
31C
100
AcDbEntity
  8
FORMAT
 62
     0
100
AcDbLine
 10
0.0
 20
0.0
 30
0.0
 11
0.0
 21
-2.5
 31
0.0
  0
LINE
  5
322
330
31C
100
AcDbEntity
  8
FORMAT
 62
     0
100
AcDbLine
 10
0.0
 20
0.0
 30
0.0
 11
2.5
 21
0.0
 31
0.0
  0
LINE
  5
323
330
31C
100
AcDbEntity
  8
FORMAT
 62
     0
100
AcDbLine
 10
0.0
 20
2.5
 30
0.0
 11
0.0
 21
4.0
 31
0.0
  0
LINE
  5
324
330
31C
100
AcDbEntity
  8
FORMAT
 62
     0
100
AcDbLine
 10
-2.5
 20
0.0
 30
0.0
 11
-4.0
 21
0.0
 31
0.0
  0
LINE
  5
325
330
31C
100
AcDbEntity
  8
FORMAT
 62
     0
100
AcDbLine
 10
0.0
 20
-2.5
 30
0.0
 11
0.0
 21
-4.0
 31
0.0
  0
LINE
  5
326
330
31C
100
AcDbEntity
  8
FORMAT
 62
     0
100
AcDbLine
 10
2.5
 20
0.0
 30
0.0
 11
4.0
 21
0.0
 31
0.0
  0
ENDBLK
  5
31E
330
31C
100
AcDbEntity
  8
0
100
AcDbBlockEnd
  0
BLOCK
  5
329
330
328
100
AcDbEntity
  8
0
100
AcDbBlockBegin
  2
SW_CENTERMARKSYMBOL_20
 70
     0
 10
0.0
 20
0.0
 30
0.0
  3
SW_CENTERMARKSYMBOL_20
  1

  0
LINE
  5
32B
330
328
100
AcDbEntity
  8
FORMAT
 62
     0
100
AcDbLine
 10
0.0
 20
0.0
 30
0.0
 11
0.0
 21
2.5
 31
0.0
  0
LINE
  5
32C
330
328
100
AcDbEntity
  8
FORMAT
 62
     0
100
AcDbLine
 10
0.0
 20
0.0
 30
0.0
 11
-2.5
 21
0.0
 31
0.0
  0
LINE
  5
32D
330
328
100
AcDbEntity
  8
FORMAT
 62
     0
100
AcDbLine
 10
0.0
 20
0.0
 30
0.0
 11
0.0
 21
-2.5
 31
0.0
  0
LINE
  5
32E
330
328
100
AcDbEntity
  8
FORMAT
 62
     0
100
AcDbLine
 10
0.0
 20
0.0
 30
0.0
 11
2.5
 21
0.0
 31
0.0
  0
LINE
  5
32F
330
328
100
AcDbEntity
  8
FORMAT
 62
     0
100
AcDbLine
 10
0.0
 20
5.0
 30
0.0
 11
0.0
 21
5.3
 31
0.0
  0
LINE
  5
330
330
328
100
AcDbEntity
  8
FORMAT
 62
     0
100
AcDbLine
 10
-5.0
 20
0.0
 30
0.0
 11
-5.3
 21
0.0
 31
0.0
  0
LINE
  5
331
330
328
100
AcDbEntity
  8
FORMAT
 62
     0
100
AcDbLine
 10
0.0
 20
-5.0
 30
0.0
 11
0.0
 21
-5.3
 31
0.0
  0
LINE
  5
332
330
328
100
AcDbEntity
  8
FORMAT
 62
     0
100
AcDbLine
 10
5.0
 20
0.0
 30
0.0
 11
5.3
 21
0.0
 31
0.0
  0
ENDBLK
  5
32A
330
328
100
AcDbEntity
  8
0
100
AcDbBlockEnd
  0
BLOCK
  5
335
330
334
100
AcDbEntity
  8
0
100
AcDbBlockBegin
  2
SW_CENTERMARKSYMBOL_21
 70
     0
 10
0.0
 20
0.0
 30
0.0
  3
SW_CENTERMARKSYMBOL_21
  1

  0
LINE
  5
337
330
334
100
AcDbEntity
  8
FORMAT
 62
     0
100
AcDbLine
 10
0.0
 20
0.0
 30
0.0
 11
0.0
 21
2.5
 31
0.0
  0
LINE
  5
338
330
334
100
AcDbEntity
  8
FORMAT
 62
     0
100
AcDbLine
 10
0.0
 20
0.0
 30
0.0
 11
-2.5
 21
0.0
 31
0.0
  0
LINE
  5
339
330
334
100
AcDbEntity
  8
FORMAT
 62
     0
100
AcDbLine
 10
0.0
 20
0.0
 30
0.0
 11
0.0
 21
-2.5
 31
0.0
  0
LINE
  5
33A
330
334
100
AcDbEntity
  8
FORMAT
 62
     0
100
AcDbLine
 10
0.0
 20
0.0
 30
0.0
 11
2.5
 21
0.0
 31
0.0
  0
LINE
  5
33B
330
334
100
AcDbEntity
  8
FORMAT
 62
     0
100
AcDbLine
 10
0.0
 20
5.0
 30
0.0
 11
0.0
 21
5.3
 31
0.0
  0
LINE
  5
33C
330
334
100
AcDbEntity
  8
FORMAT
 62
     0
100
AcDbLine
 10
-5.0
 20
0.0
 30
0.0
 11
-5.3
 21
0.0
 31
0.0
  0
LINE
  5
33D
330
334
100
AcDbEntity
  8
FORMAT
 62
     0
100
AcDbLine
 10
0.0
 20
-5.0
 30
0.0
 11
0.0
 21
-5.3
 31
0.0
  0
LINE
  5
33E
330
334
100
AcDbEntity
  8
FORMAT
 62
     0
100
AcDbLine
 10
5.0
 20
0.0
 30
0.0
 11
5.3
 21
0.0
 31
0.0
  0
ENDBLK
  5
336
330
334
100
AcDbEntity
  8
0
100
AcDbBlockEnd
  0
BLOCK
  5
341
330
340
100
AcDbEntity
  8
0
100
AcDbBlockBegin
  2
SW_CENTERMARKSYMBOL_22
 70
     0
 10
0.0
 20
0.0
 30
0.0
  3
SW_CENTERMARKSYMBOL_22
  1

  0
LINE
  5
343
330
340
100
AcDbEntity
  8
FORMAT
 62
     0
100
AcDbLine
 10
0.0
 20
0.0
 30
0.0
 11
0.0
 21
2.5
 31
0.0
  0
LINE
  5
344
330
340
100
AcDbEntity
  8
FORMAT
 62
     0
100
AcDbLine
 10
0.0
 20
0.0
 30
0.0
 11
-2.5
 21
0.0
 31
0.0
  0
LINE
  5
345
330
340
100
AcDbEntity
  8
FORMAT
 62
     0
100
AcDbLine
 10
0.0
 20
0.0
 30
0.0
 11
0.0
 21
-2.5
 31
0.0
  0
LINE
  5
346
330
340
100
AcDbEntity
  8
FORMAT
 62
     0
100
AcDbLine
 10
0.0
 20
0.0
 30
0.0
 11
2.5
 21
0.0
 31
0.0
  0
LINE
  5
347
330
340
100
AcDbEntity
  8
FORMAT
 62
     0
100
AcDbLine
 10
0.0
 20
5.0
 30
0.0
 11
0.0
 21
5.3
 31
0.0
  0
LINE
  5
348
330
340
100
AcDbEntity
  8
FORMAT
 62
     0
100
AcDbLine
 10
-5.0
 20
0.0
 30
0.0
 11
-5.3
 21
0.0
 31
0.0
  0
LINE
  5
349
330
340
100
AcDbEntity
  8
FORMAT
 62
     0
100
AcDbLine
 10
0.0
 20
-5.0
 30
0.0
 11
0.0
 21
-5.3
 31
0.0
  0
LINE
  5
34A
330
340
100
AcDbEntity
  8
FORMAT
 62
     0
100
AcDbLine
 10
5.0
 20
0.0
 30
0.0
 11
5.3
 21
0.0
 31
0.0
  0
ENDBLK
  5
342
330
340
100
AcDbEntity
  8
0
100
AcDbBlockEnd
  0
BLOCK
  5
34D
330
34C
100
AcDbEntity
  8
0
100
AcDbBlockBegin
  2
SW_CENTERMARKSYMBOL_23
 70
     0
 10
0.0
 20
0.0
 30
0.0
  3
SW_CENTERMARKSYMBOL_23
  1

  0
LINE
  5
34F
330
34C
100
AcDbEntity
  8
FORMAT
 62
     0
100
AcDbLine
 10
0.0
 20
0.0
 30
0.0
 11
0.0
 21
2.5
 31
0.0
  0
LINE
  5
350
330
34C
100
AcDbEntity
  8
FORMAT
 62
     0
100
AcDbLine
 10
0.0
 20
0.0
 30
0.0
 11
-2.5
 21
0.0
 31
0.0
  0
LINE
  5
351
330
34C
100
AcDbEntity
  8
FORMAT
 62
     0
100
AcDbLine
 10
0.0
 20
0.0
 30
0.0
 11
0.0
 21
-2.5
 31
0.0
  0
LINE
  5
352
330
34C
100
AcDbEntity
  8
FORMAT
 62
     0
100
AcDbLine
 10
0.0
 20
0.0
 30
0.0
 11
2.5
 21
0.0
 31
0.0
  0
LINE
  5
353
330
34C
100
AcDbEntity
  8
FORMAT
 62
     0
100
AcDbLine
 10
0.0
 20
5.0
 30
0.0
 11
0.0
 21
5.3
 31
0.0
  0
LINE
  5
354
330
34C
100
AcDbEntity
  8
FORMAT
 62
     0
100
AcDbLine
 10
-5.0
 20
0.0
 30
0.0
 11
-5.3
 21
0.0
 31
0.0
  0
LINE
  5
355
330
34C
100
AcDbEntity
  8
FORMAT
 62
     0
100
AcDbLine
 10
0.0
 20
-5.0
 30
0.0
 11
0.0
 21
-5.3
 31
0.0
  0
LINE
  5
356
330
34C
100
AcDbEntity
  8
FORMAT
 62
     0
100
AcDbLine
 10
5.0
 20
0.0
 30
0.0
 11
5.3
 21
0.0
 31
0.0
  0
ENDBLK
  5
34E
330
34C
100
AcDbEntity
  8
0
100
AcDbBlockEnd
  0
BLOCK
  5
359
330
358
100
AcDbEntity
  8
0
100
AcDbBlockBegin
  2
SW_CENTERMARKSYMBOL_24
 70
     0
 10
0.0
 20
0.0
 30
0.0
  3
SW_CENTERMARKSYMBOL_24
  1

  0
LINE
  5
35B
330
358
100
AcDbEntity
  8
FORMAT
 62
     0
100
AcDbLine
 10
0.0
 20
0.0
 30
0.0
 11
0.0
 21
2.5
 31
0.0
  0
LINE
  5
35C
330
358
100
AcDbEntity
  8
FORMAT
 62
     0
100
AcDbLine
 10
0.0
 20
0.0
 30
0.0
 11
-2.5
 21
0.0
 31
0.0
  0
LINE
  5
35D
330
358
100
AcDbEntity
  8
FORMAT
 62
     0
100
AcDbLine
 10
0.0
 20
0.0
 30
0.0
 11
0.0
 21
-2.5
 31
0.0
  0
LINE
  5
35E
330
358
100
AcDbEntity
  8
FORMAT
 62
     0
100
AcDbLine
 10
0.0
 20
0.0
 30
0.0
 11
2.5
 21
0.0
 31
0.0
  0
LINE
  5
35F
330
358
100
AcDbEntity
  8
FORMAT
 62
     0
100
AcDbLine
 10
0.0
 20
5.0
 30
0.0
 11
0.0
 21
5.25
 31
0.0
  0
LINE
  5
360
330
358
100
AcDbEntity
  8
FORMAT
 62
     0
100
AcDbLine
 10
-5.0
 20
0.0
 30
0.0
 11
-5.25
 21
0.0
 31
0.0
  0
LINE
  5
361
330
358
100
AcDbEntity
  8
FORMAT
 62
     0
100
AcDbLine
 10
0.0
 20
-5.0
 30
0.0
 11
0.0
 21
-5.25
 31
0.0
  0
LINE
  5
362
330
358
100
AcDbEntity
  8
FORMAT
 62
     0
100
AcDbLine
 10
5.0
 20
0.0
 30
0.0
 11
5.25
 21
0.0
 31
0.0
  0
ENDBLK
  5
35A
330
358
100
AcDbEntity
  8
0
100
AcDbBlockEnd
  0
BLOCK
  5
365
330
364
100
AcDbEntity
  8
0
100
AcDbBlockBegin
  2
SW_CENTERMARKSYMBOL_25
 70
     0
 10
0.0
 20
0.0
 30
0.0
  3
SW_CENTERMARKSYMBOL_25
  1

  0
LINE
  5
367
330
364
100
AcDbEntity
  8
FORMAT
 62
     0
100
AcDbLine
 10
0.0
 20
0.0
 30
0.0
 11
0.0
 21
2.5
 31
0.0
  0
LINE
  5
368
330
364
100
AcDbEntity
  8
FORMAT
 62
     0
100
AcDbLine
 10
0.0
 20
0.0
 30
0.0
 11
-2.5
 21
0.0
 31
0.0
  0
LINE
  5
369
330
364
100
AcDbEntity
  8
FORMAT
 62
     0
100
AcDbLine
 10
0.0
 20
0.0
 30
0.0
 11
0.0
 21
-2.5
 31
0.0
  0
LINE
  5
36A
330
364
100
AcDbEntity
  8
FORMAT
 62
     0
100
AcDbLine
 10
0.0
 20
0.0
 30
0.0
 11
2.5
 21
0.0
 31
0.0
  0
LINE
  5
36B
330
364
100
AcDbEntity
  8
FORMAT
 62
     0
100
AcDbLine
 10
0.0
 20
5.0
 30
0.0
 11
0.0
 21
6.0
 31
0.0
  0
LINE
  5
36C
330
364
100
AcDbEntity
  8
FORMAT
 62
     0
100
AcDbLine
 10
-5.0
 20
0.0
 30
0.0
 11
-6.0
 21
0.0
 31
0.0
  0
LINE
  5
36D
330
364
100
AcDbEntity
  8
FORMAT
 62
     0
100
AcDbLine
 10
0.0
 20
-5.0
 30
0.0
 11
0.0
 21
-6.0
 31
0.0
  0
LINE
  5
36E
330
364
100
AcDbEntity
  8
FORMAT
 62
     0
100
AcDbLine
 10
5.0
 20
0.0
 30
0.0
 11
6.0
 21
0.0
 31
0.0
  0
ENDBLK
  5
366
330
364
100
AcDbEntity
  8
0
100
AcDbBlockEnd
  0
BLOCK
  5
371
330
370
100
AcDbEntity
  8
0
100
AcDbBlockBegin
  2
SW_CENTERMARKSYMBOL_26
 70
     0
 10
0.0
 20
0.0
 30
0.0
  3
SW_CENTERMARKSYMBOL_26
  1

  0
LINE
  5
373
330
370
100
AcDbEntity
  8
FORMAT
 62
     0
100
AcDbLine
 10
0.0
 20
0.0
 30
0.0
 11
0.0
 21
2.5
 31
0.0
  0
LINE
  5
374
330
370
100
AcDbEntity
  8
FORMAT
 62
     0
100
AcDbLine
 10
0.0
 20
0.0
 30
0.0
 11
-2.5
 21
0.0
 31
0.0
  0
LINE
  5
375
330
370
100
AcDbEntity
  8
FORMAT
 62
     0
100
AcDbLine
 10
0.0
 20
0.0
 30
0.0
 11
0.0
 21
-2.5
 31
0.0
  0
LINE
  5
376
330
370
100
AcDbEntity
  8
FORMAT
 62
     0
100
AcDbLine
 10
0.0
 20
0.0
 30
0.0
 11
2.5
 21
0.0
 31
0.0
  0
LINE
  5
377
330
370
100
AcDbEntity
  8
FORMAT
 62
     0
100
AcDbLine
 10
0.0
 20
5.0
 30
0.0
 11
0.0
 21
6.0
 31
0.0
  0
LINE
  5
378
330
370
100
AcDbEntity
  8
FORMAT
 62
     0
100
AcDbLine
 10
-5.0
 20
0.0
 30
0.0
 11
-6.0
 21
0.0
 31
0.0
  0
LINE
  5
379
330
370
100
AcDbEntity
  8
FORMAT
 62
     0
100
AcDbLine
 10
0.0
 20
-5.0
 30
0.0
 11
0.0
 21
-6.0
 31
0.0
  0
LINE
  5
37A
330
370
100
AcDbEntity
  8
FORMAT
 62
     0
100
AcDbLine
 10
5.0
 20
0.0
 30
0.0
 11
6.0
 21
0.0
 31
0.0
  0
ENDBLK
  5
372
330
370
100
AcDbEntity
  8
0
100
AcDbBlockEnd
  0
BLOCK
  5
37D
330
37C
100
AcDbEntity
  8
0
100
AcDbBlockBegin
  2
SW_CENTERMARKSYMBOL_27
 70
     0
 10
0.0
 20
0.0
 30
0.0
  3
SW_CENTERMARKSYMBOL_27
  1

  0
LINE
  5
37F
330
37C
100
AcDbEntity
  8
FORMAT
 62
     0
100
AcDbLine
 10
0.0
 20
0.0
 30
0.0
 11
0.0
 21
2.5
 31
0.0
  0
LINE
  5
380
330
37C
100
AcDbEntity
  8
FORMAT
 62
     0
100
AcDbLine
 10
0.0
 20
0.0
 30
0.0
 11
-2.5
 21
0.0
 31
0.0
  0
LINE
  5
381
330
37C
100
AcDbEntity
  8
FORMAT
 62
     0
100
AcDbLine
 10
0.0
 20
0.0
 30
0.0
 11
0.0
 21
-2.5
 31
0.0
  0
LINE
  5
382
330
37C
100
AcDbEntity
  8
FORMAT
 62
     0
100
AcDbLine
 10
0.0
 20
0.0
 30
0.0
 11
2.5
 21
0.0
 31
0.0
  0
LINE
  5
383
330
37C
100
AcDbEntity
  8
FORMAT
 62
     0
100
AcDbLine
 10
0.0
 20
5.0
 30
0.0
 11
0.0
 21
5.25
 31
0.0
  0
LINE
  5
384
330
37C
100
AcDbEntity
  8
FORMAT
 62
     0
100
AcDbLine
 10
-5.0
 20
0.0
 30
0.0
 11
-5.25
 21
0.0
 31
0.0
  0
LINE
  5
385
330
37C
100
AcDbEntity
  8
FORMAT
 62
     0
100
AcDbLine
 10
0.0
 20
-5.0
 30
0.0
 11
0.0
 21
-5.25
 31
0.0
  0
LINE
  5
386
330
37C
100
AcDbEntity
  8
FORMAT
 62
     0
100
AcDbLine
 10
5.0
 20
0.0
 30
0.0
 11
5.25
 21
0.0
 31
0.0
  0
ENDBLK
  5
37E
330
37C
100
AcDbEntity
  8
0
100
AcDbBlockEnd
  0
BLOCK
  5
389
330
388
100
AcDbEntity
  8
0
100
AcDbBlockBegin
  2
SW_CENTERMARKSYMBOL_28
 70
     0
 10
0.0
 20
0.0
 30
0.0
  3
SW_CENTERMARKSYMBOL_28
  1

  0
LINE
  5
38B
330
388
100
AcDbEntity
  8
FORMAT
 62
     0
100
AcDbLine
 10
0.0
 20
0.0
 30
0.0
 11
0.0
 21
2.5
 31
0.0
  0
LINE
  5
38C
330
388
100
AcDbEntity
  8
FORMAT
 62
     0
100
AcDbLine
 10
0.0
 20
0.0
 30
0.0
 11
-2.5
 21
0.0
 31
0.0
  0
LINE
  5
38D
330
388
100
AcDbEntity
  8
FORMAT
 62
     0
100
AcDbLine
 10
0.0
 20
0.0
 30
0.0
 11
0.0
 21
-2.5
 31
0.0
  0
LINE
  5
38E
330
388
100
AcDbEntity
  8
FORMAT
 62
     0
100
AcDbLine
 10
0.0
 20
0.0
 30
0.0
 11
2.5
 21
0.0
 31
0.0
  0
LINE
  5
38F
330
388
100
AcDbEntity
  8
FORMAT
 62
     0
100
AcDbLine
 10
0.0
 20
5.0
 30
0.0
 11
0.0
 21
5.25
 31
0.0
  0
LINE
  5
390
330
388
100
AcDbEntity
  8
FORMAT
 62
     0
100
AcDbLine
 10
-5.0
 20
0.0
 30
0.0
 11
-5.25
 21
0.0
 31
0.0
  0
LINE
  5
391
330
388
100
AcDbEntity
  8
FORMAT
 62
     0
100
AcDbLine
 10
0.0
 20
-5.0
 30
0.0
 11
0.0
 21
-5.25
 31
0.0
  0
LINE
  5
392
330
388
100
AcDbEntity
  8
FORMAT
 62
     0
100
AcDbLine
 10
5.0
 20
0.0
 30
0.0
 11
5.25
 21
0.0
 31
0.0
  0
ENDBLK
  5
38A
330
388
100
AcDbEntity
  8
0
100
AcDbBlockEnd
  0
BLOCK
  5
395
330
394
100
AcDbEntity
  8
0
100
AcDbBlockBegin
  2
SW_CENTERMARKSYMBOL_29
 70
     0
 10
0.0
 20
0.0
 30
0.0
  3
SW_CENTERMARKSYMBOL_29
  1

  0
LINE
  5
397
330
394
100
AcDbEntity
  8
FORMAT
 62
     0
100
AcDbLine
 10
0.0
 20
0.0
 30
0.0
 11
0.0
 21
2.5
 31
0.0
  0
LINE
  5
398
330
394
100
AcDbEntity
  8
FORMAT
 62
     0
100
AcDbLine
 10
0.0
 20
0.0
 30
0.0
 11
-2.5
 21
0.0
 31
0.0
  0
LINE
  5
399
330
394
100
AcDbEntity
  8
FORMAT
 62
     0
100
AcDbLine
 10
0.0
 20
0.0
 30
0.0
 11
0.0
 21
-2.5
 31
0.0
  0
LINE
  5
39A
330
394
100
AcDbEntity
  8
FORMAT
 62
     0
100
AcDbLine
 10
0.0
 20
0.0
 30
0.0
 11
2.5
 21
0.0
 31
0.0
  0
LINE
  5
39B
330
394
100
AcDbEntity
  8
FORMAT
 62
     0
100
AcDbLine
 10
0.0
 20
2.5
 30
0.0
 11
0.0
 21
4.0
 31
0.0
  0
LINE
  5
39C
330
394
100
AcDbEntity
  8
FORMAT
 62
     0
100
AcDbLine
 10
-2.5
 20
0.0
 30
0.0
 11
-4.0
 21
0.0
 31
0.0
  0
LINE
  5
39D
330
394
100
AcDbEntity
  8
FORMAT
 62
     0
100
AcDbLine
 10
0.0
 20
-2.5
 30
0.0
 11
0.0
 21
-4.0
 31
0.0
  0
LINE
  5
39E
330
394
100
AcDbEntity
  8
FORMAT
 62
     0
100
AcDbLine
 10
2.5
 20
0.0
 30
0.0
 11
4.0
 21
0.0
 31
0.0
  0
ENDBLK
  5
396
330
394
100
AcDbEntity
  8
0
100
AcDbBlockEnd
  0
BLOCK
  5
3A1
330
3A0
100
AcDbEntity
  8
0
100
AcDbBlockBegin
  2
SW_CENTERMARKSYMBOL_30
 70
     0
 10
0.0
 20
0.0
 30
0.0
  3
SW_CENTERMARKSYMBOL_30
  1

  0
LINE
  5
3A3
330
3A0
100
AcDbEntity
  8
FORMAT
 62
     0
100
AcDbLine
 10
0.0
 20
0.0
 30
0.0
 11
0.0
 21
2.5
 31
0.0
  0
LINE
  5
3A4
330
3A0
100
AcDbEntity
  8
FORMAT
 62
     0
100
AcDbLine
 10
0.0
 20
0.0
 30
0.0
 11
-2.5
 21
0.0
 31
0.0
  0
LINE
  5
3A5
330
3A0
100
AcDbEntity
  8
FORMAT
 62
     0
100
AcDbLine
 10
0.0
 20
0.0
 30
0.0
 11
0.0
 21
-2.5
 31
0.0
  0
LINE
  5
3A6
330
3A0
100
AcDbEntity
  8
FORMAT
 62
     0
100
AcDbLine
 10
0.0
 20
0.0
 30
0.0
 11
2.5
 21
0.0
 31
0.0
  0
LINE
  5
3A7
330
3A0
100
AcDbEntity
  8
FORMAT
 62
     0
100
AcDbLine
 10
0.0
 20
2.5
 30
0.0
 11
0.0
 21
4.0
 31
0.0
  0
LINE
  5
3A8
330
3A0
100
AcDbEntity
  8
FORMAT
 62
     0
100
AcDbLine
 10
-2.5
 20
0.0
 30
0.0
 11
-4.0
 21
0.0
 31
0.0
  0
LINE
  5
3A9
330
3A0
100
AcDbEntity
  8
FORMAT
 62
     0
100
AcDbLine
 10
0.0
 20
-2.5
 30
0.0
 11
0.0
 21
-4.0
 31
0.0
  0
LINE
  5
3AA
330
3A0
100
AcDbEntity
  8
FORMAT
 62
     0
100
AcDbLine
 10
2.5
 20
0.0
 30
0.0
 11
4.0
 21
0.0
 31
0.0
  0
ENDBLK
  5
3A2
330
3A0
100
AcDbEntity
  8
0
100
AcDbBlockEnd
  0
BLOCK
  5
3AD
330
3AC
100
AcDbEntity
  8
0
100
AcDbBlockBegin
  2
SW_CENTERMARKSYMBOL_31
 70
     0
 10
0.0
 20
0.0
 30
0.0
  3
SW_CENTERMARKSYMBOL_31
  1

  0
LINE
  5
3AF
330
3AC
100
AcDbEntity
  8
FORMAT
 62
     0
100
AcDbLine
 10
0.0
 20
0.0
 30
0.0
 11
0.0
 21
2.5
 31
0.0
  0
LINE
  5
3B0
330
3AC
100
AcDbEntity
  8
FORMAT
 62
     0
100
AcDbLine
 10
0.0
 20
0.0
 30
0.0
 11
-2.5
 21
0.0
 31
0.0
  0
LINE
  5
3B1
330
3AC
100
AcDbEntity
  8
FORMAT
 62
     0
100
AcDbLine
 10
0.0
 20
0.0
 30
0.0
 11
0.0
 21
-2.5
 31
0.0
  0
LINE
  5
3B2
330
3AC
100
AcDbEntity
  8
FORMAT
 62
     0
100
AcDbLine
 10
0.0
 20
0.0
 30
0.0
 11
2.5
 21
0.0
 31
0.0
  0
LINE
  5
3B3
330
3AC
100
AcDbEntity
  8
FORMAT
 62
     0
100
AcDbLine
 10
0.0
 20
2.5
 30
0.0
 11
0.0
 21
4.0
 31
0.0
  0
LINE
  5
3B4
330
3AC
100
AcDbEntity
  8
FORMAT
 62
     0
100
AcDbLine
 10
-2.5
 20
0.0
 30
0.0
 11
-4.0
 21
0.0
 31
0.0
  0
LINE
  5
3B5
330
3AC
100
AcDbEntity
  8
FORMAT
 62
     0
100
AcDbLine
 10
0.0
 20
-2.5
 30
0.0
 11
0.0
 21
-4.0
 31
0.0
  0
LINE
  5
3B6
330
3AC
100
AcDbEntity
  8
FORMAT
 62
     0
100
AcDbLine
 10
2.5
 20
0.0
 30
0.0
 11
4.0
 21
0.0
 31
0.0
  0
ENDBLK
  5
3AE
330
3AC
100
AcDbEntity
  8
0
100
AcDbBlockEnd
  0
BLOCK
  5
3B9
330
3B8
100
AcDbEntity
  8
0
100
AcDbBlockBegin
  2
SW_CENTERMARKSYMBOL_32
 70
     0
 10
0.0
 20
0.0
 30
0.0
  3
SW_CENTERMARKSYMBOL_32
  1

  0
LINE
  5
3BB
330
3B8
100
AcDbEntity
  8
FORMAT
 62
     0
100
AcDbLine
 10
0.0
 20
0.0
 30
0.0
 11
0.0
 21
2.5
 31
0.0
  0
LINE
  5
3BC
330
3B8
100
AcDbEntity
  8
FORMAT
 62
     0
100
AcDbLine
 10
0.0
 20
0.0
 30
0.0
 11
-2.5
 21
0.0
 31
0.0
  0
LINE
  5
3BD
330
3B8
100
AcDbEntity
  8
FORMAT
 62
     0
100
AcDbLine
 10
0.0
 20
0.0
 30
0.0
 11
0.0
 21
-2.5
 31
0.0
  0
LINE
  5
3BE
330
3B8
100
AcDbEntity
  8
FORMAT
 62
     0
100
AcDbLine
 10
0.0
 20
0.0
 30
0.0
 11
2.5
 21
0.0
 31
0.0
  0
LINE
  5
3BF
330
3B8
100
AcDbEntity
  8
FORMAT
 62
     0
100
AcDbLine
 10
0.0
 20
2.5
 30
0.0
 11
0.0
 21
4.0
 31
0.0
  0
LINE
  5
3C0
330
3B8
100
AcDbEntity
  8
FORMAT
 62
     0
100
AcDbLine
 10
-2.5
 20
0.0
 30
0.0
 11
-4.0
 21
0.0
 31
0.0
  0
LINE
  5
3C1
330
3B8
100
AcDbEntity
  8
FORMAT
 62
     0
100
AcDbLine
 10
0.0
 20
-2.5
 30
0.0
 11
0.0
 21
-4.0
 31
0.0
  0
LINE
  5
3C2
330
3B8
100
AcDbEntity
  8
FORMAT
 62
     0
100
AcDbLine
 10
2.5
 20
0.0
 30
0.0
 11
4.0
 21
0.0
 31
0.0
  0
ENDBLK
  5
3BA
330
3B8
100
AcDbEntity
  8
0
100
AcDbBlockEnd
  0
BLOCK
  5
3C5
330
3C4
100
AcDbEntity
  8
0
100
AcDbBlockBegin
  2
SW_CENTERMARKSYMBOL_33
 70
     0
 10
0.0
 20
0.0
 30
0.0
  3
SW_CENTERMARKSYMBOL_33
  1

  0
LINE
  5
3C7
330
3C4
100
AcDbEntity
  8
FORMAT
 62
     0
100
AcDbLine
 10
0.0
 20
0.0
 30
0.0
 11
0.0
 21
2.5
 31
0.0
  0
LINE
  5
3C8
330
3C4
100
AcDbEntity
  8
FORMAT
 62
     0
100
AcDbLine
 10
0.0
 20
0.0
 30
0.0
 11
-2.5
 21
0.0
 31
0.0
  0
LINE
  5
3C9
330
3C4
100
AcDbEntity
  8
FORMAT
 62
     0
100
AcDbLine
 10
0.0
 20
0.0
 30
0.0
 11
0.0
 21
-2.5
 31
0.0
  0
LINE
  5
3CA
330
3C4
100
AcDbEntity
  8
FORMAT
 62
     0
100
AcDbLine
 10
0.0
 20
0.0
 30
0.0
 11
2.5
 21
0.0
 31
0.0
  0
LINE
  5
3CB
330
3C4
100
AcDbEntity
  8
FORMAT
 62
     0
100
AcDbLine
 10
0.0
 20
5.0
 30
0.0
 11
0.0
 21
5.3
 31
0.0
  0
LINE
  5
3CC
330
3C4
100
AcDbEntity
  8
FORMAT
 62
     0
100
AcDbLine
 10
-5.0
 20
0.0
 30
0.0
 11
-5.3
 21
0.0
 31
0.0
  0
LINE
  5
3CD
330
3C4
100
AcDbEntity
  8
FORMAT
 62
     0
100
AcDbLine
 10
0.0
 20
-5.0
 30
0.0
 11
0.0
 21
-5.3
 31
0.0
  0
LINE
  5
3CE
330
3C4
100
AcDbEntity
  8
FORMAT
 62
     0
100
AcDbLine
 10
5.0
 20
0.0
 30
0.0
 11
5.3
 21
0.0
 31
0.0
  0
ENDBLK
  5
3C6
330
3C4
100
AcDbEntity
  8
0
100
AcDbBlockEnd
  0
BLOCK
  5
3D1
330
3D0
100
AcDbEntity
  8
0
100
AcDbBlockBegin
  2
SW_CENTERMARKSYMBOL_34
 70
     0
 10
0.0
 20
0.0
 30
0.0
  3
SW_CENTERMARKSYMBOL_34
  1

  0
LINE
  5
3D3
330
3D0
100
AcDbEntity
  8
FORMAT
 62
     0
100
AcDbLine
 10
0.0
 20
0.0
 30
0.0
 11
0.0
 21
2.5
 31
0.0
  0
LINE
  5
3D4
330
3D0
100
AcDbEntity
  8
FORMAT
 62
     0
100
AcDbLine
 10
0.0
 20
0.0
 30
0.0
 11
-2.5
 21
0.0
 31
0.0
  0
LINE
  5
3D5
330
3D0
100
AcDbEntity
  8
FORMAT
 62
     0
100
AcDbLine
 10
0.0
 20
0.0
 30
0.0
 11
0.0
 21
-2.5
 31
0.0
  0
LINE
  5
3D6
330
3D0
100
AcDbEntity
  8
FORMAT
 62
     0
100
AcDbLine
 10
0.0
 20
0.0
 30
0.0
 11
2.5
 21
0.0
 31
0.0
  0
LINE
  5
3D7
330
3D0
100
AcDbEntity
  8
FORMAT
 62
     0
100
AcDbLine
 10
0.0
 20
5.0
 30
0.0
 11
0.0
 21
5.3
 31
0.0
  0
LINE
  5
3D8
330
3D0
100
AcDbEntity
  8
FORMAT
 62
     0
100
AcDbLine
 10
-5.0
 20
0.0
 30
0.0
 11
-5.3
 21
0.0
 31
0.0
  0
LINE
  5
3D9
330
3D0
100
AcDbEntity
  8
FORMAT
 62
     0
100
AcDbLine
 10
0.0
 20
-5.0
 30
0.0
 11
0.0
 21
-5.3
 31
0.0
  0
LINE
  5
3DA
330
3D0
100
AcDbEntity
  8
FORMAT
 62
     0
100
AcDbLine
 10
5.0
 20
0.0
 30
0.0
 11
5.3
 21
0.0
 31
0.0
  0
ENDBLK
  5
3D2
330
3D0
100
AcDbEntity
  8
0
100
AcDbBlockEnd
  0
BLOCK
  5
3DD
330
3DC
100
AcDbEntity
  8
0
100
AcDbBlockBegin
  2
SW_CENTERMARKSYMBOL_35
 70
     0
 10
0.0
 20
0.0
 30
0.0
  3
SW_CENTERMARKSYMBOL_35
  1

  0
LINE
  5
3DF
330
3DC
100
AcDbEntity
  8
FORMAT
 62
     0
100
AcDbLine
 10
0.0
 20
0.0
 30
0.0
 11
0.0
 21
2.5
 31
0.0
  0
LINE
  5
3E0
330
3DC
100
AcDbEntity
  8
FORMAT
 62
     0
100
AcDbLine
 10
0.0
 20
0.0
 30
0.0
 11
-2.5
 21
0.0
 31
0.0
  0
LINE
  5
3E1
330
3DC
100
AcDbEntity
  8
FORMAT
 62
     0
100
AcDbLine
 10
0.0
 20
0.0
 30
0.0
 11
0.0
 21
-2.5
 31
0.0
  0
LINE
  5
3E2
330
3DC
100
AcDbEntity
  8
FORMAT
 62
     0
100
AcDbLine
 10
0.0
 20
0.0
 30
0.0
 11
2.5
 21
0.0
 31
0.0
  0
LINE
  5
3E3
330
3DC
100
AcDbEntity
  8
FORMAT
 62
     0
100
AcDbLine
 10
0.0
 20
5.0
 30
0.0
 11
0.0
 21
5.3
 31
0.0
  0
LINE
  5
3E4
330
3DC
100
AcDbEntity
  8
FORMAT
 62
     0
100
AcDbLine
 10
-5.0
 20
0.0
 30
0.0
 11
-5.3
 21
0.0
 31
0.0
  0
LINE
  5
3E5
330
3DC
100
AcDbEntity
  8
FORMAT
 62
     0
100
AcDbLine
 10
0.0
 20
-5.0
 30
0.0
 11
0.0
 21
-5.3
 31
0.0
  0
LINE
  5
3E6
330
3DC
100
AcDbEntity
  8
FORMAT
 62
     0
100
AcDbLine
 10
5.0
 20
0.0
 30
0.0
 11
5.3
 21
0.0
 31
0.0
  0
ENDBLK
  5
3DE
330
3DC
100
AcDbEntity
  8
0
100
AcDbBlockEnd
  0
BLOCK
  5
3E9
330
3E8
100
AcDbEntity
  8
0
100
AcDbBlockBegin
  2
SW_CENTERMARKSYMBOL_36
 70
     0
 10
0.0
 20
0.0
 30
0.0
  3
SW_CENTERMARKSYMBOL_36
  1

  0
LINE
  5
3EB
330
3E8
100
AcDbEntity
  8
FORMAT
 62
     0
100
AcDbLine
 10
0.0
 20
0.0
 30
0.0
 11
0.0
 21
2.5
 31
0.0
  0
LINE
  5
3EC
330
3E8
100
AcDbEntity
  8
FORMAT
 62
     0
100
AcDbLine
 10
0.0
 20
0.0
 30
0.0
 11
-2.5
 21
0.0
 31
0.0
  0
LINE
  5
3ED
330
3E8
100
AcDbEntity
  8
FORMAT
 62
     0
100
AcDbLine
 10
0.0
 20
0.0
 30
0.0
 11
0.0
 21
-2.5
 31
0.0
  0
LINE
  5
3EE
330
3E8
100
AcDbEntity
  8
FORMAT
 62
     0
100
AcDbLine
 10
0.0
 20
0.0
 30
0.0
 11
2.5
 21
0.0
 31
0.0
  0
LINE
  5
3EF
330
3E8
100
AcDbEntity
  8
FORMAT
 62
     0
100
AcDbLine
 10
0.0
 20
5.0
 30
0.0
 11
0.0
 21
8.0
 31
0.0
  0
LINE
  5
3F0
330
3E8
100
AcDbEntity
  8
FORMAT
 62
     0
100
AcDbLine
 10
-5.0
 20
0.0
 30
0.0
 11
-8.0
 21
0.0
 31
0.0
  0
LINE
  5
3F1
330
3E8
100
AcDbEntity
  8
FORMAT
 62
     0
100
AcDbLine
 10
0.0
 20
-5.0
 30
0.0
 11
0.0
 21
-8.0
 31
0.0
  0
LINE
  5
3F2
330
3E8
100
AcDbEntity
  8
FORMAT
 62
     0
100
AcDbLine
 10
5.0
 20
0.0
 30
0.0
 11
8.0
 21
0.0
 31
0.0
  0
ENDBLK
  5
3EA
330
3E8
100
AcDbEntity
  8
0
100
AcDbBlockEnd
  0
BLOCK
  5
3F5
330
3F4
100
AcDbEntity
  8
0
100
AcDbBlockBegin
  2
SW_CENTERMARKSYMBOL_37
 70
     0
 10
0.0
 20
0.0
 30
0.0
  3
SW_CENTERMARKSYMBOL_37
  1

  0
LINE
  5
3F7
330
3F4
100
AcDbEntity
  8
FORMAT
 62
     0
100
AcDbLine
 10
0.0
 20
0.0
 30
0.0
 11
0.0
 21
2.5
 31
0.0
  0
LINE
  5
3F8
330
3F4
100
AcDbEntity
  8
FORMAT
 62
     0
100
AcDbLine
 10
0.0
 20
0.0
 30
0.0
 11
-2.5
 21
0.0
 31
0.0
  0
LINE
  5
3F9
330
3F4
100
AcDbEntity
  8
FORMAT
 62
     0
100
AcDbLine
 10
0.0
 20
0.0
 30
0.0
 11
0.0
 21
-2.5
 31
0.0
  0
LINE
  5
3FA
330
3F4
100
AcDbEntity
  8
FORMAT
 62
     0
100
AcDbLine
 10
0.0
 20
0.0
 30
0.0
 11
2.5
 21
0.0
 31
0.0
  0
LINE
  5
3FB
330
3F4
100
AcDbEntity
  8
FORMAT
 62
     0
100
AcDbLine
 10
0.0
 20
5.0
 30
0.0
 11
0.0
 21
5.3
 31
0.0
  0
LINE
  5
3FC
330
3F4
100
AcDbEntity
  8
FORMAT
 62
     0
100
AcDbLine
 10
-5.0
 20
0.0
 30
0.0
 11
-5.3
 21
0.0
 31
0.0
  0
LINE
  5
3FD
330
3F4
100
AcDbEntity
  8
FORMAT
 62
     0
100
AcDbLine
 10
0.0
 20
-5.0
 30
0.0
 11
0.0
 21
-5.3
 31
0.0
  0
LINE
  5
3FE
330
3F4
100
AcDbEntity
  8
FORMAT
 62
     0
100
AcDbLine
 10
5.0
 20
0.0
 30
0.0
 11
5.3
 21
0.0
 31
0.0
  0
ENDBLK
  5
3F6
330
3F4
100
AcDbEntity
  8
0
100
AcDbBlockEnd
  0
BLOCK
  5
401
330
400
100
AcDbEntity
  8
0
100
AcDbBlockBegin
  2
SW_CENTERMARKSYMBOL_38
 70
     0
 10
0.0
 20
0.0
 30
0.0
  3
SW_CENTERMARKSYMBOL_38
  1

  0
LINE
  5
403
330
400
100
AcDbEntity
  8
FORMAT
 62
     0
100
AcDbLine
 10
0.0
 20
0.0
 30
0.0
 11
0.0
 21
2.5
 31
0.0
  0
LINE
  5
404
330
400
100
AcDbEntity
  8
FORMAT
 62
     0
100
AcDbLine
 10
0.0
 20
0.0
 30
0.0
 11
-2.5
 21
0.0
 31
0.0
  0
LINE
  5
405
330
400
100
AcDbEntity
  8
FORMAT
 62
     0
100
AcDbLine
 10
0.0
 20
0.0
 30
0.0
 11
0.0
 21
-2.5
 31
0.0
  0
LINE
  5
406
330
400
100
AcDbEntity
  8
FORMAT
 62
     0
100
AcDbLine
 10
0.0
 20
0.0
 30
0.0
 11
2.5
 21
0.0
 31
0.0
  0
LINE
  5
407
330
400
100
AcDbEntity
  8
FORMAT
 62
     0
100
AcDbLine
 10
0.0
 20
5.0
 30
0.0
 11
0.0
 21
5.25
 31
0.0
  0
LINE
  5
408
330
400
100
AcDbEntity
  8
FORMAT
 62
     0
100
AcDbLine
 10
-5.0
 20
0.0
 30
0.0
 11
-5.25
 21
0.0
 31
0.0
  0
LINE
  5
409
330
400
100
AcDbEntity
  8
FORMAT
 62
     0
100
AcDbLine
 10
0.0
 20
-5.0
 30
0.0
 11
0.0
 21
-5.25
 31
0.0
  0
LINE
  5
40A
330
400
100
AcDbEntity
  8
FORMAT
 62
     0
100
AcDbLine
 10
5.0
 20
0.0
 30
0.0
 11
5.25
 21
0.0
 31
0.0
  0
ENDBLK
  5
402
330
400
100
AcDbEntity
  8
0
100
AcDbBlockEnd
  0
BLOCK
  5
40D
330
40C
100
AcDbEntity
  8
0
100
AcDbBlockBegin
  2
SW_CENTERMARKSYMBOL_39
 70
     0
 10
0.0
 20
0.0
 30
0.0
  3
SW_CENTERMARKSYMBOL_39
  1

  0
LINE
  5
40F
330
40C
100
AcDbEntity
  8
FORMAT
 62
     0
100
AcDbLine
 10
0.0
 20
0.0
 30
0.0
 11
0.0
 21
2.5
 31
0.0
  0
LINE
  5
410
330
40C
100
AcDbEntity
  8
FORMAT
 62
     0
100
AcDbLine
 10
0.0
 20
0.0
 30
0.0
 11
-2.5
 21
0.0
 31
0.0
  0
LINE
  5
411
330
40C
100
AcDbEntity
  8
FORMAT
 62
     0
100
AcDbLine
 10
0.0
 20
0.0
 30
0.0
 11
0.0
 21
-2.5
 31
0.0
  0
LINE
  5
412
330
40C
100
AcDbEntity
  8
FORMAT
 62
     0
100
AcDbLine
 10
0.0
 20
0.0
 30
0.0
 11
2.5
 21
0.0
 31
0.0
  0
LINE
  5
413
330
40C
100
AcDbEntity
  8
FORMAT
 62
     0
100
AcDbLine
 10
0.0
 20
5.0
 30
0.0
 11
0.0
 21
8.0
 31
0.0
  0
LINE
  5
414
330
40C
100
AcDbEntity
  8
FORMAT
 62
     0
100
AcDbLine
 10
-5.0
 20
0.0
 30
0.0
 11
-8.0
 21
0.0
 31
0.0
  0
LINE
  5
415
330
40C
100
AcDbEntity
  8
FORMAT
 62
     0
100
AcDbLine
 10
0.0
 20
-5.0
 30
0.0
 11
0.0
 21
-8.0
 31
0.0
  0
LINE
  5
416
330
40C
100
AcDbEntity
  8
FORMAT
 62
     0
100
AcDbLine
 10
5.0
 20
0.0
 30
0.0
 11
8.0
 21
0.0
 31
0.0
  0
ENDBLK
  5
40E
330
40C
100
AcDbEntity
  8
0
100
AcDbBlockEnd
  0
BLOCK
  5
419
330
418
100
AcDbEntity
  8
0
100
AcDbBlockBegin
  2
SW_CENTERMARKSYMBOL_40
 70
     0
 10
0.0
 20
0.0
 30
0.0
  3
SW_CENTERMARKSYMBOL_40
  1

  0
LINE
  5
41B
330
418
100
AcDbEntity
  8
FORMAT
 62
     0
100
AcDbLine
 10
0.0
 20
0.0
 30
0.0
 11
0.0
 21
2.5
 31
0.0
  0
LINE
  5
41C
330
418
100
AcDbEntity
  8
FORMAT
 62
     0
100
AcDbLine
 10
0.0
 20
0.0
 30
0.0
 11
-2.5
 21
0.0
 31
0.0
  0
LINE
  5
41D
330
418
100
AcDbEntity
  8
FORMAT
 62
     0
100
AcDbLine
 10
0.0
 20
0.0
 30
0.0
 11
0.0
 21
-2.5
 31
0.0
  0
LINE
  5
41E
330
418
100
AcDbEntity
  8
FORMAT
 62
     0
100
AcDbLine
 10
0.0
 20
0.0
 30
0.0
 11
2.5
 21
0.0
 31
0.0
  0
LINE
  5
41F
330
418
100
AcDbEntity
  8
FORMAT
 62
     0
100
AcDbLine
 10
0.0
 20
5.0
 30
0.0
 11
0.0
 21
8.0
 31
0.0
  0
LINE
  5
420
330
418
100
AcDbEntity
  8
FORMAT
 62
     0
100
AcDbLine
 10
-5.0
 20
0.0
 30
0.0
 11
-8.0
 21
0.0
 31
0.0
  0
LINE
  5
421
330
418
100
AcDbEntity
  8
FORMAT
 62
     0
100
AcDbLine
 10
0.0
 20
-5.0
 30
0.0
 11
0.0
 21
-8.0
 31
0.0
  0
LINE
  5
422
330
418
100
AcDbEntity
  8
FORMAT
 62
     0
100
AcDbLine
 10
5.0
 20
0.0
 30
0.0
 11
8.0
 21
0.0
 31
0.0
  0
ENDBLK
  5
41A
330
418
100
AcDbEntity
  8
0
100
AcDbBlockEnd
  0
BLOCK
  5
425
330
424
100
AcDbEntity
  8
0
100
AcDbBlockBegin
  2
SW_CENTERMARKSYMBOL_41
 70
     0
 10
0.0
 20
0.0
 30
0.0
  3
SW_CENTERMARKSYMBOL_41
  1

  0
LINE
  5
427
330
424
100
AcDbEntity
  8
FORMAT
 62
     0
100
AcDbLine
 10
0.0
 20
0.0
 30
0.0
 11
0.0
 21
2.5
 31
0.0
  0
LINE
  5
428
330
424
100
AcDbEntity
  8
FORMAT
 62
     0
100
AcDbLine
 10
0.0
 20
0.0
 30
0.0
 11
-2.5
 21
0.0
 31
0.0
  0
LINE
  5
429
330
424
100
AcDbEntity
  8
FORMAT
 62
     0
100
AcDbLine
 10
0.0
 20
0.0
 30
0.0
 11
0.0
 21
-2.5
 31
0.0
  0
LINE
  5
42A
330
424
100
AcDbEntity
  8
FORMAT
 62
     0
100
AcDbLine
 10
0.0
 20
0.0
 30
0.0
 11
2.5
 21
0.0
 31
0.0
  0
LINE
  5
42B
330
424
100
AcDbEntity
  8
FORMAT
 62
     0
100
AcDbLine
 10
0.0
 20
5.0
 30
0.0
 11
0.0
 21
5.25
 31
0.0
  0
LINE
  5
42C
330
424
100
AcDbEntity
  8
FORMAT
 62
     0
100
AcDbLine
 10
-5.0
 20
0.0
 30
0.0
 11
-5.25
 21
0.0
 31
0.0
  0
LINE
  5
42D
330
424
100
AcDbEntity
  8
FORMAT
 62
     0
100
AcDbLine
 10
0.0
 20
-5.0
 30
0.0
 11
0.0
 21
-5.25
 31
0.0
  0
LINE
  5
42E
330
424
100
AcDbEntity
  8
FORMAT
 62
     0
100
AcDbLine
 10
5.0
 20
0.0
 30
0.0
 11
5.25
 21
0.0
 31
0.0
  0
ENDBLK
  5
426
330
424
100
AcDbEntity
  8
0
100
AcDbBlockEnd
  0
BLOCK
  5
431
330
430
100
AcDbEntity
  8
0
100
AcDbBlockBegin
  2
SW_CENTERMARKSYMBOL_42
 70
     0
 10
0.0
 20
0.0
 30
0.0
  3
SW_CENTERMARKSYMBOL_42
  1

  0
LINE
  5
433
330
430
100
AcDbEntity
  8
FORMAT
 62
     0
100
AcDbLine
 10
0.0
 20
0.0
 30
0.0
 11
0.0
 21
2.5
 31
0.0
  0
LINE
  5
434
330
430
100
AcDbEntity
  8
FORMAT
 62
     0
100
AcDbLine
 10
0.0
 20
0.0
 30
0.0
 11
-2.5
 21
0.0
 31
0.0
  0
LINE
  5
435
330
430
100
AcDbEntity
  8
FORMAT
 62
     0
100
AcDbLine
 10
0.0
 20
0.0
 30
0.0
 11
0.0
 21
-2.5
 31
0.0
  0
LINE
  5
436
330
430
100
AcDbEntity
  8
FORMAT
 62
     0
100
AcDbLine
 10
0.0
 20
0.0
 30
0.0
 11
2.5
 21
0.0
 31
0.0
  0
LINE
  5
437
330
430
100
AcDbEntity
  8
FORMAT
 62
     0
100
AcDbLine
 10
0.0
 20
5.0
 30
0.0
 11
0.0
 21
5.25
 31
0.0
  0
LINE
  5
438
330
430
100
AcDbEntity
  8
FORMAT
 62
     0
100
AcDbLine
 10
-5.0
 20
0.0
 30
0.0
 11
-5.25
 21
0.0
 31
0.0
  0
LINE
  5
439
330
430
100
AcDbEntity
  8
FORMAT
 62
     0
100
AcDbLine
 10
0.0
 20
-5.0
 30
0.0
 11
0.0
 21
-5.25
 31
0.0
  0
LINE
  5
43A
330
430
100
AcDbEntity
  8
FORMAT
 62
     0
100
AcDbLine
 10
5.0
 20
0.0
 30
0.0
 11
5.25
 21
0.0
 31
0.0
  0
ENDBLK
  5
432
330
430
100
AcDbEntity
  8
0
100
AcDbBlockEnd
  0
BLOCK
  5
43D
330
43C
100
AcDbEntity
  8
0
100
AcDbBlockBegin
  2
SW_CENTERMARKSYMBOL_43
 70
     0
 10
0.0
 20
0.0
 30
0.0
  3
SW_CENTERMARKSYMBOL_43
  1

  0
LINE
  5
43F
330
43C
100
AcDbEntity
  8
FORMAT
 62
     0
100
AcDbLine
 10
0.0
 20
0.0
 30
0.0
 11
0.0
 21
2.5
 31
0.0
  0
LINE
  5
440
330
43C
100
AcDbEntity
  8
FORMAT
 62
     0
100
AcDbLine
 10
0.0
 20
0.0
 30
0.0
 11
-2.5
 21
0.0
 31
0.0
  0
LINE
  5
441
330
43C
100
AcDbEntity
  8
FORMAT
 62
     0
100
AcDbLine
 10
0.0
 20
0.0
 30
0.0
 11
0.0
 21
-2.5
 31
0.0
  0
LINE
  5
442
330
43C
100
AcDbEntity
  8
FORMAT
 62
     0
100
AcDbLine
 10
0.0
 20
0.0
 30
0.0
 11
2.5
 21
0.0
 31
0.0
  0
LINE
  5
443
330
43C
100
AcDbEntity
  8
FORMAT
 62
     0
100
AcDbLine
 10
0.0
 20
5.0
 30
0.0
 11
0.0
 21
5.25
 31
0.0
  0
LINE
  5
444
330
43C
100
AcDbEntity
  8
FORMAT
 62
     0
100
AcDbLine
 10
-5.0
 20
0.0
 30
0.0
 11
-27.8046370757
 21
0.0
 31
0.0
  0
LINE
  5
445
330
43C
100
AcDbEntity
  8
FORMAT
 62
     0
100
AcDbLine
 10
0.0
 20
-5.0
 30
0.0
 11
0.0
 21
-5.25
 31
0.0
  0
LINE
  5
446
330
43C
100
AcDbEntity
  8
FORMAT
 62
     0
100
AcDbLine
 10
5.0
 20
0.0
 30
0.0
 11
5.25
 21
0.0
 31
0.0
  0
ENDBLK
  5
43E
330
43C
100
AcDbEntity
  8
0
100
AcDbBlockEnd
  0
BLOCK
  5
449
330
448
100
AcDbEntity
  8
0
100
AcDbBlockBegin
  2
SW_CENTERMARKSYMBOL_44
 70
     0
 10
0.0
 20
0.0
 30
0.0
  3
SW_CENTERMARKSYMBOL_44
  1

  0
LINE
  5
44B
330
448
100
AcDbEntity
  8
FORMAT
 62
     0
100
AcDbLine
 10
0.0
 20
0.0
 30
0.0
 11
0.0
 21
2.5
 31
0.0
  0
LINE
  5
44C
330
448
100
AcDbEntity
  8
FORMAT
 62
     0
100
AcDbLine
 10
0.0
 20
0.0
 30
0.0
 11
-2.5
 21
0.0
 31
0.0
  0
LINE
  5
44D
330
448
100
AcDbEntity
  8
FORMAT
 62
     0
100
AcDbLine
 10
0.0
 20
0.0
 30
0.0
 11
0.0
 21
-2.5
 31
0.0
  0
LINE
  5
44E
330
448
100
AcDbEntity
  8
FORMAT
 62
     0
100
AcDbLine
 10
0.0
 20
0.0
 30
0.0
 11
2.5
 21
0.0
 31
0.0
  0
LINE
  5
44F
330
448
100
AcDbEntity
  8
FORMAT
 62
     0
100
AcDbLine
 10
0.0
 20
5.0
 30
0.0
 11
0.0
 21
5.25
 31
0.0
  0
LINE
  5
450
330
448
100
AcDbEntity
  8
FORMAT
 62
     0
100
AcDbLine
 10
-5.0
 20
0.0
 30
0.0
 11
-21.6912412575
 21
0.0
 31
0.0
  0
LINE
  5
451
330
448
100
AcDbEntity
  8
FORMAT
 62
     0
100
AcDbLine
 10
0.0
 20
-5.0
 30
0.0
 11
0.0
 21
-5.25
 31
0.0
  0
LINE
  5
452
330
448
100
AcDbEntity
  8
FORMAT
 62
     0
100
AcDbLine
 10
5.0
 20
0.0
 30
0.0
 11
5.25
 21
0.0
 31
0.0
  0
ENDBLK
  5
44A
330
448
100
AcDbEntity
  8
0
100
AcDbBlockEnd
  0
BLOCK
  5
455
330
454
100
AcDbEntity
  8
0
100
AcDbBlockBegin
  2
SW_CENTERMARKSYMBOL_45
 70
     0
 10
0.0
 20
0.0
 30
0.0
  3
SW_CENTERMARKSYMBOL_45
  1

  0
LINE
  5
457
330
454
100
AcDbEntity
  8
FORMAT
 62
     0
100
AcDbLine
 10
0.0
 20
0.0
 30
0.0
 11
0.0
 21
2.5
 31
0.0
  0
LINE
  5
458
330
454
100
AcDbEntity
  8
FORMAT
 62
     0
100
AcDbLine
 10
0.0
 20
0.0
 30
0.0
 11
-2.5
 21
0.0
 31
0.0
  0
LINE
  5
459
330
454
100
AcDbEntity
  8
FORMAT
 62
     0
100
AcDbLine
 10
0.0
 20
0.0
 30
0.0
 11
0.0
 21
-2.5
 31
0.0
  0
LINE
  5
45A
330
454
100
AcDbEntity
  8
FORMAT
 62
     0
100
AcDbLine
 10
0.0
 20
0.0
 30
0.0
 11
2.5
 21
0.0
 31
0.0
  0
LINE
  5
45B
330
454
100
AcDbEntity
  8
FORMAT
 62
     0
100
AcDbLine
 10
0.0
 20
5.0
 30
0.0
 11
0.0
 21
8.0
 31
0.0
  0
LINE
  5
45C
330
454
100
AcDbEntity
  8
FORMAT
 62
     0
100
AcDbLine
 10
-5.0
 20
0.0
 30
0.0
 11
-8.0
 21
0.0
 31
0.0
  0
LINE
  5
45D
330
454
100
AcDbEntity
  8
FORMAT
 62
     0
100
AcDbLine
 10
0.0
 20
-5.0
 30
0.0
 11
0.0
 21
-8.0
 31
0.0
  0
LINE
  5
45E
330
454
100
AcDbEntity
  8
FORMAT
 62
     0
100
AcDbLine
 10
5.0
 20
0.0
 30
0.0
 11
8.0
 21
0.0
 31
0.0
  0
ENDBLK
  5
456
330
454
100
AcDbEntity
  8
0
100
AcDbBlockEnd
  0
BLOCK
  5
461
330
460
100
AcDbEntity
  8
0
100
AcDbBlockBegin
  2
SW_CENTERMARKSYMBOL_46
 70
     0
 10
0.0
 20
0.0
 30
0.0
  3
SW_CENTERMARKSYMBOL_46
  1

  0
LINE
  5
463
330
460
100
AcDbEntity
  8
FORMAT
 62
     0
100
AcDbLine
 10
0.0
 20
0.0
 30
0.0
 11
0.0
 21
2.5
 31
0.0
  0
LINE
  5
464
330
460
100
AcDbEntity
  8
FORMAT
 62
     0
100
AcDbLine
 10
0.0
 20
0.0
 30
0.0
 11
-2.5
 21
0.0
 31
0.0
  0
LINE
  5
465
330
460
100
AcDbEntity
  8
FORMAT
 62
     0
100
AcDbLine
 10
0.0
 20
0.0
 30
0.0
 11
0.0
 21
-2.5
 31
0.0
  0
LINE
  5
466
330
460
100
AcDbEntity
  8
FORMAT
 62
     0
100
AcDbLine
 10
0.0
 20
0.0
 30
0.0
 11
2.5
 21
0.0
 31
0.0
  0
LINE
  5
467
330
460
100
AcDbEntity
  8
FORMAT
 62
     0
100
AcDbLine
 10
0.0
 20
5.0
 30
0.0
 11
0.0
 21
8.0
 31
0.0
  0
LINE
  5
468
330
460
100
AcDbEntity
  8
FORMAT
 62
     0
100
AcDbLine
 10
-5.0
 20
0.0
 30
0.0
 11
-8.0
 21
0.0
 31
0.0
  0
LINE
  5
469
330
460
100
AcDbEntity
  8
FORMAT
 62
     0
100
AcDbLine
 10
0.0
 20
-5.0
 30
0.0
 11
0.0
 21
-8.0
 31
0.0
  0
LINE
  5
46A
330
460
100
AcDbEntity
  8
FORMAT
 62
     0
100
AcDbLine
 10
5.0
 20
0.0
 30
0.0
 11
8.0
 21
0.0
 31
0.0
  0
ENDBLK
  5
462
330
460
100
AcDbEntity
  8
0
100
AcDbBlockEnd
  0
BLOCK
  5
46D
330
46C
100
AcDbEntity
  8
0
100
AcDbBlockBegin
  2
SW_CENTERMARKSYMBOL_47
 70
     0
 10
0.0
 20
0.0
 30
0.0
  3
SW_CENTERMARKSYMBOL_47
  1

  0
LINE
  5
46F
330
46C
100
AcDbEntity
  8
FORMAT
 62
     0
100
AcDbLine
 10
0.0
 20
0.0
 30
0.0
 11
0.0
 21
2.5
 31
0.0
  0
LINE
  5
470
330
46C
100
AcDbEntity
  8
FORMAT
 62
     0
100
AcDbLine
 10
0.0
 20
0.0
 30
0.0
 11
-2.5
 21
0.0
 31
0.0
  0
LINE
  5
471
330
46C
100
AcDbEntity
  8
FORMAT
 62
     0
100
AcDbLine
 10
0.0
 20
0.0
 30
0.0
 11
0.0
 21
-2.5
 31
0.0
  0
LINE
  5
472
330
46C
100
AcDbEntity
  8
FORMAT
 62
     0
100
AcDbLine
 10
0.0
 20
0.0
 30
0.0
 11
2.5
 21
0.0
 31
0.0
  0
LINE
  5
473
330
46C
100
AcDbEntity
  8
FORMAT
 62
     0
100
AcDbLine
 10
0.0
 20
5.0
 30
0.0
 11
0.0
 21
5.25
 31
0.0
  0
LINE
  5
474
330
46C
100
AcDbEntity
  8
FORMAT
 62
     0
100
AcDbLine
 10
-5.0
 20
0.0
 30
0.0
 11
-5.25
 21
0.0
 31
0.0
  0
LINE
  5
475
330
46C
100
AcDbEntity
  8
FORMAT
 62
     0
100
AcDbLine
 10
0.0
 20
-5.0
 30
0.0
 11
0.0
 21
-5.25
 31
0.0
  0
LINE
  5
476
330
46C
100
AcDbEntity
  8
FORMAT
 62
     0
100
AcDbLine
 10
5.0
 20
0.0
 30
0.0
 11
5.25
 21
0.0
 31
0.0
  0
ENDBLK
  5
46E
330
46C
100
AcDbEntity
  8
0
100
AcDbBlockEnd
  0
BLOCK
  5
479
330
478
100
AcDbEntity
  8
0
100
AcDbBlockBegin
  2
SW_CENTERMARKSYMBOL_48
 70
     0
 10
0.0
 20
0.0
 30
0.0
  3
SW_CENTERMARKSYMBOL_48
  1

  0
LINE
  5
47B
330
478
100
AcDbEntity
  8
FORMAT
 62
     0
100
AcDbLine
 10
0.0
 20
0.0
 30
0.0
 11
0.0
 21
2.5
 31
0.0
  0
LINE
  5
47C
330
478
100
AcDbEntity
  8
FORMAT
 62
     0
100
AcDbLine
 10
0.0
 20
0.0
 30
0.0
 11
-2.5
 21
0.0
 31
0.0
  0
LINE
  5
47D
330
478
100
AcDbEntity
  8
FORMAT
 62
     0
100
AcDbLine
 10
0.0
 20
0.0
 30
0.0
 11
0.0
 21
-2.5
 31
0.0
  0
LINE
  5
47E
330
478
100
AcDbEntity
  8
FORMAT
 62
     0
100
AcDbLine
 10
0.0
 20
0.0
 30
0.0
 11
2.5
 21
0.0
 31
0.0
  0
LINE
  5
47F
330
478
100
AcDbEntity
  8
FORMAT
 62
     0
100
AcDbLine
 10
0.0
 20
5.0
 30
0.0
 11
0.0
 21
5.25
 31
0.0
  0
LINE
  5
480
330
478
100
AcDbEntity
  8
FORMAT
 62
     0
100
AcDbLine
 10
-5.0
 20
0.0
 30
0.0
 11
-5.25
 21
0.0
 31
0.0
  0
LINE
  5
481
330
478
100
AcDbEntity
  8
FORMAT
 62
     0
100
AcDbLine
 10
0.0
 20
-5.0
 30
0.0
 11
0.0
 21
-5.25
 31
0.0
  0
LINE
  5
482
330
478
100
AcDbEntity
  8
FORMAT
 62
     0
100
AcDbLine
 10
5.0
 20
0.0
 30
0.0
 11
5.25
 21
0.0
 31
0.0
  0
ENDBLK
  5
47A
330
478
100
AcDbEntity
  8
0
100
AcDbBlockEnd
  0
BLOCK
  5
485
330
484
100
AcDbEntity
  8
0
100
AcDbBlockBegin
  2
SW_CENTERMARKSYMBOL_49
 70
     0
 10
0.0
 20
0.0
 30
0.0
  3
SW_CENTERMARKSYMBOL_49
  1

  0
LINE
  5
487
330
484
100
AcDbEntity
  8
FORMAT
 62
     0
100
AcDbLine
 10
0.0
 20
0.0
 30
0.0
 11
0.0
 21
2.5
 31
0.0
  0
LINE
  5
488
330
484
100
AcDbEntity
  8
FORMAT
 62
     0
100
AcDbLine
 10
0.0
 20
0.0
 30
0.0
 11
-2.5
 21
0.0
 31
0.0
  0
LINE
  5
489
330
484
100
AcDbEntity
  8
FORMAT
 62
     0
100
AcDbLine
 10
0.0
 20
0.0
 30
0.0
 11
0.0
 21
-2.5
 31
0.0
  0
LINE
  5
48A
330
484
100
AcDbEntity
  8
FORMAT
 62
     0
100
AcDbLine
 10
0.0
 20
0.0
 30
0.0
 11
2.5
 21
0.0
 31
0.0
  0
LINE
  5
48B
330
484
100
AcDbEntity
  8
FORMAT
 62
     0
100
AcDbLine
 10
0.0
 20
5.0
 30
0.0
 11
0.0
 21
5.25
 31
0.0
  0
LINE
  5
48C
330
484
100
AcDbEntity
  8
FORMAT
 62
     0
100
AcDbLine
 10
-5.0
 20
0.0
 30
0.0
 11
-5.25
 21
0.0
 31
0.0
  0
LINE
  5
48D
330
484
100
AcDbEntity
  8
FORMAT
 62
     0
100
AcDbLine
 10
0.0
 20
-5.0
 30
0.0
 11
0.0
 21
-5.25
 31
0.0
  0
LINE
  5
48E
330
484
100
AcDbEntity
  8
FORMAT
 62
     0
100
AcDbLine
 10
5.0
 20
0.0
 30
0.0
 11
5.25
 21
0.0
 31
0.0
  0
ENDBLK
  5
486
330
484
100
AcDbEntity
  8
0
100
AcDbBlockEnd
  0
BLOCK
  5
491
330
490
100
AcDbEntity
  8
0
100
AcDbBlockBegin
  2
SW_CENTERMARKSYMBOL_50
 70
     0
 10
0.0
 20
0.0
 30
0.0
  3
SW_CENTERMARKSYMBOL_50
  1

  0
LINE
  5
493
330
490
100
AcDbEntity
  8
FORMAT
 62
     0
100
AcDbLine
 10
0.0
 20
0.0
 30
0.0
 11
2.5
 21
0.0
 31
0.0
  0
LINE
  5
494
330
490
100
AcDbEntity
  8
FORMAT
 62
     0
100
AcDbLine
 10
0.0
 20
0.0
 30
0.0
 11
0.0
 21
2.5
 31
0.0
  0
LINE
  5
495
330
490
100
AcDbEntity
  8
FORMAT
 62
     0
100
AcDbLine
 10
0.0
 20
0.0
 30
0.0
 11
-2.5
 21
0.0
 31
0.0
  0
LINE
  5
496
330
490
100
AcDbEntity
  8
FORMAT
 62
     0
100
AcDbLine
 10
0.0
 20
0.0
 30
0.0
 11
0.0
 21
-2.5
 31
0.0
  0
LINE
  5
497
330
490
100
AcDbEntity
  8
FORMAT
 62
     0
100
AcDbLine
 10
5.0
 20
0.0
 30
0.0
 11
28.0484198636
 21
0.0
 31
0.0
  0
LINE
  5
498
330
490
100
AcDbEntity
  8
FORMAT
 62
     0
100
AcDbLine
 10
0.0
 20
5.0
 30
0.0
 11
0.0
 21
5.25
 31
0.0
  0
LINE
  5
499
330
490
100
AcDbEntity
  8
FORMAT
 62
     0
100
AcDbLine
 10
-5.0
 20
0.0
 30
0.0
 11
-5.25
 21
0.0
 31
0.0
  0
LINE
  5
49A
330
490
100
AcDbEntity
  8
FORMAT
 62
     0
100
AcDbLine
 10
0.0
 20
-5.0
 30
0.0
 11
0.0
 21
-5.25
 31
0.0
  0
LINE
  5
49B
330
490
100
AcDbEntity
  8
FORMAT
 62
     0
100
AcDbLine
 10
36.0
 20
0.0
 30
0.0
 11
38.5
 21
0.0
 31
0.0
  0
LINE
  5
49C
330
490
100
AcDbEntity
  8
FORMAT
 62
     0
100
AcDbLine
 10
36.0
 20
0.0
 30
0.0
 11
36.0
 21
2.5
 31
0.0
  0
LINE
  5
49D
330
490
100
AcDbEntity
  8
FORMAT
 62
     0
100
AcDbLine
 10
36.0
 20
0.0
 30
0.0
 11
33.5
 21
0.0
 31
0.0
  0
LINE
  5
49E
330
490
100
AcDbEntity
  8
FORMAT
 62
     0
100
AcDbLine
 10
36.0
 20
0.0
 30
0.0
 11
36.0
 21
-2.5
 31
0.0
  0
LINE
  5
49F
330
490
100
AcDbEntity
  8
FORMAT
 62
     0
100
AcDbLine
 10
41.0
 20
0.0
 30
0.0
 11
41.25
 21
0.0
 31
0.0
  0
LINE
  5
4A0
330
490
100
AcDbEntity
  8
FORMAT
 62
     0
100
AcDbLine
 10
36.0
 20
5.0
 30
0.0
 11
36.0
 21
5.25
 31
0.0
  0
LINE
  5
4A1
330
490
100
AcDbEntity
  8
FORMAT
 62
     0
100
AcDbLine
 10
31.0
 20
0.0
 30
0.0
 11
30.75
 21
0.0
 31
0.0
  0
LINE
  5
4A2
330
490
100
AcDbEntity
  8
FORMAT
 62
     0
100
AcDbLine
 10
36.0
 20
-5.0
 30
0.0
 11
36.0
 21
-5.25
 31
0.0
  0
ENDBLK
  5
492
330
490
100
AcDbEntity
  8
0
100
AcDbBlockEnd
  0
BLOCK
  5
4A5
330
4A4
100
AcDbEntity
  8
0
100
AcDbBlockBegin
  2
SW_CENTERMARKSYMBOL_51
 70
     0
 10
0.0
 20
0.0
 30
0.0
  3
SW_CENTERMARKSYMBOL_51
  1

  0
LINE
  5
4A7
330
4A4
100
AcDbEntity
  8
FORMAT
 62
     0
100
AcDbLine
 10
0.0
 20
0.0
 30
0.0
 11
2.5
 21
0.0
 31
0.0
  0
LINE
  5
4A8
330
4A4
100
AcDbEntity
  8
FORMAT
 62
     0
100
AcDbLine
 10
0.0
 20
0.0
 30
0.0
 11
0.0
 21
2.5
 31
0.0
  0
LINE
  5
4A9
330
4A4
100
AcDbEntity
  8
FORMAT
 62
     0
100
AcDbLine
 10
0.0
 20
0.0
 30
0.0
 11
-2.5
 21
0.0
 31
0.0
  0
LINE
  5
4AA
330
4A4
100
AcDbEntity
  8
FORMAT
 62
     0
100
AcDbLine
 10
0.0
 20
0.0
 30
0.0
 11
0.0
 21
-2.5
 31
0.0
  0
LINE
  5
4AB
330
4A4
100
AcDbEntity
  8
FORMAT
 62
     0
100
AcDbLine
 10
5.0
 20
0.0
 30
0.0
 11
6.5
 21
0.0
 31
0.0
  0
LINE
  5
4AC
330
4A4
100
AcDbEntity
  8
FORMAT
 62
     0
100
AcDbLine
 10
0.0
 20
5.0
 30
0.0
 11
0.0
 21
6.5
 31
0.0
  0
LINE
  5
4AD
330
4A4
100
AcDbEntity
  8
FORMAT
 62
     0
100
AcDbLine
 10
-5.0
 20
0.0
 30
0.0
 11
-6.5
 21
0.0
 31
0.0
  0
LINE
  5
4AE
330
4A4
100
AcDbEntity
  8
FORMAT
 62
     0
100
AcDbLine
 10
0.0
 20
-5.0
 30
0.0
 11
0.0
 21
-6.5
 31
0.0
  0
LINE
  5
4AF
330
4A4
100
AcDbEntity
  8
FORMAT
 62
     0
100
AcDbLine
 10
17.0
 20
0.0
 30
0.0
 11
19.5
 21
0.0
 31
0.0
  0
LINE
  5
4B0
330
4A4
100
AcDbEntity
  8
FORMAT
 62
     0
100
AcDbLine
 10
17.0
 20
0.0
 30
0.0
 11
17.0
 21
2.5
 31
0.0
  0
LINE
  5
4B1
330
4A4
100
AcDbEntity
  8
FORMAT
 62
     0
100
AcDbLine
 10
17.0
 20
0.0
 30
0.0
 11
14.5
 21
0.0
 31
0.0
  0
LINE
  5
4B2
330
4A4
100
AcDbEntity
  8
FORMAT
 62
     0
100
AcDbLine
 10
17.0
 20
0.0
 30
0.0
 11
17.0
 21
-2.5
 31
0.0
  0
LINE
  5
4B3
330
4A4
100
AcDbEntity
  8
FORMAT
 62
     0
100
AcDbLine
 10
22.0
 20
0.0
 30
0.0
 11
23.5
 21
0.0
 31
0.0
  0
LINE
  5
4B4
330
4A4
100
AcDbEntity
  8
FORMAT
 62
     0
100
AcDbLine
 10
17.0
 20
5.0
 30
0.0
 11
17.0
 21
6.5
 31
0.0
  0
LINE
  5
4B5
330
4A4
100
AcDbEntity
  8
FORMAT
 62
     0
100
AcDbLine
 10
12.0
 20
0.0
 30
0.0
 11
10.5
 21
0.0
 31
0.0
  0
LINE
  5
4B6
330
4A4
100
AcDbEntity
  8
FORMAT
 62
     0
100
AcDbLine
 10
17.0
 20
-5.0
 30
0.0
 11
17.0
 21
-6.5
 31
0.0
  0
ENDBLK
  5
4A6
330
4A4
100
AcDbEntity
  8
0
100
AcDbBlockEnd
  0
BLOCK
  5
4B9
330
4B8
100
AcDbEntity
  8
0
100
AcDbBlockBegin
  2
SW_CENTERMARKSYMBOL_52
 70
     0
 10
0.0
 20
0.0
 30
0.0
  3
SW_CENTERMARKSYMBOL_52
  1

  0
LINE
  5
4BB
330
4B8
100
AcDbEntity
  8
FORMAT
 62
     0
100
AcDbLine
 10
0.0
 20
0.0
 30
0.0
 11
2.5
 21
0.0
 31
0.0
  0
LINE
  5
4BC
330
4B8
100
AcDbEntity
  8
FORMAT
 62
     0
100
AcDbLine
 10
0.0
 20
0.0
 30
0.0
 11
0.0
 21
2.5
 31
0.0
  0
LINE
  5
4BD
330
4B8
100
AcDbEntity
  8
FORMAT
 62
     0
100
AcDbLine
 10
0.0
 20
0.0
 30
0.0
 11
-2.5
 21
0.0
 31
0.0
  0
LINE
  5
4BE
330
4B8
100
AcDbEntity
  8
FORMAT
 62
     0
100
AcDbLine
 10
0.0
 20
0.0
 30
0.0
 11
0.0
 21
-2.5
 31
0.0
  0
LINE
  5
4BF
330
4B8
100
AcDbEntity
  8
FORMAT
 62
     0
100
AcDbLine
 10
5.0
 20
0.0
 30
0.0
 11
28.0484198636
 21
0.0
 31
0.0
  0
LINE
  5
4C0
330
4B8
100
AcDbEntity
  8
FORMAT
 62
     0
100
AcDbLine
 10
0.0
 20
5.0
 30
0.0
 11
0.0
 21
5.25
 31
0.0
  0
LINE
  5
4C1
330
4B8
100
AcDbEntity
  8
FORMAT
 62
     0
100
AcDbLine
 10
-5.0
 20
0.0
 30
0.0
 11
-5.25
 21
0.0
 31
0.0
  0
LINE
  5
4C2
330
4B8
100
AcDbEntity
  8
FORMAT
 62
     0
100
AcDbLine
 10
0.0
 20
-5.0
 30
0.0
 11
0.0
 21
-5.25
 31
0.0
  0
LINE
  5
4C3
330
4B8
100
AcDbEntity
  8
FORMAT
 62
     0
100
AcDbLine
 10
36.0
 20
0.0
 30
0.0
 11
38.5
 21
0.0
 31
0.0
  0
LINE
  5
4C4
330
4B8
100
AcDbEntity
  8
FORMAT
 62
     0
100
AcDbLine
 10
36.0
 20
0.0
 30
0.0
 11
36.0
 21
2.5
 31
0.0
  0
LINE
  5
4C5
330
4B8
100
AcDbEntity
  8
FORMAT
 62
     0
100
AcDbLine
 10
36.0
 20
0.0
 30
0.0
 11
33.5
 21
0.0
 31
0.0
  0
LINE
  5
4C6
330
4B8
100
AcDbEntity
  8
FORMAT
 62
     0
100
AcDbLine
 10
36.0
 20
0.0
 30
0.0
 11
36.0
 21
-2.5
 31
0.0
  0
LINE
  5
4C7
330
4B8
100
AcDbEntity
  8
FORMAT
 62
     0
100
AcDbLine
 10
41.0
 20
0.0
 30
0.0
 11
41.25
 21
0.0
 31
0.0
  0
LINE
  5
4C8
330
4B8
100
AcDbEntity
  8
FORMAT
 62
     0
100
AcDbLine
 10
36.0
 20
5.0
 30
0.0
 11
36.0
 21
5.25
 31
0.0
  0
LINE
  5
4C9
330
4B8
100
AcDbEntity
  8
FORMAT
 62
     0
100
AcDbLine
 10
31.0
 20
0.0
 30
0.0
 11
30.75
 21
0.0
 31
0.0
  0
LINE
  5
4CA
330
4B8
100
AcDbEntity
  8
FORMAT
 62
     0
100
AcDbLine
 10
36.0
 20
-5.0
 30
0.0
 11
36.0
 21
-5.25
 31
0.0
  0
ENDBLK
  5
4BA
330
4B8
100
AcDbEntity
  8
0
100
AcDbBlockEnd
  0
BLOCK
  5
4CD
330
4CC
100
AcDbEntity
  8
0
100
AcDbBlockBegin
  2
SW_CENTERMARKSYMBOL_53
 70
     0
 10
0.0
 20
0.0
 30
0.0
  3
SW_CENTERMARKSYMBOL_53
  1

  0
LINE
  5
4CF
330
4CC
100
AcDbEntity
  8
FORMAT
 62
     0
100
AcDbLine
 10
0.0
 20
0.0
 30
0.0
 11
2.5
 21
0.0
 31
0.0
  0
LINE
  5
4D0
330
4CC
100
AcDbEntity
  8
FORMAT
 62
     0
100
AcDbLine
 10
0.0
 20
0.0
 30
0.0
 11
0.0
 21
2.5
 31
0.0
  0
LINE
  5
4D1
330
4CC
100
AcDbEntity
  8
FORMAT
 62
     0
100
AcDbLine
 10
0.0
 20
0.0
 30
0.0
 11
-2.5
 21
0.0
 31
0.0
  0
LINE
  5
4D2
330
4CC
100
AcDbEntity
  8
FORMAT
 62
     0
100
AcDbLine
 10
0.0
 20
0.0
 30
0.0
 11
0.0
 21
-2.5
 31
0.0
  0
LINE
  5
4D3
330
4CC
100
AcDbEntity
  8
FORMAT
 62
     0
100
AcDbLine
 10
5.0
 20
0.0
 30
0.0
 11
6.5
 21
0.0
 31
0.0
  0
LINE
  5
4D4
330
4CC
100
AcDbEntity
  8
FORMAT
 62
     0
100
AcDbLine
 10
0.0
 20
5.0
 30
0.0
 11
0.0
 21
6.5
 31
0.0
  0
LINE
  5
4D5
330
4CC
100
AcDbEntity
  8
FORMAT
 62
     0
100
AcDbLine
 10
-5.0
 20
0.0
 30
0.0
 11
-6.5
 21
0.0
 31
0.0
  0
LINE
  5
4D6
330
4CC
100
AcDbEntity
  8
FORMAT
 62
     0
100
AcDbLine
 10
0.0
 20
-5.0
 30
0.0
 11
0.0
 21
-6.5
 31
0.0
  0
LINE
  5
4D7
330
4CC
100
AcDbEntity
  8
FORMAT
 62
     0
100
AcDbLine
 10
17.0
 20
0.0
 30
0.0
 11
19.5
 21
0.0
 31
0.0
  0
LINE
  5
4D8
330
4CC
100
AcDbEntity
  8
FORMAT
 62
     0
100
AcDbLine
 10
17.0
 20
0.0
 30
0.0
 11
17.0
 21
2.5
 31
0.0
  0
LINE
  5
4D9
330
4CC
100
AcDbEntity
  8
FORMAT
 62
     0
100
AcDbLine
 10
17.0
 20
0.0
 30
0.0
 11
14.5
 21
0.0
 31
0.0
  0
LINE
  5
4DA
330
4CC
100
AcDbEntity
  8
FORMAT
 62
     0
100
AcDbLine
 10
17.0
 20
0.0
 30
0.0
 11
17.0
 21
-2.5
 31
0.0
  0
LINE
  5
4DB
330
4CC
100
AcDbEntity
  8
FORMAT
 62
     0
100
AcDbLine
 10
22.0
 20
0.0
 30
0.0
 11
23.5
 21
0.0
 31
0.0
  0
LINE
  5
4DC
330
4CC
100
AcDbEntity
  8
FORMAT
 62
     0
100
AcDbLine
 10
17.0
 20
5.0
 30
0.0
 11
17.0
 21
6.5
 31
0.0
  0
LINE
  5
4DD
330
4CC
100
AcDbEntity
  8
FORMAT
 62
     0
100
AcDbLine
 10
12.0
 20
0.0
 30
0.0
 11
10.5
 21
0.0
 31
0.0
  0
LINE
  5
4DE
330
4CC
100
AcDbEntity
  8
FORMAT
 62
     0
100
AcDbLine
 10
17.0
 20
-5.0
 30
0.0
 11
17.0
 21
-6.5
 31
0.0
  0
ENDBLK
  5
4CE
330
4CC
100
AcDbEntity
  8
0
100
AcDbBlockEnd
  0
BLOCK
  5
4E1
330
4E0
100
AcDbEntity
  8
0
100
AcDbBlockBegin
  2
SW_CENTERMARKSYMBOL_54
 70
     0
 10
0.0
 20
0.0
 30
0.0
  3
SW_CENTERMARKSYMBOL_54
  1

  0
LINE
  5
4E3
330
4E0
100
AcDbEntity
  8
FORMAT
 62
     0
100
AcDbLine
 10
0.0
 20
0.0
 30
0.0
 11
0.0
 21
2.5
 31
0.0
  0
LINE
  5
4E4
330
4E0
100
AcDbEntity
  8
FORMAT
 62
     0
100
AcDbLine
 10
0.0
 20
0.0
 30
0.0
 11
-2.5
 21
0.0
 31
0.0
  0
LINE
  5
4E5
330
4E0
100
AcDbEntity
  8
FORMAT
 62
     0
100
AcDbLine
 10
0.0
 20
0.0
 30
0.0
 11
0.0
 21
-2.5
 31
0.0
  0
LINE
  5
4E6
330
4E0
100
AcDbEntity
  8
FORMAT
 62
     0
100
AcDbLine
 10
0.0
 20
0.0
 30
0.0
 11
2.5
 21
0.0
 31
0.0
  0
LINE
  5
4E7
330
4E0
100
AcDbEntity
  8
FORMAT
 62
     0
100
AcDbLine
 10
0.0
 20
5.0
 30
0.0
 11
0.0
 21
5.25
 31
0.0
  0
LINE
  5
4E8
330
4E0
100
AcDbEntity
  8
FORMAT
 62
     0
100
AcDbLine
 10
-5.0
 20
0.0
 30
0.0
 11
-5.25
 21
0.0
 31
0.0
  0
LINE
  5
4E9
330
4E0
100
AcDbEntity
  8
FORMAT
 62
     0
100
AcDbLine
 10
0.0
 20
-5.0
 30
0.0
 11
0.0
 21
-5.25
 31
0.0
  0
LINE
  5
4EA
330
4E0
100
AcDbEntity
  8
FORMAT
 62
     0
100
AcDbLine
 10
5.0
 20
0.0
 30
0.0
 11
5.25
 21
0.0
 31
0.0
  0
ENDBLK
  5
4E2
330
4E0
100
AcDbEntity
  8
0
100
AcDbBlockEnd
  0
BLOCK
  5
4ED
330
4EC
100
AcDbEntity
  8
0
100
AcDbBlockBegin
  2
SW_CENTERMARKSYMBOL_55
 70
     0
 10
0.0
 20
0.0
 30
0.0
  3
SW_CENTERMARKSYMBOL_55
  1

  0
LINE
  5
4EF
330
4EC
100
AcDbEntity
  8
FORMAT
 62
     0
100
AcDbLine
 10
0.0
 20
0.0
 30
0.0
 11
0.0
 21
2.5
 31
0.0
  0
LINE
  5
4F0
330
4EC
100
AcDbEntity
  8
FORMAT
 62
     0
100
AcDbLine
 10
0.0
 20
0.0
 30
0.0
 11
-2.5
 21
0.0
 31
0.0
  0
LINE
  5
4F1
330
4EC
100
AcDbEntity
  8
FORMAT
 62
     0
100
AcDbLine
 10
0.0
 20
0.0
 30
0.0
 11
0.0
 21
-2.5
 31
0.0
  0
LINE
  5
4F2
330
4EC
100
AcDbEntity
  8
FORMAT
 62
     0
100
AcDbLine
 10
0.0
 20
0.0
 30
0.0
 11
2.5
 21
0.0
 31
0.0
  0
LINE
  5
4F3
330
4EC
100
AcDbEntity
  8
FORMAT
 62
     0
100
AcDbLine
 10
0.0
 20
5.0
 30
0.0
 11
0.0
 21
9.0
 31
0.0
  0
LINE
  5
4F4
330
4EC
100
AcDbEntity
  8
FORMAT
 62
     0
100
AcDbLine
 10
-5.0
 20
0.0
 30
0.0
 11
-9.0
 21
0.0
 31
0.0
  0
LINE
  5
4F5
330
4EC
100
AcDbEntity
  8
FORMAT
 62
     0
100
AcDbLine
 10
0.0
 20
-5.0
 30
0.0
 11
0.0
 21
-9.0
 31
0.0
  0
LINE
  5
4F6
330
4EC
100
AcDbEntity
  8
FORMAT
 62
     0
100
AcDbLine
 10
5.0
 20
0.0
 30
0.0
 11
9.0
 21
0.0
 31
0.0
  0
ENDBLK
  5
4EE
330
4EC
100
AcDbEntity
  8
0
100
AcDbBlockEnd
  0
BLOCK
  5
4F9
330
4F8
100
AcDbEntity
  8
0
100
AcDbBlockBegin
  2
SW_CENTERMARKSYMBOL_56
 70
     0
 10
0.0
 20
0.0
 30
0.0
  3
SW_CENTERMARKSYMBOL_56
  1

  0
LINE
  5
4FB
330
4F8
100
AcDbEntity
  8
FORMAT
 62
     0
100
AcDbLine
 10
0.0
 20
0.0
 30
0.0
 11
0.0
 21
2.5
 31
0.0
  0
LINE
  5
4FC
330
4F8
100
AcDbEntity
  8
FORMAT
 62
     0
100
AcDbLine
 10
0.0
 20
0.0
 30
0.0
 11
-2.5
 21
0.0
 31
0.0
  0
LINE
  5
4FD
330
4F8
100
AcDbEntity
  8
FORMAT
 62
     0
100
AcDbLine
 10
0.0
 20
0.0
 30
0.0
 11
0.0
 21
-2.5
 31
0.0
  0
LINE
  5
4FE
330
4F8
100
AcDbEntity
  8
FORMAT
 62
     0
100
AcDbLine
 10
0.0
 20
0.0
 30
0.0
 11
2.5
 21
0.0
 31
0.0
  0
LINE
  5
4FF
330
4F8
100
AcDbEntity
  8
FORMAT
 62
     0
100
AcDbLine
 10
0.0
 20
5.0
 30
0.0
 11
0.0
 21
7.5
 31
0.0
  0
LINE
  5
500
330
4F8
100
AcDbEntity
  8
FORMAT
 62
     0
100
AcDbLine
 10
-5.0
 20
0.0
 30
0.0
 11
-7.5
 21
0.0
 31
0.0
  0
LINE
  5
501
330
4F8
100
AcDbEntity
  8
FORMAT
 62
     0
100
AcDbLine
 10
0.0
 20
-5.0
 30
0.0
 11
0.0
 21
-7.5
 31
0.0
  0
LINE
  5
502
330
4F8
100
AcDbEntity
  8
FORMAT
 62
     0
100
AcDbLine
 10
5.0
 20
0.0
 30
0.0
 11
7.5
 21
0.0
 31
0.0
  0
ENDBLK
  5
4FA
330
4F8
100
AcDbEntity
  8
0
100
AcDbBlockEnd
  0
BLOCK
  5
5BA
330
5B9
100
AcDbEntity
  8
0
100
AcDbBlockBegin
  2
_D_9
 70
     0
 10
0.0
 20
0.0
 30
0.0
  3
_D_9
  1

  0
SOLID
  5
5BC
330
5B9
100
AcDbEntity
  8
FORMAT
100
AcDbTrace
 10
193.3777745458
 20
168.6116462793
 30
0.0
 11
190.0757745458
 21
169.1196462793
 31
0.0
 12
190.0757745458
 22
168.1036462793
 32
0.0
 13
190.0757745458
 23
168.1036462793
 33
0.0
  0
SOLID
  5
5BD
330
5B9
100
AcDbEntity
  8
FORMAT
100
AcDbTrace
 10
196.3777745458
 20
168.6116462793
 30
0.0
 11
199.6797745458
 21
168.1036462793
 31
0.0
 12
199.6797745458
 22
169.1196462793
 32
0.0
 13
199.6797745458
 23
169.1196462793
 33
0.0
  0
LINE
  5
5BE
330
5B9
100
AcDbEntity
  8
FORMAT
100
AcDbLine
 10
193.3777745458
 20
176.0292043295
 30
0.0
 11
193.3777745458
 21
167.6116462793
 31
0.0
  0
LINE
  5
5BF
330
5B9
100
AcDbEntity
  8
FORMAT
100
AcDbLine
 10
196.3777745458
 20
176.0292043295
 30
0.0
 11
196.3777745458
 21
167.6116462793
 31
0.0
  0
LINE
  5
5C0
330
5B9
100
AcDbEntity
  8
FORMAT
100
AcDbLine
 10
193.3777745458
 20
168.6116462793
 30
0.0
 11
187.0277745458
 21
168.6116462793
 31
0.0
  0
LINE
  5
5C1
330
5B9
100
AcDbEntity
  8
FORMAT
100
AcDbLine
 10
193.3777745458
 20
168.6116462793
 30
0.0
 11
196.3777745458
 21
168.6116462793
 31
0.0
  0
LINE
  5
5C2
330
5B9
100
AcDbEntity
  8
FORMAT
100
AcDbLine
 10
196.3777745458
 20
168.6116462793
 30
0.0
 11
204.2534694847
 21
168.6116462793
 31
0.0
  0
MTEXT
  5
5C3
330
5B9
100
AcDbEntity
  8
FORMAT
100
AcDbMText
 10
201.5798584398
 20
173.1233836014
 30
0.0
 40
3.5
 41
0.0
 71
     1
 72
     1
  1
3
  7
SLDTEXTSTYLE0
 73
     1
 44
1.0
  0
ENDBLK
  5
5BB
330
5B9
100
AcDbEntity
  8
0
100
AcDbBlockEnd
  0
BLOCK
  5
5C6
330
5C5
100
AcDbEntity
  8
0
100
AcDbBlockBegin
  2
_D_10
 70
     0
 10
0.0
 20
0.0
 30
0.0
  3
_D_10
  1

  0
SOLID
  5
5C8
330
5C5
100
AcDbEntity
  8
FORMAT
100
AcDbTrace
 10
193.3777745458
 20
160.0993462226
 30
0.0
 11
196.6797745458
 21
159.5913462226
 31
0.0
 12
196.6797745458
 22
160.6073462226
 32
0.0
 13
196.6797745458
 23
160.6073462226
 33
0.0
  0
SOLID
  5
5C9
330
5C5
100
AcDbEntity
  8
FORMAT
100
AcDbTrace
 10
189.3777745458
 20
160.0993462226
 30
0.0
 11
186.0757745458
 21
160.6073462226
 31
0.0
 12
186.0757745458
 22
159.5913462226
 32
0.0
 13
186.0757745458
 23
159.5913462226
 33
0.0
  0
LINE
  5
5CA
330
5C5
100
AcDbEntity
  8
FORMAT
100
AcDbLine
 10
193.3777745458
 20
176.0292043295
 30
0.0
 11
193.3777745458
 21
159.0993462226
 31
0.0
  0
LINE
  5
5CB
330
5C5
100
AcDbEntity
  8
FORMAT
100
AcDbLine
 10
189.3777745458
 20
176.5292043295
 30
0.0
 11
189.3777745458
 21
159.0993462226
 31
0.0
  0
LINE
  5
5CC
330
5C5
100
AcDbEntity
  8
FORMAT
100
AcDbLine
 10
193.3777745458
 20
160.0993462226
 30
0.0
 11
200.9886657225
 21
160.0993462226
 31
0.0
  0
LINE
  5
5CD
330
5C5
100
AcDbEntity
  8
FORMAT
100
AcDbLine
 10
193.3777745458
 20
160.0993462226
 30
0.0
 11
189.3777745458
 21
160.0993462226
 31
0.0
  0
LINE
  5
5CE
330
5C5
100
AcDbEntity
  8
FORMAT
100
AcDbLine
 10
189.3777745458
 20
160.0993462226
 30
0.0
 11
183.0277745458
 21
160.0993462226
 31
0.0
  0
MTEXT
  5
5CF
330
5C5
100
AcDbEntity
  8
FORMAT
100
AcDbMText
 10
198.3150546776
 20
164.6110835447
 30
0.0
 40
3.5
 41
0.0
 71
     1
 72
     1
  1
4
  7
SLDTEXTSTYLE0
 73
     1
 44
1.0
  0
ENDBLK
  5
5C7
330
5C5
100
AcDbEntity
  8
0
100
AcDbBlockEnd
  0
BLOCK
  5
5D2
330
5D1
100
AcDbEntity
  8
0
100
AcDbBlockBegin
  2
_D_11
 70
     0
 10
0.0
 20
0.0
 30
0.0
  3
_D_11
  1

  0
SOLID
  5
5D4
330
5D1
100
AcDbEntity
  8
FORMAT
100
AcDbTrace
 10
185.3777745458
 20
138.3058192568
 30
0.0
 11
182.0757745458
 21
138.8138192568
 31
0.0
 12
182.0757745458
 22
137.7978192568
 32
0.0
 13
182.0757745458
 23
137.7978192568
 33
0.0
  0
SOLID
  5
5D5
330
5D1
100
AcDbEntity
  8
FORMAT
100
AcDbTrace
 10
189.3777745458
 20
138.3058192568
 30
0.0
 11
192.6797745458
 21
137.7978192568
 31
0.0
 12
192.6797745458
 22
138.8138192568
 32
0.0
 13
192.6797745458
 23
138.8138192568
 33
0.0
  0
LINE
  5
5D6
330
5D1
100
AcDbEntity
  8
FORMAT
100
AcDbLine
 10
185.3777745458
 20
176.5292043295
 30
0.0
 11
185.3777745458
 21
161.5993462226
 31
0.0
  0
LINE
  5
5D7
330
5D1
100
AcDbEntity
  8
FORMAT
100
AcDbLine
 10
185.3777745458
 20
158.5993462226
 30
0.0
 11
185.3777745458
 21
153.644036562
 31
0.0
  0
LINE
  5
5D8
330
5D1
100
AcDbEntity
  8
FORMAT
100
AcDbLine
 10
185.3777745458
 20
150.644036562
 30
0.0
 11
185.3777745458
 21
137.3058192568
 31
0.0
  0
LINE
  5
5D9
330
5D1
100
AcDbEntity
  8
FORMAT
100
AcDbLine
 10
189.3777745458
 20
176.5292043295
 30
0.0
 11
189.3777745458
 21
170.1116462793
 31
0.0
  0
LINE
  5
5DA
330
5D1
100
AcDbEntity
  8
FORMAT
100
AcDbLine
 10
189.3777745458
 20
167.1116462793
 30
0.0
 11
189.3777745458
 21
147.2657746429
 31
0.0
  0
LINE
  5
5DB
330
5D1
100
AcDbEntity
  8
FORMAT
100
AcDbLine
 10
189.3777745458
 20
144.2657746429
 30
0.0
 11
189.3777745458
 21
137.3058192568
 31
0.0
  0
LINE
  5
5DC
330
5D1
100
AcDbEntity
  8
FORMAT
100
AcDbLine
 10
185.3777745458
 20
138.3058192568
 30
0.0
 11
175.1032377071
 21
138.3058192568
 31
0.0
  0
LINE
  5
5DD
330
5D1
100
AcDbEntity
  8
FORMAT
100
AcDbLine
 10
185.3777745458
 20
138.3058192568
 30
0.0
 11
189.3777745458
 21
138.3058192568
 31
0.0
  0
LINE
  5
5DE
330
5D1
100
AcDbEntity
  8
FORMAT
100
AcDbLine
 10
189.3777745458
 20
138.3058192568
 30
0.0
 11
195.7277745458
 21
138.3058192568
 31
0.0
  0
MTEXT
  5
5DF
330
5D1
100
AcDbEntity
  8
FORMAT
100
AcDbMText
 10
175.1032377071
 20
142.8175565788
 30
0.0
 40
3.5
 41
0.0
 71
     1
 72
     1
  1
4
  7
SLDTEXTSTYLE0
 73
     1
 44
1.0
  0
ENDBLK
  5
5D3
330
5D1
100
AcDbEntity
  8
0
100
AcDbBlockEnd
  0
BLOCK
  5
5E2
330
5E1
100
AcDbEntity
  8
0
100
AcDbBlockBegin
  2
_D_12
 70
     0
 10
0.0
 20
0.0
 30
0.0
  3
_D_12
  1

  0
SOLID
  5
5E4
330
5E1
100
AcDbEntity
  8
FORMAT
100
AcDbTrace
 10
185.3777745458
 20
145.7657746429
 30
0.0
 11
188.6797745458
 21
145.2577746429
 31
0.0
 12
188.6797745458
 22
146.2737746429
 32
0.0
 13
188.6797745458
 23
146.2737746429
 33
0.0
  0
SOLID
  5
5E5
330
5E1
100
AcDbEntity
  8
FORMAT
100
AcDbTrace
 10
181.3777745458
 20
145.7657746429
 30
0.0
 11
178.0757745458
 21
146.2737746429
 31
0.0
 12
178.0757745458
 22
145.2577746429
 32
0.0
 13
178.0757745458
 23
145.2577746429
 33
0.0
  0
LINE
  5
5E6
330
5E1
100
AcDbEntity
  8
FORMAT
100
AcDbLine
 10
185.3777745458
 20
176.5292043295
 30
0.0
 11
185.3777745458
 21
161.5993462226
 31
0.0
  0
LINE
  5
5E7
330
5E1
100
AcDbEntity
  8
FORMAT
100
AcDbLine
 10
185.3777745458
 20
158.5993462226
 30
0.0
 11
185.3777745458
 21
153.644036562
 31
0.0
  0
LINE
  5
5E8
330
5E1
100
AcDbEntity
  8
FORMAT
100
AcDbLine
 10
185.3777745458
 20
150.644036562
 30
0.0
 11
185.3777745458
 21
144.7657746429
 31
0.0
  0
LINE
  5
5E9
330
5E1
100
AcDbEntity
  8
FORMAT
100
AcDbLine
 10
181.3777745458
 20
158.0292043295
 30
0.0
 11
181.3777745458
 21
144.7657746429
 31
0.0
  0
LINE
  5
5EA
330
5E1
100
AcDbEntity
  8
FORMAT
100
AcDbLine
 10
185.3777745458
 20
145.7657746429
 30
0.0
 11
191.7277745458
 21
145.7657746429
 31
0.0
  0
LINE
  5
5EB
330
5E1
100
AcDbEntity
  8
FORMAT
100
AcDbLine
 10
185.3777745458
 20
145.7657746429
 30
0.0
 11
181.3777745458
 21
145.7657746429
 31
0.0
  0
LINE
  5
5EC
330
5E1
100
AcDbEntity
  8
FORMAT
100
AcDbLine
 10
181.3777745458
 20
145.7657746429
 30
0.0
 11
171.0173579785
 21
145.7657746429
 31
0.0
  0
MTEXT
  5
5ED
330
5E1
100
AcDbEntity
  8
FORMAT
100
AcDbMText
 10
171.0173579785
 20
150.2775119649
 30
0.0
 40
3.5
 41
0.0
 71
     1
 72
     1
  1
4
  7
SLDTEXTSTYLE0
 73
     1
 44
1.0
  0
ENDBLK
  5
5E3
330
5E1
100
AcDbEntity
  8
0
100
AcDbBlockEnd
  0
BLOCK
  5
5F0
330
5EF
100
AcDbEntity
  8
0
100
AcDbBlockBegin
  2
_D_13
 70
     0
 10
0.0
 20
0.0
 30
0.0
  3
_D_13
  1

  0
SOLID
  5
5F2
330
5EF
100
AcDbEntity
  8
FORMAT
100
AcDbTrace
 10
177.3777745458
 20
152.144036562
 30
0.0
 11
174.0757745458
 21
152.652036562
 31
0.0
 12
174.0757745458
 22
151.636036562
 32
0.0
 13
174.0757745458
 23
151.636036562
 33
0.0
  0
SOLID
  5
5F3
330
5EF
100
AcDbEntity
  8
FORMAT
100
AcDbTrace
 10
181.3777745458
 20
152.144036562
 30
0.0
 11
184.6797745458
 21
151.636036562
 31
0.0
 12
184.6797745458
 22
152.652036562
 32
0.0
 13
184.6797745458
 23
152.652036562
 33
0.0
  0
LINE
  5
5F4
330
5EF
100
AcDbEntity
  8
FORMAT
100
AcDbLine
 10
177.3777745458
 20
158.0292043295
 30
0.0
 11
177.3777745458
 21
151.144036562
 31
0.0
  0
LINE
  5
5F5
330
5EF
100
AcDbEntity
  8
FORMAT
100
AcDbLine
 10
181.3777745458
 20
158.0292043295
 30
0.0
 11
181.3777745458
 21
151.144036562
 31
0.0
  0
LINE
  5
5F6
330
5EF
100
AcDbEntity
  8
FORMAT
100
AcDbLine
 10
177.3777745458
 20
152.144036562
 30
0.0
 11
166.5879593355
 21
152.144036562
 31
0.0
  0
LINE
  5
5F7
330
5EF
100
AcDbEntity
  8
FORMAT
100
AcDbLine
 10
177.3777745458
 20
152.144036562
 30
0.0
 11
181.3777745458
 21
152.144036562
 31
0.0
  0
LINE
  5
5F8
330
5EF
100
AcDbEntity
  8
FORMAT
100
AcDbLine
 10
181.3777745458
 20
152.144036562
 30
0.0
 11
187.7277745458
 21
152.144036562
 31
0.0
  0
MTEXT
  5
5F9
330
5EF
100
AcDbEntity
  8
FORMAT
100
AcDbMText
 10
166.5879593355
 20
156.655773884
 30
0.0
 40
3.5
 41
0.0
 71
     1
 72
     1
  1
4
  7
SLDTEXTSTYLE0
 73
     1
 44
1.0
  0
ENDBLK
  5
5F1
330
5EF
100
AcDbEntity
  8
0
100
AcDbBlockEnd
  0
BLOCK
  5
5FC
330
5FB
100
AcDbEntity
  8
0
100
AcDbBlockBegin
  2
_D_14
 70
     0
 10
0.0
 20
0.0
 30
0.0
  3
_D_14
  1

  0
SOLID
  5
5FE
330
5FB
100
AcDbEntity
  8
FORMAT
100
AcDbTrace
 10
196.3777745458
 20
385.0292043295
 30
0.0
 11
193.0757745458
 21
385.5372043295
 31
0.0
 12
193.0757745458
 22
384.5212043295
 32
0.0
 13
193.0757745458
 23
384.5212043295
 33
0.0
  0
SOLID
  5
5FF
330
5FB
100
AcDbEntity
  8
FORMAT
100
AcDbTrace
 10
175.3777745458
 20
385.0292043295
 30
0.0
 11
178.6797745458
 21
384.5212043295
 31
0.0
 12
178.6797745458
 22
385.5372043295
 32
0.0
 13
178.6797745458
 23
385.5372043295
 33
0.0
  0
LINE
  5
600
330
5FB
100
AcDbEntity
  8
FORMAT
100
AcDbLine
 10
196.3777745458
 20
358.0292043295
 30
0.0
 11
196.3777745458
 21
386.0292043295
 31
0.0
  0
LINE
  5
601
330
5FB
100
AcDbEntity
  8
FORMAT
100
AcDbLine
 10
175.3777745458
 20
336.0292043295
 30
0.0
 11
175.3777745458
 21
386.0292043295
 31
0.0
  0
LINE
  5
602
330
5FB
100
AcDbEntity
  8
FORMAT
100
AcDbLine
 10
196.3777745458
 20
385.0292043295
 30
0.0
 11
175.3777745458
 21
385.0292043295
 31
0.0
  0
MTEXT
  5
603
330
5FB
100
AcDbEntity
  8
FORMAT
100
AcDbMText
 10
183.2041635009
 20
389.5409416515
 30
0.0
 40
3.5
 41
0.0
 71
     1
 72
     1
  1
21
  7
SLDTEXTSTYLE0
 73
     1
 44
1.0
  0
ENDBLK
  5
5FD
330
5FB
100
AcDbEntity
  8
0
100
AcDbBlockEnd
  0
BLOCK
  5
64E
330
64D
100
AcDbEntity
  8
0
100
AcDbBlockBegin
  2
_D_15
 70
     0
 10
0.0
 20
0.0
 30
0.0
  3
_D_15
  1

  0
SOLID
  5
650
330
64D
100
AcDbEntity
  8
FORMAT
100
AcDbTrace
 10
391.1278805716
 20
363.0643911761
 30
0.0
 11
390.6198805716
 21
359.7623911761
 31
0.0
 12
391.6358805716
 22
359.7623911761
 32
0.0
 13
391.6358805716
 23
359.7623911761
 33
0.0
  0
SOLID
  5
651
330
64D
100
AcDbEntity
  8
FORMAT
100
AcDbTrace
 10
391.1278805716
 20
183.0643911761
 30
0.0
 11
391.6358805716
 21
186.3663911761
 31
0.0
 12
390.6198805716
 22
186.3663911761
 32
0.0
 13
390.6198805716
 23
186.3663911761
 33
0.0
  0
LINE
  5
652
330
64D
100
AcDbEntity
  8
FORMAT
100
AcDbLine
 10
361.2276496512
 20
363.0643911761
 30
0.0
 11
392.1278805716
 21
363.0643911761
 31
0.0
  0
LINE
  5
653
330
64D
100
AcDbEntity
  8
FORMAT
100
AcDbLine
 10
361.2276496512
 20
183.0643911761
 30
0.0
 11
392.1278805716
 21
183.0643911761
 31
0.0
  0
LINE
  5
654
330
64D
100
AcDbEntity
  8
FORMAT
100
AcDbLine
 10
391.1278805716
 20
363.0643911761
 30
0.0
 11
391.1278805716
 21
183.0643911761
 31
0.0
  0
MTEXT
  5
655
330
64D
100
AcDbEntity
  8
FORMAT
100
AcDbMText
 10
386.6161432496
 20
269.0539746088
 30
0.0
 40
3.5
 41
0.0
 71
     1
 72
     1
  1
180
  7
SLDTEXTSTYLE0
 11
-7.044195017643634E-15
 21
1.0
 31
0.0
 73
     1
 44
1.0
  0
ENDBLK
  5
64F
330
64D
100
AcDbEntity
  8
0
100
AcDbBlockEnd
  0
BLOCK
  5
659
330
658
100
AcDbEntity
  8
0
100
AcDbBlockBegin
  2
_D_16
 70
     0
 10
0.0
 20
0.0
 30
0.0
  3
_D_16
  1

  0
SOLID
  5
65B
330
658
100
AcDbEntity
  8
FORMAT
100
AcDbTrace
 10
353.386294741
 20
185.2055949518
 30
0.0
 11
351.086426208
 21
182.7824002153
 31
0.0
 12
351.9211376217
 22
182.2031654995
 32
0.0
 13
351.9211376217
 23
182.2031654995
 33
0.0
  0
LINE
  5
65C
330
658
100
AcDbEntity
  8
FORMAT
100
AcDbLine
 10
353.386294741
 20
185.2055949518
 30
0.0
 11
339.8624904633
 21
165.7169947693
 31
0.0
  0
MTEXT
  5
65D
330
658
100
AcDbEntity
  8
FORMAT
100
AcDbMText
 10
336.1638130166
 20
168.2836331839
 30
0.0
 40
3.5
 41
0.0
 71
     1
 72
     1
  1
R12
  7
SLDTEXTSTYLE0
 11
0.5701129091810014
 21
0.8215663520283527
 31
0.0
 73
     1
 44
1.0
  0
ENDBLK
  5
65A
330
658
100
AcDbEntity
  8
0
100
AcDbBlockEnd
  0
BLOCK
  5
660
330
65F
100
AcDbEntity
  8
0
100
AcDbBlockBegin
  2
SW_NOTE_0_7
 70
     0
 10
0.0
 20
0.0
 30
0.0
  3
SW_NOTE_0_7
  1

  0
MTEXT
  5
662
330
65F
100
AcDbEntity
  8
FORMAT
 62
     0
100
AcDbMText
 10
32.4296875
 20
4.5117370892
 30
0.0
 40
3.5
 41
0.0
 71
     2
 72
     1
  1
Fräsbild für Aufnahmeelement 
  7
SLDTEXTSTYLE0
 73
     1
 44
1.0
  0
MTEXT
  5
663
330
65F
100
AcDbEntity
  8
FORMAT
 62
     0
100
AcDbMText
 10
32.6630219221
 20
-0.0090964031
 30
0.0
 40
3.5
 41
0.0
 71
     2
 72
     1
  1
mit Abdeckblech 
  7
SLDTEXTSTYLE0
 73
     1
 44
1.0
  0
ENDBLK
  5
661
330
65F
100
AcDbEntity
  8
0
100
AcDbBlockEnd
  0
BLOCK
  5
68D
330
68C
100
AcDbEntity
  8
0
100
AcDbBlockBegin
  2
SW_HATCH_0
 70
     0
 10
0.0
 20
0.0
 30
0.0
  3
SW_HATCH_0
  1

  0
LINE
  5
68F
330
68C
100
AcDbEntity
  8
0
  6
Continuous
 62
     0
370
    18
100
AcDbLine
 10
0.0
 20
0.0
 30
0.0
 11
2.3282878101
 21
2.3282878101
 31
0.0
  0
LINE
  5
690
330
68C
100
AcDbEntity
  8
0
  6
Continuous
 62
     0
370
    18
100
AcDbLine
 10
0.0
 20
-4.4901282527
 30
0.0
 11
6.8184155971
 21
2.3282878101
 31
0.0
  0
LINE
  5
691
330
68C
100
AcDbEntity
  8
0
  6
Continuous
 62
     0
370
    18
100
AcDbLine
 10
2.7433298528
 20
-6.2369266525
 30
0.0
 11
11.3085433841
 21
2.3282878101
 31
0.0
  0
LINE
  5
692
330
68C
100
AcDbEntity
  8
0
  6
Continuous
 62
     0
370
    18
100
AcDbLine
 10
7.0000011474
 20
-6.4703840762
 30
0.0
 11
12.0000001043
 21
-1.470384188
 31
0.0
  0
LINE
  5
693
330
68C
100
AcDbEntity
  8
0
  6
Continuous
 62
     0
370
    18
100
AcDbLine
 10
7.0000011474
 20
-10.9605123289
 30
0.0
 11
12.0000001043
 21
-5.9605124407
 31
0.0
  0
LINE
  5
694
330
68C
100
AcDbEntity
  8
0
  6
Continuous
 62
     0
370
    18
100
AcDbLine
 10
9.2137139291
 20
-13.2369266357
 30
0.0
 11
12.0000001043
 21
-10.4506403441
 31
0.0
  0
LINE
  5
695
330
68C
100
AcDbEntity
  8
0
  6
Continuous
 62
     0
370
    18
100
AcDbLine
 10
7.0000011474
 20
-24.4308961555
 30
0.0
 11
8.1939697266
 21
-23.236926645
 31
0.0
  0
LINE
  5
696
330
68C
100
AcDbEntity
  8
0
  6
Continuous
 62
     0
370
    18
100
AcDbLine
 10
7.0000011474
 20
-28.9210239425
 30
0.0
 11
12.0000001043
 21
-23.9210249856
 31
0.0
  0
LINE
  5
697
330
68C
100
AcDbEntity
  8
0
  6
Continuous
 62
     0
370
    18
100
AcDbLine
 10
-54.2404334992
 20
-13.8292824849
 30
0.0
 11
-52.6480805129
 21
-12.2369266464
 31
0.0
  0
LINE
  5
698
330
68C
100
AcDbEntity
  8
0
  6
Continuous
 62
     0
370
    18
100
AcDbLine
 10
-54.2404334992
 20
-18.3194107376
 30
0.0
 11
-48.1579508632
 21
-12.2369266464
 31
0.0
  0
LINE
  5
699
330
68C
100
AcDbEntity
  8
0
  6
Continuous
 62
     0
370
    18
100
AcDbLine
 10
-54.2404334992
 20
-22.8095389903
 30
0.0
 11
-43.6678212136
 21
-12.2369266464
 31
0.0
  0
LINE
  5
69A
330
68C
100
AcDbEntity
  8
0
  6
Continuous
 62
     0
370
    18
100
AcDbLine
 10
-54.2404334992
 20
-27.2996667773
 30
0.0
 11
-39.1776952893
 21
-12.2369266464
 31
0.0
  0
LINE
  5
69B
330
68C
100
AcDbEntity
  8
0
  6
Continuous
 62
     0
370
    18
100
AcDbLine
 10
-54.2404334992
 20
-31.7897954956
 30
0.0
 11
-34.6875656396
 21
-12.2369266464
 31
0.0
  0
LINE
  5
69C
330
68C
100
AcDbEntity
  8
0
  6
Continuous
 62
     0
370
    18
100
AcDbLine
 10
-54.2404334992
 20
-36.2799232826
 30
0.0
 11
-31.25
 21
-13.2894878043
 31
0.0
  0
LINE
  5
69D
330
68C
100
AcDbEntity
  8
0
  6
Continuous
 62
     0
370
    18
100
AcDbLine
 10
-28.7500005215
 20
-15.2796159964
 30
0.0
 11
-25.7073100656
 21
-12.2369266464
 31
0.0
  0
LINE
  5
69E
330
68C
100
AcDbEntity
  8
0
  6
Continuous
 62
     0
370
    18
100
AcDbLine
 10
-54.2404334992
 20
-40.7700510696
 30
0.0
 11
-31.25
 21
-17.7796157077
 31
0.0
  0
LINE
  5
69F
330
68C
100
AcDbEntity
  8
0
  6
Continuous
 62
     0
370
    18
100
AcDbLine
 10
-28.7500005215
 20
-19.7697440162
 30
0.0
 11
-21.2171822786
 21
-12.2369266464
 31
0.0
  0
LINE
  5
6A0
330
68C
100
AcDbEntity
  8
0
  6
Continuous
 62
     0
370
    18
100
AcDbLine
 10
-52.2171836346
 20
-43.2369271293
 30
0.0
 11
-31.25
 21
-22.2697434947
 31
0.0
  0
LINE
  5
6A1
330
68C
100
AcDbEntity
  8
0
  6
Continuous
 62
     0
370
    18
100
AcDbLine
 10
-28.7500005215
 20
-24.2598718032
 30
0.0
 11
-16.9999995269
 21
-12.5098720309
 31
0.0
  0
LINE
  5
6A2
330
68C
100
AcDbEntity
  8
0
  6
Continuous
 62
     0
370
    18
100
AcDbLine
 10
-47.727053985
 20
-43.2369271293
 30
0.0
 11
-31.25
 21
-26.759872213
 31
0.0
  0
LINE
  5
6A3
330
68C
100
AcDbEntity
  8
0
  6
Continuous
 62
     0
370
    18
100
AcDbLine
 10
-30.2369259298
 20
-30.2369268611
 30
0.0
 11
-16.9999995269
 21
-16.9999999925
 31
0.0
  0
LINE
  5
6A4
330
68C
100
AcDbEntity
  8
0
  6
Continuous
 62
     0
370
    18
100
AcDbLine
 10
-35.2369267493
 20
-35.236925818
 30
0.0
 11
-32.9999998212
 21
-33.0000007525
 31
0.0
  0
LINE
  5
6A5
330
68C
100
AcDbEntity
  8
0
  6
Continuous
 62
     0
370
    18
100
AcDbLine
 10
-43.2369280607
 20
-43.2369271293
 30
0.0
 11
-38.999998942
 21
-38.9999998733
 31
0.0
  0
LINE
  5
6A6
330
68C
100
AcDbEntity
  8
0
  6
Continuous
 62
     0
370
    18
100
AcDbLine
 10
-25.7467981428
 20
-30.2369268611
 30
0.0
 11
-16.9999995269
 21
-21.4901277795
 31
0.0
  0
LINE
  5
6A7
330
68C
100
AcDbEntity
  8
0
  6
Continuous
 62
     0
370
    18
100
AcDbLine
 10
-38.746798411
 20
-43.2369271293
 30
0.0
 11
-34.7467977554
 21
-39.2369264737
 31
0.0
  0
LINE
  5
6A8
330
68C
100
AcDbEntity
  8
0
  6
Continuous
 62
     0
370
    18
100
AcDbLine
 10
-21.2566703558
 20
-30.2369268611
 30
0.0
 11
-16.9999995269
 21
-25.9802564979
 31
0.0
  0
LINE
  5
6A9
330
68C
100
AcDbEntity
  8
0
  6
Continuous
 62
     0
370
    18
100
AcDbLine
 10
-34.256670624
 20
-43.2369271293
 30
0.0
 11
-32.9999998212
 21
-41.9802563265
 31
0.0
  0
ENDBLK
  5
68E
330
68C
100
AcDbEntity
  8
0
100
AcDbBlockEnd
  0
BLOCK
  5
6AD
330
6AC
100
AcDbEntity
  8
0
100
AcDbBlockBegin
  2
_D_17
 70
     0
 10
0.0
 20
0.0
 30
0.0
  3
_D_17
  1

  0
SOLID
  5
6AF
330
6AC
100
AcDbEntity
  8
FORMAT
100
AcDbTrace
 10
387.2276496512
 20
136.6221477322
 30
0.0
 11
387.7356496512
 21
139.9241477322
 31
0.0
 12
386.7196496512
 22
139.9241477322
 32
0.0
 13
386.7196496512
 23
139.9241477322
 33
0.0
  0
SOLID
  5
6B0
330
6AC
100
AcDbEntity
  8
FORMAT
100
AcDbTrace
 10
387.2276496512
 20
129.6221477322
 30
0.0
 11
386.7196496512
 21
126.3201477322
 31
0.0
 12
387.7356496512
 22
126.3201477322
 32
0.0
 13
387.7356496512
 23
126.3201477322
 33
0.0
  0
LINE
  5
6B1
330
6AC
100
AcDbEntity
  8
FORMAT
100
AcDbLine
 10
378.2276496512
 20
136.6221477322
 30
0.0
 11
388.2276496512
 21
136.6221477322
 31
0.0
  0
LINE
  5
6B2
330
6AC
100
AcDbEntity
  8
FORMAT
100
AcDbLine
 10
376.2276496512
 20
129.6221477322
 30
0.0
 11
388.2276496512
 21
129.6221477322
 31
0.0
  0
LINE
  5
6B3
330
6AC
100
AcDbEntity
  8
FORMAT
100
AcDbLine
 10
387.2276496512
 20
136.6221477322
 30
0.0
 11
387.2276496512
 21
142.9721477322
 31
0.0
  0
LINE
  5
6B4
330
6AC
100
AcDbEntity
  8
FORMAT
100
AcDbLine
 10
387.2276496512
 20
136.6221477322
 30
0.0
 11
387.2276496512
 21
129.6221477322
 31
0.0
  0
LINE
  5
6B5
330
6AC
100
AcDbEntity
  8
FORMAT
100
AcDbLine
 10
387.2276496512
 20
129.6221477322
 30
0.0
 11
387.2276496512
 21
123.2721477322
 31
0.0
  0
MTEXT
  5
6B6
330
6AC
100
AcDbEntity
  8
FORMAT
100
AcDbMText
 10
382.7159123291
 20
131.7853422098
 30
0.0
 40
3.5
 41
0.0
 71
     1
 72
     1
  1
7
  7
SLDTEXTSTYLE0
 11
-7.044195017643634E-15
 21
1.0
 31
0.0
 73
     1
 44
1.0
  0
ENDBLK
  5
6AE
330
6AC
100
AcDbEntity
  8
0
100
AcDbBlockEnd
  0
BLOCK
  5
6B9
330
6B8
100
AcDbEntity
  8
0
100
AcDbBlockBegin
  2
_D_18
 70
     0
 10
0.0
 20
0.0
 30
0.0
  3
_D_18
  1

  0
SOLID
  5
6BB
330
6B8
100
AcDbEntity
  8
FORMAT
100
AcDbTrace
 10
348.2276496512
 20
108.9205668922
 30
0.0
 11
351.5296496512
 21
108.4125668922
 31
0.0
 12
351.5296496512
 22
109.4285668922
 32
0.0
 13
351.5296496512
 23
109.4285668922
 33
0.0
  0
SOLID
  5
6BC
330
6B8
100
AcDbEntity
  8
FORMAT
100
AcDbTrace
 10
377.2276496512
 20
108.9205668922
 30
0.0
 11
373.9256496512
 21
109.4285668922
 31
0.0
 12
373.9256496512
 22
108.4125668922
 32
0.0
 13
373.9256496512
 23
108.4125668922
 33
0.0
  0
LINE
  5
6BD
330
6B8
100
AcDbEntity
  8
FORMAT
100
AcDbLine
 10
348.2276496512
 20
128.6221477322
 30
0.0
 11
348.2276496512
 21
107.9205668922
 31
0.0
  0
LINE
  5
6BE
330
6B8
100
AcDbEntity
  8
FORMAT
100
AcDbLine
 10
377.2276496512
 20
130.6221478216
 30
0.0
 11
377.2276496512
 21
107.9205668922
 31
0.0
  0
LINE
  5
6BF
330
6B8
100
AcDbEntity
  8
FORMAT
100
AcDbLine
 10
348.2276496512
 20
108.9205668922
 30
0.0
 11
377.2276496512
 21
108.9205668922
 31
0.0
  0
MTEXT
  5
6C0
330
6B8
100
AcDbEntity
  8
FORMAT
100
AcDbMText
 10
360.0540386063
 20
113.4323042142
 30
0.0
 40
3.5
 41
0.0
 71
     1
 72
     1
  1
29
  7
SLDTEXTSTYLE0
 73
     1
 44
1.0
  0
ENDBLK
  5
6BA
330
6B8
100
AcDbEntity
  8
0
100
AcDbBlockEnd
  0
BLOCK
  5
6C3
330
6C2
100
AcDbEntity
  8
0
100
AcDbBlockBegin
  2
_D_19
 70
     0
 10
0.0
 20
0.0
 30
0.0
  3
_D_19
  1

  0
SOLID
  5
6C5
330
6C2
100
AcDbEntity
  8
FORMAT
100
AcDbTrace
 10
348.2276496512
 20
118.1035225259
 30
0.0
 11
351.5296496512
 21
117.5955225259
 31
0.0
 12
351.5296496512
 22
118.6115225259
 32
0.0
 13
351.5296496512
 23
118.6115225259
 33
0.0
  0
SOLID
  5
6C6
330
6C2
100
AcDbEntity
  8
FORMAT
100
AcDbTrace
 10
372.2276496512
 20
118.1035225259
 30
0.0
 11
368.9256496512
 21
118.6115225259
 31
0.0
 12
368.9256496512
 22
117.5955225259
 32
0.0
 13
368.9256496512
 23
117.5955225259
 33
0.0
  0
LINE
  5
6C7
330
6C2
100
AcDbEntity
  8
FORMAT
100
AcDbLine
 10
348.2276496512
 20
128.6221477322
 30
0.0
 11
348.2276496512
 21
117.1035225259
 31
0.0
  0
LINE
  5
6C8
330
6C2
100
AcDbEntity
  8
FORMAT
100
AcDbLine
 10
372.2276496512
 20
128.6221477322
 30
0.0
 11
372.2276496512
 21
117.1035225259
 31
0.0
  0
LINE
  5
6C9
330
6C2
100
AcDbEntity
  8
FORMAT
100
AcDbLine
 10
348.2276496512
 20
118.1035225259
 30
0.0
 11
372.2276496512
 21
118.1035225259
 31
0.0
  0
MTEXT
  5
6CA
330
6C2
100
AcDbEntity
  8
FORMAT
100
AcDbMText
 10
357.5540386063
 20
122.6152598479
 30
0.0
 40
3.5
 41
0.0
 71
     1
 72
     1
  1
24
  7
SLDTEXTSTYLE0
 73
     1
 44
1.0
  0
ENDBLK
  5
6C4
330
6C2
100
AcDbEntity
  8
0
100
AcDbBlockEnd
  0
BLOCK
  5
6CD
330
6CC
100
AcDbEntity
  8
0
100
AcDbBlockBegin
  2
_D_20
 70
     0
 10
0.0
 20
0.0
 30
0.0
  3
_D_20
  1

  0
SOLID
  5
6CF
330
6CC
100
AcDbEntity
  8
FORMAT
100
AcDbTrace
 10
307.3937778682
 20
153.6221477322
 30
0.0
 11
307.9017778682
 21
156.9241477322
 31
0.0
 12
306.8857778682
 22
156.9241477322
 32
0.0
 13
306.8857778682
 23
156.9241477322
 33
0.0
  0
SOLID
  5
6D0
330
6CC
100
AcDbEntity
  8
FORMAT
100
AcDbTrace
 10
307.3937778682
 20
147.6221477322
 30
0.0
 11
306.8857778682
 21
144.3201477322
 31
0.0
 12
307.9017778682
 22
144.3201477322
 32
0.0
 13
307.9017778682
 23
144.3201477322
 33
0.0
  0
LINE
  5
6D1
330
6CC
100
AcDbEntity
  8
FORMAT
100
AcDbLine
 10
364.2276496512
 20
153.6221477322
 30
0.0
 11
306.3937778682
 21
153.6221477322
 31
0.0
  0
LINE
  5
6D2
330
6CC
100
AcDbEntity
  8
FORMAT
100
AcDbLine
 10
309.9872146766
 20
147.6221477322
 30
0.0
 11
306.3937778682
 21
147.6221477322
 31
0.0
  0
LINE
  5
6D3
330
6CC
100
AcDbEntity
  8
FORMAT
100
AcDbLine
 10
307.3937778682
 20
153.6221477322
 30
0.0
 11
307.3937778682
 21
159.9721477322
 31
0.0
  0
LINE
  5
6D4
330
6CC
100
AcDbEntity
  8
FORMAT
100
AcDbLine
 10
307.3937778682
 20
153.6221477322
 30
0.0
 11
307.3937778682
 21
147.6221477322
 31
0.0
  0
LINE
  5
6D5
330
6CC
100
AcDbEntity
  8
FORMAT
100
AcDbLine
 10
307.3937778682
 20
147.6221477322
 30
0.0
 11
307.3937778682
 21
141.2721477322
 31
0.0
  0
MTEXT
  5
6D6
330
6CC
100
AcDbEntity
  8
FORMAT
100
AcDbMText
 10
302.8820405461
 20
149.2853422098
 30
0.0
 40
3.5
 41
0.0
 71
     1
 72
     1
  1
6
  7
SLDTEXTSTYLE0
 11
-1.326144395554451E-14
 21
1.0
 31
0.0
 73
     1
 44
1.0
  0
ENDBLK
  5
6CE
330
6CC
100
AcDbEntity
  8
0
100
AcDbBlockEnd
  0
BLOCK
  5
6E7
330
6E6
100
AcDbEntity
  8
0
100
AcDbBlockBegin
  2
_D_21
 70
     0
 10
0.0
 20
0.0
 30
0.0
  3
_D_21
  1

  0
SOLID
  5
6E9
330
6E6
100
AcDbEntity
  8
FORMAT
100
AcDbTrace
 10
246.7880880796
 20
208.9150534219
 30
0.0
 11
243.4860880796
 21
209.4230534219
 31
0.0
 12
243.4860880796
 22
208.4070534219
 32
0.0
 13
243.4860880796
 23
208.4070534219
 33
0.0
  0
SOLID
  5
6EA
330
6E6
100
AcDbEntity
  8
FORMAT
100
AcDbTrace
 10
256.7880880796
 20
208.9150534219
 30
0.0
 11
260.0900880796
 21
208.4070534219
 31
0.0
 12
260.0900880796
 22
209.4230534219
 32
0.0
 13
260.0900880796
 23
209.4230534219
 33
0.0
  0
LINE
  5
6EB
330
6E6
100
AcDbEntity
  8
FORMAT
100
AcDbLine
 10
246.7880880796
 20
227.0643911761
 30
0.0
 11
246.7880880796
 21
207.9150534219
 31
0.0
  0
LINE
  5
6EC
330
6E6
100
AcDbEntity
  8
FORMAT
100
AcDbLine
 10
256.7880880796
 20
227.0643911761
 30
0.0
 11
256.7880880796
 21
224.5643911761
 31
0.0
  0
LINE
  5
6ED
330
6E6
100
AcDbEntity
  8
FORMAT
100
AcDbLine
 10
256.7880880796
 20
221.5643911761
 30
0.0
 11
256.7880880796
 21
207.9150534219
 31
0.0
  0
LINE
  5
6EE
330
6E6
100
AcDbEntity
  8
FORMAT
100
AcDbLine
 10
246.7880880796
 20
208.9150534219
 30
0.0
 11
240.4380880796
 21
208.9150534219
 31
0.0
  0
LINE
  5
6EF
330
6E6
100
AcDbEntity
  8
FORMAT
100
AcDbLine
 10
246.7880880796
 20
208.9150534219
 30
0.0
 11
256.7880880796
 21
208.9150534219
 31
0.0
  0
LINE
  5
6F0
330
6E6
100
AcDbEntity
  8
FORMAT
100
AcDbLine
 10
256.7880880796
 20
208.9150534219
 30
0.0
 11
263.1380880796
 21
208.9150534219
 31
0.0
  0
MTEXT
  5
6F1
330
6E6
100
AcDbEntity
  8
FORMAT
100
AcDbMText
 10
249.1144770347
 20
213.426790744
 30
0.0
 40
3.5
 41
0.0
 71
     1
 72
     1
  1
10
  7
SLDTEXTSTYLE0
 73
     1
 44
1.0
  0
ENDBLK
  5
6E8
330
6E6
100
AcDbEntity
  8
0
100
AcDbBlockEnd
  0
BLOCK
  5
6F4
330
6F3
100
AcDbEntity
  8
0
100
AcDbBlockBegin
  2
_D_22
 70
     0
 10
0.0
 20
0.0
 30
0.0
  3
_D_22
  1

  0
SOLID
  5
6F6
330
6F3
100
AcDbEntity
  8
FORMAT
100
AcDbTrace
 10
277.5924206548
 20
323.0643911761
 30
0.0
 11
277.0844206548
 21
319.7623911761
 31
0.0
 12
278.1004206548
 22
319.7623911761
 32
0.0
 13
278.1004206548
 23
319.7623911761
 33
0.0
  0
SOLID
  5
6F7
330
6F3
100
AcDbEntity
  8
FORMAT
100
AcDbTrace
 10
277.5924206548
 20
223.0643911761
 30
0.0
 11
278.1004206548
 21
226.3663911761
 31
0.0
 12
277.0844206548
 22
226.3663911761
 32
0.0
 13
277.0844206548
 23
226.3663911761
 33
0.0
  0
LINE
  5
6F8
330
6F3
100
AcDbEntity
  8
FORMAT
100
AcDbLine
 10
252.7880880796
 20
323.0643911761
 30
0.0
 11
278.5924206548
 21
323.0643911761
 31
0.0
  0
LINE
  5
6F9
330
6F3
100
AcDbEntity
  8
FORMAT
100
AcDbLine
 10
252.7880880796
 20
223.0643911761
 30
0.0
 11
278.5924206548
 21
223.0643911761
 31
0.0
  0
LINE
  5
6FA
330
6F3
100
AcDbEntity
  8
FORMAT
100
AcDbLine
 10
277.5924206548
 20
323.0643911761
 30
0.0
 11
277.5924206548
 21
223.0643911761
 31
0.0
  0
MTEXT
  5
6FB
330
6F3
100
AcDbEntity
  8
FORMAT
100
AcDbMText
 10
273.0806833327
 20
269.0539746088
 30
0.0
 40
3.5
 41
0.0
 71
     1
 72
     1
  1
100
  7
SLDTEXTSTYLE0
 11
-7.044195017643634E-15
 21
1.0
 31
0.0
 73
     1
 44
1.0
  0
ENDBLK
  5
6F5
330
6F3
100
AcDbEntity
  8
0
100
AcDbBlockEnd
  0
BLOCK
  5
6FD
330
6FC
100
AcDbEntity
  8
0
100
AcDbBlockBegin
  2
SW_CENTERMARKSYMBOL_57
 70
     0
 10
0.0
 20
0.0
 30
0.0
  3
SW_CENTERMARKSYMBOL_57
  1

  0
LINE
  5
6FF
330
6FC
100
AcDbEntity
  8
FORMAT
 62
     0
100
AcDbLine
 10
0.0
 20
0.0
 30
0.0
 11
0.0
 21
-2.5000013411
 31
0.0
  0
LINE
  5
700
330
6FC
100
AcDbEntity
  8
FORMAT
 62
     0
100
AcDbLine
 10
0.0
 20
0.0
 30
0.0
 11
2.4999999441
 21
0.0
 31
0.0
  0
LINE
  5
701
330
6FC
100
AcDbEntity
  8
FORMAT
 62
     0
100
AcDbLine
 10
0.0
 20
0.0
 30
0.0
 11
0.0
 21
2.4999976158
 31
0.0
  0
LINE
  5
702
330
6FC
100
AcDbEntity
  8
FORMAT
 62
     0
100
AcDbLine
 10
0.0
 20
0.0
 30
0.0
 11
-2.4999994785
 21
0.0
 31
0.0
  0
LINE
  5
703
330
6FC
100
AcDbEntity
  8
FORMAT
 62
     0
100
AcDbLine
 10
0.0
 20
-5.0000026822
 30
0.0
 11
0.0
 21
-80.2037939429
 31
0.0
  0
LINE
  5
704
330
6FC
100
AcDbEntity
  8
FORMAT
 62
     0
100
AcDbLine
 10
5.0000001211
 20
0.0
 30
0.0
 11
7.5000001816
 21
0.0
 31
0.0
  0
LINE
  5
705
330
6FC
100
AcDbEntity
  8
FORMAT
 62
     0
100
AcDbLine
 10
0.0
 20
4.9999989569
 30
0.0
 11
0.0
 21
7.4999965727
 31
0.0
  0
LINE
  5
706
330
6FC
100
AcDbEntity
  8
FORMAT
 62
     0
100
AcDbLine
 10
-4.9999998882
 20
0.0
 30
0.0
 11
-7.500000298
 21
0.0
 31
0.0
  0
LINE
  5
707
330
6FC
100
AcDbEntity
  8
FORMAT
 62
     0
100
AcDbLine
 10
0.0
 20
-90.0000035763
 30
0.0
 11
0.0
 21
-92.5000011921
 31
0.0
  0
LINE
  5
708
330
6FC
100
AcDbEntity
  8
FORMAT
 62
     0
100
AcDbLine
 10
0.0
 20
-90.0000035763
 30
0.0
 11
2.4999999441
 21
-90.0000035763
 31
0.0
  0
LINE
  5
709
330
6FC
100
AcDbEntity
  8
FORMAT
 62
     0
100
AcDbLine
 10
0.0
 20
-90.0000035763
 30
0.0
 11
0.0
 21
-87.5000022352
 31
0.0
  0
LINE
  5
70A
330
6FC
100
AcDbEntity
  8
FORMAT
 62
     0
100
AcDbLine
 10
0.0
 20
-90.0000035763
 30
0.0
 11
-2.4999994785
 21
-90.0000035763
 31
0.0
  0
LINE
  5
70B
330
6FC
100
AcDbEntity
  8
FORMAT
 62
     0
100
AcDbLine
 10
0.0
 20
-95.0000025332
 30
0.0
 11
0.0
 21
-97.500000149
 31
0.0
  0
LINE
  5
70C
330
6FC
100
AcDbEntity
  8
FORMAT
 62
     0
100
AcDbLine
 10
5.0000001211
 20
-90.0000035763
 30
0.0
 11
7.5000001816
 21
-90.0000035763
 31
0.0
  0
LINE
  5
70D
330
6FC
100
AcDbEntity
  8
FORMAT
 62
     0
100
AcDbLine
 10
0.0
 20
-85.0000008941
 30
0.0
 11
0.0
 21
-82.5000032783
 31
0.0
  0
LINE
  5
70E
330
6FC
100
AcDbEntity
  8
FORMAT
 62
     0
100
AcDbLine
 10
-4.9999998882
 20
-90.0000035763
 30
0.0
 11
-7.500000298
 21
-90.0000035763
 31
0.0
  0
ENDBLK
  5
6FE
330
6FC
100
AcDbEntity
  8
0
100
AcDbBlockEnd
  0
BLOCK
  5
711
330
710
100
AcDbEntity
  8
0
100
AcDbBlockBegin
  2
SW_CENTERMARKSYMBOL_58
 70
     0
 10
0.0
 20
0.0
 30
0.0
  3
SW_CENTERMARKSYMBOL_58
  1

  0
LINE
  5
713
330
710
100
AcDbEntity
  8
FORMAT
 62
     0
100
AcDbLine
 10
0.0
 20
0.0
 30
0.0
 11
0.0
 21
-2.4999999441
 31
0.0
  0
LINE
  5
714
330
710
100
AcDbEntity
  8
FORMAT
 62
     0
100
AcDbLine
 10
0.0
 20
0.0
 30
0.0
 11
2.4999999441
 21
0.0
 31
0.0
  0
LINE
  5
715
330
710
100
AcDbEntity
  8
FORMAT
 62
     0
100
AcDbLine
 10
0.0
 20
0.0
 30
0.0
 11
0.0
 21
2.4999999441
 31
0.0
  0
LINE
  5
716
330
710
100
AcDbEntity
  8
FORMAT
 62
     0
100
AcDbLine
 10
0.0
 20
0.0
 30
0.0
 11
-2.4999994785
 21
0.0
 31
0.0
  0
LINE
  5
717
330
710
100
AcDbEntity
  8
FORMAT
 62
     0
100
AcDbLine
 10
0.0
 20
-4.9999998882
 30
0.0
 11
0.0
 21
-7.4999998324
 31
0.0
  0
LINE
  5
718
330
710
100
AcDbEntity
  8
FORMAT
 62
     0
100
AcDbLine
 10
5.0000001211
 20
0.0
 30
0.0
 11
16.2228997797
 21
0.0
 31
0.0
  0
LINE
  5
719
330
710
100
AcDbEntity
  8
FORMAT
 62
     0
100
AcDbLine
 10
0.0
 20
4.9999998882
 30
0.0
 11
0.0
 21
7.4999998324
 31
0.0
  0
LINE
  5
71A
330
710
100
AcDbEntity
  8
FORMAT
 62
     0
100
AcDbLine
 10
-4.9999998882
 20
0.0
 30
0.0
 11
-29.4402744621
 21
0.0
 31
0.0
  0
ENDBLK
  5
712
330
710
100
AcDbEntity
  8
0
100
AcDbBlockEnd
  0
BLOCK
  5
730
330
72F
100
AcDbEntity
  8
0
100
AcDbBlockBegin
  2
_D_23
 70
     0
 10
0.0
 20
0.0
 30
0.0
  3
_D_23
  1

  0
SOLID
  5
732
330
72F
100
AcDbEntity
  8
FORMAT
100
AcDbTrace
 10
560.3061609936
 20
323.0215922372
 30
0.0
 11
559.7981609936
 21
319.7195922372
 31
0.0
 12
560.8141609936
 22
319.7195922372
 32
0.0
 13
560.8141609936
 23
319.7195922372
 33
0.0
  0
SOLID
  5
733
330
72F
100
AcDbEntity
  8
FORMAT
100
AcDbTrace
 10
560.3061609936
 20
229.0215922372
 30
0.0
 11
560.8141609936
 21
232.3235922372
 31
0.0
 12
559.7981609936
 22
232.3235922372
 32
0.0
 13
559.7981609936
 23
232.3235922372
 33
0.0
  0
LINE
  5
734
330
72F
100
AcDbEntity
  8
FORMAT
100
AcDbLine
 10
549.3938318914
 20
323.0215922372
 30
0.0
 11
561.3061609936
 21
323.0215922372
 31
0.0
  0
LINE
  5
735
330
72F
100
AcDbEntity
  8
FORMAT
100
AcDbLine
 10
549.3938318914
 20
229.0215922372
 30
0.0
 11
561.3061609936
 21
229.0215922372
 31
0.0
  0
LINE
  5
736
330
72F
100
AcDbEntity
  8
FORMAT
100
AcDbLine
 10
560.3061609936
 20
323.0215922372
 30
0.0
 11
560.3061609936
 21
229.0215922372
 31
0.0
  0
MTEXT
  5
737
330
72F
100
AcDbEntity
  8
FORMAT
100
AcDbMText
 10
555.7944236716
 20
273.3479811924
 30
0.0
 40
3.5
 41
0.0
 71
     1
 72
     1
  1
94
  7
SLDTEXTSTYLE0
 11
-7.044195017643634E-15
 21
1.0
 31
0.0
 73
     1
 44
1.0
  0
ENDBLK
  5
731
330
72F
100
AcDbEntity
  8
0
100
AcDbBlockEnd
  0
BLOCK
  5
73A
330
739
100
AcDbEntity
  8
0
100
AcDbBlockBegin
  2
_D_24
 70
     0
 10
0.0
 20
0.0
 30
0.0
  3
_D_24
  1

  0
SOLID
  5
73C
330
739
100
AcDbEntity
  8
FORMAT
100
AcDbTrace
 10
567.8464178189
 20
366.0215922372
 30
0.0
 11
567.3384178189
 21
362.7195922372
 31
0.0
 12
568.3544178189
 22
362.7195922372
 32
0.0
 13
568.3544178189
 23
362.7195922372
 33
0.0
  0
SOLID
  5
73D
330
739
100
AcDbEntity
  8
FORMAT
100
AcDbTrace
 10
567.8464178189
 20
186.0215922372
 30
0.0
 11
568.3544178189
 21
189.3235922372
 31
0.0
 12
567.3384178189
 22
189.3235922372
 32
0.0
 13
567.3384178189
 23
189.3235922372
 33
0.0
  0
LINE
  5
73E
330
739
100
AcDbEntity
  8
FORMAT
100
AcDbLine
 10
532.3938318914
 20
366.0215922372
 30
0.0
 11
568.8464178189
 21
366.0215922372
 31
0.0
  0
LINE
  5
73F
330
739
100
AcDbEntity
  8
FORMAT
100
AcDbLine
 10
532.3938318914
 20
186.0215922372
 30
0.0
 11
568.8464178189
 21
186.0215922372
 31
0.0
  0
LINE
  5
740
330
739
100
AcDbEntity
  8
FORMAT
100
AcDbLine
 10
567.8464178189
 20
366.0215922372
 30
0.0
 11
567.8464178189
 21
186.0215922372
 31
0.0
  0
MTEXT
  5
741
330
739
100
AcDbEntity
  8
FORMAT
100
AcDbMText
 10
563.3346804969
 20
272.0111756699
 30
0.0
 40
3.5
 41
0.0
 71
     1
 72
     1
  1
180
  7
SLDTEXTSTYLE0
 11
-7.044195017643634E-15
 21
1.0
 31
0.0
 73
     1
 44
1.0
  0
ENDBLK
  5
73B
330
739
100
AcDbEntity
  8
0
100
AcDbBlockEnd
  0
BLOCK
  5
744
330
743
100
AcDbEntity
  8
0
100
AcDbBlockBegin
  2
_D_25
 70
     0
 10
0.0
 20
0.0
 30
0.0
  3
_D_25
  1

  0
SOLID
  5
746
330
743
100
AcDbEntity
  8
FORMAT
100
AcDbTrace
 10
524.5469514162
 20
188.1666326859
 30
0.0
 11
522.2457248511
 21
185.7447275895
 31
0.0
 12
523.0801114264
 22
185.1650250426
 32
0.0
 13
523.0801114264
 23
185.1650250426
 33
0.0
  0
LINE
  5
747
330
743
100
AcDbEntity
  8
FORMAT
100
AcDbLine
 10
524.5469514162
 20
188.1666326859
 30
0.0
 11
510.4983771886
 21
167.9460181641
 31
0.0
  0
MTEXT
  5
748
330
743
100
AcDbEntity
  8
FORMAT
100
AcDbMText
 10
506.8007027224
 20
170.515032778
 30
0.0
 40
3.5
 41
0.0
 71
     1
 72
     1
  1
R12
  7
SLDTEXTSTYLE0
 11
0.5705733729363066
 21
0.821246629275327
 31
0.0
 73
     1
 44
1.0
  0
ENDBLK
  5
745
330
743
100
AcDbEntity
  8
0
100
AcDbBlockEnd
  0
BLOCK
  5
74B
330
74A
100
AcDbEntity
  8
0
100
AcDbBlockBegin
  2
SW_NOTE_0_8
 70
     0
 10
0.0
 20
0.0
 30
0.0
  3
SW_NOTE_0_8
  1

  0
MTEXT
  5
74D
330
74A
100
AcDbEntity
  8
FORMAT
 62
     0
100
AcDbMText
 10
32.4296875
 20
4.5117370892
 30
0.0
 40
3.5
 41
0.0
 71
     2
 72
     1
  1
Fräsbild für Aufnahmeelement 
  7
SLDTEXTSTYLE0
 73
     1
 44
1.0
  0
MTEXT
  5
74E
330
74A
100
AcDbEntity
  8
FORMAT
 62
     0
100
AcDbMText
 10
32.5500001907
 20
-0.0090964031
 30
0.0
 40
3.5
 41
0.0
 71
     2
 72
     1
  1
mit Abdeckwinkel 
  7
SLDTEXTSTYLE0
 73
     1
 44
1.0
  0
ENDBLK
  5
74C
330
74A
100
AcDbEntity
  8
0
100
AcDbBlockEnd
  0
BLOCK
  5
773
330
772
100
AcDbEntity
  8
0
100
AcDbBlockBegin
  2
SW_HATCH_1
 70
     0
 10
0.0
 20
0.0
 30
0.0
  3
SW_HATCH_1
  1

  0
LINE
  5
775
330
772
100
AcDbEntity
  8
0
  6
Continuous
 62
     0
370
    18
100
AcDbLine
 10
0.0
 20
0.0
 30
0.0
 11
-4.4443011284
 21
-4.4443007209
 31
0.0
  0
LINE
  5
776
330
772
100
AcDbEntity
  8
0
  6
Continuous
 62
     0
370
    18
100
AcDbLine
 10
4.490127787
 20
0.0
 30
0.0
 11
-4.4443011284
 21
-8.9344289736
 31
0.0
  0
LINE
  5
777
330
772
100
AcDbEntity
  8
0
  6
Continuous
 62
     0
370
    18
100
AcDbLine
 10
8.980255574
 20
0.0
 30
0.0
 11
-4.4443011284
 21
-13.4245567606
 31
0.0
  0
LINE
  5
778
330
772
100
AcDbEntity
  8
0
  6
Continuous
 62
     0
370
    18
100
AcDbLine
 10
12.4178230762
 20
-1.0525611578
 30
0.0
 11
-4.4443011284
 21
-17.9146854789
 31
0.0
  0
LINE
  5
779
330
772
100
AcDbEntity
  8
0
  6
Continuous
 62
     0
370
    18
100
AcDbLine
 10
12.4178230762
 20
-5.5426890613
 30
0.0
 11
-4.4443011284
 21
-22.4048132659
 31
0.0
  0
LINE
  5
77A
330
772
100
AcDbEntity
  8
0
  6
Continuous
 62
     0
370
    18
100
AcDbLine
 10
17.9605120793
 20
0.0
 30
0.0
 11
14.917823486
 21
-3.04268935
 31
0.0
  0
LINE
  5
77B
330
772
100
AcDbEntity
  8
0
  6
Continuous
 62
     0
370
    18
100
AcDbLine
 10
12.4178230762
 20
-10.0328168483
 30
0.0
 11
-4.4443011284
 21
-26.8949410529
 31
0.0
  0
LINE
  5
77C
330
772
100
AcDbEntity
  8
0
  6
Continuous
 62
     0
370
    18
100
AcDbLine
 10
22.450640332
 20
0.0
 30
0.0
 11
14.917823486
 21
-7.5328173698
 31
0.0
  0
LINE
  5
77D
330
772
100
AcDbEntity
  8
0
  6
Continuous
 62
     0
370
    18
100
AcDbLine
 10
12.4178230762
 20
-14.5229455666
 30
0.0
 11
-4.0592327714
 21
-31.0000004829
 31
0.0
  0
LINE
  5
77E
330
772
100
AcDbEntity
  8
0
  6
Continuous
 62
     0
370
    18
100
AcDbLine
 10
26.6678230837
 20
-0.2729453845
 30
0.0
 11
14.917823486
 21
-12.0229451568
 31
0.0
  0
LINE
  5
77F
330
772
100
AcDbEntity
  8
0
  6
Continuous
 62
     0
370
    18
100
AcDbLine
 10
4.6678222716
 20
-26.7630732269
 30
0.0
 11
0.4308968782
 21
-31.0000004829
 31
0.0
  0
LINE
  5
780
330
772
100
AcDbEntity
  8
0
  6
Continuous
 62
     0
370
    18
100
AcDbLine
 10
10.6678232551
 20
-20.7630741061
 30
0.0
 11
8.4308963269
 21
-22.9999991716
 31
0.0
  0
LINE
  5
781
330
772
100
AcDbEntity
  8
0
  6
Continuous
 62
     0
370
    18
100
AcDbLine
 10
26.6678230837
 20
-4.7630733461
 30
0.0
 11
13.4308971465
 21
-18.0000002147
 31
0.0
  0
LINE
  5
782
330
772
100
AcDbEntity
  8
0
  6
Continuous
 62
     0
370
    18
100
AcDbLine
 10
8.9210253209
 20
-26.9999998272
 30
0.0
 11
4.9210246652
 21
-31.0000004829
 31
0.0
  0
LINE
  5
783
330
772
100
AcDbEntity
  8
0
  6
Continuous
 62
     0
370
    18
100
AcDbLine
 10
26.6678230837
 20
-9.2532011331
 30
0.0
 11
17.9210249335
 21
-18.0000002147
 31
0.0
  0
LINE
  5
784
330
772
100
AcDbEntity
  8
0
  6
Continuous
 62
     0
370
    18
100
AcDbLine
 10
10.6678232551
 20
-29.7433296801
 30
0.0
 11
9.4111524522
 21
-31.0000004829
 31
0.0
  0
LINE
  5
785
330
772
100
AcDbEntity
  8
0
  6
Continuous
 62
     0
370
    18
100
AcDbLine
 10
26.6678230837
 20
-13.7433298514
 30
0.0
 11
22.4111527205
 21
-18.0000002147
 31
0.0
  0
LINE
  5
786
330
772
100
AcDbEntity
  8
0
  6
Continuous
 62
     0
370
    18
100
AcDbLine
 10
45.9961108863
 20
14.5652144565
 30
0.0
 11
43.6678230762
 21
12.2369266464
 31
0.0
  0
LINE
  5
787
330
772
100
AcDbEntity
  8
0
  6
Continuous
 62
     0
370
    18
100
AcDbLine
 10
50.4862386733
 20
14.5652144565
 30
0.0
 11
43.6678230762
 21
7.7467983938
 31
0.0
  0
LINE
  5
788
330
772
100
AcDbEntity
  8
0
  6
Continuous
 62
     0
370
    18
100
AcDbLine
 10
54.9763664603
 20
14.5652144565
 30
0.0
 11
46.4111529291
 21
5.9999999939
 31
0.0
  0
LINE
  5
789
330
772
100
AcDbEntity
  8
0
  6
Continuous
 62
     0
370
    18
100
AcDbLine
 10
55.6678231806
 20
10.7665424584
 30
0.0
 11
50.9012807161
 21
5.9999999939
 31
0.0
  0
LINE
  5
78A
330
772
100
AcDbEntity
  8
0
  6
Continuous
 62
     0
370
    18
100
AcDbLine
 10
55.6678231806
 20
6.2764142058
 30
0.0
 11
55.3914085031
 21
5.9999999939
 31
0.0
  0
ENDBLK
  5
774
330
772
100
AcDbEntity
  8
0
100
AcDbBlockEnd
  0
BLOCK
  5
78E
330
78D
100
AcDbEntity
  8
0
100
AcDbBlockBegin
  2
_D_26
 70
     0
 10
0.0
 20
0.0
 30
0.0
  3
_D_26
  1

  0
SOLID
  5
790
330
78D
100
AcDbEntity
  8
FORMAT
100
AcDbTrace
 10
558.3938318914
 20
155.2651155547
 30
0.0
 11
557.8858318914
 21
151.9631155547
 31
0.0
 12
558.9018318914
 22
151.9631155547
 32
0.0
 13
558.9018318914
 23
151.9631155547
 33
0.0
  0
SOLID
  5
791
330
78D
100
AcDbEntity
  8
FORMAT
100
AcDbTrace
 10
558.3938318914
 20
131.2651155547
 30
0.0
 11
558.9018318914
 21
134.5671155547
 31
0.0
 12
557.8858318914
 22
134.5671155547
 32
0.0
 13
557.8858318914
 23
134.5671155547
 33
0.0
  0
LINE
  5
792
330
78D
100
AcDbEntity
  8
FORMAT
100
AcDbLine
 10
549.3938318914
 20
155.2651155547
 30
0.0
 11
559.3938318914
 21
155.2651155547
 31
0.0
  0
LINE
  5
793
330
78D
100
AcDbEntity
  8
FORMAT
100
AcDbLine
 10
547.3938318914
 20
131.2651155547
 30
0.0
 11
559.3938318914
 21
131.2651155547
 31
0.0
  0
LINE
  5
794
330
78D
100
AcDbEntity
  8
FORMAT
100
AcDbLine
 10
558.3938318914
 20
155.2651155547
 30
0.0
 11
558.3938318914
 21
131.2651155547
 31
0.0
  0
MTEXT
  5
795
330
78D
100
AcDbEntity
  8
FORMAT
100
AcDbMText
 10
553.8820945694
 20
140.5915045098
 30
0.0
 40
3.5
 41
0.0
 71
     1
 72
     1
  1
24
  7
SLDTEXTSTYLE0
 11
-1.059690869644414E-14
 21
1.0
 31
0.0
 73
     1
 44
1.0
  0
ENDBLK
  5
78F
330
78D
100
AcDbEntity
  8
0
100
AcDbBlockEnd
  0
BLOCK
  5
798
330
797
100
AcDbEntity
  8
0
100
AcDbBlockBegin
  2
_D_27
 70
     0
 10
0.0
 20
0.0
 30
0.0
  3
_D_27
  1

  0
SOLID
  5
79A
330
797
100
AcDbEntity
  8
FORMAT
100
AcDbTrace
 10
519.3938318914
 20
114.4128848364
 30
0.0
 11
522.6958318914
 21
113.9048848364
 31
0.0
 12
522.6958318914
 22
114.9208848364
 32
0.0
 13
522.6958318914
 23
114.9208848364
 33
0.0
  0
SOLID
  5
79B
330
797
100
AcDbEntity
  8
FORMAT
100
AcDbTrace
 10
548.3938318914
 20
114.4128848364
 30
0.0
 11
545.0918318914
 21
114.9208848364
 31
0.0
 12
545.0918318914
 22
113.9048848364
 32
0.0
 13
545.0918318914
 23
113.9048848364
 33
0.0
  0
LINE
  5
79C
330
797
100
AcDbEntity
  8
FORMAT
100
AcDbLine
 10
519.3938318914
 20
130.2651155547
 30
0.0
 11
519.3938318914
 21
113.4128848364
 31
0.0
  0
LINE
  5
79D
330
797
100
AcDbEntity
  8
FORMAT
100
AcDbLine
 10
548.3938318914
 20
132.2651156441
 30
0.0
 11
548.3938318914
 21
113.4128848364
 31
0.0
  0
LINE
  5
79E
330
797
100
AcDbEntity
  8
FORMAT
100
AcDbLine
 10
519.3938318914
 20
114.4128848364
 30
0.0
 11
548.3938318914
 21
114.4128848364
 31
0.0
  0
MTEXT
  5
79F
330
797
100
AcDbEntity
  8
FORMAT
100
AcDbMText
 10
531.2202208465
 20
118.9246221584
 30
0.0
 40
3.5
 41
0.0
 71
     1
 72
     1
  1
29
  7
SLDTEXTSTYLE0
 73
     1
 44
1.0
  0
ENDBLK
  5
799
330
797
100
AcDbEntity
  8
0
100
AcDbBlockEnd
  0
BLOCK
  5
7A2
330
7A1
100
AcDbEntity
  8
0
100
AcDbBlockBegin
  2
_D_28
 70
     0
 10
0.0
 20
0.0
 30
0.0
  3
_D_28
  1

  0
SOLID
  5
7A4
330
7A1
100
AcDbEntity
  8
FORMAT
100
AcDbTrace
 10
519.3938318914
 20
122.1694272083
 30
0.0
 11
522.6958318914
 21
121.6614272083
 31
0.0
 12
522.6958318914
 22
122.6774272083
 32
0.0
 13
522.6958318914
 23
122.6774272083
 33
0.0
  0
SOLID
  5
7A5
330
7A1
100
AcDbEntity
  8
FORMAT
100
AcDbTrace
 10
543.3938318914
 20
122.1694272083
 30
0.0
 11
540.0918318914
 21
122.6774272083
 31
0.0
 12
540.0918318914
 22
121.6614272083
 32
0.0
 13
540.0918318914
 23
121.6614272083
 33
0.0
  0
LINE
  5
7A6
330
7A1
100
AcDbEntity
  8
FORMAT
100
AcDbLine
 10
519.3938318914
 20
130.2651155547
 30
0.0
 11
519.3938318914
 21
121.1694272083
 31
0.0
  0
LINE
  5
7A7
330
7A1
100
AcDbEntity
  8
FORMAT
100
AcDbLine
 10
543.3938318914
 20
130.2651155547
 30
0.0
 11
543.3938318914
 21
121.1694272083
 31
0.0
  0
LINE
  5
7A8
330
7A1
100
AcDbEntity
  8
FORMAT
100
AcDbLine
 10
519.3938318914
 20
122.1694272083
 30
0.0
 11
543.3938318914
 21
122.1694272083
 31
0.0
  0
MTEXT
  5
7A9
330
7A1
100
AcDbEntity
  8
FORMAT
100
AcDbMText
 10
528.7202208465
 20
126.6811645303
 30
0.0
 40
3.5
 41
0.0
 71
     1
 72
     1
  1
24
  7
SLDTEXTSTYLE0
 73
     1
 44
1.0
  0
ENDBLK
  5
7A3
330
7A1
100
AcDbEntity
  8
0
100
AcDbBlockEnd
  0
BLOCK
  5
7AC
330
7AB
100
AcDbEntity
  8
0
100
AcDbBlockBegin
  2
_D_29
 70
     0
 10
0.0
 20
0.0
 30
0.0
  3
_D_29
  1

  0
SOLID
  5
7AE
330
7AB
100
AcDbEntity
  8
FORMAT
100
AcDbTrace
 10
478.2817083859
 20
155.2651155547
 30
0.0
 11
478.7897083859
 21
158.5671155547
 31
0.0
 12
477.7737083859
 22
158.5671155547
 32
0.0
 13
477.7737083859
 23
158.5671155547
 33
0.0
  0
SOLID
  5
7AF
330
7AB
100
AcDbEntity
  8
FORMAT
100
AcDbTrace
 10
478.2817083859
 20
149.2651155547
 30
0.0
 11
477.7737083859
 21
145.9631155547
 31
0.0
 12
478.7897083859
 22
145.9631155547
 32
0.0
 13
478.7897083859
 23
145.9631155547
 33
0.0
  0
LINE
  5
7B0
330
7AB
100
AcDbEntity
  8
FORMAT
100
AcDbLine
 10
535.3938318914
 20
155.2651155547
 30
0.0
 11
477.2817083859
 21
155.2651155547
 31
0.0
  0
LINE
  5
7B1
330
7AB
100
AcDbEntity
  8
FORMAT
100
AcDbLine
 10
487.2817083859
 20
149.2651155547
 30
0.0
 11
477.2817083859
 21
149.2651155547
 31
0.0
  0
LINE
  5
7B2
330
7AB
100
AcDbEntity
  8
FORMAT
100
AcDbLine
 10
478.2817083859
 20
155.2651155547
 30
0.0
 11
478.2817083859
 21
161.6151155547
 31
0.0
  0
LINE
  5
7B3
330
7AB
100
AcDbEntity
  8
FORMAT
100
AcDbLine
 10
478.2817083859
 20
155.2651155547
 30
0.0
 11
478.2817083859
 21
149.2651155547
 31
0.0
  0
LINE
  5
7B4
330
7AB
100
AcDbEntity
  8
FORMAT
100
AcDbLine
 10
478.2817083859
 20
149.2651155547
 30
0.0
 11
478.2817083859
 21
142.9151155547
 31
0.0
  0
MTEXT
  5
7B5
330
7AB
100
AcDbEntity
  8
FORMAT
100
AcDbMText
 10
473.7699710639
 20
150.9283100323
 30
0.0
 40
3.5
 41
0.0
 71
     1
 72
     1
  1
6
  7
SLDTEXTSTYLE0
 11
-1.414962237524464E-14
 21
1.0
 31
0.0
 73
     1
 44
1.0
  0
ENDBLK
  5
7AD
330
7AB
100
AcDbEntity
  8
0
100
AcDbBlockEnd
  0
BLOCK
  5
7CB
330
7CA
100
AcDbEntity
  8
0
100
AcDbBlockBegin
  2
SW_NOTE_0_9
 70
     0
 10
0.0
 20
0.0
 30
0.0
  3
SW_NOTE_0_9
  1

  0
MTEXT
  5
7CD
330
7CA
100
AcDbEntity
  8
FORMAT
 62
     0
100
AcDbMText
 10
-30.0779560166
 20
10.8677237907
 30
0.0
 40
3.5
 41
0.0
 71
     1
 72
     1
  1
je nach Ausführung
  7
SLDTEXTSTYLE0
 73
     1
 44
1.0
  0
MTEXT
  5
7CE
330
7CA
100
AcDbEntity
  8
FORMAT
 62
     0
100
AcDbMText
 10
-30.0779560166
 20
6.3468902984
 30
0.0
 40
3.5
 41
0.0
 71
     1
 72
     1
  1
des Abdeckwinkels
  7
SLDTEXTSTYLE0
 73
     1
 44
1.0
  0
MTEXT
  5
7CF
330
7CA
100
AcDbEntity
  8
FORMAT
 62
     0
100
AcDbMText
 10
-30.0779560166
 20
1.8260568061
 30
0.0
 40
3.5
 41
0.0
 71
     1
 72
     1
  1
eckig oder R5
  7
SLDTEXTSTYLE0
 73
     1
 44
1.0
  0
ENDBLK
  5
7CC
330
7CA
100
AcDbEntity
  8
0
100
AcDbBlockEnd
  0
BLOCK
  5
7D3
330
7D2
100
AcDbEntity
  8
0
100
AcDbBlockBegin
  2
_Dot
 70
     0
 10
0.0
 20
0.0
 30
0.0
  3
_Dot
  1

  0
LWPOLYLINE
  5
7D5
330
7D2
100
AcDbEntity
  8
0
  6
ByBlock
 62
     0
100
AcDbPolyline
 90
        2
 70
     1
 43
0.5
 10
-0.25
 20
0.0
 42
1.0
 10
0.25
 20
0.0
 42
1.0
  0
LINE
  5
7D6
330
7D2
100
AcDbEntity
  8
0
  6
ByBlock
 62
     0
370
    -2
100
AcDbLine
 10
-0.5
 20
0.0
 30
0.0
 11
-1.0
 21
0.0
 31
0.0
  0
ENDBLK
  5
7D4
330
7D2
100
AcDbEntity
  8
0
100
AcDbBlockEnd
  0
ENDSEC
  0
SECTION
  2
ENTITIES
  0
LINE
  5
E7
330
1F
100
AcDbEntity
  8
FORMAT
  6
Continuous
370
    25
100
AcDbLine
 10
584.0
 20
410.0
 30
0.0
 11
406.2709459459
 21
410.0
 31
0.0
  0
LINE
  5
E8
330
1F
100
AcDbEntity
  8
FORMAT
  6
Continuous
370
    25
100
AcDbLine
 10
584.0
 20
410.0
 30
0.0
 11
584.0
 21
85.8642216885
 31
0.0
  0
LINE
  5
E9
330
1F
100
AcDbEntity
  8
FORMAT
  6
Continuous
370
    25
100
AcDbLine
 10
584.0
 20
85.8642216885
 30
0.0
 11
406.2709459459
 21
85.8642216885
 31
0.0
  0
LINE
  5
EA
330
1F
100
AcDbEntity
  8
FORMAT
  6
Continuous
370
    25
100
AcDbLine
 10
406.2709459459
 20
410.0
 30
0.0
 11
406.2709459459
 21
85.8642216885
 31
0.0
  0
LINE
  5
EB
330
1F
100
AcDbEntity
  8
FORMAT
  6
Continuous
370
    25
100
AcDbLine
 10
406.2709459459
 20
410.0
 30
0.0
 11
225.9242532508
 21
410.0
 31
0.0
  0
LINE
  5
EC
330
1F
100
AcDbEntity
  8
FORMAT
  6
Continuous
370
    25
100
AcDbLine
 10
406.2709459459
 20
410.0
 30
0.0
 11
406.2709459459
 21
85.8642216885
 31
0.0
  0
LINE
  5
ED
330
1F
100
AcDbEntity
  8
FORMAT
  6
Continuous
370
    25
100
AcDbLine
 10
406.2709459459
 20
85.8642216885
 30
0.0
 11
225.9242532508
 21
85.8642216885
 31
0.0
  0
LINE
  5
EE
330
1F
100
AcDbEntity
  8
FORMAT
  6
Continuous
370
    25
100
AcDbLine
 10
225.9242532508
 20
410.0
 30
0.0
 11
225.9242532508
 21
85.8642216885
 31
0.0
  0
LINE
  5
EF
330
1F
100
AcDbEntity
  8
FORMAT
  6
Continuous
 62
     7
370
    18
100
AcDbLine
 10
552.4485281661
 20
35.6464717326
 30
0.0
 11
477.9807868016
 21
35.6464717326
 31
0.0
  0
LINE
  5
F0
330
1F
100
AcDbEntity
  8
FORMAT
  6
Continuous
 62
     7
370
    18
100
AcDbLine
 10
552.4485281661
 20
48.7420674192
 30
0.0
 11
584.0
 21
48.7420674192
 31
0.0
  0
LINE
  5
F1
330
1F
100
AcDbEntity
  8
FORMAT
100
AcDbLine
 10
584.0
 20
410.0
 30
0.0
 11
10.0
 21
410.0
 31
0.0
  0
LINE
  5
F2
330
1F
100
AcDbEntity
  8
FORMAT
100
AcDbLine
 10
10.0
 20
10.0
 30
0.0
 11
584.0
 21
10.0
 31
0.0
  0
LINE
  5
F3
330
1F
100
AcDbEntity
  8
FORMAT
  6
Continuous
 62
     7
370
    18
100
AcDbLine
 10
538.7662011232
 20
35.6464717326
 30
0.0
 11
538.7662011232
 21
25.9765524102
 31
0.0
  0
LINE
  5
F4
330
1F
100
AcDbEntity
  8
FORMAT
100
AcDbLine
 10
584.0
 20
10.0
 30
0.0
 11
584.0
 21
410.0
 31
0.0
  0
LINE
  5
F5
330
1F
100
AcDbEntity
  8
BEMASSUNG
  6
Continuous
 62
     7
370
    18
100
AcDbLine
 10
552.4485281661
 20
40.5638075942
 30
0.0
 11
584.0
 21
40.5638075942
 31
0.0
  0
LINE
  5
F6
330
1F
100
AcDbEntity
  8
FORMAT
 62
     7
370
    18
100
AcDbLine
 10
477.9807868016
 20
52.5731122919
 30
0.0
 11
477.9807868016
 21
10.0
 31
0.0
  0
LINE
  5
F7
330
1F
100
AcDbEntity
  8
FORMAT
 62
     7
100
AcDbLine
 10
569.2554595171
 20
10.0
 30
0.0
 11
569.2554595171
 21
19.3470401503
 31
0.0
  0
LINE
  5
F8
330
1F
100
AcDbEntity
  8
FORMAT
 62
     7
100
AcDbLine
 10
477.9807868016
 20
25.9765524102
 30
0.0
 11
584.0
 21
25.9765524102
 31
0.0
  0
LINE
  5
F9
330
1F
100
AcDbEntity
  8
FORMAT
 62
     7
100
AcDbLine
 10
552.4485281661
 20
19.3470401503
 30
0.0
 11
584.0
 21
19.3470401503
 31
0.0
  0
LINE
  5
FA
330
1F
100
AcDbEntity
  8
FORMAT
 62
     7
100
AcDbLine
 10
477.9807868016
 20
52.5731122919
 30
0.0
 11
584.0133818865
 21
52.5731122919
 31
0.0
  0
LINE
  5
FB
330
1F
100
AcDbEntity
  8
FORMAT
 62
     7
100
AcDbLine
 10
552.4485281661
 20
10.0
 30
0.0
 11
552.4485281661
 21
52.5731122919
 31
0.0
  0
LINE
  5
FC
330
1F
100
AcDbEntity
  8
FORMAT
100
AcDbLine
 10
10.0
 20
410.0
 30
0.0
 11
10.0
 21
10.0
 31
0.0
  0
INSERT
  5
FD
330
1F
100
AcDbEntity
  8
0
  6
Continuous
 62
     7
100
AcDbBlockReference
  2
Block1_4
 10
559.8580737497
 20
27.0956685316
 30
0.0
  0
INSERT
  5
FE
330
1F
100
AcDbEntity
  8
0
  6
Continuous
 62
     7
100
AcDbBlockReference
  2
Block2_4
 10
247.0697431328
 20
-36.8671961253
 30
0.0
  0
INSERT
  5
106
330
1F
100
AcDbEntity
  8
FORMAT
100
AcDbBlockReference
  2
SW_NOTE_0_5
 10
33.8126132398
 20
77.367050662
 30
0.0
  0
MTEXT
  5
108
330
1F
100
AcDbEntity
  8
0
  6
Continuous
 62
     7
370
     0
100
AcDbMText
 10
479.3437582251
 20
31.2949773348
 30
0.0
 40
3.175
 41
0.0
 71
     1
 72
     1
  1
D042-35559
  7
SLDTEXTSTYLE3
 73
     1
 44
1.0
  0
MTEXT
  5
109
330
1F
100
AcDbEntity
  8
BEMASSUNG
 62
     7
100
AcDbMText
 10
553.7763905777
 20
47.9755397851
 30
0.0
 40
2.0
 41
0.0
 71
     1
 72
     1
  1
Ausführung:
  7
SLDTEXTSTYLE0
 73
     1
 44
1.0
  0
MTEXT
  5
10A
330
1F
100
AcDbEntity
  8
FORMAT
100
AcDbMText
 10
542.2434271781
 20
34.2372658327
 30
0.0
 40
2.0
 41
0.0
 71
     1
 72
     1
  1
Index:
  7
SLDTEXTSTYLE0
 73
     1
 44
1.0
  0
MTEXT
  5
10B
330
1F
100
AcDbEntity
  8
FORMAT
100
AcDbMText
 10
555.5261115553
 20
51.6401066847
 30
0.0
 40
1.8
 41
0.0
 71
     1
 72
     1
  1
KATALOGZEICHNUNG
  7
SLDTEXTSTYLE3
 73
     1
 44
1.0
  0
MTEXT
  5
10C
330
1F
100
AcDbEntity
  8
FORMAT
100
AcDbMText
 10
479.6285527947
 20
35.0066019157
 30
0.0
 40
2.0
 41
0.0
 71
     1
 72
     1
  1
Zeichnungsnummer:
  7
SLDTEXTSTYLE0
 73
     1
 44
1.0
  0
MTEXT
  5
10D
330
1F
100
AcDbEntity
  8
FORMAT
100
AcDbMText
 10
563.5143577849
 20
14.3197534241
 30
0.0
 40
2.1166666667
 41
0.0
 71
     1
 72
     1
  1
2
  7
SLDTEXTSTYLE0
 73
     1
 44
1.0
  0
MTEXT
  5
10E
330
1F
100
AcDbEntity
  8
FORMAT
100
AcDbMText
 10
557.4418360635
 20
14.3197534241
 30
0.0
 40
2.1166666667
 41
0.0
 71
     1
 72
     1
  1
2
  7
SLDTEXTSTYLE0
 73
     1
 44
1.0
  0
MTEXT
  5
10F
330
1F
100
AcDbEntity
  8
FORMAT
100
AcDbMText
 10
575.2135811923
 20
14.3097390777
 30
0.0
 40
2.1166666667
 41
0.0
 71
     1
 72
     1
  1
A2
  7
SLDTEXTSTYLE0
 73
     1
 44
1.0
  0
MTEXT
  5
110
330
1F
100
AcDbEntity
  8
FORMAT
100
AcDbMText
 10
567.7935306486
 20
23.7403696931
 30
0.0
 40
2.1166666667
 41
0.0
 71
     1
 72
     1
  1
1:1
  7
SLDTEXTSTYLE0
 73
     1
 44
1.0
  0
MTEXT
  5
111
330
1F
100
AcDbEntity
  8
FORMAT
100
AcDbMText
 10
561.2188625262
 20
14.4244955189
 30
0.0
 40
2.5
 41
0.0
 71
     2
 72
     1
  1
/
  7
SLDTEXTSTYLE0
 73
     1
 44
1.0
  0
MTEXT
  5
112
330
1F
100
AcDbEntity
  8
FORMAT
100
AcDbMText
 10
555.2228552181
 20
17.9289543804
 30
0.0
 40
2.0
 41
0.0
 71
     1
 72
     1
  1
Blatt / von
  7
SLDTEXTSTYLE0
 73
     1
 44
1.0
  0
MTEXT
  5
113
330
1F
100
AcDbEntity
  8
FORMAT
100
AcDbMText
 10
479.3201484029
 20
51.7452513937
 30
0.0
 40
2.0
 41
0.0
 71
     1
 72
     1
  1
Benennung:
  7
SLDTEXTSTYLE0
 73
     1
 44
1.0
  0
MTEXT
  5
114
330
1F
100
AcDbEntity
  8
FORMAT
100
AcDbMText
 10
572.5728183857
 20
17.9289543804
 30
0.0
 40
2.0
 41
0.0
 71
     1
 72
     1
  1
Format
  7
SLDTEXTSTYLE0
 73
     1
 44
1.0
  0
MTEXT
  5
115
330
1F
100
AcDbEntity
  8
FORMAT
100
AcDbMText
 10
553.9012852158
 20
23.6119228032
 30
0.0
 40
2.0
 41
0.0
 71
     1
 72
     1
  1
Maßstab:
  7
SLDTEXTSTYLE0
 73
     1
 44
1.0
  0
MTEXT
  5
116
330
1F
100
AcDbEntity
  8
FORMAT
100
AcDbMText
 10
479.0530809004
 20
40.1412111551
 30
0.0
 40
2.5
 41
0.0
 71
     1
 72
     1
  1
OBX-3106-3D
  7
SLDTEXTSTYLE3
 73
     1
 44
1.0
  0
MTEXT
  5
117
330
1F
100
AcDbEntity
  8
FORMAT
100
AcDbMText
 10
479.0811759552
 20
43.5764214053
 30
0.0
 40
2.5
 41
0.0
 71
     1
 72
     1
  1
Aufnahmeelement 3D Holz-Futterzarge
  7
SLDTEXTSTYLE3
 73
     1
 44
1.0
  0
MTEXT
  5
118
330
1F
100
AcDbEntity
  8
FORMAT
100
AcDbMText
 10
479.0811759552
 20
48.1721199954
 30
0.0
 40
3.5
 41
0.0
 71
     1
 72
     1
  1
Zusammenbau
  7
SLDTEXTSTYLE3
 73
     1
 44
1.0
  0
INSERT
  5
125
330
1F
100
AcDbEntity
  8
FORMAT
100
AcDbBlockReference
  2
SW_NOTE_0_6
 10
478.2414044556
 20
80.0854464466
 30
0.0
  0
LINE
  5
126
330
1F
100
AcDbEntity
  8
0
  6
Continuous
 62
     7
370
    25
100
AcDbLine
 10
109.3394171012
 20
375.0292043295
 30
0.0
 11
109.3394171012
 21
355.9379164441
 31
0.0
  0
LINE
  5
127
330
1F
100
AcDbEntity
  8
0
  6
Continuous
 62
     7
370
    25
100
AcDbLine
 10
126.3394171012
 20
198.0292043295
 30
0.0
 11
126.3394171012
 21
191.0292043295
 31
0.0
  0
LINE
  5
128
330
1F
100
AcDbEntity
  8
0
  6
Continuous
 62
     7
370
    25
100
AcDbLine
 10
126.3394171012
 20
191.0292043295
 30
0.0
 11
126.2394171012
 21
189.6185307315
 31
0.0
  0
LINE
  5
129
330
1F
100
AcDbEntity
  8
0
  6
Continuous
 62
     7
370
    25
100
AcDbLine
 10
109.3394171012
 20
159.0292043295
 30
0.0
 11
35.3394171012
 21
159.0292043295
 31
0.0
  0
CIRCLE
  5
12A
330
1F
100
AcDbEntity
  8
0
  6
Continuous
 62
     7
370
    25
100
AcDbCircle
 10
43.3394171012
 20
247.0292043295
 30
0.0
 40
5.499999999999972
  0
LINE
  5
12B
330
1F
100
AcDbEntity
  8
0
  6
Continuous
 62
     7
370
    25
100
AcDbLine
 10
75.3394171012
 20
367.0292043295
 30
0.0
 11
92.3394171012
 21
367.0292043295
 31
0.0
  0
ARC
  5
12C
330
1F
100
AcDbEntity
  8
0
  6
Continuous
 62
     7
370
    25
100
AcDbCircle
 10
85.5894171012
 20
232.0292043295
 30
0.0
 40
2.75
100
AcDbArc
 50
270.0
 51
90.0
  0
LINE
  5
12D
330
1F
100
AcDbEntity
  8
0
  6
Continuous
 62
     7
370
    25
100
AcDbLine
 10
49.5894171012
 20
234.7792043295
 30
0.0
 11
85.5894171012
 21
234.7792043295
 31
0.0
  0
ARC
  5
12E
330
1F
100
AcDbEntity
  8
0
  6
Continuous
 62
     7
370
    25
100
AcDbCircle
 10
49.5894171012
 20
232.0292043295
 30
0.0
 40
2.75
100
AcDbArc
 50
90.0
 51
270.0
  0
LINE
  5
12F
330
1F
100
AcDbEntity
  8
0
  6
Continuous
 62
     7
370
    25
100
AcDbLine
 10
85.5894171012
 20
229.2792043295
 30
0.0
 11
49.5894171012
 21
229.2792043295
 31
0.0
  0
CIRCLE
  5
130
330
1F
100
AcDbEntity
  8
0
  6
Continuous
 62
     7
370
    25
100
AcDbCircle
 10
66.3394171012
 20
287.0292043295
 30
0.0
 40
5.5
  0
CIRCLE
  5
131
330
1F
100
AcDbEntity
  8
0
  6
Continuous
 62
     7
370
    25
100
AcDbCircle
 10
66.3394171012
 20
247.0292043295
 30
0.0
 40
5.499999999999972
  0
LINE
  5
132
330
1F
100
AcDbEntity
  8
0
  6
Continuous
 62
     7
370
    25
100
AcDbLine
 10
75.3394171012
 20
175.0292043295
 30
0.0
 11
92.3394171012
 21
175.0292043295
 31
0.0
  0
ARC
  5
133
330
1F
100
AcDbEntity
  8
0
  6
Continuous
 62
     7
370
    25
100
AcDbCircle
 10
75.3394171012
 20
171.0292043295
 30
0.0
 40
4.000000000000028
100
AcDbArc
 50
90.0
 51
270.0
  0
LINE
  5
134
330
1F
100
AcDbEntity
  8
0
  6
Continuous
 62
     7
370
    25
100
AcDbLine
 10
92.3394171012
 20
167.0292043295
 30
0.0
 11
75.3394171012
 21
167.0292043295
 31
0.0
  0
CIRCLE
  5
135
330
1F
100
AcDbEntity
  8
0
  6
Continuous
 62
     7
370
    25
100
AcDbCircle
 10
114.3394171012
 20
345.0292043295
 30
0.0
 40
2.5
  0
CIRCLE
  5
136
330
1F
100
AcDbEntity
  8
0
  6
Continuous
 62
     7
370
    25
100
AcDbCircle
 10
103.3394171012
 20
365.0292043295
 30
0.0
 40
2.750000000000057
  0
CIRCLE
  5
137
330
1F
100
AcDbEntity
  8
0
  6
Continuous
 62
     7
370
    25
100
AcDbCircle
 10
93.3394171012
 20
350.0292043295
 30
0.0
 40
2.750000000000057
  0
CIRCLE
  5
138
330
1F
100
AcDbEntity
  8
0
  6
Continuous
 62
     7
370
    25
100
AcDbCircle
 10
73.3394171012
 20
335.0292043295
 30
0.0
 40
2.75
  0
CIRCLE
  5
139
330
1F
100
AcDbEntity
  8
0
  6
Continuous
 62
     7
370
    25
100
AcDbCircle
 10
44.3394171012
 20
335.0292043295
 30
0.0
 40
2.75
  0
CIRCLE
  5
13A
330
1F
100
AcDbEntity
  8
0
  6
Continuous
 62
     7
370
    25
100
AcDbCircle
 10
54.3394171012
 20
267.0292043295
 30
0.0
 40
2.75
  0
CIRCLE
  5
13B
330
1F
100
AcDbEntity
  8
0
  6
Continuous
 62
     7
370
    25
100
AcDbCircle
 10
89.3394171012
 20
267.0292043295
 30
0.0
 40
2.75
  0
CIRCLE
  5
13C
330
1F
100
AcDbEntity
  8
0
  6
Continuous
 62
     7
370
    25
100
AcDbCircle
 10
73.3394171012
 20
199.0292043295
 30
0.0
 40
2.75
  0
CIRCLE
  5
13D
330
1F
100
AcDbEntity
  8
0
  6
Continuous
 62
     7
370
    25
100
AcDbCircle
 10
93.3394171012
 20
184.0292043295
 30
0.0
 40
2.75
  0
CIRCLE
  5
13E
330
1F
100
AcDbEntity
  8
0
  6
Continuous
 62
     7
370
    25
100
AcDbCircle
 10
114.3394171012
 20
189.0292043295
 30
0.0
 40
2.5
  0
LINE
  5
13F
330
1F
100
AcDbEntity
  8
0
  6
Continuous
 62
     7
370
    25
100
AcDbLine
 10
125.3394171012
 20
335.0292043295
 30
0.0
 11
124.1373760723
 21
335.0292043295
 31
0.0
  0
ARC
  5
140
330
1F
100
AcDbEntity
  8
0
  6
Continuous
 62
     7
370
    25
100
AcDbCircle
 10
125.3394171012
 20
336.0292043295
 30
0.0
 40
1.0
100
AcDbArc
 50
270.0
 51
0.0
  0
ARC
  5
141
330
1F
100
AcDbEntity
  8
0
  6
Continuous
 62
     7
370
    25
100
AcDbCircle
 10
92.3394171012
 20
171.0292043295
 30
0.0
 40
4.000000000000028
100
AcDbArc
 50
270.0
 51
90.0
  0
LINE
  5
142
330
1F
100
AcDbEntity
  8
0
  6
Continuous
 62
     7
370
    25
100
AcDbLine
 10
126.2394171012
 20
344.4398779274
 30
0.0
 11
126.3394171012
 21
343.0292043295
 31
0.0
  0
LINE
  5
143
330
1F
100
AcDbEntity
  8
0
  6
Continuous
 62
     7
370
    25
100
AcDbLine
 10
109.3394171012
 20
178.1204922148
 30
0.0
 11
109.3394171012
 21
159.0292043295
 31
0.0
  0
LINE
  5
144
330
1F
100
AcDbEntity
  8
0
  6
Continuous
 62
     7
370
    25
100
AcDbLine
 10
85.5894171012
 20
299.2792043295
 30
0.0
 11
49.5894171012
 21
299.2792043295
 31
0.0
  0
CIRCLE
  5
145
330
1F
100
AcDbEntity
  8
0
  6
Continuous
 62
     7
370
    25
100
AcDbCircle
 10
43.3394171012
 20
287.0292043295
 30
0.0
 40
5.5
  0
LINE
  5
146
330
1F
100
AcDbEntity
  8
0
  6
Continuous
 62
     7
370
    25
100
AcDbLine
 10
35.3394171012
 20
159.0292043295
 30
0.0
 11
35.3394171012
 21
375.0292043295
 31
0.0
  0
ARC
  5
147
330
1F
100
AcDbEntity
  8
0
  6
Continuous
 62
     7
370
    25
100
AcDbCircle
 10
92.3394171012
 20
363.0292043295
 30
0.0
 40
4.000000000000057
100
AcDbArc
 50
270.0
 51
90.0
  0
CIRCLE
  5
148
330
1F
100
AcDbEntity
  8
0
  6
Continuous
 62
     7
370
    25
100
AcDbCircle
 10
44.3394171012
 20
199.0292043295
 30
0.0
 40
2.75
  0
ARC
  5
149
330
1F
100
AcDbEntity
  8
0
  6
Continuous
 62
     7
370
    25
100
AcDbCircle
 10
125.3394171012
 20
198.0292043295
 30
0.0
 40
1.0
100
AcDbArc
 50
0.0
 51
90.0
  0
LINE
  5
14A
330
1F
100
AcDbEntity
  8
0
  6
Continuous
 62
     7
370
    25
100
AcDbLine
 10
126.3394171012
 20
343.0292043295
 30
0.0
 11
126.3394171012
 21
336.0292043295
 31
0.0
  0
CIRCLE
  5
14B
330
1F
100
AcDbEntity
  8
0
  6
Continuous
 62
     7
370
    25
100
AcDbCircle
 10
103.3394171012
 20
169.0292043295
 30
0.0
 40
2.75
  0
ARC
  5
14C
330
1F
100
AcDbEntity
  8
0
  6
Continuous
 62
     7
370
    25
100
AcDbCircle
 10
85.5894171012
 20
302.0292043295
 30
0.0
 40
2.750000000000057
100
AcDbArc
 50
270.0
 51
90.0
  0
ARC
  5
14D
330
1F
100
AcDbEntity
  8
0
  6
Continuous
 62
     7
370
    25
100
AcDbCircle
 10
49.5894171012
 20
302.0292043295
 30
0.0
 40
2.750000000000057
100
AcDbArc
 50
90.0
 51
270.0
  0
ARC
  5
14E
330
1F
100
AcDbEntity
  8
0
  6
Continuous
 62
     7
370
    25
100
AcDbCircle
 10
114.3394171012
 20
326.0292043295
 30
0.0
 40
13.0
100
AcDbArc
 50
135.7135937252
 51
180.0
  0
ARC
  5
14F
330
1F
100
AcDbEntity
  8
0
  6
Continuous
 62
     7
370
    25
100
AcDbCircle
 10
75.3394171012
 20
363.0292043295
 30
0.0
 40
4.000000000000057
100
AcDbArc
 50
90.0
 51
270.0
  0
LINE
  5
150
330
1F
100
AcDbEntity
  8
0
  6
Continuous
 62
     7
370
    25
100
AcDbLine
 10
35.3394171012
 20
375.0292043295
 30
0.0
 11
109.3394171012
 21
375.0292043295
 31
0.0
  0
LINE
  5
151
330
1F
100
AcDbEntity
  8
0
  6
Continuous
 62
     7
370
    25
100
AcDbLine
 10
92.3394171012
 20
359.0292043295
 30
0.0
 11
75.3394171012
 21
359.0292043295
 31
0.0
  0
LINE
  5
152
330
1F
100
AcDbEntity
  8
0
  6
Continuous
 62
     7
370
    25
100
AcDbLine
 10
124.1373760723
 20
199.0292043295
 30
0.0
 11
125.3394171012
 21
199.0292043295
 31
0.0
  0
LINE
  5
153
330
1F
100
AcDbEntity
  8
0
  6
Continuous
 62
     7
370
    25
100
AcDbLine
 10
101.3394171012
 20
326.0292043295
 30
0.0
 11
101.3394171012
 21
208.0292043295
 31
0.0
  0
ARC
  5
154
330
1F
100
AcDbEntity
  8
0
  6
Continuous
 62
     7
370
    25
100
AcDbCircle
 10
114.3394171012
 20
208.0292043295
 30
0.0
 40
13.00000000000003
100
AcDbArc
 50
180.0
 51
224.2835401448
  0
LINE
  5
155
330
1F
100
AcDbEntity
  8
0
  6
Continuous
 62
     7
370
    25
100
AcDbLine
 10
49.5894171012
 20
304.7792043295
 30
0.0
 11
85.5894171012
 21
304.7792043295
 31
0.0
  0
LINE
  5
156
330
1F
100
AcDbEntity
  8
0
  6
Continuous
 62
     7
370
    25
100
AcDbLine
 10
104.5541451061
 20
198.2439323344
 30
0.0
 11
105.3394171012
 21
199.0292043295
 31
0.0
  0
LINE
  5
157
330
1F
100
AcDbEntity
  8
0
  6
Continuous
 62
     7
370
    25
100
AcDbLine
 10
105.3394171012
 20
199.0292043295
 30
0.0
 11
105.3394171012
 21
202.854528543
 31
0.0
  0
ARC
  5
158
330
1F
100
AcDbEntity
  8
0
  6
Continuous
 62
     7
370
    25
100
AcDbCircle
 10
114.3394171012
 20
211.5292043295
 30
0.0
 40
12.50000000000032
100
AcDbArc
 50
223.9455195623
 51
316.0544804377
  0
LINE
  5
159
330
1F
100
AcDbEntity
  8
0
  6
Continuous
 62
     7
370
    25
100
AcDbLine
 10
123.3394171012
 20
202.854528543
 30
0.0
 11
123.3394171012
 21
199.0292043295
 31
0.0
  0
LINE
  5
15A
330
1F
100
AcDbEntity
  8
0
  6
Continuous
 62
     7
370
    25
100
AcDbLine
 10
123.3394171012
 20
199.0292043295
 30
0.0
 11
124.1246890962
 21
198.2439323344
 31
0.0
  0
LINE
  5
15B
330
1F
100
AcDbEntity
  8
0
  6
Continuous
 62
     7
370
    25
100
AcDbLine
 10
124.1246890962
 20
335.8144763245
 30
0.0
 11
123.3394171012
 21
335.0292043295
 31
0.0
  0
LINE
  5
15C
330
1F
100
AcDbEntity
  8
0
  6
Continuous
 62
     7
370
    25
100
AcDbLine
 10
123.3394171012
 20
335.0292043295
 30
0.0
 11
123.3394171012
 21
331.2038801159
 31
0.0
  0
ARC
  5
15D
330
1F
100
AcDbEntity
  8
0
  6
Continuous
 62
     7
370
    25
100
AcDbCircle
 10
114.3394171012
 20
322.5292043295
 30
0.0
 40
12.50000000000034
100
AcDbArc
 50
43.9455195623
 51
136.0544804377
  0
LINE
  5
15E
330
1F
100
AcDbEntity
  8
0
  6
Continuous
 62
     7
370
    25
100
AcDbLine
 10
105.3394171012
 20
331.2038801159
 30
0.0
 11
105.3394171012
 21
335.0292043295
 31
0.0
  0
LINE
  5
15F
330
1F
100
AcDbEntity
  8
0
  6
Continuous
 62
     7
370
    25
100
AcDbLine
 10
105.3394171012
 20
335.0292043295
 30
0.0
 11
104.5541451061
 21
335.8144763245
 31
0.0
  0
LINE
  5
160
330
1F
100
AcDbEntity
  8
0
  6
Continuous
 62
     7
370
    25
100
AcDbLine
 10
102.4394171012
 20
196.1292043295
 30
0.0
 11
102.4394171012
 21
187.4832418461
 31
0.0
  0
LINE
  5
161
330
1F
100
AcDbEntity
  8
0
  6
Continuous
 62
     7
370
    25
100
AcDbLine
 10
126.2394171012
 20
187.4832418461
 30
0.0
 11
126.2394171012
 21
196.1292043295
 31
0.0
  0
ARC
  5
162
330
1F
100
AcDbEntity
  8
0
  6
Continuous
 62
     7
370
    25
100
AcDbCircle
 10
114.3394171012
 20
189.0292043295
 30
0.0
 40
12.0
100
AcDbArc
 50
187.4019996877
 51
352.5980003123
  0
CIRCLE
  5
163
330
1F
100
AcDbEntity
  8
0
  6
Continuous
 62
     7
370
    25
100
AcDbCircle
 10
114.3394171012
 20
189.0292043295
 30
0.0
 40
3.500000000000014
  0
CIRCLE
  5
164
330
1F
100
AcDbEntity
  8
0
  6
Continuous
 62
     7
370
    25
100
AcDbCircle
 10
121.4852200651
 20
186.0292043295
 30
0.0
 40
1.499999999999986
  0
CIRCLE
  5
165
330
1F
100
AcDbEntity
  8
0
  6
Continuous
 62
     7
370
    25
100
AcDbCircle
 10
107.1936141372
 20
186.0292043295
 30
0.0
 40
1.5
  0
LINE
  5
166
330
1F
100
AcDbEntity
  8
0
  6
Continuous
 62
     7
370
    25
100
AcDbLine
 10
102.4394171012
 20
196.1292043295
 30
0.0
 11
104.5541451061
 21
198.2439323344
 31
0.0
  0
LINE
  5
167
330
1F
100
AcDbEntity
  8
0
  6
Continuous
 62
     7
370
    25
100
AcDbLine
 10
124.1246890962
 20
198.2439323344
 30
0.0
 11
126.2394171012
 21
196.1292043295
 31
0.0
  0
CIRCLE
  5
168
330
1F
100
AcDbEntity
  8
0
  6
Continuous
 62
     7
370
    25
100
AcDbCircle
 10
114.3394171012
 20
345.0292043295
 30
0.0
 40
3.500000000000014
  0
LINE
  5
169
330
1F
100
AcDbEntity
  8
0
  6
Continuous
 62
     7
370
    25
100
AcDbLine
 10
102.4394171012
 20
337.9292043295
 30
0.0
 11
102.4394171012
 21
346.5751668129
 31
0.0
  0
ARC
  5
16A
330
1F
100
AcDbEntity
  8
0
  6
Continuous
 62
     7
370
    25
100
AcDbCircle
 10
114.3394171012
 20
345.0292043295
 30
0.0
 40
12.0
100
AcDbArc
 50
7.4019996877
 51
172.5980003123
  0
LINE
  5
16B
330
1F
100
AcDbEntity
  8
0
  6
Continuous
 62
     7
370
    25
100
AcDbLine
 10
126.2394171012
 20
346.5751668129
 30
0.0
 11
126.2394171012
 21
337.9292043295
 31
0.0
  0
CIRCLE
  5
16C
330
1F
100
AcDbEntity
  8
0
  6
Continuous
 62
     7
370
    25
100
AcDbCircle
 10
107.1936141372
 20
348.0292043295
 30
0.0
 40
1.499999999999986
  0
CIRCLE
  5
16D
330
1F
100
AcDbEntity
  8
0
  6
Continuous
 62
     7
370
    25
100
AcDbCircle
 10
121.4852200651
 20
348.0292043295
 30
0.0
 40
1.5
  0
LINE
  5
16E
330
1F
100
AcDbEntity
  8
0
  6
Continuous
 62
     7
370
    25
100
AcDbLine
 10
124.1246890962
 20
335.8144763245
 30
0.0
 11
126.2394171012
 21
337.9292043295
 31
0.0
  0
LINE
  5
16F
330
1F
100
AcDbEntity
  8
0
  6
Continuous
 62
     7
370
    25
100
AcDbLine
 10
102.4394171012
 20
337.9292043295
 30
0.0
 11
104.5541451061
 21
335.8144763245
 31
0.0
  0
CIRCLE
  5
170
330
1F
100
AcDbEntity
  8
0
  6
Continuous
 62
     7
370
    25
100
AcDbCircle
 10
121.4852200651
 20
186.0292043295
 30
0.0
 40
0.6339745962155519
  0
CIRCLE
  5
171
330
1F
100
AcDbEntity
  8
0
  6
Continuous
 62
     7
370
    25
100
AcDbCircle
 10
107.1936141372
 20
348.0292043295
 30
0.0
 40
0.6339745962155376
  0
CIRCLE
  5
172
330
1F
100
AcDbEntity
  8
0
  6
Continuous
 62
     7
370
    25
100
AcDbCircle
 10
121.4852200651
 20
348.0292043295
 30
0.0
 40
0.6339745962155519
  0
CIRCLE
  5
173
330
1F
100
AcDbEntity
  8
0
  6
Continuous
 62
     7
370
    25
100
AcDbCircle
 10
107.1936141372
 20
186.0292043295
 30
0.0
 40
0.6339745962155661
  0
LINE
  5
174
330
1F
100
AcDbEntity
  8
0
  6
Continuous
 62
     7
370
    25
100
AcDbLine
 10
123.3394171012
 20
202.854528543
 30
0.0
 11
123.3394171012
 21
203.9822793802
 31
0.0
  0
LINE
  5
175
330
1F
100
AcDbEntity
  8
0
  6
Continuous
 62
     7
370
    25
100
AcDbLine
 10
105.3394171012
 20
203.8822670239
 30
0.0
 11
105.3394171012
 21
202.854528543
 31
0.0
  0
LINE
  5
176
330
1F
100
AcDbEntity
  8
0
  6
Continuous
 62
     7
370
    25
100
AcDbLine
 10
123.3394171012
 20
330.1761416351
 30
0.0
 11
123.3394171012
 21
331.2038801159
 31
0.0
  0
LINE
  5
177
330
1F
100
AcDbEntity
  8
0
  6
Continuous
 62
     7
370
    25
100
AcDbLine
 10
105.3394171012
 20
331.2038801159
 30
0.0
 11
105.3394171012
 21
330.0761292787
 31
0.0
  0
CIRCLE
  5
178
330
1F
100
AcDbEntity
  8
0
  6
Continuous
 62
     7
370
    25
100
AcDbCircle
 10
114.3394171012
 20
281.0292043295
 30
0.0
 40
5.200000000000003
  0
CIRCLE
  5
179
330
1F
100
AcDbEntity
  8
0
  6
Continuous
 62
     7
370
    25
100
AcDbCircle
 10
114.3394171012
 20
281.0292043295
 30
0.0
 40
2.75
  0
CIRCLE
  5
17A
330
1F
100
AcDbEntity
  8
0
  6
Continuous
 62
     7
370
    25
100
AcDbCircle
 10
114.3394171012
 20
253.0292043295
 30
0.0
 40
5.200000000000017
  0
CIRCLE
  5
17B
330
1F
100
AcDbEntity
  8
0
  6
Continuous
 62
     7
370
    25
100
AcDbCircle
 10
114.3394171012
 20
253.0292043295
 30
0.0
 40
2.750000000000014
  0
LINE
  5
17C
330
1F
100
AcDbEntity
  8
0
  6
Continuous
 62
     7
370
    25
100
AcDbLine
 10
102.4394171012
 20
211.9292043295
 30
0.0
 11
102.8394171012
 21
211.5292043295
 31
0.0
  0
LINE
  5
17D
330
1F
100
AcDbEntity
  8
0
  6
Continuous
 62
     7
370
    25
100
AcDbLine
 10
126.2394171012
 20
322.1292043295
 30
0.0
 11
125.8394171012
 21
322.5292043295
 31
0.0
  0
LINE
  5
17E
330
1F
100
AcDbEntity
  8
0
  6
Continuous
 62
     7
370
    25
100
AcDbLine
 10
125.8394171012
 20
211.5292043295
 30
0.0
 11
126.2394171012
 21
211.9292043295
 31
0.0
  0
LINE
  5
17F
330
1F
100
AcDbEntity
  8
0
  6
Continuous
 62
     7
370
    25
100
AcDbLine
 10
126.2394171012
 20
322.1292043295
 30
0.0
 11
126.2394171012
 21
211.9292043295
 31
0.0
  0
LINE
  5
180
330
1F
100
AcDbEntity
  8
0
  6
Continuous
 62
     7
370
    25
100
AcDbLine
 10
102.8394171012
 20
322.5292043295
 30
0.0
 11
102.4394171012
 21
322.1292043295
 31
0.0
  0
LINE
  5
181
330
1F
100
AcDbEntity
  8
0
  6
Continuous
 62
     7
370
    25
100
AcDbLine
 10
102.4394171012
 20
211.9292043295
 30
0.0
 11
102.4394171012
 21
322.1292043295
 31
0.0
  0
CIRCLE
  5
182
330
1F
100
AcDbEntity
  8
0
  6
Continuous
 62
     7
370
    25
100
AcDbCircle
 10
117.3394171012
 20
295.0292043295
 30
0.0
 40
4.615049880486039
  0
CIRCLE
  5
183
330
1F
100
AcDbEntity
  8
0
  6
Continuous
 62
     7
370
    25
100
AcDbCircle
 10
117.3394171012
 20
295.0292043295
 30
0.0
 40
2.799999999999996
  0
CIRCLE
  5
184
330
1F
100
AcDbEntity
  8
0
  6
Continuous
 62
     7
370
    25
100
AcDbCircle
 10
117.3394171012
 20
295.0292043295
 30
0.0
 40
5.000000000000091
  0
LWPOLYLINE
  5
185
330
1F
100
AcDbEntity
  8
0
  6
Continuous
 62
     7
370
    25
100
AcDbPolyline
 90
       11
 70
   128
 43
0.0
 10
119.9700060717
 20
294.0700371553
 10
119.974167841
 20
294.1037300208
 10
119.964989904
 20
294.142630916
 10
119.8902490117
 20
294.2652963783
 10
119.4933300926
 20
294.7311976578
 10
119.1779107428
 20
295.3522918935
 10
119.2626753905
 20
296.0437124386
 10
119.4769681376
 20
296.6170249617
 10
119.5054092689
 20
296.7578231104
 10
119.5007744103
 20
296.7975223832
 10
119.4853747257
 20
296.8277776178
  0
LWPOLYLINE
  5
186
330
1F
100
AcDbEntity
  8
0
  6
Continuous
 62
     7
370
    25
100
AcDbPolyline
 90
       13
 70
   128
 43
0.0
 10
117.8240484472
 20
292.271463867
 10
117.8577082214
 20
292.2863948374
 10
117.88890173
 20
292.3177126616
 10
117.9346469399
 20
292.395964825
 10
118.0371020853
 20
292.6739859544
 10
118.3471052337
 20
293.3822786116
 10
118.7319997787
 20
293.7240887323
 10
119.2368158463
 20
293.8823159099
 10
119.7020294088
 20
293.9561720276
 10
119.8831993943
 20
294.0007493175
 10
119.930311876
 20
294.024366791
 10
119.9611654401
 20
294.0531625128
 10
119.9700060717
 20
294.0700371553
  0
LWPOLYLINE
  5
187
330
1F
100
AcDbEntity
  8
0
  6
Continuous
 62
     7
370
    25
100
AcDbPolyline
 90
       14
 70
   128
 43
0.0
 10
115.1934594766
 20
293.2306310411
 10
115.2075236722
 20
293.217781577
 10
115.2395635659
 20
293.2030274536
 10
115.2814755532
 20
293.1959520228
 10
115.3324801094
 20
293.1955287614
 10
115.4842015213
 20
293.2149523101
 10
115.9467222803
 20
293.3041315249
 10
116.4752382796
 20
293.3274968927
 10
116.9536087707
 20
293.1373925987
 10
117.4865238032
 20
292.5772301148
 10
117.6776290425
 20
292.350797801
 10
117.7648625848
 20
292.2828989771
 10
117.7954583558
 20
292.2720455081
 10
117.8240484472
 20
292.271463867
  0
LWPOLYLINE
  5
188
330
1F
100
AcDbEntity
  8
0
  6
Continuous
 62
     7
370
    25
100
AcDbPolyline
 90
       14
 70
   128
 43
0.0
 10
119.4853747257
 20
296.8277776178
 10
119.4713105301
 20
296.840627082
 10
119.4392706364
 20
296.8553812054
 10
119.3973586491
 20
296.8624566362
 10
119.3463540929
 20
296.8628798976
 10
119.194632681
 20
296.8434563488
 10
118.732111922
 20
296.7542771341
 10
118.2035959227
 20
296.7309117662
 10
117.7252254316
 20
296.9210160602
 10
117.1923103991
 20
297.4811785442
 10
117.0012051598
 20
297.7076108579
 10
116.9139716175
 20
297.7755096818
 10
116.8833758466
 20
297.7863631509
 10
116.8547857552
 20
297.786944792
  0
LWPOLYLINE
  5
189
330
1F
100
AcDbEntity
  8
0
  6
Continuous
 62
     7
370
    25
100
AcDbPolyline
 90
       13
 70
   128
 43
0.0
 10
116.8547857552
 20
297.786944792
 10
116.8211259809
 20
297.7720138216
 10
116.7899324723
 20
297.7406959974
 10
116.7441872624
 20
297.662443834
 10
116.641732117
 20
297.3844227046
 10
116.3317289686
 20
296.6761300473
 10
115.9468344236
 20
296.3343199267
 10
115.442018356
 20
296.176092749
 10
114.9768047935
 20
296.1022366314
 10
114.7956348081
 20
296.0576593415
 10
114.7485223263
 20
296.0340418679
 10
114.7176687622
 20
296.0052461461
 10
114.7088281306
 20
295.9883715036
  0
LWPOLYLINE
  5
18A
330
1F
100
AcDbEntity
  8
0
  6
Continuous
 62
     7
370
    25
100
AcDbPolyline
 90
       11
 70
   128
 43
0.0
 10
114.7088281306
 20
295.9883715036
 10
114.7046663613
 20
295.9546786381
 10
114.7138442984
 20
295.9157777429
 10
114.7885851907
 20
295.7931122807
 10
115.1855041097
 20
295.3272110011
 10
115.5009234595
 20
294.7061167655
 10
115.4161588118
 20
294.0146962203
 10
115.2018660647
 20
293.4413836972
 10
115.1734249335
 20
293.3005855486
 10
115.178059792
 20
293.2608862757
 10
115.1934594766
 20
293.2306310411
  0
ARC
  5
18B
330
1F
100
AcDbEntity
  8
0
  6
Continuous
 62
     7
370
    25
100
AcDbCircle
 10
117.3394171012
 20
295.0292043295
 30
0.0
 40
1.866666666666664
100
AcDbArc
 50
249.9670979195
 51
309.9670979195
  0
ARC
  5
18C
330
1F
100
AcDbEntity
  8
0
  6
Continuous
 62
     7
370
    25
100
AcDbCircle
 10
117.3394171012
 20
295.0292043295
 30
0.0
 40
1.866666666666664
100
AcDbArc
 50
309.9670979195
 51
9.9670979195
  0
ARC
  5
18D
330
1F
100
AcDbEntity
  8
0
  6
Continuous
 62
     7
370
    25
100
AcDbCircle
 10
117.3394171012
 20
295.0292043295
 30
0.0
 40
1.866666666666664
100
AcDbArc
 50
189.9670979195
 51
249.9670979195
  0
ARC
  5
18E
330
1F
100
AcDbEntity
  8
0
  6
Continuous
 62
     7
370
    25
100
AcDbCircle
 10
117.3394171012
 20
295.0292043295
 30
0.0
 40
1.866666666666709
100
AcDbArc
 50
69.9670979195
 51
129.9670979195
  0
ARC
  5
18F
330
1F
100
AcDbEntity
  8
0
  6
Continuous
 62
     7
370
    25
100
AcDbCircle
 10
117.3394171012
 20
295.0292043295
 30
0.0
 40
1.866666666666709
100
AcDbArc
 50
9.9670979195
 51
69.9670979195
  0
ARC
  5
190
330
1F
100
AcDbEntity
  8
0
  6
Continuous
 62
     7
370
    25
100
AcDbCircle
 10
117.3394171012
 20
295.0292043295
 30
0.0
 40
1.866666666666673
100
AcDbArc
 50
129.9670979195
 51
189.9670979195
  0
CIRCLE
  5
191
330
1F
100
AcDbEntity
  8
0
  6
Continuous
 62
     7
370
    25
100
AcDbCircle
 10
117.3394171012
 20
239.0292043295
 30
0.0
 40
5.000000000000022
  0
CIRCLE
  5
192
330
1F
100
AcDbEntity
  8
0
  6
Continuous
 62
     7
370
    25
100
AcDbCircle
 10
117.3394171012
 20
239.0292043295
 30
0.0
 40
4.615049880485982
  0
CIRCLE
  5
193
330
1F
100
AcDbEntity
  8
0
  6
Continuous
 62
     7
370
    25
100
AcDbCircle
 10
117.3394171012
 20
239.0292043295
 30
0.0
 40
2.799999999999991
  0
LWPOLYLINE
  5
194
330
1F
100
AcDbEntity
  8
0
  6
Continuous
 62
     7
370
    25
100
AcDbPolyline
 90
       14
 70
   128
 43
0.0
 10
116.6251230871
 20
236.321846935
 10
116.6440246285
 20
236.3194716324
 10
116.6787046603
 20
236.3259163459
 10
116.7170142872
 20
236.3443296263
 10
116.7589094391
 20
236.3734232707
 10
116.8715956544
 20
236.4768567177
 10
117.1978216186
 20
236.8166434231
 10
117.6159270292
 20
237.1407776045
 10
118.1162955019
 20
237.2616467935
 10
118.8747992408
 20
237.1118051491
 10
119.1615520715
 20
237.0372020707
 10
119.2719783622
 20
237.0321054535
 10
119.3032276925
 20
237.0409019496
 10
119.3269103749
 20
237.0569288703
  0
LWPOLYLINE
  5
195
330
1F
100
AcDbEntity
  8
0
  6
Continuous
 62
     7
370
    25
100
AcDbPolyline
 90
       14
 70
   128
 43
0.0
 10
118.0537111152
 20
241.736561724
 10
118.0348095738
 20
241.7389370265
 10
118.000129542
 20
241.7324923131
 10
117.9618199151
 20
241.7140790327
 10
117.9199247632
 20
241.6849853882
 10
117.8072385479
 20
241.5815519413
 10
117.4810125837
 20
241.2417652359
 10
117.0629071732
 20
240.9176310545
 10
116.5625387004
 20
240.7967618655
 10
115.8040349615
 20
240.9466035098
 10
115.5172821309
 20
241.0212065883
 10
115.4068558402
 20
241.0263032055
 10
115.3756065098
 20
241.0175067093
 10
115.3519238274
 20
241.0014797887
  0
LWPOLYLINE
  5
196
330
1F
100
AcDbEntity
  8
0
  6
Continuous
 62
     7
370
    25
100
AcDbPolyline
 90
       13
 70
   128
 43
0.0
 10
115.3519238274
 20
241.0014797887
 10
115.3330549028
 20
240.9698589417
 10
115.3256582728
 20
240.926279922
 10
115.333468571
 20
240.8359747475
 10
115.4102734568
 20
240.5498037938
 10
115.5659406109
 20
239.7924741579
 10
115.4489208744
 20
239.2911914526
 10
115.1280098676
 20
238.8706070644
 10
114.7907406045
 20
238.5417791018
 10
114.6685248486
 20
238.4008074471
 10
114.64368406
 20
238.3543283527
 10
114.6351093019
 20
238.3130051204
 10
114.6376298134
 20
238.2941223942
  0
LWPOLYLINE
  5
197
330
1F
100
AcDbEntity
  8
0
  6
Continuous
 62
     7
370
    25
100
AcDbPolyline
 90
       11
 70
   128
 43
0.0
 10
114.6376298134
 20
238.2941223942
 10
114.6536784308
 20
238.2642063218
 10
114.6836264099
 20
238.237736854
 10
114.8154617906
 20
238.1807066076
 10
115.4085031331
 20
238.0293441397
 10
116.024566795
 20
237.7042088137
 10
116.3544276442
 20
237.0906623721
 10
116.5103438163
 20
236.4988019342
 10
116.5683856781
 20
236.367408788
 10
116.5950845472
 20
236.3376651404
 10
116.6251230871
 20
236.321846935
  0
LWPOLYLINE
  5
198
330
1F
100
AcDbEntity
  8
0
  6
Continuous
 62
     7
370
    25
100
AcDbPolyline
 90
       11
 70
   128
 43
0.0
 10
120.0412043889
 20
239.7642862648
 10
120.0251557715
 20
239.7942023372
 10
119.9952077924
 20
239.8206718049
 10
119.8633724117
 20
239.8777020514
 10
119.2703310692
 20
240.0290645193
 10
118.6542674073
 20
240.3541998453
 10
118.3244065581
 20
240.9677462869
 10
118.168490386
 20
241.5596067247
 10
118.1104485242
 20
241.690999871
 10
118.0837496552
 20
241.7207435185
 10
118.0537111152
 20
241.736561724
  0
LWPOLYLINE
  5
199
330
1F
100
AcDbEntity
  8
0
  6
Continuous
 62
     7
370
    25
100
AcDbPolyline
 90
       13
 70
   128
 43
0.0
 10
119.3269103749
 20
237.0569288703
 10
119.3457792996
 20
237.0885497172
 10
119.3531759295
 20
237.132128737
 10
119.3453656313
 20
237.2224339115
 10
119.2685607455
 20
237.5086048651
 10
119.1128935914
 20
238.2659345011
 10
119.2299133279
 20
238.7672172064
 10
119.5508243347
 20
239.1878015946
 10
119.8880935978
 20
239.5166295572
 10
120.0103093537
 20
239.6576012119
 10
120.0351501423
 20
239.7040803062
 10
120.0437249005
 20
239.7454035386
 10
120.0412043889
 20
239.7642862648
  0
ARC
  5
19A
330
1F
100
AcDbEntity
  8
0
  6
Continuous
 62
     7
370
    25
100
AcDbCircle
 10
117.3394171012
 20
239.0292043295
 30
0.0
 40
1.866666666666674
100
AcDbArc
 50
45.2201927219
 51
105.2201927219
  0
ARC
  5
19B
330
1F
100
AcDbEntity
  8
0
  6
Continuous
 62
     7
370
    25
100
AcDbCircle
 10
117.3394171012
 20
239.0292043295
 30
0.0
 40
1.866666666666683
100
AcDbArc
 50
105.2201927219
 51
165.2201927219
  0
ARC
  5
19C
330
1F
100
AcDbEntity
  8
0
  6
Continuous
 62
     7
370
    25
100
AcDbCircle
 10
117.3394171012
 20
239.0292043295
 30
0.0
 40
1.866666666666684
100
AcDbArc
 50
165.2201927219
 51
225.2201927219
  0
ARC
  5
19D
330
1F
100
AcDbEntity
  8
0
  6
Continuous
 62
     7
370
    25
100
AcDbCircle
 10
117.3394171012
 20
239.0292043295
 30
0.0
 40
1.866666666666674
100
AcDbArc
 50
345.2201927219
 51
45.2201927219
  0
ARC
  5
19E
330
1F
100
AcDbEntity
  8
0
  6
Continuous
 62
     7
370
    25
100
AcDbCircle
 10
117.3394171012
 20
239.0292043295
 30
0.0
 40
1.86666666666669
100
AcDbArc
 50
225.2201927219
 51
285.2201927219
  0
ARC
  5
19F
330
1F
100
AcDbEntity
  8
0
  6
Continuous
 62
     7
370
    25
100
AcDbCircle
 10
117.3394171012
 20
239.0292043295
 30
0.0
 40
1.86666666666669
100
AcDbArc
 50
285.2201927219
 51
345.2201927219
  0
CIRCLE
  5
1A0
330
1F
100
AcDbEntity
  8
0
  6
Continuous
 62
     7
370
    25
100
AcDbCircle
 10
117.3394171012
 20
267.0292043295
 30
0.0
 40
5.000000000000018
  0
CIRCLE
  5
1A1
330
1F
100
AcDbEntity
  8
0
  6
Continuous
 62
     7
370
    25
100
AcDbCircle
 10
117.3394171012
 20
267.0292043295
 30
0.0
 40
4.615049880485964
  0
CIRCLE
  5
1A2
330
1F
100
AcDbEntity
  8
0
  6
Continuous
 62
     7
370
    25
100
AcDbCircle
 10
117.3394171012
 20
267.0292043295
 30
0.0
 40
2.799999999999969
  0
LWPOLYLINE
  5
1A3
330
1F
100
AcDbEntity
  8
0
  6
Continuous
 62
     7
370
    25
100
AcDbPolyline
 90
       11
 70
   128
 43
0.0
 10
114.7752093807
 20
268.1538548381
 10
114.7689116131
 20
268.1204951674
 10
114.7755950321
 20
268.0810889992
 10
114.8423771475
 20
267.9539152375
 10
115.2088382806
 20
267.4636960329
 10
115.4840875806
 20
266.8237856966
 10
115.3554882259
 20
266.1391619884
 10
115.1051405641
 20
265.5806508616
 10
115.0677957736
 20
265.4419483625
 10
115.0698945112
 20
265.402034587
 10
115.0833373301
 20
265.3708605573
  0
LWPOLYLINE
  5
1A4
330
1F
100
AcDbEntity
  8
0
  6
Continuous
 62
     7
370
    25
100
AcDbPolyline
 90
       14
 70
   128
 43
0.0
 10
119.5954968722
 20
268.6875481016
 10
119.5822790164
 20
268.7012666517
 10
119.5512431335
 20
268.7180300915
 10
119.5098664499
 20
268.7277587324
 10
119.4589922445
 20
268.7314274022
 10
119.306342205
 20
268.7216997869
 10
118.8390832531
 20
268.6621392571
 10
118.3101516939
 20
268.6724595094
 10
117.8448505912
 20
268.8926250226
 10
117.3486684821
 20
269.4855700073
 10
117.1723623558
 20
269.7237064284
 10
117.0896272089
 20
269.7970197059
 10
117.0597842573
 20
269.8097984863
 10
117.0312891518
 20
269.8121986103
  0
LWPOLYLINE
  5
1A5
330
1F
100
AcDbEntity
  8
0
  6
Continuous
 62
     7
370
    25
100
AcDbPolyline
 90
       14
 70
   128
 43
0.0
 10
115.0833373301
 20
265.3708605573
 10
115.0965551859
 20
265.3571420072
 10
115.1275910688
 20
265.3403785675
 10
115.1689677525
 20
265.3306499266
 10
115.2198419578
 20
265.3269812567
 10
115.3724919973
 20
265.3367088721
 10
115.8397509493
 20
265.3962694018
 10
116.3686825084
 20
265.3859491495
 10
116.8339836111
 20
265.1657836363
 10
117.3301657202
 20
264.5728386516
 10
117.5064718465
 20
264.3347022306
 10
117.5892069934
 20
264.2613889531
 10
117.619049945
 20
264.2486101727
 10
117.6475450505
 20
264.2462100487
  0
LWPOLYLINE
  5
1A6
330
1F
100
AcDbEntity
  8
0
  6
Continuous
 62
     7
370
    25
100
AcDbPolyline
 90
       13
 70
   128
 43
0.0
 10
117.0312891518
 20
269.8121986103
 10
116.9967473172
 20
269.7994402426
 10
116.9636237804
 20
269.7701712761
 10
116.9129908347
 20
269.6949892961
 10
116.7930483173
 20
269.4240527764
 10
116.4385932804
 20
268.7369268293
 10
116.0327240568
 20
268.4203069583
 10
115.5188608819
 20
268.294530413
 10
115.0498898492
 20
268.2504333006
 10
114.866249993
 20
268.2174772449
 10
114.8177298599
 20
268.1969062051
 10
114.7851061016
 20
268.1701325911
 10
114.7752093807
 20
268.1538548381
  0
LWPOLYLINE
  5
1A7
330
1F
100
AcDbEntity
  8
0
  6
Continuous
 62
     7
370
    25
100
AcDbPolyline
 90
       11
 70
   128
 43
0.0
 10
119.9036248216
 20
265.9045538209
 10
119.9099225892
 20
265.9379134916
 10
119.9032391702
 20
265.9773196597
 10
119.8364570548
 20
266.1044934215
 10
119.4699959217
 20
266.594712626
 10
119.1947466217
 20
267.2346229624
 10
119.3233459764
 20
267.9192466705
 10
119.5736936382
 20
268.4777577974
 10
119.6110384287
 20
268.6164602964
 10
119.6089396911
 20
268.656374072
 10
119.5954968722
 20
268.6875481016
  0
LWPOLYLINE
  5
1A8
330
1F
100
AcDbEntity
  8
0
  6
Continuous
 62
     7
370
    25
100
AcDbPolyline
 90
       13
 70
   128
 43
0.0
 10
117.6475450505
 20
264.2462100487
 10
117.6820868851
 20
264.2589684164
 10
117.7152104219
 20
264.2882373829
 10
117.7658433676
 20
264.3634193629
 10
117.885785885
 20
264.6343558826
 10
118.2402409219
 20
265.3214818297
 10
118.6461101455
 20
265.6381017007
 10
119.1599733204
 20
265.763878246
 10
119.6289443531
 20
265.8079753584
 10
119.8125842093
 20
265.8409314141
 10
119.8611043424
 20
265.8615024539
 10
119.8937281007
 20
265.8882760679
 10
119.9036248216
 20
265.9045538209
  0
ARC
  5
1A9
330
1F
100
AcDbEntity
  8
0
  6
Continuous
 62
     7
370
    25
100
AcDbCircle
 10
117.3394171012
 20
267.0292043295
 30
0.0
 40
1.866666666666645
100
AcDbArc
 50
246.3179497613
 51
306.3179497613
  0
ARC
  5
1AA
330
1F
100
AcDbEntity
  8
0
  6
Continuous
 62
     7
370
    25
100
AcDbCircle
 10
117.3394171012
 20
267.0292043295
 30
0.0
 40
1.866666666666668
100
AcDbArc
 50
186.3179497613
 51
246.3179497613
  0
ARC
  5
1AB
330
1F
100
AcDbEntity
  8
0
  6
Continuous
 62
     7
370
    25
100
AcDbCircle
 10
117.3394171012
 20
267.0292043295
 30
0.0
 40
1.866666666666668
100
AcDbArc
 50
306.3179497613
 51
6.3179497613
  0
ARC
  5
1AC
330
1F
100
AcDbEntity
  8
0
  6
Continuous
 62
     7
370
    25
100
AcDbCircle
 10
117.3394171012
 20
267.0292043295
 30
0.0
 40
1.866666666666645
100
AcDbArc
 50
66.3179497613
 51
126.3179497613
  0
ARC
  5
1AD
330
1F
100
AcDbEntity
  8
0
  6
Continuous
 62
     7
370
    25
100
AcDbCircle
 10
117.3394171012
 20
267.0292043295
 30
0.0
 40
1.866666666666668
100
AcDbArc
 50
126.3179497613
 51
186.3179497613
  0
ARC
  5
1AE
330
1F
100
AcDbEntity
  8
0
  6
Continuous
 62
     7
370
    25
100
AcDbCircle
 10
117.3394171012
 20
267.0292043295
 30
0.0
 40
1.866666666666668
100
AcDbArc
 50
6.3179497613
 51
66.3179497613
  0
CIRCLE
  5
1AF
330
1F
100
AcDbEntity
  8
0
  6
Continuous
 62
     7
370
    25
100
AcDbCircle
 10
114.3394171012
 20
323.0292043295
 30
0.0
 40
2.800000000000015
  0
CIRCLE
  5
1B0
330
1F
100
AcDbEntity
  8
0
  6
Continuous
 62
     7
370
    25
100
AcDbCircle
 10
114.3394171012
 20
323.0292043295
 30
0.0
 40
5.000000000000012
  0
LWPOLYLINE
  5
1B1
330
1F
100
AcDbEntity
  8
0
  6
Continuous
 62
     7
370
    25
100
AcDbPolyline
 90
       13
 70
   128
 43
0.0
 10
116.5632334186
 20
324.7305687779
 10
116.5344666811
 20
324.7535554934
 10
116.4922951265
 20
324.7667994004
 10
116.4017656365
 20
324.7713201028
 10
116.1078175616
 20
324.734073164
 10
115.3363667444
 20
324.6826525752
 10
114.8556093213
 20
324.8666370025
 10
114.4824809643
 20
325.2416707758
 10
114.202480279
 20
325.6204556766
 10
114.0794040206
 20
325.7606766915
 10
114.0367272373
 20
325.7915969626
 10
113.9969505173
 20
325.8057018748
 10
113.9779004265
 20
325.8057679779
  0
LWPOLYLINE
  5
1B2
330
1F
100
AcDbEntity
  8
0
  6
Continuous
 62
     7
370
    25
100
AcDbPolyline
 90
       11
 70
   128
 43
0.0
 10
113.9779004265
 20
325.8057679779
 10
113.9460827132
 20
325.793928948
 10
113.9157928969
 20
325.7678513483
 10
113.841394226
 20
325.6449780218
 10
113.6109289538
 20
325.0779732696
 10
113.2051741356
 20
324.5117485411
 10
112.5525292146
 20
324.2682284744
 10
111.94498212
 20
324.1940991379
 10
111.8069261801
 20
324.1544308377
 10
111.7738335502
 20
324.1320167344
 10
111.754084109
 20
324.1044035296
  0
LWPOLYLINE
  5
1B3
330
1F
100
AcDbEntity
  8
0
  6
Continuous
 62
     7
370
    25
100
AcDbPolyline
 90
       14
 70
   128
 43
0.0
 10
116.9247500933
 20
321.9540051294
 10
116.9296692463
 20
321.9724092665
 10
116.9279919172
 20
322.0076431353
 10
116.9149495172
 20
322.0480977049
 10
116.8918123425
 20
322.0935544432
 10
116.8046332063
 20
322.2192384091
 10
116.5122761177
 20
322.5885698559
 10
116.2478990727
 20
323.0468054721
 10
116.1960724974
 20
323.558949959
 10
116.447492135
 20
324.2900919467
 10
116.5603306353
 20
324.5640632555
 10
116.5803701716
 20
324.6727755279
 10
116.5758971199
 20
324.7049297002
 10
116.5632334186
 20
324.7305687779
  0
LWPOLYLINE
  5
1B4
330
1F
100
AcDbEntity
  8
0
  6
Continuous
 62
     7
370
    25
100
AcDbPolyline
 90
       14
 70
   128
 43
0.0
 10
111.754084109
 20
324.1044035296
 10
111.749164956
 20
324.0859993925
 10
111.7508422851
 20
324.0507655237
 10
111.7638846851
 20
324.0103109541
 10
111.7870218598
 20
323.9648542158
 10
111.874200996
 20
323.8391702499
 10
112.1665580846
 20
323.4698388031
 10
112.4309351296
 20
323.0116031869
 10
112.4827617049
 20
322.4994587
 10
112.2313420673
 20
321.7683167123
 10
112.118503567
 20
321.4943454035
 10
112.0984640308
 20
321.3856331311
 10
112.1029370824
 20
321.3534789587
 10
112.1156007837
 20
321.3278398811
  0
LWPOLYLINE
  5
1B5
330
1F
100
AcDbEntity
  8
0
  6
Continuous
 62
     7
370
    25
100
AcDbPolyline
 90
       13
 70
   128
 43
0.0
 10
112.1156007837
 20
321.3278398811
 10
112.1443675212
 20
321.3048531655
 10
112.1865390759
 20
321.2916092586
 10
112.2770685658
 20
321.2870885562
 10
112.5710166407
 20
321.3243354949
 10
113.342467458
 20
321.3757560837
 10
113.8232248811
 20
321.1917716565
 10
114.196353238
 20
320.8167378831
 10
114.4763539233
 20
320.4379529823
 10
114.5994301818
 20
320.2977319675
 10
114.642106965
 20
320.2668116964
 10
114.6818836851
 20
320.2527067841
 10
114.7009337758
 20
320.252640681
  0
LWPOLYLINE
  5
1B6
330
1F
100
AcDbEntity
  8
0
  6
Continuous
 62
     7
370
    25
100
AcDbPolyline
 90
       11
 70
   128
 43
0.0
 10
114.7009337758
 20
320.252640681
 10
114.7327514891
 20
320.2644797109
 10
114.7630413054
 20
320.2905573106
 10
114.8374399763
 20
320.4134306372
 10
115.0679052485
 20
320.9804353893
 10
115.4736600667
 20
321.5466601178
 10
116.1263049877
 20
321.7901801845
 10
116.7338520823
 20
321.864309521
 10
116.8719080223
 20
321.9039778213
 10
116.9050006521
 20
321.9263919246
 10
116.9247500933
 20
321.9540051294
  0
ARC
  5
1B7
330
1F
100
AcDbEntity
  8
0
  6
Continuous
 62
     7
370
    25
100
AcDbCircle
 10
114.3394171012
 20
323.0292043295
 30
0.0
 40
1.866666666666665
100
AcDbArc
 50
247.4183446653
 51
307.4183446653
  0
ARC
  5
1B8
330
1F
100
AcDbEntity
  8
0
  6
Continuous
 62
     7
370
    25
100
AcDbCircle
 10
114.3394171012
 20
323.0292043295
 30
0.0
 40
1.866666666666688
100
AcDbArc
 50
187.4183446652
 51
247.4183446653
  0
ARC
  5
1B9
330
1F
100
AcDbEntity
  8
0
  6
Continuous
 62
     7
370
    25
100
AcDbCircle
 10
114.3394171012
 20
323.0292043295
 30
0.0
 40
1.866666666666688
100
AcDbArc
 50
127.4183446653
 51
187.4183446652
  0
ARC
  5
1BA
330
1F
100
AcDbEntity
  8
0
  6
Continuous
 62
     7
370
    25
100
AcDbCircle
 10
114.3394171012
 20
323.0292043295
 30
0.0
 40
1.866666666666725
100
AcDbArc
 50
67.4183446653
 51
127.4183446653
  0
ARC
  5
1BB
330
1F
100
AcDbEntity
  8
0
  6
Continuous
 62
     7
370
    25
100
AcDbCircle
 10
114.3394171012
 20
323.0292043295
 30
0.0
 40
1.866666666666725
100
AcDbArc
 50
7.4183446653
 51
67.4183446653
  0
ARC
  5
1BC
330
1F
100
AcDbEntity
  8
0
  6
Continuous
 62
     7
370
    25
100
AcDbCircle
 10
114.3394171012
 20
323.0292043295
 30
0.0
 40
1.866666666666678
100
AcDbArc
 50
307.4183446653
 51
7.4183446653
  0
CIRCLE
  5
1BD
330
1F
100
AcDbEntity
  8
0
  6
Continuous
 62
     7
370
    25
100
AcDbCircle
 10
114.3394171012
 20
323.0292043295
 30
0.0
 40
6.500000000000002
  0
CIRCLE
  5
1BE
330
1F
100
AcDbEntity
  8
0
  6
Continuous
 62
     7
370
    25
100
AcDbCircle
 10
114.3394171012
 20
323.0292043295
 30
0.0
 40
8.000000000000025
  0
CIRCLE
  5
1BF
330
1F
100
AcDbEntity
  8
0
  6
Continuous
 62
     7
370
    25
100
AcDbCircle
 10
114.3394171012
 20
211.0292043295
 30
0.0
 40
2.800000000000012
  0
CIRCLE
  5
1C0
330
1F
100
AcDbEntity
  8
0
  6
Continuous
 62
     7
370
    25
100
AcDbCircle
 10
114.3394171012
 20
211.0292043295
 30
0.0
 40
5.000000000000003
  0
LWPOLYLINE
  5
1C1
330
1F
100
AcDbEntity
  8
0
  6
Continuous
 62
     7
370
    25
100
AcDbPolyline
 90
       13
 70
   128
 43
0.0
 10
112.1203188157
 20
212.7367179604
 10
112.105563507
 20
212.7029808125
 10
112.103689308
 20
212.6588182891
 10
112.1227606874
 20
212.5702050407
 10
112.234840381
 20
212.2959224356
 10
112.4842351961
 20
211.5640872994
 10
112.4309911626
 20
211.0520882347
 10
112.1653466978
 20
210.5945861908
 10
111.8719683904
 20
210.2260654266
 10
111.7683925302
 20
210.0708825037
 10
111.7495754537
 20
210.0216555942
 10
111.7462495868
 20
209.9795833394
 10
111.7511177768
 20
209.9611656562
  0
LWPOLYLINE
  5
1C2
330
1F
100
AcDbEntity
  8
0
  6
Continuous
 62
     7
370
    25
100
AcDbPolyline
 90
       11
 70
   128
 43
0.0
 10
111.7511177768
 20
209.9611656562
 10
111.7707907068
 20
209.9334978892
 10
111.8038211658
 20
209.9109922687
 10
111.9417667719
 20
209.8709419706
 10
112.5491063429
 20
209.7951311794
 10
113.2010746806
 20
209.5498054725
 10
113.6052605892
 20
208.9824597516
 10
113.8341554641
 20
208.4148192255
 10
113.9082137269
 20
208.2917404283
 10
113.9384312422
 20
208.2655790839
 10
113.9702160622
 20
208.2536520254
  0
LWPOLYLINE
  5
1C3
330
1F
100
AcDbEntity
  8
0
  6
Continuous
 62
     7
370
    25
100
AcDbPolyline
 90
       14
 70
   128
 43
0.0
 10
114.7086181401
 20
213.8047566336
 10
114.6895679393
 20
213.8047432629
 10
114.6559696434
 20
213.7940011285
 10
114.6202710482
 20
213.770929789
 10
114.5823543574
 20
213.736812807
 10
114.4835261888
 20
213.6200666972
 10
114.2024780694
 20
213.2420583117
 10
113.8283130186
 20
212.8680588242
 10
113.3470481538
 20
212.6854058766
 10
112.5757426284
 20
212.7389617057
 10
112.2818987821
 20
212.7770221735
 10
112.1717048993
 20
212.7682330117
 10
112.1418051044
 20
212.7555878049
 10
112.1203188157
 20
212.7367179604
  0
LWPOLYLINE
  5
1C4
330
1F
100
AcDbEntity
  8
0
  6
Continuous
 62
     7
370
    25
100
AcDbPolyline
 90
       11
 70
   128
 43
0.0
 10
116.9277164255
 20
212.0972430027
 10
116.9080434955
 20
212.1249107698
 10
116.8750130365
 20
212.1474163903
 10
116.7370674304
 20
212.1874666884
 10
116.1297278594
 20
212.2632774796
 10
115.4777595217
 20
212.5086031864
 10
115.0735736131
 20
213.0759489073
 10
114.8446787382
 20
213.6435894334
 10
114.7706204755
 20
213.7666682307
 10
114.7404029601
 20
213.7928295751
 10
114.7086181401
 20
213.8047566336
  0
LWPOLYLINE
  5
1C5
330
1F
100
AcDbEntity
  8
0
  6
Continuous
 62
     7
370
    25
100
AcDbPolyline
 90
       14
 70
   128
 43
0.0
 10
113.9702160622
 20
208.2536520254
 10
113.989266263
 20
208.253665396
 10
114.0228645589
 20
208.2644075305
 10
114.0585631541
 20
208.28747887
 10
114.0964798449
 20
208.321595852
 10
114.1953080136
 20
208.4383419618
 10
114.4763561329
 20
208.8163503473
 10
114.8505211837
 20
209.1903498348
 10
115.3317860485
 20
209.3730027823
 10
116.1030915739
 20
209.3194469532
 10
116.3969354202
 20
209.2813864855
 10
116.5071293031
 20
209.2901756472
 10
116.5370290979
 20
209.3028208541
 10
116.5585153866
 20
209.3216906986
  0
LWPOLYLINE
  5
1C6
330
1F
100
AcDbEntity
  8
0
  6
Continuous
 62
     7
370
    25
100
AcDbPolyline
 90
       13
 70
   128
 43
0.0
 10
116.5585153866
 20
209.3216906986
 10
116.5732706953
 20
209.3554278464
 10
116.5751448943
 20
209.3995903698
 10
116.556073515
 20
209.4882036182
 10
116.4439938213
 20
209.7624862234
 10
116.1945990062
 20
210.4943213595
 10
116.2478430397
 20
211.0063204242
 10
116.5134875045
 20
211.4638224682
 10
116.8068658119
 20
211.8323432323
 10
116.9104416722
 20
211.9875261552
 10
116.9292587487
 20
212.0367530648
 10
116.9325846156
 20
212.0788253195
 10
116.9277164255
 20
212.0972430027
  0
ARC
  5
1C7
330
1F
100
AcDbEntity
  8
0
  6
Continuous
 62
     7
370
    25
100
AcDbCircle
 10
114.3394171012
 20
211.0292043295
 30
0.0
 40
1.866666666666664
100
AcDbArc
 50
172.423055852
 51
232.4230558519
  0
ARC
  5
1C8
330
1F
100
AcDbEntity
  8
0
  6
Continuous
 62
     7
370
    25
100
AcDbCircle
 10
114.3394171012
 20
211.0292043295
 30
0.0
 40
1.866666666666684
100
AcDbArc
 50
112.4230558519
 51
172.423055852
  0
ARC
  5
1C9
330
1F
100
AcDbEntity
  8
0
  6
Continuous
 62
     7
370
    25
100
AcDbCircle
 10
114.3394171012
 20
211.0292043295
 30
0.0
 40
1.866666666666697
100
AcDbArc
 50
292.4230558519
 51
352.4230558519
  0
ARC
  5
1CA
330
1F
100
AcDbEntity
  8
0
  6
Continuous
 62
     7
370
    25
100
AcDbCircle
 10
114.3394171012
 20
211.0292043295
 30
0.0
 40
1.866666666666697
100
AcDbArc
 50
352.4230558519
 51
52.4230558519
  0
ARC
  5
1CB
330
1F
100
AcDbEntity
  8
0
  6
Continuous
 62
     7
370
    25
100
AcDbCircle
 10
114.3394171012
 20
211.0292043295
 30
0.0
 40
1.866666666666692
100
AcDbArc
 50
232.4230558519
 51
292.4230558519
  0
ARC
  5
1CC
330
1F
100
AcDbEntity
  8
0
  6
Continuous
 62
     7
370
    25
100
AcDbCircle
 10
114.3394171012
 20
211.0292043295
 30
0.0
 40
1.866666666666684
100
AcDbArc
 50
52.4230558519
 51
112.4230558519
  0
CIRCLE
  5
1CD
330
1F
100
AcDbEntity
  8
0
  6
Continuous
 62
     7
370
    25
100
AcDbCircle
 10
114.3394171012
 20
211.0292043295
 30
0.0
 40
6.500000000000011
  0
CIRCLE
  5
1CE
330
1F
100
AcDbEntity
  8
0
  6
Continuous
 62
     7
370
    25
100
AcDbCircle
 10
114.3394171012
 20
211.0292043295
 30
0.0
 40
8.000000000000012
  0
ARC
  5
1CF
330
1F
100
AcDbEntity
  8
0
  6
Continuous
 62
     7
370
    25
100
AcDbCircle
 10
114.3394171012
 20
323.0292043295
 30
0.0
 40
11.5
100
AcDbArc
 50
0.0
 51
180.0
  0
CIRCLE
  5
1D0
330
1F
100
AcDbEntity
  8
0
  6
Continuous
 62
     7
370
    25
100
AcDbCircle
 10
114.3394171012
 20
281.0292043295
 30
0.0
 40
5.500000000000014
  0
ARC
  5
1D1
330
1F
100
AcDbEntity
  8
0
  6
Continuous
 62
     7
370
    25
100
AcDbCircle
 10
114.3394171012
 20
211.0292043295
 30
0.0
 40
11.50000000000001
100
AcDbArc
 50
180.0
 51
0.0
  0
CIRCLE
  5
1D2
330
1F
100
AcDbEntity
  8
0
  6
Continuous
 62
     7
370
    25
100
AcDbCircle
 10
114.3394171012
 20
253.0292043295
 30
0.0
 40
5.5
  0
LINE
  5
1D3
330
1F
100
AcDbEntity
  8
0
  6
Continuous
 62
     7
370
    25
100
AcDbLine
 10
125.8394171012
 20
323.0292043295
 30
0.0
 11
125.8394171012
 21
211.0292043295
 31
0.0
  0
LINE
  5
1D4
330
1F
100
AcDbEntity
  8
0
  6
Continuous
 62
     7
370
    25
100
AcDbLine
 10
102.8394171012
 20
211.0292043295
 30
0.0
 11
102.8394171012
 21
323.0292043295
 31
0.0
  0
DIMENSION
  5
1D5
330
1F
100
AcDbEntity
  8
FORMAT
100
AcDbDimension
  2
_D
 10
136.3619730587
 20
267.0292043295
 30
0.0
 11
136.3619730587
 21
281.0292043295
 31
0.0
 70
   160
  1
<>
 71
     2
 42
-1.0
  3
SLDDIMSTYLE0
100
AcDbAlignedDimension
 13
122.6394171012
 23
295.0292043295
 33
0.0
 14
122.6394171012
 24
267.0292043295
 34
0.0
 50
90.0
100
AcDbRotatedDimension
  0
DIMENSION
  5
1E0
330
1F
100
AcDbEntity
  8
FORMAT
100
AcDbDimension
  2
_D_1
 10
136.3619730587
 20
239.0292043295
 30
0.0
 11
136.3619730587
 21
253.0292043295
 31
0.0
 70
   160
  1
<>
 71
     2
 42
-1.0
  3
SLDDIMSTYLE0
100
AcDbAlignedDimension
 13
122.6394171012
 23
267.0292043295
 33
0.0
 14
122.6394171012
 24
239.0292043295
 34
0.0
 50
90.0
100
AcDbRotatedDimension
  0
DIMENSION
  5
1EA
330
1F
100
AcDbEntity
  8
FORMAT
100
AcDbDimension
  2
_D_2
 10
143.5773267666
 20
211.0292043295
 30
0.0
 11
143.5773267666
 21
267.0292043295
 31
0.0
 70
   160
  1
<>
 71
     2
 42
-1.0
  3
SLDDIMSTYLE0
100
AcDbAlignedDimension
 13
114.3394171012
 23
323.0292043295
 33
0.0
 14
114.3394171012
 24
211.0292043295
 34
0.0
 50
90.0
100
AcDbRotatedDimension
  0
DIMENSION
  5
1F4
330
1F
100
AcDbEntity
  8
FORMAT
100
AcDbDimension
  2
_D_3
 10
149.7888289759
 20
189.0292043295
 30
0.0
 11
149.7888289759
 21
267.0292043295
 31
0.0
 70
   160
  1
<>
 71
     2
 42
-1.0
  3
SLDDIMSTYLE0
100
AcDbAlignedDimension
 13
114.3394171012
 23
345.0292043295
 33
0.0
 14
114.3394171012
 24
189.0292043295
 34
0.0
 50
90.0
100
AcDbRotatedDimension
  0
DIMENSION
  5
1FE
330
1F
100
AcDbEntity
  8
FORMAT
100
AcDbDimension
  2
_D_4
 10
155.8985032801
 20
177.0292043295
 30
0.0
 11
155.8985032801
 21
267.0292043295
 31
0.0
 70
   160
  1
<>
 71
     2
 42
-1.0
  3
SLDDIMSTYLE0
100
AcDbAlignedDimension
 13
114.3394171012
 23
357.0292043295
 33
0.0
 14
114.3394171012
 24
177.0292043295
 34
0.0
 50
90.0
100
AcDbRotatedDimension
  0
DIMENSION
  5
208
330
1F
100
AcDbEntity
  8
FORMAT
100
AcDbDimension
  2
_D_5
 10
126.2394171012
 20
385.0292043295
 30
0.0
 11
114.3394171012
 21
385.0292043295
 31
0.0
 70
   160
  1
<>
 71
     2
 42
-1.0
  3
SLDDIMSTYLE1
100
AcDbAlignedDimension
 13
102.4394171012
 23
322.1292043295
 33
0.0
 14
126.2394171012
 24
322.1292043295
 34
0.0
 50
0.0
100
AcDbRotatedDimension
  0
DIMENSION
  5
215
330
1F
100
AcDbEntity
  8
FORMAT
100
AcDbDimension
  2
_D_6
 10
25.3394171012
 20
375.0292043295
 30
0.0
 11
25.3394171012
 21
267.0292043295
 31
0.0
 70
   160
  1
<>
 71
     2
 42
-1.0
  3
SLDDIMSTYLE0
100
AcDbAlignedDimension
 13
35.3394171012
 23
159.0292043295
 33
0.0
 14
35.3394171012
 24
375.0292043295
 34
0.0
 50
90.0
100
AcDbRotatedDimension
  0
DIMENSION
  5
21F
330
1F
100
AcDbEntity
  8
FORMAT
100
AcDbDimension
  2
_D_7
 10
126.3394171012
 20
149.0292043295
 30
0.0
 11
80.8394171012
 21
149.0292043295
 31
0.0
 70
   160
  1
<>
 71
     2
 42
-1.0
  3
SLDDIMSTYLE0
100
AcDbAlignedDimension
 13
35.3394171012
 23
159.0292043295
 33
0.0
 14
126.3394171012
 24
191.0292043295
 34
0.0
 50
0.0
100
AcDbRotatedDimension
  0
DIMENSION
  5
22A
330
1F
100
AcDbEntity
  8
FORMAT
100
AcDbDimension
  2
_D_8
 10
117.3394171012
 20
306.978343057
 30
0.0
 11
108.716854078
 21
306.978343057
 31
0.0
 70
   160
  1
<>
 71
     2
 42
-1.0
  3
SLDDIMSTYLE2
100
AcDbAlignedDimension
 13
114.3394171012
 23
323.0292043295
 33
0.0
 14
117.3394171012
 24
295.0292043295
 34
0.0
100
AcDbRotatedDimension
  0
MTEXT
  5
237
330
1F
100
AcDbEntity
  8
FORMAT
100
AcDbMText
 10
65.8830348698
 20
272.2432496552
 30
0.0
 40
3.5
 41
0.0
 71
     1
 72
     1
  1
BBL
  7
SLDTEXTSTYLE0
 73
     1
 44
1.0
  0
INSERT
  5
243
330
1F
100
AcDbEntity
  8
FORMAT
100
AcDbBlockReference
  2
SW_CENTERMARKSYMBOL_0
 10
114.3394171012
 20
189.0292043295
 30
0.0
  0
INSERT
  5
24F
330
1F
100
AcDbEntity
  8
FORMAT
100
AcDbBlockReference
  2
SW_CENTERMARKSYMBOL_1
 10
114.3394171012
 20
345.0292043295
 30
0.0
  0
INSERT
  5
25B
330
1F
100
AcDbEntity
  8
FORMAT
100
AcDbBlockReference
  2
SW_CENTERMARKSYMBOL_2
 10
114.3394171012
 20
253.0292043295
 30
0.0
  0
INSERT
  5
267
330
1F
100
AcDbEntity
  8
FORMAT
100
AcDbBlockReference
  2
SW_CENTERMARKSYMBOL_3
 10
114.3394171012
 20
281.0292043295
 30
0.0
  0
INSERT
  5
273
330
1F
100
AcDbEntity
  8
FORMAT
100
AcDbBlockReference
  2
SW_CENTERMARKSYMBOL_4
 10
121.4852200651
 20
186.0292043295
 30
0.0
  0
INSERT
  5
27F
330
1F
100
AcDbEntity
  8
FORMAT
100
AcDbBlockReference
  2
SW_CENTERMARKSYMBOL_5
 10
107.1936141372
 20
186.0292043295
 30
0.0
  0
INSERT
  5
28B
330
1F
100
AcDbEntity
  8
FORMAT
100
AcDbBlockReference
  2
SW_CENTERMARKSYMBOL_6
 10
107.1936141372
 20
348.0292043295
 30
0.0
  0
INSERT
  5
297
330
1F
100
AcDbEntity
  8
FORMAT
100
AcDbBlockReference
  2
SW_CENTERMARKSYMBOL_7
 10
121.4852200651
 20
348.0292043295
 30
0.0
  0
INSERT
  5
2A3
330
1F
100
AcDbEntity
  8
FORMAT
100
AcDbBlockReference
  2
SW_CENTERMARKSYMBOL_8
 10
117.3394171012
 20
239.0292043295
 30
0.0
  0
INSERT
  5
2AF
330
1F
100
AcDbEntity
  8
FORMAT
100
AcDbBlockReference
  2
SW_CENTERMARKSYMBOL_9
 10
117.3394171012
 20
267.0292043295
 30
0.0
  0
INSERT
  5
2BB
330
1F
100
AcDbEntity
  8
FORMAT
100
AcDbBlockReference
  2
SW_CENTERMARKSYMBOL_10
 10
117.3394171012
 20
295.0292043295
 30
0.0
  0
INSERT
  5
2C7
330
1F
100
AcDbEntity
  8
FORMAT
100
AcDbBlockReference
  2
SW_CENTERMARKSYMBOL_11
 10
117.3394171012
 20
267.0292043295
 30
0.0
  0
INSERT
  5
2D3
330
1F
100
AcDbEntity
  8
FORMAT
100
AcDbBlockReference
  2
SW_CENTERMARKSYMBOL_12
 10
114.3394171012
 20
189.0292043295
 30
0.0
  0
INSERT
  5
2DF
330
1F
100
AcDbEntity
  8
FORMAT
100
AcDbBlockReference
  2
SW_CENTERMARKSYMBOL_13
 10
114.3394171012
 20
345.0292043295
 30
0.0
  0
INSERT
  5
2EB
330
1F
100
AcDbEntity
  8
FORMAT
100
AcDbBlockReference
  2
SW_CENTERMARKSYMBOL_14
 10
114.3394171012
 20
253.0292043295
 30
0.0
  0
INSERT
  5
2F7
330
1F
100
AcDbEntity
  8
FORMAT
100
AcDbBlockReference
  2
SW_CENTERMARKSYMBOL_15
 10
114.3394171012
 20
281.0292043295
 30
0.0
  0
INSERT
  5
303
330
1F
100
AcDbEntity
  8
FORMAT
100
AcDbBlockReference
  2
SW_CENTERMARKSYMBOL_16
 10
121.4852200651
 20
186.0292043295
 30
0.0
  0
INSERT
  5
30F
330
1F
100
AcDbEntity
  8
FORMAT
100
AcDbBlockReference
  2
SW_CENTERMARKSYMBOL_17
 10
107.1936141372
 20
186.0292043295
 30
0.0
  0
INSERT
  5
31B
330
1F
100
AcDbEntity
  8
FORMAT
100
AcDbBlockReference
  2
SW_CENTERMARKSYMBOL_18
 10
107.1936141372
 20
348.0292043295
 30
0.0
  0
INSERT
  5
327
330
1F
100
AcDbEntity
  8
FORMAT
100
AcDbBlockReference
  2
SW_CENTERMARKSYMBOL_19
 10
121.4852200651
 20
348.0292043295
 30
0.0
  0
INSERT
  5
333
330
1F
100
AcDbEntity
  8
FORMAT
100
AcDbBlockReference
  2
SW_CENTERMARKSYMBOL_20
 10
117.3394171012
 20
239.0292043295
 30
0.0
  0
INSERT
  5
33F
330
1F
100
AcDbEntity
  8
FORMAT
100
AcDbBlockReference
  2
SW_CENTERMARKSYMBOL_21
 10
117.3394171012
 20
267.0292043295
 30
0.0
  0
INSERT
  5
34B
330
1F
100
AcDbEntity
  8
FORMAT
100
AcDbBlockReference
  2
SW_CENTERMARKSYMBOL_22
 10
117.3394171012
 20
295.0292043295
 30
0.0
  0
INSERT
  5
357
330
1F
100
AcDbEntity
  8
FORMAT
100
AcDbBlockReference
  2
SW_CENTERMARKSYMBOL_23
 10
117.3394171012
 20
295.0292043295
 30
0.0
  0
INSERT
  5
363
330
1F
100
AcDbEntity
  8
FORMAT
100
AcDbBlockReference
  2
SW_CENTERMARKSYMBOL_24
 10
73.3394171012
 20
199.0292043295
 30
0.0
  0
INSERT
  5
36F
330
1F
100
AcDbEntity
  8
FORMAT
100
AcDbBlockReference
  2
SW_CENTERMARKSYMBOL_25
 10
114.3394171012
 20
189.0292043295
 30
0.0
  0
INSERT
  5
37B
330
1F
100
AcDbEntity
  8
FORMAT
100
AcDbBlockReference
  2
SW_CENTERMARKSYMBOL_26
 10
114.3394171012
 20
345.0292043295
 30
0.0
  0
INSERT
  5
387
330
1F
100
AcDbEntity
  8
FORMAT
100
AcDbBlockReference
  2
SW_CENTERMARKSYMBOL_27
 10
114.3394171012
 20
253.0292043295
 30
0.0
  0
INSERT
  5
393
330
1F
100
AcDbEntity
  8
FORMAT
100
AcDbBlockReference
  2
SW_CENTERMARKSYMBOL_28
 10
114.3394171012
 20
281.0292043295
 30
0.0
  0
INSERT
  5
39F
330
1F
100
AcDbEntity
  8
FORMAT
100
AcDbBlockReference
  2
SW_CENTERMARKSYMBOL_29
 10
121.4852200651
 20
186.0292043295
 30
0.0
  0
INSERT
  5
3AB
330
1F
100
AcDbEntity
  8
FORMAT
100
AcDbBlockReference
  2
SW_CENTERMARKSYMBOL_30
 10
107.1936141372
 20
186.0292043295
 30
0.0
  0
INSERT
  5
3B7
330
1F
100
AcDbEntity
  8
FORMAT
100
AcDbBlockReference
  2
SW_CENTERMARKSYMBOL_31
 10
107.1936141372
 20
348.0292043295
 30
0.0
  0
INSERT
  5
3C3
330
1F
100
AcDbEntity
  8
FORMAT
100
AcDbBlockReference
  2
SW_CENTERMARKSYMBOL_32
 10
121.4852200651
 20
348.0292043295
 30
0.0
  0
INSERT
  5
3CF
330
1F
100
AcDbEntity
  8
FORMAT
100
AcDbBlockReference
  2
SW_CENTERMARKSYMBOL_33
 10
117.3394171012
 20
239.0292043295
 30
0.0
  0
INSERT
  5
3DB
330
1F
100
AcDbEntity
  8
FORMAT
100
AcDbBlockReference
  2
SW_CENTERMARKSYMBOL_34
 10
117.3394171012
 20
267.0292043295
 30
0.0
  0
INSERT
  5
3E7
330
1F
100
AcDbEntity
  8
FORMAT
100
AcDbBlockReference
  2
SW_CENTERMARKSYMBOL_35
 10
117.3394171012
 20
295.0292043295
 30
0.0
  0
INSERT
  5
3F3
330
1F
100
AcDbEntity
  8
FORMAT
100
AcDbBlockReference
  2
SW_CENTERMARKSYMBOL_36
 10
114.3394171012
 20
253.0292043295
 30
0.0
  0
INSERT
  5
3FF
330
1F
100
AcDbEntity
  8
FORMAT
100
AcDbBlockReference
  2
SW_CENTERMARKSYMBOL_37
 10
117.3394171012
 20
267.0292043295
 30
0.0
  0
INSERT
  5
40B
330
1F
100
AcDbEntity
  8
FORMAT
100
AcDbBlockReference
  2
SW_CENTERMARKSYMBOL_38
 10
44.3394171012
 20
199.0292043295
 30
0.0
  0
INSERT
  5
417
330
1F
100
AcDbEntity
  8
FORMAT
100
AcDbBlockReference
  2
SW_CENTERMARKSYMBOL_39
 10
43.3394171012
 20
247.0292043295
 30
0.0
  0
INSERT
  5
423
330
1F
100
AcDbEntity
  8
FORMAT
100
AcDbBlockReference
  2
SW_CENTERMARKSYMBOL_40
 10
66.3394171012
 20
247.0292043295
 30
0.0
  0
INSERT
  5
42F
330
1F
100
AcDbEntity
  8
FORMAT
100
AcDbBlockReference
  2
SW_CENTERMARKSYMBOL_41
 10
93.3394171012
 20
184.0292043295
 30
0.0
  0
INSERT
  5
43B
330
1F
100
AcDbEntity
  8
FORMAT
100
AcDbBlockReference
  2
SW_CENTERMARKSYMBOL_42
 10
103.3394171012
 20
169.0292043295
 30
0.0
  0
INSERT
  5
447
330
1F
100
AcDbEntity
  8
FORMAT
100
AcDbBlockReference
  2
SW_CENTERMARKSYMBOL_43
 10
89.3394171012
 20
267.0292043295
 30
0.0
  0
INSERT
  5
453
330
1F
100
AcDbEntity
  8
FORMAT
100
AcDbBlockReference
  2
SW_CENTERMARKSYMBOL_44
 10
54.3394171012
 20
267.0292043295
 30
0.0
  0
INSERT
  5
45F
330
1F
100
AcDbEntity
  8
FORMAT
100
AcDbBlockReference
  2
SW_CENTERMARKSYMBOL_45
 10
43.3394171012
 20
287.0292043295
 30
0.0
  0
INSERT
  5
46B
330
1F
100
AcDbEntity
  8
FORMAT
100
AcDbBlockReference
  2
SW_CENTERMARKSYMBOL_46
 10
66.3394171012
 20
287.0292043295
 30
0.0
  0
INSERT
  5
477
330
1F
100
AcDbEntity
  8
FORMAT
100
AcDbBlockReference
  2
SW_CENTERMARKSYMBOL_47
 10
44.3394171012
 20
335.0292043295
 30
0.0
  0
INSERT
  5
483
330
1F
100
AcDbEntity
  8
FORMAT
100
AcDbBlockReference
  2
SW_CENTERMARKSYMBOL_48
 10
73.3394171012
 20
335.0292043295
 30
0.0
  0
INSERT
  5
48F
330
1F
100
AcDbEntity
  8
FORMAT
100
AcDbBlockReference
  2
SW_CENTERMARKSYMBOL_49
 10
93.3394171012
 20
350.0292043295
 30
0.0
  0
INSERT
  5
4A3
330
1F
100
AcDbEntity
  8
FORMAT
100
AcDbBlockReference
  2
SW_CENTERMARKSYMBOL_50
 10
49.5894171012
 20
232.0292043295
 30
0.0
  0
INSERT
  5
4B7
330
1F
100
AcDbEntity
  8
FORMAT
100
AcDbBlockReference
  2
SW_CENTERMARKSYMBOL_51
 10
75.3394171012
 20
363.0292043295
 30
0.0
  0
INSERT
  5
4CB
330
1F
100
AcDbEntity
  8
FORMAT
100
AcDbBlockReference
  2
SW_CENTERMARKSYMBOL_52
 10
49.5894171012
 20
302.0292043295
 30
0.0
  0
INSERT
  5
4DF
330
1F
100
AcDbEntity
  8
FORMAT
100
AcDbBlockReference
  2
SW_CENTERMARKSYMBOL_53
 10
75.3394171012
 20
171.0292043295
 30
0.0
  0
INSERT
  5
4EB
330
1F
100
AcDbEntity
  8
FORMAT
100
AcDbBlockReference
  2
SW_CENTERMARKSYMBOL_54
 10
103.3394171012
 20
365.0292043295
 30
0.0
  0
INSERT
  5
4F7
330
1F
100
AcDbEntity
  8
FORMAT
100
AcDbBlockReference
  2
SW_CENTERMARKSYMBOL_55
 10
114.3394171012
 20
323.0292043295
 30
0.0
  0
INSERT
  5
503
330
1F
100
AcDbEntity
  8
FORMAT
100
AcDbBlockReference
  2
SW_CENTERMARKSYMBOL_56
 10
114.3394171012
 20
211.0292043295
 30
0.0
  0
ARC
  5
504
330
1F
100
AcDbEntity
  8
FORMAT
100
AcDbCircle
 10
114.3394171012
 20
345.0292043295
 30
0.0
 40
3.000000000000011
100
AcDbArc
 50
75.0
 51
345.0
  0
ARC
  5
505
330
1F
100
AcDbEntity
  8
FORMAT
100
AcDbCircle
 10
114.3394171012
 20
189.0292043295
 30
0.0
 40
3.000000000000004
100
AcDbArc
 50
75.0
 51
345.0
  0
ARC
  5
506
330
1F
100
AcDbEntity
  8
FORMAT
100
AcDbCircle
 10
114.3394171012
 20
323.0292043295
 30
0.0
 40
8.000000000000012
100
AcDbArc
 50
75.0
 51
345.0
  0
ARC
  5
507
330
1F
100
AcDbEntity
  8
FORMAT
100
AcDbCircle
 10
114.3394171012
 20
211.0292043295
 30
0.0
 40
8.000000000000034
100
AcDbArc
 50
75.0
 51
345.0
  0
ARC
  5
508
330
1F
100
AcDbEntity
  8
FORMAT
100
AcDbCircle
 10
114.3394171012
 20
323.0292043295
 30
0.0
 40
8.000000000000012
100
AcDbArc
 50
75.0
 51
345.0
  0
ARC
  5
509
330
1F
100
AcDbEntity
  8
FORMAT
100
AcDbCircle
 10
114.3394171012
 20
211.0292043295
 30
0.0
 40
8.000000000000034
100
AcDbArc
 50
75.0
 51
345.0
  0
ARC
  5
50A
330
1F
100
AcDbEntity
  8
FORMAT
100
AcDbCircle
 10
114.3394171012
 20
323.0292043295
 30
0.0
 40
8.000000000000012
100
AcDbArc
 50
75.0
 51
345.0
  0
ARC
  5
50B
330
1F
100
AcDbEntity
  8
FORMAT
100
AcDbCircle
 10
114.3394171012
 20
211.0292043295
 30
0.0
 40
8.000000000000034
100
AcDbArc
 50
75.0
 51
345.0
  0
ARC
  5
50C
330
1F
100
AcDbEntity
  8
FORMAT
100
AcDbCircle
 10
114.3394171012
 20
323.0292043295
 30
0.0
 40
8.000000000000012
100
AcDbArc
 50
75.0
 51
345.0
  0
ARC
  5
50D
330
1F
100
AcDbEntity
  8
FORMAT
100
AcDbCircle
 10
114.3394171012
 20
211.0292043295
 30
0.0
 40
8.000000000000034
100
AcDbArc
 50
75.0
 51
345.0
  0
ARC
  5
50E
330
1F
100
AcDbEntity
  8
FORMAT
100
AcDbCircle
 10
114.3394171012
 20
323.0292043295
 30
0.0
 40
8.000000000000012
100
AcDbArc
 50
75.0
 51
345.0
  0
ARC
  5
50F
330
1F
100
AcDbEntity
  8
FORMAT
100
AcDbCircle
 10
114.3394171012
 20
211.0292043295
 30
0.0
 40
8.000000000000034
100
AcDbArc
 50
75.0
 51
345.0
  0
ARC
  5
510
330
1F
100
AcDbEntity
  8
FORMAT
100
AcDbCircle
 10
114.3394171012
 20
211.0292043295
 30
0.0
 40
7.172000000000009
100
AcDbArc
 50
75.0
 51
345.0
  0
ARC
  5
511
330
1F
100
AcDbEntity
  8
FORMAT
100
AcDbCircle
 10
114.3394171012
 20
323.0292043295
 30
0.0
 40
7.171999999999952
100
AcDbArc
 50
75.0
 51
345.0
  0
LINE
  5
512
330
1F
100
AcDbEntity
  8
0
  6
Continuous
 62
     7
370
    25
100
AcDbLine
 10
181.3777745458
 20
177.5292043295
 30
0.0
 11
185.3777745458
 21
177.5292043295
 31
0.0
  0
LINE
  5
513
330
1F
100
AcDbEntity
  8
0
  6
Continuous
 62
     7
370
    25
100
AcDbLine
 10
185.3777745458
 20
195.770602621
 30
0.0
 11
181.3777745458
 21
195.770602621
 31
0.0
  0
LINE
  5
514
330
1F
100
AcDbEntity
  8
0
  6
Continuous
 62
     7
370
    25
100
AcDbLine
 10
185.3777745458
 20
356.5292043295
 30
0.0
 11
181.3777745458
 21
356.5292043295
 31
0.0
  0
LINE
  5
515
330
1F
100
AcDbEntity
  8
0
  6
Continuous
 62
     7
370
    25
100
AcDbLine
 10
181.3777745458
 20
338.2878060379
 30
0.0
 11
185.3777745458
 21
338.2878060379
 31
0.0
  0
LINE
  5
516
330
1F
100
AcDbEntity
  8
0
  6
Continuous
 62
     7
370
    25
100
AcDbLine
 10
193.3777745458
 20
356.5292043295
 30
0.0
 11
189.3777745458
 21
356.5292043295
 31
0.0
  0
LINE
  5
517
330
1F
100
AcDbEntity
  8
0
  6
Continuous
 62
     7
370
    25
100
AcDbLine
 10
189.3777745458
 20
338.2878060379
 30
0.0
 11
193.3777745458
 21
338.2878060379
 31
0.0
  0
LINE
  5
518
330
1F
100
AcDbEntity
  8
0
  6
Continuous
 62
     7
370
    25
100
AcDbLine
 10
185.3777745458
 20
177.5292043295
 30
0.0
 11
189.3777745458
 21
177.5292043295
 31
0.0
  0
LINE
  5
519
330
1F
100
AcDbEntity
  8
0
  6
Continuous
 62
     7
370
    25
100
AcDbLine
 10
189.3777745458
 20
195.770602621
 30
0.0
 11
185.3777745458
 21
195.770602621
 31
0.0
  0
LINE
  5
51A
330
1F
100
AcDbEntity
  8
0
  6
Continuous
 62
     7
370
    25
100
AcDbLine
 10
189.3777745458
 20
356.5292043295
 30
0.0
 11
185.3777745458
 21
356.5292043295
 31
0.0
  0
LINE
  5
51B
330
1F
100
AcDbEntity
  8
0
  6
Continuous
 62
     7
370
    25
100
AcDbLine
 10
185.3777745458
 20
338.2878060379
 30
0.0
 11
189.3777745458
 21
338.2878060379
 31
0.0
  0
LINE
  5
51C
330
1F
100
AcDbEntity
  8
0
  6
Continuous
 62
     7
370
    25
100
AcDbLine
 10
189.3777745458
 20
177.5292043295
 30
0.0
 11
193.3777745458
 21
177.5292043295
 31
0.0
  0
LINE
  5
51D
330
1F
100
AcDbEntity
  8
0
  6
Continuous
 62
     7
370
    25
100
AcDbLine
 10
193.3777745458
 20
195.770602621
 30
0.0
 11
189.3777745458
 21
195.770602621
 31
0.0
  0
ARC
  5
51E
330
1F
100
AcDbEntity
  8
0
  6
Continuous
 62
     7
370
    25
100
AcDbCircle
 10
178.115245271
 20
334.9201227361
 30
0.0
 40
2.739643182122224
100
AcDbArc
 50
105.6157726583
 51
177.7181088811
  0
ARC
  5
51F
330
1F
100
AcDbEntity
  8
0
  6
Continuous
 62
     7
370
    25
100
AcDbCircle
 10
178.139316937
 20
199.1573191413
 30
0.0
 40
2.764512576051981
100
AcDbArc
 50
182.6561890353
 51
254.0099294254
  0
LINE
  5
520
330
1F
100
AcDbEntity
  8
0
  6
Continuous
 62
     7
370
    25
100
AcDbLine
 10
196.3777745458
 20
357.0292043295
 30
0.0
 11
193.3777745458
 21
357.0292043295
 31
0.0
  0
LINE
  5
521
330
1F
100
AcDbEntity
  8
0
  6
Continuous
 62
     7
370
    25
100
AcDbLine
 10
193.3777745458
 20
177.0292043295
 30
0.0
 11
196.3777745458
 21
177.0292043295
 31
0.0
  0
ARC
  5
522
330
1F
100
AcDbEntity
  8
0
  6
Continuous
 62
     7
370
    25
100
AcDbCircle
 10
192.3777745458
 20
339.0292043295
 30
0.0
 40
1.00000000000002
100
AcDbArc
 50
270.0
 51
312.1493348372
  0
ARC
  5
523
330
1F
100
AcDbEntity
  8
0
  6
Continuous
 62
     7
370
    25
100
AcDbCircle
 10
192.3777745458
 20
195.0292043295
 30
0.0
 40
1.000000000000024
100
AcDbArc
 50
47.8506651628
 51
90.0
  0
LINE
  5
524
330
1F
100
AcDbEntity
  8
0
  6
Continuous
 62
     7
370
    25
100
AcDbLine
 10
192.3777745458
 20
338.0292043295
 30
0.0
 11
181.3777745458
 21
338.0292043295
 31
0.0
  0
LINE
  5
525
330
1F
100
AcDbEntity
  8
0
  6
Continuous
 62
     7
370
    25
100
AcDbLine
 10
181.3777745458
 20
196.0292043295
 30
0.0
 11
192.3777745458
 21
196.0292043295
 31
0.0
  0
LINE
  5
526
330
1F
100
AcDbEntity
  8
0
  6
Continuous
 62
     7
370
    25
100
AcDbLine
 10
192.8777745458
 20
290.0292043295
 30
0.0
 11
197.2777745458
 21
290.414154449
 31
0.0
  0
LINE
  5
527
330
1F
100
AcDbEntity
  8
0
  6
Continuous
 62
     7
370
    25
100
AcDbLine
 10
197.2777745458
 20
299.64425421
 30
0.0
 11
192.8777745458
 21
300.0292043295
 31
0.0
  0
LINE
  5
528
330
1F
100
AcDbEntity
  8
0
  6
Continuous
 62
     7
370
    25
100
AcDbLine
 10
184.8777745458
 20
292.0292043295
 30
0.0
 11
188.8777745458
 21
292.0292043295
 31
0.0
  0
LINE
  5
529
330
1F
100
AcDbEntity
  8
0
  6
Continuous
 62
     7
370
    25
100
AcDbLine
 10
188.8777745458
 20
298.0292043295
 30
0.0
 11
184.8777745458
 21
298.0292043295
 31
0.0
  0
LINE
  5
52A
330
1F
100
AcDbEntity
  8
0
  6
Continuous
 62
     7
370
    25
100
AcDbLine
 10
192.8777745458
 20
234.0292043295
 30
0.0
 11
197.2777745458
 21
234.414154449
 31
0.0
  0
LINE
  5
52B
330
1F
100
AcDbEntity
  8
0
  6
Continuous
 62
     7
370
    25
100
AcDbLine
 10
197.2777745458
 20
243.64425421
 30
0.0
 11
192.8777745458
 21
244.0292043295
 31
0.0
  0
LINE
  5
52C
330
1F
100
AcDbEntity
  8
0
  6
Continuous
 62
     7
370
    25
100
AcDbLine
 10
184.8777745458
 20
236.0292043295
 30
0.0
 11
188.8777745458
 21
236.0292043295
 31
0.0
  0
LINE
  5
52D
330
1F
100
AcDbEntity
  8
0
  6
Continuous
 62
     7
370
    25
100
AcDbLine
 10
188.8777745458
 20
242.0292043295
 30
0.0
 11
184.8777745458
 21
242.0292043295
 31
0.0
  0
LINE
  5
52E
330
1F
100
AcDbEntity
  8
0
  6
Continuous
 62
     7
370
    25
100
AcDbLine
 10
192.8777745458
 20
262.0292043295
 30
0.0
 11
197.2777745458
 21
262.414154449
 31
0.0
  0
LINE
  5
52F
330
1F
100
AcDbEntity
  8
0
  6
Continuous
 62
     7
370
    25
100
AcDbLine
 10
197.2777745458
 20
271.64425421
 30
0.0
 11
192.8777745458
 21
272.0292043295
 31
0.0
  0
LINE
  5
530
330
1F
100
AcDbEntity
  8
0
  6
Continuous
 62
     7
370
    25
100
AcDbLine
 10
184.8777745458
 20
264.0292043295
 30
0.0
 11
188.8777745458
 21
264.0292043295
 31
0.0
  0
LINE
  5
531
330
1F
100
AcDbEntity
  8
0
  6
Continuous
 62
     7
370
    25
100
AcDbLine
 10
188.8777745458
 20
270.0292043295
 30
0.0
 11
184.8777745458
 21
270.0292043295
 31
0.0
  0
LINE
  5
532
330
1F
100
AcDbEntity
  8
0
  6
Continuous
 62
     7
370
    25
100
AcDbLine
 10
194.8777745458
 20
331.0292043295
 30
0.0
 11
192.8777745458
 21
331.0292043295
 31
0.0
  0
LINE
  5
533
330
1F
100
AcDbEntity
  8
0
  6
Continuous
 62
     7
370
    25
100
AcDbLine
 10
184.8777745458
 20
331.0292043295
 30
0.0
 11
181.3777745458
 21
331.0292043295
 31
0.0
  0
LINE
  5
534
330
1F
100
AcDbEntity
  8
0
  6
Continuous
 62
     7
370
    25
100
AcDbLine
 10
181.3777745458
 20
315.0292043295
 30
0.0
 11
181.8132923726
 21
315.0292043295
 31
0.0
  0
LINE
  5
535
330
1F
100
AcDbEntity
  8
0
  6
Continuous
 62
     7
370
    25
100
AcDbLine
 10
192.8777745458
 20
315.0292043295
 30
0.0
 11
194.8777745458
 21
315.0292043295
 31
0.0
  0
LINE
  5
536
330
1F
100
AcDbEntity
  8
0
  6
Continuous
 62
     7
370
    25
100
AcDbLine
 10
194.8777745458
 20
315.0292043295
 30
0.0
 11
196.3777745458
 21
316.5292043295
 31
0.0
  0
LINE
  5
537
330
1F
100
AcDbEntity
  8
0
  6
Continuous
 62
     7
370
    25
100
AcDbLine
 10
196.3777745458
 20
329.5292043295
 30
0.0
 11
194.8777745458
 21
331.0292043295
 31
0.0
  0
LINE
  5
538
330
1F
100
AcDbEntity
  8
0
  6
Continuous
 62
     7
370
    25
100
AcDbLine
 10
199.6277745458
 20
328.0292043295
 30
0.0
 11
196.3777745458
 21
328.0292043295
 31
0.0
  0
LINE
  5
539
330
1F
100
AcDbEntity
  8
0
  6
Continuous
 62
     7
370
    25
100
AcDbLine
 10
196.3777745458
 20
318.0292043295
 30
0.0
 11
199.6277745458
 21
318.0292043295
 31
0.0
  0
LINE
  5
53A
330
1F
100
AcDbEntity
  8
0
  6
Continuous
 62
     7
370
    25
100
AcDbLine
 10
194.8777745458
 20
219.0292043295
 30
0.0
 11
192.8777745458
 21
219.0292043295
 31
0.0
  0
LINE
  5
53B
330
1F
100
AcDbEntity
  8
0
  6
Continuous
 62
     7
370
    25
100
AcDbLine
 10
181.8132923726
 20
219.0292043295
 30
0.0
 11
181.3777745458
 21
219.0292043295
 31
0.0
  0
LINE
  5
53C
330
1F
100
AcDbEntity
  8
0
  6
Continuous
 62
     7
370
    25
100
AcDbLine
 10
181.3777745458
 20
203.0292043295
 30
0.0
 11
184.8777745458
 21
203.0292043295
 31
0.0
  0
LINE
  5
53D
330
1F
100
AcDbEntity
  8
0
  6
Continuous
 62
     7
370
    25
100
AcDbLine
 10
192.8777745458
 20
203.0292043295
 30
0.0
 11
194.8777745458
 21
203.0292043295
 31
0.0
  0
LINE
  5
53E
330
1F
100
AcDbEntity
  8
0
  6
Continuous
 62
     7
370
    25
100
AcDbLine
 10
194.8777745458
 20
203.0292043295
 30
0.0
 11
196.3777745458
 21
204.5292043295
 31
0.0
  0
LINE
  5
53F
330
1F
100
AcDbEntity
  8
0
  6
Continuous
 62
     7
370
    25
100
AcDbLine
 10
196.3777745458
 20
217.5292043295
 30
0.0
 11
194.8777745458
 21
219.0292043295
 31
0.0
  0
LINE
  5
540
330
1F
100
AcDbEntity
  8
0
  6
Continuous
 62
     7
370
    25
100
AcDbLine
 10
199.6277745458
 20
216.0292043295
 30
0.0
 11
196.3777745458
 21
216.0292043295
 31
0.0
  0
LINE
  5
541
330
1F
100
AcDbEntity
  8
0
  6
Continuous
 62
     7
370
    25
100
AcDbLine
 10
196.3777745458
 20
206.0292043295
 30
0.0
 11
199.6277745458
 21
206.0292043295
 31
0.0
  0
ARC
  5
542
330
1F
100
AcDbEntity
  8
0
  6
Continuous
 62
     7
370
    25
100
AcDbCircle
 10
187.8777745458
 20
312.5292043295
 30
0.0
 40
1.0
100
AcDbArc
 50
0.0
 51
90.0
  0
ARC
  5
543
330
1F
100
AcDbEntity
  8
0
  6
Continuous
 62
     7
370
    25
100
AcDbCircle
 10
187.8777745458
 20
221.5292043295
 30
0.0
 40
1.0
100
AcDbArc
 50
270.0
 51
0.0
  0
LINE
  5
544
330
1F
100
AcDbEntity
  8
0
  6
Continuous
 62
     7
370
    25
100
AcDbLine
 10
185.7666634347
 20
313.5292043295
 30
0.0
 11
187.8777745458
 21
313.5292043295
 31
0.0
  0
LINE
  5
545
330
1F
100
AcDbEntity
  8
0
  6
Continuous
 62
     7
370
    25
100
AcDbLine
 10
187.8777745458
 20
220.5292043295
 30
0.0
 11
185.7666634347
 21
220.5292043295
 31
0.0
  0
LINE
  5
546
330
1F
100
AcDbEntity
  8
0
  6
Continuous
 62
     7
370
    25
100
AcDbLine
 10
177.3777745458
 20
159.0292043295
 30
0.0
 11
181.3777745458
 21
159.0292043295
 31
0.0
  0
LINE
  5
547
330
1F
100
AcDbEntity
  8
0
  6
Continuous
 62
     7
370
    25
100
AcDbLine
 10
181.3777745458
 20
159.0292043295
 30
0.0
 11
181.3777745458
 21
375.0292043295
 31
0.0
  0
LINE
  5
548
330
1F
100
AcDbEntity
  8
0
  6
Continuous
 62
     7
370
    25
100
AcDbLine
 10
177.3777745458
 20
375.0292043295
 30
0.0
 11
181.3777745458
 21
375.0292043295
 31
0.0
  0
LINE
  5
549
330
1F
100
AcDbEntity
  8
0
  6
Continuous
 62
     7
370
    25
100
AcDbLine
 10
177.3777745458
 20
159.0292043295
 30
0.0
 11
177.3777745458
 21
375.0292043295
 31
0.0
  0
LINE
  5
54A
330
1F
100
AcDbEntity
  8
0
  6
Continuous
 62
     7
370
    25
100
AcDbLine
 10
185.3777745458
 20
195.3174024583
 30
0.0
 11
185.3777745458
 21
177.5292043295
 31
0.0
  0
LINE
  5
54B
330
1F
100
AcDbEntity
  8
0
  6
Continuous
 62
     7
370
    25
100
AcDbLine
 10
185.3777745458
 20
195.770602621
 30
0.0
 11
185.3777745458
 21
195.3174024583
 31
0.0
  0
LINE
  5
54C
330
1F
100
AcDbEntity
  8
0
  6
Continuous
 62
     7
370
    25
100
AcDbLine
 10
185.3777745458
 20
338.7410062006
 30
0.0
 11
185.3777745458
 21
356.5292043295
 31
0.0
  0
LINE
  5
54D
330
1F
100
AcDbEntity
  8
0
  6
Continuous
 62
     7
370
    25
100
AcDbLine
 10
185.3777745458
 20
338.7410062006
 30
0.0
 11
185.3777745458
 21
338.2878060379
 31
0.0
  0
LINE
  5
54E
330
1F
100
AcDbEntity
  8
0
  6
Continuous
 62
     7
370
    25
100
AcDbLine
 10
189.3777745458
 20
338.7410062006
 30
0.0
 11
189.3777745458
 21
356.5292043295
 31
0.0
  0
LINE
  5
54F
330
1F
100
AcDbEntity
  8
0
  6
Continuous
 62
     7
370
    25
100
AcDbLine
 10
189.3777745458
 20
338.2878060379
 30
0.0
 11
189.3777745458
 21
338.7410062006
 31
0.0
  0
LINE
  5
550
330
1F
100
AcDbEntity
  8
0
  6
Continuous
 62
     7
370
    25
100
AcDbLine
 10
189.3777745458
 20
195.3174024583
 30
0.0
 11
189.3777745458
 21
177.5292043295
 31
0.0
  0
LINE
  5
551
330
1F
100
AcDbEntity
  8
0
  6
Continuous
 62
     7
370
    25
100
AcDbLine
 10
189.3777745458
 20
195.770602621
 30
0.0
 11
189.3777745458
 21
195.3174024583
 31
0.0
  0
LINE
  5
552
330
1F
100
AcDbEntity
  8
0
  6
Continuous
 62
     7
370
    25
100
AcDbLine
 10
175.3777745458
 20
335.0292043295
 30
0.0
 11
175.3777745458
 21
326.0254833083
 31
0.0
  0
LWPOLYLINE
  5
553
330
1F
100
AcDbEntity
  8
0
  6
Continuous
 62
     7
370
    25
100
AcDbPolyline
 90
        9
 70
   128
 43
0.0
 10
175.3777746461
 20
326.0254833034
 10
175.3788405492
 20
327.1248470466
 10
175.3900152222
 20
328.0881460323
 10
175.433239529
 20
329.0609815397
 10
175.542791186
 20
330.036793439
 10
175.7617513702
 20
331.0003305004
 10
176.2921707147
 20
332.1944448412
 10
177.0697896217
 20
333.1077145944
 10
177.3777745458
 20
333.2898942842
  0
LINE
  5
554
330
1F
100
AcDbEntity
  8
0
  6
Continuous
 62
     7
370
    25
100
AcDbLine
 10
175.3777745458
 20
199.0292043295
 30
0.0
 11
175.3777745458
 21
208.0329253506
 31
0.0
  0
LWPOLYLINE
  5
555
330
1F
100
AcDbEntity
  8
0
  6
Continuous
 62
     7
370
    25
100
AcDbPolyline
 90
        9
 70
   128
 43
0.0
 10
175.3777746461
 20
208.0329253506
 10
175.3788366345
 20
206.9347115631
 10
175.3899638601
 20
205.9725355015
 10
175.4329806522
 20
205.0010228914
 10
175.542066192
 20
204.026085308
 10
175.7605655551
 20
203.0619727782
 10
176.2900165807
 20
201.8674646064
 10
177.0668699501
 20
200.9532005049
 10
177.3777745458
 20
200.7688998238
  0
LINE
  5
556
330
1F
100
AcDbEntity
  8
0
  6
Continuous
 62
     7
370
    25
100
AcDbLine
 10
193.3777745458
 20
346.5751668129
 30
0.0
 11
196.3777745458
 21
346.5751668129
 31
0.0
  0
LINE
  5
557
330
1F
100
AcDbEntity
  8
0
  6
Continuous
 62
     7
370
    25
100
AcDbLine
 10
196.3777745458
 20
357.0292043295
 30
0.0
 11
196.3777745458
 21
346.5751668129
 31
0.0
  0
LINE
  5
558
330
1F
100
AcDbEntity
  8
0
  6
Continuous
 62
     7
370
    25
100
AcDbLine
 10
193.3777745458
 20
357.0292043295
 30
0.0
 11
193.3777745458
 21
346.5751668129
 31
0.0
  0
LINE
  5
559
330
1F
100
AcDbEntity
  8
0
  6
Continuous
 62
     7
370
    25
100
AcDbLine
 10
193.3777745458
 20
337.9292043295
 30
0.0
 11
196.3777745458
 21
337.9292043295
 31
0.0
  0
LINE
  5
55A
330
1F
100
AcDbEntity
  8
0
  6
Continuous
 62
     7
370
    25
100
AcDbLine
 10
196.3777745458
 20
337.9292043295
 30
0.0
 11
196.3777745458
 21
346.5751668129
 31
0.0
  0
LINE
  5
55B
330
1F
100
AcDbEntity
  8
0
  6
Continuous
 62
     7
370
    25
100
AcDbLine
 10
193.3777745458
 20
337.9292043295
 30
0.0
 11
193.3777745458
 21
346.5751668129
 31
0.0
  0
LINE
  5
55C
330
1F
100
AcDbEntity
  8
0
  6
Continuous
 62
     7
370
    25
100
AcDbLine
 10
175.3777745458
 20
325.0292043295
 30
0.0
 11
177.3777745458
 21
325.0292043295
 31
0.0
  0
LINE
  5
55D
330
1F
100
AcDbEntity
  8
0
  6
Continuous
 62
     7
370
    25
100
AcDbLine
 10
177.3777745458
 20
322.1292043295
 30
0.0
 11
175.3777745458
 21
322.1292043295
 31
0.0
  0
LINE
  5
55E
330
1F
100
AcDbEntity
  8
0
  6
Continuous
 62
     7
370
    25
100
AcDbLine
 10
175.3777745458
 20
322.1292043295
 30
0.0
 11
175.3777745458
 21
325.0292043295
 31
0.0
  0
LINE
  5
55F
330
1F
100
AcDbEntity
  8
0
  6
Continuous
 62
     7
370
    25
100
AcDbLine
 10
175.3777745458
 20
211.9292043295
 30
0.0
 11
177.3777745458
 21
211.9292043295
 31
0.0
  0
LINE
  5
560
330
1F
100
AcDbEntity
  8
0
  6
Continuous
 62
     7
370
    25
100
AcDbLine
 10
175.3777745458
 20
322.1292043295
 30
0.0
 11
175.3777745458
 21
211.9292043295
 31
0.0
  0
LINE
  5
561
330
1F
100
AcDbEntity
  8
0
  6
Continuous
 62
     7
370
    25
100
AcDbLine
 10
196.2243859669
 20
335.0292043295
 30
0.0
 11
196.3777745458
 21
335.8144763245
 31
0.0
  0
LINE
  5
562
330
1F
100
AcDbEntity
  8
0
  6
Continuous
 62
     7
370
    25
100
AcDbLine
 10
193.3400497639
 20
335.0292043295
 30
0.0
 11
196.2243859669
 21
335.0292043295
 31
0.0
  0
ARC
  5
563
330
1F
100
AcDbEntity
  8
0
  6
Continuous
 62
     7
370
    25
100
AcDbCircle
 10
192.8609713115
 20
335.2230380446
 30
0.0
 40
0.5168052560055498
100
AcDbArc
 50
337.9718907539
 51
359.839737358
  0
LINE
  5
564
330
1F
100
AcDbEntity
  8
0
  6
Continuous
 62
     7
370
    25
100
AcDbLine
 10
196.3777745458
 20
337.9292043295
 30
0.0
 11
196.3777745458
 21
335.8144763245
 31
0.0
  0
LINE
  5
565
330
1F
100
AcDbEntity
  8
0
  6
Continuous
 62
     7
370
    25
100
AcDbLine
 10
193.3777745458
 20
337.9292043295
 30
0.0
 11
193.3777745458
 21
335.2215924849
 31
0.0
  0
LINE
  5
566
330
1F
100
AcDbEntity
  8
0
  6
Continuous
 62
     7
370
    25
100
AcDbLine
 10
175.3777745458
 20
209.0292043295
 30
0.0
 11
177.3777745458
 21
209.0292043295
 31
0.0
  0
LINE
  5
567
330
1F
100
AcDbEntity
  8
0
  6
Continuous
 62
     7
370
    25
100
AcDbLine
 10
175.3777745458
 20
209.0292043295
 30
0.0
 11
175.3777745458
 21
211.9292043295
 31
0.0
  0
LINE
  5
568
330
1F
100
AcDbEntity
  8
0
  6
Continuous
 62
     7
370
    25
100
AcDbLine
 10
193.3777745458
 20
196.1292043295
 30
0.0
 11
193.3777745458
 21
198.8368161741
 31
0.0
  0
ARC
  5
569
330
1F
100
AcDbEntity
  8
0
  6
Continuous
 62
     7
370
    25
100
AcDbCircle
 10
192.8609713115
 20
198.8353706144
 30
0.0
 40
0.516805256005372
100
AcDbArc
 50
0.160262642
 51
22.0281092461
  0
LINE
  5
56A
330
1F
100
AcDbEntity
  8
0
  6
Continuous
 62
     7
370
    25
100
AcDbLine
 10
193.3400497639
 20
199.0292043295
 30
0.0
 11
196.2243859669
 21
199.0292043295
 31
0.0
  0
LWPOLYLINE
  5
56B
330
1F
100
AcDbEntity
  8
0
  6
Continuous
 62
     7
370
    25
100
AcDbPolyline
 90
        3
 70
   128
 43
0.0
 10
196.3777745458
 20
198.2439323344
 10
196.346333754
 20
198.6020445927
 10
196.2243859669
 20
199.0292043295
  0
LINE
  5
56C
330
1F
100
AcDbEntity
  8
0
  6
Continuous
 62
     7
370
    25
100
AcDbLine
 10
196.3777745458
 20
196.1292043295
 30
0.0
 11
196.3777745458
 21
198.2439323344
 31
0.0
  0
LINE
  5
56D
330
1F
100
AcDbEntity
  8
0
  6
Continuous
 62
     7
370
    25
100
AcDbLine
 10
196.3777745458
 20
196.1292043295
 30
0.0
 11
193.3777745458
 21
196.1292043295
 31
0.0
  0
LINE
  5
56E
330
1F
100
AcDbEntity
  8
0
  6
Continuous
 62
     7
370
    25
100
AcDbLine
 10
196.3777745458
 20
196.1292043295
 30
0.0
 11
196.3777745458
 21
187.4832418461
 31
0.0
  0
LINE
  5
56F
330
1F
100
AcDbEntity
  8
0
  6
Continuous
 62
     7
370
    25
100
AcDbLine
 10
196.3777745458
 20
187.4832418461
 30
0.0
 11
193.3777745458
 21
187.4832418461
 31
0.0
  0
LINE
  5
570
330
1F
100
AcDbEntity
  8
0
  6
Continuous
 62
     7
370
    25
100
AcDbLine
 10
193.3777745458
 20
196.1292043295
 30
0.0
 11
193.3777745458
 21
187.4832418461
 31
0.0
  0
LINE
  5
571
330
1F
100
AcDbEntity
  8
0
  6
Continuous
 62
     7
370
    25
100
AcDbLine
 10
196.3777745458
 20
187.4832418461
 30
0.0
 11
196.3777745458
 21
177.0292043295
 31
0.0
  0
LINE
  5
572
330
1F
100
AcDbEntity
  8
0
  6
Continuous
 62
     7
370
    25
100
AcDbLine
 10
193.3777745458
 20
187.4832418461
 30
0.0
 11
193.3777745458
 21
177.0292043295
 31
0.0
  0
ARC
  5
573
330
1F
100
AcDbEntity
  8
0
  6
Continuous
 62
     7
370
    25
100
AcDbCircle
 10
191.8705028884
 20
335.5606449238
 30
0.0
 40
4.386197324130138
100
AcDbArc
 50
276.641258663
 51
353.0408283373
  0
ARC
  5
574
330
1F
100
AcDbEntity
  8
0
  6
Continuous
 62
     7
370
    25
100
AcDbCircle
 10
191.8920616595
 20
198.519442461
 30
0.0
 40
4.362211717334056
100
AcDbArc
 50
6.710836753
 51
83.6070762409
  0
LWPOLYLINE
  5
575
330
1F
100
AcDbEntity
  8
0
  6
Continuous
 62
     7
370
    25
100
AcDbPolyline
 90
        7
 70
   128
 43
0.0
 10
192.3777745458
 20
333.9664582627
 10
192.3835818763
 20
333.9664837566
 10
192.4563604699
 20
333.9711331448
 10
192.7181101269
 20
334.056424682
 10
192.9357370011
 20
334.2214053083
 10
193.1867565715
 20
334.5768285733
 10
193.3400497639
 20
335.0292043295
  0
ARC
  5
576
330
1F
100
AcDbEntity
  8
0
  6
Continuous
 62
     7
370
    25
100
AcDbCircle
 10
192.1819933343
 20
198.947653706
 30
0.0
 40
1.160924286165632
100
AcDbArc
 50
4.0281333902
 51
80.291097602
  0
LINE
  5
577
330
1F
100
AcDbEntity
  8
0
  6
Continuous
 62
     7
370
    25
100
AcDbLine
 10
192.3777745458
 20
333.9664582627
 30
0.0
 11
181.3777745458
 21
333.9664582627
 31
0.0
  0
LINE
  5
578
330
1F
100
AcDbEntity
  8
0
  6
Continuous
 62
     7
370
    25
100
AcDbLine
 10
192.3777773458
 20
331.2038801159
 30
0.0
 11
181.3777745458
 21
331.2038801159
 31
0.0
  0
LINE
  5
579
330
1F
100
AcDbEntity
  8
0
  6
Continuous
 62
     7
370
    25
100
AcDbLine
 10
175.3777745458
 20
325.0292043295
 30
0.0
 11
175.3777745458
 21
326.0254833083
 31
0.0
  0
LINE
  5
57A
330
1F
100
AcDbEntity
  8
0
  6
Continuous
 62
     7
370
    25
100
AcDbLine
 10
181.3777745458
 20
202.854528543
 30
0.0
 11
192.3777773462
 21
202.854528543
 31
0.0
  0
LINE
  5
57B
330
1F
100
AcDbEntity
  8
0
  6
Continuous
 62
     7
370
    25
100
AcDbLine
 10
192.3777745458
 20
200.0919503963
 30
0.0
 11
181.3777745458
 21
200.0919503963
 31
0.0
  0
LINE
  5
57C
330
1F
100
AcDbEntity
  8
0
  6
Continuous
 62
     7
370
    25
100
AcDbLine
 10
175.3777745458
 20
208.0329253506
 30
0.0
 11
175.3777745458
 21
209.0292043295
 31
0.0
  0
LINE
  5
57D
330
1F
100
AcDbEntity
  8
0
  6
Continuous
 62
     7
370
    25
100
AcDbLine
 10
197.2777745458
 20
299.5746006837
 30
0.0
 11
197.2777745458
 21
299.64425421
 31
0.0
  0
LINE
  5
57E
330
1F
100
AcDbEntity
  8
0
  6
Continuous
 62
     7
370
    25
100
AcDbLine
 10
197.2777745458
 20
290.414154449
 30
0.0
 11
197.2777745458
 21
299.5746006837
 31
0.0
  0
LINE
  5
57F
330
1F
100
AcDbEntity
  8
0
  6
Continuous
 62
     7
370
    25
100
AcDbLine
 10
197.2777745458
 20
234.414154449
 30
0.0
 11
197.2777745458
 21
243.64425421
 31
0.0
  0
LINE
  5
580
330
1F
100
AcDbEntity
  8
0
  6
Continuous
 62
     7
370
    25
100
AcDbLine
 10
197.2777745458
 20
271.6162248376
 30
0.0
 11
197.2777745458
 21
271.64425421
 31
0.0
  0
LINE
  5
581
330
1F
100
AcDbEntity
  8
0
  6
Continuous
 62
     7
370
    25
100
AcDbLine
 10
197.2777745458
 20
262.414154449
 30
0.0
 11
197.2777745458
 21
271.6162248376
 31
0.0
  0
LINE
  5
582
330
1F
100
AcDbEntity
  8
0
  6
Continuous
 62
     7
370
    25
100
AcDbLine
 10
194.8777745458
 20
318.1681630484
 30
0.0
 11
194.8777745458
 21
315.0292043295
 31
0.0
  0
LINE
  5
583
330
1F
100
AcDbEntity
  8
0
  6
Continuous
 62
     7
370
    25
100
AcDbLine
 10
194.8777745458
 20
331.0292043295
 30
0.0
 11
194.8777745458
 21
318.1681630484
 31
0.0
  0
LINE
  5
584
330
1F
100
AcDbEntity
  8
0
  6
Continuous
 62
     7
370
    25
100
AcDbLine
 10
196.3777745458
 20
319.0796082886
 30
0.0
 11
196.3777745458
 21
316.5292043295
 31
0.0
  0
LINE
  5
585
330
1F
100
AcDbEntity
  8
0
  6
Continuous
 62
     7
370
    25
100
AcDbLine
 10
196.3777745458
 20
329.5292043295
 30
0.0
 11
196.3777745458
 21
319.0796082886
 31
0.0
  0
LINE
  5
586
330
1F
100
AcDbEntity
  8
0
  6
Continuous
 62
     7
370
    25
100
AcDbLine
 10
199.6277745458
 20
319.9910535288
 30
0.0
 11
199.6277745458
 21
318.0292043295
 31
0.0
  0
LINE
  5
587
330
1F
100
AcDbEntity
  8
0
  6
Continuous
 62
     7
370
    25
100
AcDbLine
 10
199.6277745458
 20
328.0292043295
 30
0.0
 11
199.6277745458
 21
319.9910535288
 31
0.0
  0
LINE
  5
588
330
1F
100
AcDbEntity
  8
0
  6
Continuous
 62
     7
370
    25
100
AcDbLine
 10
194.8777745458
 20
215.9078147034
 30
0.0
 11
194.8777745458
 21
203.0292043295
 31
0.0
  0
LINE
  5
589
330
1F
100
AcDbEntity
  8
0
  6
Continuous
 62
     7
370
    25
100
AcDbLine
 10
194.8777745458
 20
219.0292043295
 30
0.0
 11
194.8777745458
 21
215.9078147034
 31
0.0
  0
LINE
  5
58A
330
1F
100
AcDbEntity
  8
0
  6
Continuous
 62
     7
370
    25
100
AcDbLine
 10
196.3777745458
 20
214.9930752583
 30
0.0
 11
196.3777745458
 21
204.5292043295
 31
0.0
  0
LINE
  5
58B
330
1F
100
AcDbEntity
  8
0
  6
Continuous
 62
     7
370
    25
100
AcDbLine
 10
196.3777745458
 20
217.5292043295
 30
0.0
 11
196.3777745458
 21
214.9930752583
 31
0.0
  0
LINE
  5
58C
330
1F
100
AcDbEntity
  8
0
  6
Continuous
 62
     7
370
    25
100
AcDbLine
 10
199.6277745458
 20
214.0783358132
 30
0.0
 11
199.6277745458
 21
206.0292043295
 31
0.0
  0
LINE
  5
58D
330
1F
100
AcDbEntity
  8
0
  6
Continuous
 62
     7
370
    25
100
AcDbLine
 10
199.6277745458
 20
216.0292043295
 30
0.0
 11
199.6277745458
 21
214.0783358132
 31
0.0
  0
LINE
  5
58E
330
1F
100
AcDbEntity
  8
0
  6
Continuous
 62
     7
370
    25
100
AcDbLine
 10
185.1215816993
 20
312.8033538276
 30
0.0
 11
182.096810313
 21
315.4207491094
 31
0.0
  0
LINE
  5
58F
330
1F
100
AcDbEntity
  8
0
  6
Continuous
 62
     7
370
    25
100
AcDbLine
 10
185.0201255561
 20
312.6632405664
 30
0.0
 11
185.1215816993
 21
312.8033538276
 31
0.0
  0
LINE
  5
590
330
1F
100
AcDbEntity
  8
0
  6
Continuous
 62
     7
370
    25
100
AcDbLine
 10
185.0201255561
 20
312.6632405664
 30
0.0
 11
181.5895295971
 21
314.7201828033
 31
0.0
  0
LINE
  5
591
330
1F
100
AcDbEntity
  8
0
  6
Continuous
 62
     7
370
    25
100
AcDbLine
 10
181.5895295971
 20
314.7201828033
 30
0.0
 11
182.096810313
 21
315.4207491094
 31
0.0
  0
ARC
  5
592
330
1F
100
AcDbEntity
  8
0
  6
Continuous
 62
     7
370
    25
100
AcDbCircle
 10
185.8777745458
 20
312.1490050071
 30
0.0
 40
1.000000000000001
100
AcDbArc
 50
138.3664606634
 51
139.1297075021
  0
ARC
  5
593
330
1F
100
AcDbEntity
  8
0
  6
Continuous
 62
     7
370
    25
100
AcDbCircle
 10
185.8777745458
 20
312.1490050071
 30
0.0
 40
5.000000000000053
100
AcDbArc
 50
138.3664606634
 51
139.1297075021
  0
LINE
  5
594
330
1F
100
AcDbEntity
  8
0
  6
Continuous
 62
     7
370
    25
100
AcDbLine
 10
184.8951201885
 20
312.3344515334
 30
0.0
 11
181.3777745458
 21
312.9982449885
 31
0.0
  0
LINE
  5
595
330
1F
100
AcDbEntity
  8
0
  6
Continuous
 62
     7
370
    25
100
AcDbLine
 10
184.8778632713
 20
312.1623257835
 30
0.0
 11
184.8951201885
 21
312.3344515334
 31
0.0
  0
LINE
  5
596
330
1F
100
AcDbEntity
  8
0
  6
Continuous
 62
     7
370
    25
100
AcDbLine
 10
184.8778632713
 20
312.1623257835
 30
0.0
 11
181.3777745458
 21
312.2089538198
 31
0.0
  0
ARC
  5
597
330
1F
100
AcDbEntity
  8
0
  6
Continuous
 62
     7
370
    25
100
AcDbCircle
 10
185.8777745458
 20
312.1490050071
 30
0.0
 40
1.000000000000005
100
AcDbArc
 50
179.2367531613
 51
180.0
  0
LINE
  5
598
330
1F
100
AcDbEntity
  8
0
  6
Continuous
 62
     7
370
    25
100
AcDbLine
 10
184.8778632713
 20
221.8960828755
 30
0.0
 11
181.3777745458
 21
221.8494548392
 31
0.0
  0
LINE
  5
599
330
1F
100
AcDbEntity
  8
0
  6
Continuous
 62
     7
370
    25
100
AcDbLine
 10
184.8951201885
 20
221.7239571256
 30
0.0
 11
184.8778632713
 21
221.8960828755
 31
0.0
  0
LINE
  5
59A
330
1F
100
AcDbEntity
  8
0
  6
Continuous
 62
     7
370
    25
100
AcDbLine
 10
184.8951201885
 20
221.7239571256
 30
0.0
 11
181.3777745458
 21
221.0601636705
 31
0.0
  0
ARC
  5
59B
330
1F
100
AcDbEntity
  8
0
  6
Continuous
 62
     7
370
    25
100
AcDbCircle
 10
185.8777745458
 20
221.9094036518
 30
0.0
 40
1.000000000000005
100
AcDbArc
 50
180.0
 51
180.7632468387
  0
LINE
  5
59C
330
1F
100
AcDbEntity
  8
0
  6
Continuous
 62
     7
370
    25
100
AcDbLine
 10
182.096810313
 20
218.6376595496
 30
0.0
 11
181.5895295971
 21
219.3382258557
 31
0.0
  0
LINE
  5
59D
330
1F
100
AcDbEntity
  8
0
  6
Continuous
 62
     7
370
    25
100
AcDbLine
 10
185.0201255561
 20
221.3951680926
 30
0.0
 11
181.5895295971
 21
219.3382258557
 31
0.0
  0
LINE
  5
59E
330
1F
100
AcDbEntity
  8
0
  6
Continuous
 62
     7
370
    25
100
AcDbLine
 10
185.1215816993
 20
221.2550548314
 30
0.0
 11
185.0201255561
 21
221.3951680926
 31
0.0
  0
LINE
  5
59F
330
1F
100
AcDbEntity
  8
0
  6
Continuous
 62
     7
370
    25
100
AcDbLine
 10
185.1215816993
 20
221.2550548314
 30
0.0
 11
182.096810313
 21
218.6376595496
 31
0.0
  0
ARC
  5
5A0
330
1F
100
AcDbEntity
  8
0
  6
Continuous
 62
     7
370
    25
100
AcDbCircle
 10
185.8777745458
 20
221.9094036518
 30
0.0
 40
1.00000000000002
100
AcDbArc
 50
220.8702924979
 51
221.6335393366
  0
ARC
  5
5A1
330
1F
100
AcDbEntity
  8
0
  6
Continuous
 62
     7
370
    25
100
AcDbCircle
 10
185.8777745458
 20
221.9094036518
 30
0.0
 40
5.000000000000035
100
AcDbArc
 50
220.8702924979
 51
221.6335393366
  0
LINE
  5
5A2
330
1F
100
AcDbEntity
  8
0
  6
Continuous
 62
     7
370
    25
100
AcDbLine
 10
188.8777745458
 20
317.0292043295
 30
0.0
 11
185.8881372711
 21
319.6866596848
 31
0.0
  0
LINE
  5
5A3
330
1F
100
AcDbEntity
  8
0
  6
Continuous
 62
     7
370
    25
100
AcDbLine
 10
188.8777745458
 20
317.0292043295
 30
0.0
 11
185.1303652271
 21
312.813368846
 31
0.0
  0
LINE
  5
5A4
330
1F
100
AcDbEntity
  8
0
  6
Continuous
 62
     7
370
    25
100
AcDbLine
 10
185.8881372711
 20
319.6866596848
 30
0.0
 11
182.1407279524
 21
315.4708242013
 31
0.0
  0
LINE
  5
5A5
330
1F
100
AcDbEntity
  8
0
  6
Continuous
 62
     7
370
    25
100
AcDbLine
 10
184.8777745458
 20
312.1490050071
 30
0.0
 11
184.8777745458
 21
221.9094036518
 31
0.0
  0
LINE
  5
5A6
330
1F
100
AcDbEntity
  8
0
  6
Continuous
 62
     7
370
    25
100
AcDbLine
 10
185.8881372711
 20
214.3717489742
 30
0.0
 11
188.8777745458
 21
217.0292043295
 31
0.0
  0
LINE
  5
5A7
330
1F
100
AcDbEntity
  8
0
  6
Continuous
 62
     7
370
    25
100
AcDbLine
 10
182.1407279524
 20
218.5875844577
 30
0.0
 11
185.8881372711
 21
214.3717489742
 31
0.0
  0
LINE
  5
5A8
330
1F
100
AcDbEntity
  8
0
  6
Continuous
 62
     7
370
    25
100
AcDbLine
 10
185.1303652271
 20
221.245039813
 30
0.0
 11
188.8777745458
 21
217.0292043295
 31
0.0
  0
ARC
  5
5A9
330
1F
100
AcDbEntity
  8
0
  6
Continuous
 62
     7
370
    25
100
AcDbCircle
 10
185.8777745458
 20
312.1490050071
 30
0.0
 40
1.000000000000042
100
AcDbArc
 50
149.0536276197
 51
169.3128330437
  0
ARC
  5
5AA
330
1F
100
AcDbEntity
  8
0
  6
Continuous
 62
     7
370
    25
100
AcDbCircle
 10
185.8777745458
 20
312.1490050071
 30
0.0
 40
5.000000000000039
100
AcDbArc
 50
149.0536276197
 51
154.7876817839
  0
ARC
  5
5AB
330
1F
100
AcDbEntity
  8
0
  6
Continuous
 62
     7
370
    25
100
AcDbCircle
 10
185.8777745458
 20
221.9094036518
 30
0.0
 40
0.9999999999999785
100
AcDbArc
 50
190.6871669563
 51
210.9463723803
  0
ARC
  5
5AC
330
1F
100
AcDbEntity
  8
0
  6
Continuous
 62
     7
370
    25
100
AcDbCircle
 10
185.8777745458
 20
221.9094036518
 30
0.0
 40
4.99999999999999
100
AcDbArc
 50
205.3087450352
 51
210.9463723803
  0
LINE
  5
5AD
330
1F
100
AcDbEntity
  8
0
  6
Continuous
 62
     7
370
    25
100
AcDbLine
 10
184.8777745458
 20
312.1490050071
 30
0.0
 11
184.8872052771
 21
312.2555057953
 31
0.0
  0
LINE
  5
5AE
330
1F
100
AcDbEntity
  8
0
  6
Continuous
 62
     7
370
    25
100
AcDbLine
 10
184.9141465441
 20
221.6739140181
 30
0.0
 11
184.8777745458
 21
221.9094036518
 31
0.0
  0
LINE
  5
5AF
330
1F
100
AcDbEntity
  8
0
  6
Continuous
 62
     7
370
    25
100
AcDbLine
 10
188.8777745458
 20
323.0292043295
 30
0.0
 11
188.8777745458
 21
331.2038801159
 31
0.0
  0
LINE
  5
5B0
330
1F
100
AcDbEntity
  8
0
  6
Continuous
 62
     7
370
    25
100
AcDbLine
 10
192.8777745458
 20
323.0292043295
 30
0.0
 11
192.8777745458
 21
331.3812065711
 31
0.0
  0
LINE
  5
5B1
330
1F
100
AcDbEntity
  8
0
  6
Continuous
 62
     7
370
    25
100
AcDbLine
 10
192.8777745458
 20
211.0292043295
 30
0.0
 11
192.8777745458
 21
323.0292043295
 31
0.0
  0
LINE
  5
5B2
330
1F
100
AcDbEntity
  8
0
  6
Continuous
 62
     7
370
    25
100
AcDbLine
 10
188.8777745458
 20
211.0292043295
 30
0.0
 11
188.8777745458
 21
323.0292043295
 31
0.0
  0
LINE
  5
5B3
330
1F
100
AcDbEntity
  8
0
  6
Continuous
 62
     7
370
    25
100
AcDbLine
 10
192.8777745458
 20
202.6930888718
 30
0.0
 11
192.8777745458
 21
211.0292043295
 31
0.0
  0
LINE
  5
5B4
330
1F
100
AcDbEntity
  8
0
  6
Continuous
 62
     7
370
    25
100
AcDbLine
 10
188.8777745458
 20
202.854528543
 30
0.0
 11
188.8777745458
 21
211.0292043295
 31
0.0
  0
LINE
  5
5B5
330
1F
100
AcDbEntity
  8
0
  6
Continuous
 62
     7
370
    25
100
AcDbLine
 10
184.8777745458
 20
318.5500016189
 30
0.0
 11
184.8777745458
 21
331.2038801159
 31
0.0
  0
LINE
  5
5B6
330
1F
100
AcDbEntity
  8
0
  6
Continuous
 62
     7
370
    25
100
AcDbLine
 10
184.8777745458
 20
211.0292043295
 30
0.0
 11
184.8777745458
 21
215.5084070401
 31
0.0
  0
LINE
  5
5B7
330
1F
100
AcDbEntity
  8
0
  6
Continuous
 62
     7
370
    25
100
AcDbLine
 10
184.8777745458
 20
202.854528543
 30
0.0
 11
184.8777745458
 21
211.0292043295
 31
0.0
  0
DIMENSION
  5
5B8
330
1F
100
AcDbEntity
  8
FORMAT
100
AcDbDimension
  2
_D_9
 10
196.3777745458
 20
168.6116462793
 30
0.0
 11
202.9166639623
 21
168.6116462793
 31
0.0
 70
   160
  1
<>
 71
     2
 42
-1.0
  3
SLDDIMSTYLE2
100
AcDbAlignedDimension
 13
193.3777745458
 23
177.0292043295
 33
0.0
 14
196.3777745458
 24
177.0292043295
 34
0.0
100
AcDbRotatedDimension
  0
DIMENSION
  5
5C4
330
1F
100
AcDbEntity
  8
FORMAT
100
AcDbDimension
  2
_D_10
 10
189.3777745458
 20
160.0993462226
 30
0.0
 11
199.6518602
 21
160.0993462226
 31
0.0
 70
   160
  1
<>
 71
     2
 42
-1.0
  3
SLDDIMSTYLE2
100
AcDbAlignedDimension
 13
193.3777745458
 23
177.0292043295
 33
0.0
 14
189.3777745458
 24
177.5292043295
 34
0.0
 50
0.0
100
AcDbRotatedDimension
  0
DIMENSION
  5
5D0
330
1F
100
AcDbEntity
  8
FORMAT
100
AcDbDimension
  2
_D_11
 10
189.3777745458
 20
138.3058192568
 30
0.0
 11
176.4400432295
 21
138.3058192568
 31
0.0
 70
   160
  1
<>
 71
     2
 42
-1.0
  3
SLDDIMSTYLE2
100
AcDbAlignedDimension
 13
185.3777745458
 23
177.5292043295
 33
0.0
 14
189.3777745458
 24
177.5292043295
 34
0.0
 50
0.0
100
AcDbRotatedDimension
  0
DIMENSION
  5
5E0
330
1F
100
AcDbEntity
  8
FORMAT
100
AcDbDimension
  2
_D_12
 10
181.3777745458
 20
145.7657746429
 30
0.0
 11
172.3541635009
 21
145.7657746429
 31
0.0
 70
   160
  1
<>
 71
     2
 42
-1.0
  3
SLDDIMSTYLE2
100
AcDbAlignedDimension
 13
185.3777745458
 23
177.5292043295
 33
0.0
 14
181.3777745458
 24
159.0292043295
 34
0.0
100
AcDbRotatedDimension
  0
DIMENSION
  5
5EE
330
1F
100
AcDbEntity
  8
FORMAT
100
AcDbDimension
  2
_D_13
 10
181.3777745458
 20
152.144036562
 30
0.0
 11
167.924764858
 21
152.144036562
 31
0.0
 70
   160
  1
<>
 71
     2
 42
-1.0
  3
SLDDIMSTYLE2
100
AcDbAlignedDimension
 13
177.3777745458
 23
159.0292043295
 33
0.0
 14
181.3777745458
 24
159.0292043295
 34
0.0
100
AcDbRotatedDimension
  0
DIMENSION
  5
5FA
330
1F
100
AcDbEntity
  8
FORMAT
100
AcDbDimension
  2
_D_14
 10
175.3777745458
 20
385.0292043295
 30
0.0
 11
185.8777745458
 21
385.0292043295
 31
0.0
 70
   160
  1
<>
 71
     2
 42
-1.0
  3
SLDDIMSTYLE0
100
AcDbAlignedDimension
 13
196.3777745458
 23
357.0292043295
 33
0.0
 14
175.3777745458
 24
335.0292043295
 34
0.0
100
AcDbRotatedDimension
  0
LINE
  5
604
330
1F
100
AcDbEntity
  8
FORMAT
100
AcDbLine
 10
181.3777745458
 20
203.8572043295
 30
0.0
 11
184.6277745458
 21
203.8572043295
 31
0.0
  0
LINE
  5
605
330
1F
100
AcDbEntity
  8
FORMAT
100
AcDbLine
 10
192.6277745458
 20
203.8572043295
 30
0.0
 11
195.7057745458
 21
203.8572043295
 31
0.0
  0
LINE
  5
606
330
1F
100
AcDbEntity
  8
FORMAT
100
AcDbLine
 10
195.7057745458
 20
218.2012043295
 30
0.0
 11
192.6277745458
 21
218.2012043295
 31
0.0
  0
LINE
  5
607
330
1F
100
AcDbEntity
  8
FORMAT
100
AcDbLine
 10
183.6399647245
 20
218.2012043295
 30
0.0
 11
181.3777745458
 21
218.2012043295
 31
0.0
  0
LINE
  5
608
330
1F
100
AcDbEntity
  8
FORMAT
100
AcDbLine
 10
181.3777745458
 20
315.8572043295
 30
0.0
 11
183.6399647245
 21
315.8572043295
 31
0.0
  0
LINE
  5
609
330
1F
100
AcDbEntity
  8
FORMAT
100
AcDbLine
 10
192.6277745458
 20
315.8572043295
 30
0.0
 11
195.7057745458
 21
315.8572043295
 31
0.0
  0
LINE
  5
60A
330
1F
100
AcDbEntity
  8
FORMAT
100
AcDbLine
 10
195.7057745458
 20
330.2012043295
 30
0.0
 11
192.6277745458
 21
330.2012043295
 31
0.0
  0
LINE
  5
60B
330
1F
100
AcDbEntity
  8
FORMAT
100
AcDbLine
 10
184.6277745458
 20
330.2012043295
 30
0.0
 11
181.3777745458
 21
330.2012043295
 31
0.0
  0
LINE
  5
60C
330
1F
100
AcDbEntity
  8
FORMAT
100
AcDbLine
 10
188.6277745458
 20
241.4879543295
 30
0.0
 11
185.6277745458
 21
241.4879543295
 31
0.0
  0
LINE
  5
60D
330
1F
100
AcDbEntity
  8
FORMAT
100
AcDbLine
 10
182.1277745458
 20
241.4879543295
 30
0.0
 11
181.3777745458
 21
241.4879543295
 31
0.0
  0
LINE
  5
60E
330
1F
100
AcDbEntity
  8
FORMAT
100
AcDbLine
 10
181.3777745458
 20
236.5704543295
 30
0.0
 11
182.1277745458
 21
236.5704543295
 31
0.0
  0
LINE
  5
60F
330
1F
100
AcDbEntity
  8
FORMAT
100
AcDbLine
 10
185.6277745458
 20
236.5704543295
 30
0.0
 11
188.6277745458
 21
236.5704543295
 31
0.0
  0
LINE
  5
610
330
1F
100
AcDbEntity
  8
FORMAT
100
AcDbLine
 10
188.6277745458
 20
269.4879543295
 30
0.0
 11
185.6277745458
 21
269.4879543295
 31
0.0
  0
LINE
  5
611
330
1F
100
AcDbEntity
  8
FORMAT
100
AcDbLine
 10
182.1277745458
 20
269.4879543295
 30
0.0
 11
181.3777745458
 21
269.4879543295
 31
0.0
  0
LINE
  5
612
330
1F
100
AcDbEntity
  8
FORMAT
100
AcDbLine
 10
181.3777745458
 20
264.5704543295
 30
0.0
 11
182.1277745458
 21
264.5704543295
 31
0.0
  0
LINE
  5
613
330
1F
100
AcDbEntity
  8
FORMAT
100
AcDbLine
 10
185.6277745458
 20
264.5704543295
 30
0.0
 11
188.6277745458
 21
264.5704543295
 31
0.0
  0
LINE
  5
614
330
1F
100
AcDbEntity
  8
FORMAT
100
AcDbLine
 10
188.6277745458
 20
297.4879543295
 30
0.0
 11
185.6277745458
 21
297.4879543295
 31
0.0
  0
LINE
  5
615
330
1F
100
AcDbEntity
  8
FORMAT
100
AcDbLine
 10
182.1277745458
 20
297.4879543295
 30
0.0
 11
181.3777745458
 21
297.4879543295
 31
0.0
  0
LINE
  5
616
330
1F
100
AcDbEntity
  8
FORMAT
100
AcDbLine
 10
181.3777745458
 20
292.5704543295
 30
0.0
 11
182.1277745458
 21
292.5704543295
 31
0.0
  0
LINE
  5
617
330
1F
100
AcDbEntity
  8
FORMAT
100
AcDbLine
 10
185.6277745458
 20
292.5704543295
 30
0.0
 11
188.6277745458
 21
292.5704543295
 31
0.0
  0
LINE
  5
618
330
1F
100
AcDbEntity
  8
FORMAT
  6
CENTERX2
370
    18
100
AcDbLine
 10
173.3777745458
 20
295.0292043295
 30
0.0
 11
199.2777745458
 21
295.0292043295
 31
0.0
  0
LINE
  5
619
330
1F
100
AcDbEntity
  8
FORMAT
  6
CENTERX2
370
    18
100
AcDbLine
 10
200.8195135374
 20
211.5292043295
 30
0.0
 11
177.3777745458
 21
211.5292043295
 31
0.0
  0
LINE
  5
61A
330
1F
100
AcDbEntity
  8
FORMAT
  6
CENTERX2
370
    18
100
AcDbLine
 10
202.9550234334
 20
322.5292043295
 30
0.0
 11
177.3777745458
 21
322.5292043295
 31
0.0
  0
LINE
  5
61B
330
1F
100
AcDbEntity
  8
FORMAT
  6
CENTERX2
370
    18
100
AcDbLine
 10
199.0974450187
 20
267.0292043295
 30
0.0
 11
172.429837717
 21
267.0292043295
 31
0.0
  0
LINE
  5
61C
330
1F
100
AcDbEntity
  8
FORMAT
  6
CENTERX2
370
    18
100
AcDbLine
 10
175.1570882292
 20
239.0292043295
 30
0.0
 11
198.3339310556
 21
239.0292043295
 31
0.0
  0
LINE
  5
61D
330
1F
100
AcDbEntity
  8
0
  6
Continuous
 62
     7
370
    25
100
AcDbLine
 10
125.8394171012
 20
121.4084389303
 30
0.0
 11
125.8394171012
 21
125.4084389303
 31
0.0
  0
LINE
  5
61E
330
1F
100
AcDbEntity
  8
0
  6
Continuous
 62
     7
370
    25
100
AcDbLine
 10
102.8394171012
 20
125.4084389303
 30
0.0
 11
102.8394171012
 21
121.4084389303
 31
0.0
  0
LINE
  5
61F
330
1F
100
AcDbEntity
  8
0
  6
Continuous
 62
     7
370
    25
100
AcDbLine
 10
125.8394171012
 20
113.4084389303
 30
0.0
 11
125.8394171012
 21
117.4084389303
 31
0.0
  0
LINE
  5
620
330
1F
100
AcDbEntity
  8
0
  6
Continuous
 62
     7
370
    25
100
AcDbLine
 10
102.8394171012
 20
117.4084389303
 30
0.0
 11
102.8394171012
 21
113.4084389303
 31
0.0
  0
LINE
  5
621
330
1F
100
AcDbEntity
  8
0
  6
Continuous
 62
     7
370
    25
100
AcDbLine
 10
125.8394171012
 20
117.4084389303
 30
0.0
 11
125.8394171012
 21
121.4084389303
 31
0.0
  0
LINE
  5
622
330
1F
100
AcDbEntity
  8
0
  6
Continuous
 62
     7
370
    25
100
AcDbLine
 10
102.8394171012
 20
121.4084389303
 30
0.0
 11
102.8394171012
 21
117.4084389303
 31
0.0
  0
LINE
  5
623
330
1F
100
AcDbEntity
  8
0
  6
Continuous
 62
     7
370
    25
100
AcDbLine
 10
121.9544669816
 20
109.5084389303
 30
0.0
 11
122.0332067788
 21
110.4084389303
 31
0.0
  0
LINE
  5
624
330
1F
100
AcDbEntity
  8
0
  6
Continuous
 62
     7
370
    25
100
AcDbLine
 10
119.3394171012
 20
107.1584389303
 30
0.0
 11
119.3394171012
 21
110.4084389303
 31
0.0
  0
LINE
  5
625
330
1F
100
AcDbEntity
  8
0
  6
Continuous
 62
     7
370
    25
100
AcDbLine
 10
109.3394171012
 20
110.4084389303
 30
0.0
 11
109.3394171012
 21
107.1584389303
 31
0.0
  0
LINE
  5
626
330
1F
100
AcDbEntity
  8
0
  6
Continuous
 62
     7
370
    25
100
AcDbLine
 10
35.3394171012
 20
129.4084389303
 30
0.0
 11
35.3394171012
 21
125.4084389303
 31
0.0
  0
LINE
  5
627
330
1F
100
AcDbEntity
  8
0
  6
Continuous
 62
     7
370
    25
100
AcDbLine
 10
109.3394171012
 20
129.4084389303
 30
0.0
 11
109.3394171012
 21
125.4084389303
 31
0.0
  0
LINE
  5
628
330
1F
100
AcDbEntity
  8
0
  6
Continuous
 62
     7
370
    25
100
AcDbLine
 10
35.3394171012
 20
125.4084389303
 30
0.0
 11
109.3394171012
 21
125.4084389303
 31
0.0
  0
LINE
  5
629
330
1F
100
AcDbEntity
  8
0
  6
Continuous
 62
     7
370
    25
100
AcDbLine
 10
35.3394171012
 20
129.4084389303
 30
0.0
 11
109.3394171012
 21
129.4084389303
 31
0.0
  0
LINE
  5
62A
330
1F
100
AcDbEntity
  8
0
  6
Continuous
 62
     7
370
    25
100
AcDbLine
 10
109.3394171012
 20
129.4084389303
 30
0.0
 11
110.3394171012
 21
129.4084389303
 31
0.0
  0
LINE
  5
62B
330
1F
100
AcDbEntity
  8
0
  6
Continuous
 62
     7
370
    25
100
AcDbLine
 10
126.3394171012
 20
129.4084389303
 30
0.0
 11
126.3394171012
 21
125.4084389303
 31
0.0
  0
LINE
  5
62C
330
1F
100
AcDbEntity
  8
0
  6
Continuous
 62
     7
370
    25
100
AcDbLine
 10
125.7590568386
 20
125.4084389303
 30
0.0
 11
126.3394171012
 21
125.4084389303
 31
0.0
  0
LINE
  5
62D
330
1F
100
AcDbEntity
  8
0
  6
Continuous
 62
     7
370
    25
100
AcDbLine
 10
116.3394171012
 20
129.4084389303
 30
0.0
 11
126.3394171012
 21
129.4084389303
 31
0.0
  0
LINE
  5
62E
330
1F
100
AcDbEntity
  8
0
  6
Continuous
 62
     7
370
    25
100
AcDbLine
 10
110.3394171012
 20
129.4084389303
 30
0.0
 11
116.3394171012
 21
129.4084389303
 31
0.0
  0
LINE
  5
62F
330
1F
100
AcDbEntity
  8
0
  6
Continuous
 62
     7
370
    25
100
AcDbLine
 10
102.8394171012
 20
121.4084389303
 30
0.0
 11
125.8394171012
 21
121.4084389303
 31
0.0
  0
LINE
  5
630
330
1F
100
AcDbEntity
  8
0
  6
Continuous
 62
     7
370
    25
100
AcDbLine
 10
109.3394171012
 20
125.4084389303
 30
0.0
 11
125.7590568386
 21
125.4084389303
 31
0.0
  0
LINE
  5
631
330
1F
100
AcDbEntity
  8
0
  6
Continuous
 62
     7
370
    25
100
AcDbLine
 10
102.8394171012
 20
117.4084389303
 30
0.0
 11
125.8394171012
 21
117.4084389303
 31
0.0
  0
LINE
  5
632
330
1F
100
AcDbEntity
  8
0
  6
Continuous
 62
     7
370
    25
100
AcDbLine
 10
102.4394171012
 20
113.4084389303
 30
0.0
 11
102.4394171012
 21
110.4084389303
 31
0.0
  0
LINE
  5
633
330
1F
100
AcDbEntity
  8
0
  6
Continuous
 62
     7
370
    25
100
AcDbLine
 10
126.2394171012
 20
113.4084389303
 30
0.0
 11
102.4394171012
 21
113.4084389303
 31
0.0
  0
LINE
  5
634
330
1F
100
AcDbEntity
  8
0
  6
Continuous
 62
     7
370
    25
100
AcDbLine
 10
126.2394171012
 20
110.4084389303
 30
0.0
 11
126.2394171012
 21
113.4084389303
 31
0.0
  0
LINE
  5
635
330
1F
100
AcDbEntity
  8
0
  6
Continuous
 62
     7
370
    25
100
AcDbLine
 10
126.2394171012
 20
110.4084389303
 30
0.0
 11
102.4394171012
 21
110.4084389303
 31
0.0
  0
LINE
  5
636
330
1F
100
AcDbEntity
  8
0
  6
Continuous
 62
     7
370
    25
100
AcDbLine
 10
123.3387453119
 20
131.4084389303
 30
0.0
 11
105.3400888904
 21
131.4084389303
 31
0.0
  0
LINE
  5
637
330
1F
100
AcDbEntity
  8
0
  6
Continuous
 62
     7
370
    25
100
AcDbLine
 10
123.3394171012
 20
129.5044760008
 30
0.0
 11
123.3394171012
 21
131.40843883
 31
0.0
  0
LINE
  5
638
330
1F
100
AcDbEntity
  8
0
  6
Continuous
 62
     7
370
    25
100
AcDbLine
 10
105.3394171012
 20
131.40843883
 30
0.0
 11
105.3394171012
 21
129.4084389303
 31
0.0
  0
LINE
  5
639
330
1F
100
AcDbEntity
  8
0
  6
Continuous
 62
     7
370
    25
100
AcDbLine
 10
126.2394171012
 20
131.4084389303
 30
0.0
 11
126.2394171012
 21
129.4084389303
 31
0.0
  0
LINE
  5
63A
330
1F
100
AcDbEntity
  8
0
  6
Continuous
 62
     7
370
    25
100
AcDbLine
 10
123.3394171012
 20
131.4084389303
 30
0.0
 11
126.2394171012
 21
131.4084389303
 31
0.0
  0
LINE
  5
63B
330
1F
100
AcDbEntity
  8
0
  6
Continuous
 62
     7
370
    25
100
AcDbLine
 10
102.4394171012
 20
129.4084389303
 30
0.0
 11
102.4394171012
 21
131.4084389303
 31
0.0
  0
LINE
  5
63C
330
1F
100
AcDbEntity
  8
0
  6
Continuous
 62
     7
370
    25
100
AcDbLine
 10
102.4394171012
 20
131.4084389303
 30
0.0
 11
105.3394171012
 21
131.4084389303
 31
0.0
  0
LINE
  5
63D
330
1F
100
AcDbEntity
  8
0
  6
Continuous
 62
     7
370
    25
100
AcDbLine
 10
119.3394171012
 20
109.5084389303
 30
0.0
 11
121.9544669816
 21
109.5084389303
 31
0.0
  0
LINE
  5
63E
330
1F
100
AcDbEntity
  8
0
  6
Continuous
 62
     7
370
    25
100
AcDbLine
 10
119.3394171012
 20
107.1584389303
 30
0.0
 11
109.3394171012
 21
107.1584389303
 31
0.0
  0
LINE
  5
63F
330
1F
100
AcDbEntity
  8
0
  6
Continuous
 62
     7
370
    25
100
AcDbLine
 10
125.8394171012
 20
124.6454855238
 30
0.0
 11
125.8394171012
 21
124.6894031631
 31
0.0
  0
LINE
  5
640
330
1F
100
AcDbEntity
  8
0
  6
Continuous
 62
     7
370
    25
100
AcDbLine
 10
102.8394171012
 20
124.6894031631
 30
0.0
 11
102.8394171012
 21
124.6454855238
 31
0.0
  0
LINE
  5
641
330
1F
100
AcDbEntity
  8
FORMAT
  6
CENTERX2
370
    18
100
AcDbLine
 10
114.3394171012
 20
105.1584389303
 30
0.0
 11
114.3394171012
 21
132.4084389303
 31
0.0
  0
LINE
  5
642
330
1F
100
AcDbEntity
  8
0
  6
CENTER
 62
     7
370
    18
100
AcDbLine
 10
285.9705476087
 20
175.1939816875
 30
0.0
 11
377.2276503962
 21
175.1939816875
 31
0.0
  0
LWPOLYLINE
  5
643
330
1F
100
AcDbEntity
  8
0
  6
CENTER
 62
     7
370
    18
100
AcDbPolyline
 90
        5
 70
   128
 43
0.0
 10
377.2276503962
 20
372.0794631643
 10
375.2276500684
 20
372.0794631643
 10
332.2276495394
 20
372.0794631643
 10
285.9705476087
 20
372.0794631643
 10
285.9705476087
 20
175.1939816875
  0
LINE
  5
644
330
1F
100
AcDbEntity
  8
0
  6
Continuous
 62
     7
370
    25
100
AcDbLine
 10
332.2276495394
 20
175.1939816875
 30
0.0
 11
332.2276495394
 21
372.0794631643
 31
0.0
  0
LINE
  5
645
330
1F
100
AcDbEntity
  8
0
  6
Continuous
 62
     7
370
    25
100
AcDbLine
 10
375.2276500684
 20
175.1939816875
 30
0.0
 11
375.2276500684
 21
372.0794631643
 31
0.0
  0
ARC
  5
646
330
1F
100
AcDbEntity
  8
0
  6
Continuous
 62
     7
370
    25
100
AcDbCircle
 10
360.2276504037
 20
195.064395477
 30
0.0
 40
12.00000103563216
100
AcDbArc
 50
180.0000282193
 51
359.9999717808
  0
ARC
  5
647
330
1F
100
AcDbEntity
  8
0
  6
Continuous
 62
     7
370
    25
100
AcDbCircle
 10
360.2276504037
 20
351.0643867209
 30
0.0
 40
12.00000103563224
100
AcDbArc
 50
0.0000289562
 51
179.9999710438
  0
LINE
  5
648
330
1F
100
AcDbEntity
  8
0
  6
Continuous
 62
     7
370
    25
100
AcDbLine
 10
348.227649368
 20
351.0643927855
 30
0.0
 11
348.227649368
 21
195.0643895668
 31
0.0
  0
LINE
  5
649
330
1F
100
AcDbEntity
  8
0
  6
Continuous
 62
     7
370
    25
100
AcDbLine
 10
372.2276514393
 20
195.0643895668
 30
0.0
 11
372.2276514393
 21
351.0643927855
 31
0.0
  0
LINE
  5
64A
330
1F
100
AcDbEntity
  8
0
  6
Continuous
 62
     7
370
    25
100
AcDbLine
 10
377.2276503962
 20
372.0794631643
 30
0.0
 11
377.2276503962
 21
175.1939816875
 31
0.0
  0
LINE
  5
64B
330
1F
100
AcDbEntity
  8
0
  6
Continuous
 62
     7
370
    25
100
AcDbLine
 10
365.2276484293
 20
184.1556815905
 30
0.0
 11
365.2276484293
 21
361.9731007618
 31
0.0
  0
DIMENSION
  5
64C
330
1F
100
AcDbEntity
  8
FORMAT
100
AcDbDimension
  2
_D_15
 10
391.1278805716
 20
183.0643911761
 30
0.0
 11
391.1278805716
 21
273.0643911761
 31
0.0
 70
   160
  1
<>
 71
     2
 42
-1.0
  3
SLDDIMSTYLE0
100
AcDbAlignedDimension
 13
360.2276496512
 23
363.0643911761
 33
0.0
 14
360.2276496512
 24
183.0643911761
 34
0.0
 50
90.0
100
AcDbRotatedDimension
  0
DIMENSION
  5
656
330
1F
100
AcDbEntity
  8
FORMAT
100
AcDbDimension
  2
_D_16
 10
360.2276496512
 20
195.0643911761
 30
0.0
 11
342.3110710718
 21
169.2455395385
 31
0.0
 70
   164
  1
<>
 71
     1
 42
-1.0
  3
SLDDIMSTYLE3
100
AcDbRadialDimension
 15
353.386294741
 25
185.2055949518
 35
0.0
 40
0.0
  0
MTEXT
  5
65E
330
1F
100
AcDbEntity
  8
FORMAT
100
AcDbMText
 10
337.7659219229
 20
277.8281819392
 30
0.0
 40
3.5
 41
0.0
 71
     1
 72
     1
  1
BBL
  7
SLDTEXTSTYLE0
 73
     1
 44
1.0
  0
INSERT
  5
664
330
1F
100
AcDbEntity
  8
FORMAT
100
AcDbBlockReference
  2
SW_NOTE_0_7
 10
284.5515831198
 20
389.0375904306
 30
0.0
  0
LINE
  5
665
330
1F
100
AcDbEntity
  8
0
  6
CENTER
 62
     7
370
    18
100
AcDbLine
 10
382.4893726535
 20
273.0643911761
 30
0.0
 11
310.9872146766
 21
273.0643911761
 31
0.0
  0
LINE
  5
666
330
1F
100
AcDbEntity
  8
0
  6
Continuous
 62
     7
370
    18
100
AcDbLine
 10
380.4893726535
 20
285.7643911761
 30
0.0
 11
380.4893726535
 21
273.0643911761
 31
0.0
  0
SOLID
  5
667
330
1F
100
AcDbEntity
  8
0
  6
Continuous
 62
     7
370
    18
100
AcDbTrace
 10
380.4893726535
 20
273.0643911761
 30
0.0
 11
381.5053726535
 21
279.4143911761
 31
0.0
 12
379.4733726535
 22
279.4143911761
 32
0.0
 13
379.4733726535
 23
279.4143911761
 33
0.0
  0
LINE
  5
668
330
1F
100
AcDbEntity
  8
0
  6
Continuous
 62
     7
370
    18
100
AcDbLine
 10
312.9872146766
 20
285.7643911761
 30
0.0
 11
312.9872146766
 21
273.0643911761
 31
0.0
  0
SOLID
  5
669
330
1F
100
AcDbEntity
  8
0
  6
Continuous
 62
     7
370
    18
100
AcDbTrace
 10
312.9872146766
 20
273.0643911761
 30
0.0
 11
314.0032146766
 21
279.4143911761
 31
0.0
 12
311.9712146766
 22
279.4143911761
 32
0.0
 13
311.9712146766
 23
279.4143911761
 33
0.0
  0
LINE
  5
66A
330
1F
100
AcDbEntity
  8
FORMAT
  6
CENTERX2
370
    18
100
AcDbLine
 10
360.2276494723
 20
179.990963499
 30
0.0
 11
360.2276494723
 21
366.0698546571
 31
0.0
  0
LINE
  5
66B
330
1F
100
AcDbEntity
  8
0
  6
CENTER
 62
     7
370
    18
100
AcDbLine
 10
377.2276494539
 20
162.187362165
 30
0.0
 11
365.2276493496
 21
162.187362165
 31
0.0
  0
LINE
  5
66C
330
1F
100
AcDbEntity
  8
0
  6
Continuous
 62
     7
370
    25
100
AcDbLine
 10
377.2276494539
 20
162.187362165
 30
0.0
 11
377.2276494539
 21
146.6221477192
 31
0.0
  0
LINE
  5
66D
330
1F
100
AcDbEntity
  8
0
  6
Continuous
 62
     7
370
    25
100
AcDbLine
 10
377.2276494539
 20
146.6221477192
 30
0.0
 11
372.227650497
 21
146.6221477192
 31
0.0
  0
LINE
  5
66E
330
1F
100
AcDbEntity
  8
0
  6
Continuous
 62
     7
370
    25
100
AcDbLine
 10
372.227650497
 20
146.6221477192
 30
0.0
 11
372.227650497
 21
153.6221477024
 31
0.0
  0
LINE
  5
66F
330
1F
100
AcDbEntity
  8
0
  6
Continuous
 62
     7
370
    25
100
AcDbLine
 10
365.2276493496
 20
153.6221477024
 30
0.0
 11
372.227650497
 21
153.6221477024
 31
0.0
  0
LINE
  5
670
330
1F
100
AcDbEntity
  8
0
  6
Continuous
 62
     7
370
    25
100
AcDbLine
 10
365.2276493496
 20
153.6221477024
 30
0.0
 11
365.2276493496
 21
162.187362165
 31
0.0
  0
LINE
  5
671
330
1F
100
AcDbEntity
  8
0
  6
Continuous
 62
     7
370
    25
100
AcDbLine
 10
336.477648828
 20
132.6221479855
 30
0.0
 11
336.477648828
 21
147.6221477085
 31
0.0
  0
LINE
  5
672
330
1F
100
AcDbEntity
  8
0
  6
Continuous
 62
     7
370
    25
100
AcDbLine
 10
336.477648828
 20
132.6221479855
 30
0.0
 11
333.9776493496
 21
132.6221479855
 31
0.0
  0
LINE
  5
673
330
1F
100
AcDbEntity
  8
0
  6
Continuous
 62
     7
370
    25
100
AcDbLine
 10
333.9776493496
 20
147.6221477085
 30
0.0
 11
333.9776493496
 21
132.6221479855
 31
0.0
  0
LINE
  5
674
330
1F
100
AcDbEntity
  8
0
  6
Continuous
 62
     7
370
    25
100
AcDbLine
 10
336.477648828
 20
147.6221477085
 30
0.0
 11
333.9776493496
 21
147.6221477085
 31
0.0
  0
LINE
  5
675
330
1F
100
AcDbEntity
  8
0
  6
Continuous
 62
     7
370
    25
100
AcDbLine
 10
310.9872158504
 20
116.6221472256
 30
0.0
 11
310.9872158504
 21
147.6221477085
 31
0.0
  0
LINE
  5
676
330
1F
100
AcDbEntity
  8
0
  6
Continuous
 62
     7
370
    25
100
AcDbLine
 10
333.9776493496
 20
132.6221479855
 30
0.0
 11
335.2276500201
 21
131.8710717194
 31
0.0
  0
LINE
  5
677
330
1F
100
AcDbEntity
  8
0
  6
Continuous
 62
     7
370
    25
100
AcDbLine
 10
335.2276500201
 20
131.8710717194
 30
0.0
 11
336.477648828
 21
132.6221479855
 31
0.0
  0
LINE
  5
678
330
1F
100
AcDbEntity
  8
0
  6
Continuous
 62
     7
370
    25
100
AcDbLine
 10
348.2276498227
 20
129.6221474938
 30
0.0
 11
332.2276495284
 21
129.6221474938
 31
0.0
  0
LINE
  5
679
330
1F
100
AcDbEntity
  8
0
  6
Continuous
 62
     7
370
    25
100
AcDbLine
 10
332.2276495284
 20
129.6221474938
 30
0.0
 11
332.2276495284
 21
124.6221485369
 31
0.0
  0
LINE
  5
67A
330
1F
100
AcDbEntity
  8
0
  6
Continuous
 62
     7
370
    25
100
AcDbLine
 10
332.2276495284
 20
124.6221485369
 30
0.0
 11
326.2276504076
 21
124.6221485369
 31
0.0
  0
LINE
  5
67B
330
1F
100
AcDbEntity
  8
0
  6
Continuous
 62
     7
370
    25
100
AcDbLine
 10
326.2276504076
 20
124.6221485369
 30
0.0
 11
326.2276504076
 21
120.6221478812
 31
0.0
  0
LINE
  5
67C
330
1F
100
AcDbEntity
  8
0
  6
Continuous
 62
     7
370
    25
100
AcDbLine
 10
326.2276504076
 20
120.6221478812
 30
0.0
 11
332.2276495284
 21
120.6221478812
 31
0.0
  0
LINE
  5
67D
330
1F
100
AcDbEntity
  8
0
  6
Continuous
 62
     7
370
    25
100
AcDbLine
 10
332.2276495284
 20
120.6221478812
 30
0.0
 11
332.2276495284
 21
116.6221472256
 31
0.0
  0
LINE
  5
67E
330
1F
100
AcDbEntity
  8
0
  6
Continuous
 62
     7
370
    25
100
AcDbLine
 10
332.2276495284
 20
116.6221472256
 30
0.0
 11
310.9872158504
 21
116.6221472256
 31
0.0
  0
LINE
  5
67F
330
1F
100
AcDbEntity
  8
0
  6
Continuous
 62
     7
370
    25
100
AcDbLine
 10
348.2276498227
 20
147.6221477085
 30
0.0
 11
348.2276498227
 21
129.6221474938
 31
0.0
  0
LINE
  5
680
330
1F
100
AcDbEntity
  8
0
  6
Continuous
 62
     7
370
    25
100
AcDbLine
 10
310.9872158504
 20
147.6221477085
 30
0.0
 11
333.9776493496
 21
147.6221477085
 31
0.0
  0
LINE
  5
681
330
1F
100
AcDbEntity
  8
0
  6
Continuous
 62
     7
370
    25
100
AcDbLine
 10
336.477648828
 20
147.6221477085
 30
0.0
 11
348.2276498227
 21
147.6221477085
 31
0.0
  0
LINE
  5
682
330
1F
100
AcDbEntity
  8
0
  6
Continuous
 62
     7
370
    25
100
AcDbLine
 10
375.2276491261
 20
129.6221474938
 30
0.0
 11
377.2276494539
 21
131.6221478216
 31
0.0
  0
LINE
  5
683
330
1F
100
AcDbEntity
  8
0
  6
Continuous
 62
     7
370
    25
100
AcDbLine
 10
375.2276491261
 20
129.6221474938
 30
0.0
 11
372.227650497
 21
129.6221474938
 31
0.0
  0
LINE
  5
684
330
1F
100
AcDbEntity
  8
0
  6
Continuous
 62
     7
370
    25
100
AcDbLine
 10
372.227650497
 20
136.6221477099
 30
0.0
 11
377.2276494539
 21
136.6221477099
 31
0.0
  0
LINE
  5
685
330
1F
100
AcDbEntity
  8
0
  6
Continuous
 62
     7
370
    25
100
AcDbLine
 10
372.227650497
 20
129.6221474938
 30
0.0
 11
372.227650497
 21
136.6221477099
 31
0.0
  0
LINE
  5
686
330
1F
100
AcDbEntity
  8
0
  6
Continuous
 62
     7
370
    25
100
AcDbLine
 10
377.2276494539
 20
136.6221477099
 30
0.0
 11
377.2276494539
 21
131.6221478216
 31
0.0
  0
LINE
  5
687
330
1F
100
AcDbEntity
  8
0
  6
Continuous
 62
     7
370
    25
100
AcDbLine
 10
372.227650497
 20
136.6221477099
 30
0.0
 11
372.227650497
 21
146.6221477192
 31
0.0
  0
LINE
  5
688
330
1F
100
AcDbEntity
  8
0
  6
Continuous
 62
     7
370
    25
100
AcDbLine
 10
377.2276494539
 20
136.6221477099
 30
0.0
 11
377.2276494539
 21
146.6221477192
 31
0.0
  0
LINE
  5
689
330
1F
100
AcDbEntity
  8
0
  6
Continuous
 62
     7
370
    25
100
AcDbLine
 10
348.2276498227
 20
129.6221474938
 30
0.0
 11
372.227650497
 21
129.6221474938
 31
0.0
  0
LINE
  5
68A
330
1F
100
AcDbEntity
  8
0
  6
Continuous
 62
     7
370
    25
100
AcDbLine
 10
365.2276493496
 20
147.6221477085
 30
0.0
 11
348.2276498227
 21
147.6221477085
 31
0.0
  0
LINE
  5
68B
330
1F
100
AcDbEntity
  8
0
  6
Continuous
 62
     7
370
    25
100
AcDbLine
 10
365.2276493496
 20
153.6221477024
 30
0.0
 11
365.2276493496
 21
147.6221477085
 31
0.0
  0
INSERT
  5
6AA
330
1F
100
AcDbEntity
  8
0
  6
Continuous
 62
     7
370
    18
100
AcDbBlockReference
  2
SW_HATCH_0
 10
365.2276493496
 20
159.8590743549
 30
0.0
  0
DIMENSION
  5
6AB
330
1F
100
AcDbEntity
  8
FORMAT
100
AcDbDimension
  2
_D_17
 10
387.2276496512
 20
129.6221477322
 30
0.0
 11
387.2276496512
 21
133.1221477322
 31
0.0
 70
   160
  1
<>
 71
     2
 42
-1.0
  3
SLDDIMSTYLE2
100
AcDbAlignedDimension
 13
377.2276496512
 23
136.6221477322
 33
0.0
 14
375.2276496512
 24
129.6221477322
 34
0.0
 50
90.0
100
AcDbRotatedDimension
  0
DIMENSION
  5
6B7
330
1F
100
AcDbEntity
  8
FORMAT
100
AcDbDimension
  2
_D_18
 10
377.2276496512
 20
108.9205668922
 30
0.0
 11
362.7276496512
 21
108.9205668922
 31
0.0
 70
   160
  1
<>
 71
     2
 42
-1.0
  3
SLDDIMSTYLE0
100
AcDbAlignedDimension
 13
348.2276496512
 23
129.6221477322
 33
0.0
 14
377.2276496512
 24
131.6221478216
 34
0.0
100
AcDbRotatedDimension
  0
DIMENSION
  5
6C1
330
1F
100
AcDbEntity
  8
FORMAT
100
AcDbDimension
  2
_D_19
 10
372.2276496512
 20
118.1035225259
 30
0.0
 11
360.2276496512
 21
118.1035225259
 31
0.0
 70
   160
  1
<>
 71
     2
 42
-1.0
  3
SLDDIMSTYLE0
100
AcDbAlignedDimension
 13
348.2276496512
 23
129.6221477322
 33
0.0
 14
372.2276496512
 24
129.6221477322
 34
0.0
100
AcDbRotatedDimension
  0
DIMENSION
  5
6CB
330
1F
100
AcDbEntity
  8
FORMAT
100
AcDbDimension
  2
_D_20
 10
307.3937778682
 20
147.6221477322
 30
0.0
 11
307.3937778682
 21
150.6221477322
 31
0.0
 70
   160
  1
<>
 71
     2
 42
-1.0
  3
SLDDIMSTYLE2
100
AcDbAlignedDimension
 13
365.2276496512
 23
153.6221477322
 33
0.0
 14
310.9872146766
 24
147.6221477322
 34
0.0
 50
90.0
100
AcDbRotatedDimension
  0
LINE
  5
6D7
330
1F
100
AcDbEntity
  8
FORMAT
  6
CENTERX2
370
    18
100
AcDbLine
 10
370.2276501691
 20
141.6221475981
 30
0.0
 11
379.2276497817
 21
141.6221475981
 31
0.0
  0
LINE
  5
6D8
330
1F
100
AcDbEntity
  8
FORMAT
  6
CENTERX2
370
    18
100
AcDbLine
 10
335.2276500201
 20
132.6221479855
 30
0.0
 11
335.2276500201
 21
129.8710713915
 31
0.0
  0
LINE
  5
6D9
330
1F
100
AcDbEntity
  8
FORMAT
  6
CENTERX2
370
    18
100
AcDbLine
 10
335.2276500201
 20
132.6221479855
 30
0.0
 11
335.2276500201
 21
149.6221477453
 31
0.0
  0
LINE
  5
6DA
330
1F
100
AcDbEntity
  8
FORMAT
  6
CENTERX2
370
    18
100
AcDbLine
 10
360.2276494613
 20
155.6221475646
 30
0.0
 11
360.2276494613
 21
126.6686945043
 31
0.0
  0
LWPOLYLINE
  5
6DB
330
1F
100
AcDbEntity
  8
0
  6
CENTER
 62
     7
370
    18
100
AcDbPolyline
 90
       12
 70
   128
 43
0.0
 10
226.7880875729
 20
175.9985251826
 10
230.7880882286
 20
175.9985251826
 10
234.7880888842
 20
175.9985251826
 10
239.7880878411
 20
175.9985251826
 10
241.788088169
 20
175.9985251826
 10
268.0109877251
 20
175.9985251826
 10
268.0109877251
 20
370.9868355197
 10
241.788088169
 20
370.9868355197
 10
239.7880878411
 20
370.9868355197
 10
234.7880888842
 20
370.9868355197
 10
230.7880882286
 20
370.9868355197
 10
226.7880875729
 20
370.9868355197
  0
LINE
  5
6DC
330
1F
100
AcDbEntity
  8
0
  6
Continuous
 62
     7
370
    25
100
AcDbLine
 10
241.788088169
 20
370.9868355197
 30
0.0
 11
241.788088169
 21
175.9985251826
 31
0.0
  0
ARC
  5
6DD
330
1F
100
AcDbEntity
  8
0
  6
Continuous
 62
     7
370
    25
100
AcDbCircle
 10
251.7880880619
 20
318.0643919165
 30
0.0
 40
5.000000004656751
100
AcDbArc
 50
0.0000120062
 51
179.9999879938
  0
LINE
  5
6DE
330
1F
100
AcDbEntity
  8
0
  6
Continuous
 62
     7
370
    25
100
AcDbLine
 10
246.7880880572
 20
318.0643929643
 30
0.0
 11
246.7880880572
 21
228.064389388
 31
0.0
  0
ARC
  5
6DF
330
1F
100
AcDbEntity
  8
0
  6
Continuous
 62
     7
370
    25
100
AcDbCircle
 10
251.7880880619
 20
228.0643904357
 30
0.0
 40
5.000000004656751
100
AcDbArc
 50
180.0000120062
 51
359.9999879938
  0
LINE
  5
6E0
330
1F
100
AcDbEntity
  8
0
  6
Continuous
 62
     7
370
    25
100
AcDbLine
 10
256.7880880665
 20
228.064389388
 30
0.0
 11
256.7880880665
 21
318.0643929643
 31
0.0
  0
LINE
  5
6E1
330
1F
100
AcDbEntity
  8
0
  6
Continuous
 62
     7
370
    25
100
AcDbLine
 10
239.7880878411
 20
175.9985251826
 30
0.0
 11
239.7880878411
 21
370.9868355197
 31
0.0
  0
LINE
  5
6E2
330
1F
100
AcDbEntity
  8
0
  6
Continuous
 62
     7
370
    25
100
AcDbLine
 10
234.7880888842
 20
175.9985251826
 30
0.0
 11
234.7880888842
 21
370.9868355197
 31
0.0
  0
LINE
  5
6E3
330
1F
100
AcDbEntity
  8
0
  6
Continuous
 62
     7
370
    25
100
AcDbLine
 10
230.7880882286
 20
175.9985251826
 30
0.0
 11
230.7880882286
 21
370.9868355197
 31
0.0
  0
LINE
  5
6E4
330
1F
100
AcDbEntity
  8
0
  6
Continuous
 62
     7
370
    25
100
AcDbLine
 10
226.7880875729
 20
175.9985251826
 30
0.0
 11
226.7880875729
 21
370.9868355197
 31
0.0
  0
DIMENSION
  5
6E5
330
1F
100
AcDbEntity
  8
FORMAT
100
AcDbDimension
  2
_D_21
 10
256.7880880796
 20
208.9150534219
 30
0.0
 11
251.7880880796
 21
208.9150534219
 31
0.0
 70
   160
  1
<>
 71
     2
 42
-1.0
  3
SLDDIMSTYLE2
100
AcDbAlignedDimension
 13
246.7880880796
 23
228.0643911761
 33
0.0
 14
256.7880880796
 24
228.0643911761
 34
0.0
100
AcDbRotatedDimension
  0
DIMENSION
  5
6F2
330
1F
100
AcDbEntity
  8
FORMAT
100
AcDbDimension
  2
_D_22
 10
277.5924206548
 20
223.0643911761
 30
0.0
 11
277.5924206548
 21
273.0643911761
 31
0.0
 70
   160
  1
<>
 71
     2
 42
-1.0
  3
SLDDIMSTYLE0
100
AcDbAlignedDimension
 13
251.7880880796
 23
323.0643911761
 33
0.0
 14
251.7880880796
 24
223.0643911761
 34
0.0
 50
90.0
100
AcDbRotatedDimension
  0
INSERT
  5
70F
330
1F
100
AcDbEntity
  8
FORMAT
100
AcDbBlockReference
  2
SW_CENTERMARKSYMBOL_57
 10
251.7880879454
 20
318.0643929643
 30
0.0
  0
INSERT
  5
71B
330
1F
100
AcDbEntity
  8
FORMAT
100
AcDbBlockReference
  2
SW_CENTERMARKSYMBOL_58
 10
251.7880879454
 20
273.0643911761
 30
0.0
  0
LWPOLYLINE
  5
71C
330
1F
100
AcDbEntity
  8
0
  6
CENTER
 62
     7
370
    18
100
AcDbPolyline
 90
        5
 70
   128
 43
0.0
 10
488.2817083275
 20
371.0762634056
 10
488.2817083275
 20
179.2435198205
 10
503.3938317797
 20
179.2435198205
 10
546.3938323086
 20
179.2435198205
 10
548.3938326365
 20
179.2435198205
  0
LINE
  5
71D
330
1F
100
AcDbEntity
  8
0
  6
CENTER
 62
     7
370
    18
100
AcDbLine
 10
548.3938326365
 20
371.0762634056
 30
0.0
 11
488.2817083275
 21
371.0762634056
 31
0.0
  0
LINE
  5
71E
330
1F
100
AcDbEntity
  8
0
  6
Continuous
 62
     7
370
    25
100
AcDbLine
 10
503.3938317797
 20
179.2435198205
 30
0.0
 11
503.3938317797
 21
371.0762634056
 31
0.0
  0
LINE
  5
71F
330
1F
100
AcDbEntity
  8
0
  6
Continuous
 62
     7
370
    25
100
AcDbLine
 10
546.3938323086
 20
323.0215906279
 30
0.0
 11
546.3938323086
 21
371.0762634056
 31
0.0
  0
LINE
  5
720
330
1F
100
AcDbEntity
  8
0
  6
Continuous
 62
     7
370
    25
100
AcDbLine
 10
546.3938323086
 20
323.0215906279
 30
0.0
 11
543.3938336796
 21
323.0215906279
 31
0.0
  0
LINE
  5
721
330
1F
100
AcDbEntity
  8
0
  6
Continuous
 62
     7
370
    25
100
AcDbLine
 10
543.3938336796
 20
323.0215906279
 30
0.0
 11
543.3938336796
 21
354.0215938466
 31
0.0
  0
ARC
  5
722
330
1F
100
AcDbEntity
  8
0
  6
Continuous
 62
     7
370
    25
100
AcDbCircle
 10
531.3938326439
 20
354.021587782
 30
0.0
 40
12.00000103563224
100
AcDbArc
 50
0.0000289562
 51
179.9999710438
  0
LINE
  5
723
330
1F
100
AcDbEntity
  8
0
  6
Continuous
 62
     7
370
    25
100
AcDbLine
 10
519.3938316083
 20
354.0215938466
 30
0.0
 11
519.3938316083
 21
198.0215906279
 31
0.0
  0
ARC
  5
724
330
1F
100
AcDbEntity
  8
0
  6
Continuous
 62
     7
370
    25
100
AcDbCircle
 10
531.3938326439
 20
198.0215965381
 30
0.0
 40
12.00000103563216
100
AcDbArc
 50
180.0000282193
 51
359.9999717808
  0
LINE
  5
725
330
1F
100
AcDbEntity
  8
0
  6
Continuous
 62
     7
370
    25
100
AcDbLine
 10
543.3938336796
 20
198.0215906279
 30
0.0
 11
543.3938336796
 21
229.0215938466
 31
0.0
  0
LINE
  5
726
330
1F
100
AcDbEntity
  8
0
  6
Continuous
 62
     7
370
    25
100
AcDbLine
 10
543.3938336796
 20
229.0215938466
 30
0.0
 11
546.3938323086
 21
229.0215938466
 31
0.0
  0
LINE
  5
727
330
1F
100
AcDbEntity
  8
0
  6
Continuous
 62
     7
370
    25
100
AcDbLine
 10
546.3938323086
 20
179.2435198205
 30
0.0
 11
546.3938323086
 21
229.0215938466
 31
0.0
  0
LINE
  5
728
330
1F
100
AcDbEntity
  8
0
  6
Continuous
 62
     7
370
    25
100
AcDbLine
 10
548.3938326365
 20
371.0762634056
 30
0.0
 11
548.3938326365
 21
323.0215906279
 31
0.0
  0
LINE
  5
729
330
1F
100
AcDbEntity
  8
0
  6
Continuous
 62
     7
370
    25
100
AcDbLine
 10
548.3938326365
 20
323.0215906279
 30
0.0
 11
546.3938323086
 21
323.0215906279
 31
0.0
  0
LINE
  5
72A
330
1F
100
AcDbEntity
  8
0
  6
Continuous
 62
     7
370
    25
100
AcDbLine
 10
548.3938326365
 20
229.0215938466
 30
0.0
 11
548.3938326365
 21
179.2435198205
 31
0.0
  0
LINE
  5
72B
330
1F
100
AcDbEntity
  8
0
  6
Continuous
 62
     7
370
    25
100
AcDbLine
 10
546.3938323086
 20
229.0215938466
 30
0.0
 11
548.3938326365
 21
229.0215938466
 31
0.0
  0
LINE
  5
72C
330
1F
100
AcDbEntity
  8
0
  6
Continuous
 62
     7
370
    25
100
AcDbLine
 10
536.3938306695
 20
187.1128826516
 30
0.0
 11
536.3938306695
 21
364.9303018229
 31
0.0
  0
LINE
  5
72D
330
1F
100
AcDbEntity
  8
0
  6
Continuous
 62
     7
370
    25
100
AcDbLine
 10
548.3938326365
 20
229.0215938466
 30
0.0
 11
548.3938326365
 21
323.0215906279
 31
0.0
  0
DIMENSION
  5
72E
330
1F
100
AcDbEntity
  8
FORMAT
100
AcDbDimension
  2
_D_23
 10
560.3061609936
 20
229.0215922372
 30
0.0
 11
560.3061609936
 21
276.0215922372
 31
0.0
 70
   160
  1
<>
 71
     2
 42
-1.0
  3
SLDDIMSTYLE0
100
AcDbAlignedDimension
 13
548.3938318914
 23
323.0215922372
 33
0.0
 14
548.3938318914
 24
229.0215922372
 34
0.0
 50
90.0
100
AcDbRotatedDimension
  0
DIMENSION
  5
738
330
1F
100
AcDbEntity
  8
FORMAT
100
AcDbDimension
  2
_D_24
 10
567.8464178189
 20
186.0215922372
 30
0.0
 11
567.8464178189
 21
276.0215922372
 31
0.0
 70
   160
  1
<>
 71
     2
 42
-1.0
  3
SLDDIMSTYLE0
100
AcDbAlignedDimension
 13
531.3938318914
 23
366.0215922372
 33
0.0
 14
531.3938318914
 24
186.0215922372
 34
0.0
 50
90.0
100
AcDbRotatedDimension
  0
DIMENSION
  5
742
330
1F
100
AcDbEntity
  8
FORMAT
100
AcDbDimension
  2
_D_25
 10
531.3938318914
 20
198.0215922372
 30
0.0
 11
512.9507247227
 21
171.4757651432
 31
0.0
 70
   164
  1
<>
 71
     1
 42
-1.0
  3
SLDDIMSTYLE3
100
AcDbRadialDimension
 15
524.5469514162
 25
188.1666326859
 35
0.0
 40
0.0
  0
MTEXT
  5
749
330
1F
100
AcDbEntity
  8
FORMAT
100
AcDbMText
 10
508.4055755739
 20
282.1435386869
 30
0.0
 40
3.5
 41
0.0
 71
     1
 72
     1
  1
BBL
  7
SLDTEXTSTYLE0
 73
     1
 44
1.0
  0
INSERT
  5
74F
330
1F
100
AcDbEntity
  8
FORMAT
100
AcDbBlockReference
  2
SW_NOTE_0_8
 10
458.5609995278
 20
388.8293359872
 30
0.0
  0
LINE
  5
750
330
1F
100
AcDbEntity
  8
0
  6
CENTER
 62
     7
370
    18
100
AcDbLine
 10
555.1740685654
 20
276.0215922372
 30
0.0
 11
484.2531588886
 21
276.0215922372
 31
0.0
  0
LINE
  5
751
330
1F
100
AcDbEntity
  8
0
  6
Continuous
 62
     7
370
    18
100
AcDbLine
 10
553.1740685654
 20
288.7215922372
 30
0.0
 11
553.1740685654
 21
276.0215922372
 31
0.0
  0
SOLID
  5
752
330
1F
100
AcDbEntity
  8
0
  6
Continuous
 62
     7
370
    18
100
AcDbTrace
 10
553.1740685654
 20
276.0215922372
 30
0.0
 11
554.1900685654
 21
282.3715922372
 31
0.0
 12
552.1580685654
 22
282.3715922372
 32
0.0
 13
552.1580685654
 23
282.3715922372
 33
0.0
  0
LINE
  5
753
330
1F
100
AcDbEntity
  8
0
  6
Continuous
 62
     7
370
    18
100
AcDbLine
 10
486.2531588886
 20
288.7215922372
 30
0.0
 11
486.2531588886
 21
276.0215922372
 31
0.0
  0
SOLID
  5
754
330
1F
100
AcDbEntity
  8
0
  6
Continuous
 62
     7
370
    18
100
AcDbTrace
 10
486.2531588886
 20
276.0215922372
 30
0.0
 11
487.2691588886
 21
282.3715922372
 31
0.0
 12
485.2371588886
 22
282.3715922372
 32
0.0
 13
485.2371588886
 23
282.3715922372
 33
0.0
  0
LINE
  5
755
330
1F
100
AcDbEntity
  8
FORMAT
  6
CENTERX2
370
    18
100
AcDbLine
 10
531.3938317126
 20
182.7926262395
 30
0.0
 11
531.3938317126
 21
368.6293586271
 31
0.0
  0
LINE
  5
756
330
1F
100
AcDbEntity
  8
0
  6
CENTER
 62
     7
370
    18
100
AcDbLine
 10
548.3938320014
 20
163.8303299875
 30
0.0
 11
536.3938318971
 21
163.8303299875
 31
0.0
  0
LINE
  5
757
330
1F
100
AcDbEntity
  8
0
  6
Continuous
 62
     7
370
    25
100
AcDbLine
 10
548.3938320014
 20
155.2651155249
 30
0.0
 11
536.3938318971
 21
155.2651155249
 31
0.0
  0
LINE
  5
758
330
1F
100
AcDbEntity
  8
0
  6
Continuous
 62
     7
370
    25
100
AcDbLine
 10
536.3938318971
 20
163.8303299875
 30
0.0
 11
536.3938318971
 21
155.2651155249
 31
0.0
  0
LINE
  5
759
330
1F
100
AcDbEntity
  8
0
  6
Continuous
 62
     7
370
    25
100
AcDbLine
 10
548.3938320014
 20
155.2651155249
 30
0.0
 11
548.3938320014
 21
163.8303299875
 31
0.0
  0
LINE
  5
75A
330
1F
100
AcDbEntity
  8
0
  6
Continuous
 62
     7
370
    25
100
AcDbLine
 10
507.6438323069
 20
134.265115808
 30
0.0
 11
505.1438318971
 21
134.265115808
 31
0.0
  0
LINE
  5
75B
330
1F
100
AcDbEntity
  8
0
  6
Continuous
 62
     7
370
    25
100
AcDbLine
 10
505.1438318971
 20
134.265115808
 30
0.0
 11
505.1438318971
 21
149.265115531
 31
0.0
  0
LINE
  5
75C
330
1F
100
AcDbEntity
  8
0
  6
Continuous
 62
     7
370
    25
100
AcDbLine
 10
507.6438323069
 20
149.265115531
 30
0.0
 11
507.6438323069
 21
134.265115808
 31
0.0
  0
LINE
  5
75D
330
1F
100
AcDbEntity
  8
0
  6
Continuous
 62
     7
370
    25
100
AcDbLine
 10
507.6438323069
 20
149.265115531
 30
0.0
 11
505.1438318971
 21
149.265115531
 31
0.0
  0
LINE
  5
75E
330
1F
100
AcDbEntity
  8
0
  6
Continuous
 62
     7
370
    25
100
AcDbLine
 10
506.3938325676
 20
133.5140395419
 30
0.0
 11
505.1438318971
 21
134.265115808
 31
0.0
  0
LINE
  5
75F
330
1F
100
AcDbEntity
  8
0
  6
Continuous
 62
     7
370
    25
100
AcDbLine
 10
507.6438323069
 20
134.265115808
 30
0.0
 11
506.3938325676
 21
133.5140395419
 31
0.0
  0
LINE
  5
760
330
1F
100
AcDbEntity
  8
0
  6
Continuous
 62
     7
370
    25
100
AcDbLine
 10
503.3938320759
 20
131.2651153163
 30
0.0
 11
519.3938319045
 21
131.2651153163
 31
0.0
  0
LINE
  5
761
330
1F
100
AcDbEntity
  8
0
  6
Continuous
 62
     7
370
    25
100
AcDbLine
 10
503.3938320759
 20
126.2651163594
 30
0.0
 11
503.3938320759
 21
131.2651153163
 31
0.0
  0
LINE
  5
762
330
1F
100
AcDbEntity
  8
0
  6
Continuous
 62
     7
370
    25
100
AcDbLine
 10
497.3938310924
 20
126.2651163594
 30
0.0
 11
503.3938320759
 21
126.2651163594
 31
0.0
  0
LINE
  5
763
330
1F
100
AcDbEntity
  8
0
  6
Continuous
 62
     7
370
    25
100
AcDbLine
 10
497.3938310924
 20
122.2651157037
 30
0.0
 11
497.3938310924
 21
126.2651163594
 31
0.0
  0
LINE
  5
764
330
1F
100
AcDbEntity
  8
0
  6
Continuous
 62
     7
370
    25
100
AcDbLine
 10
503.3938320759
 20
122.2651157037
 30
0.0
 11
497.3938310924
 21
122.2651157037
 31
0.0
  0
LINE
  5
765
330
1F
100
AcDbEntity
  8
0
  6
Continuous
 62
     7
370
    25
100
AcDbLine
 10
503.3938320759
 20
118.2651150481
 30
0.0
 11
503.3938320759
 21
122.2651157037
 31
0.0
  0
LINE
  5
766
330
1F
100
AcDbEntity
  8
0
  6
Continuous
 62
     7
370
    25
100
AcDbLine
 10
488.2817076925
 20
118.2651150481
 30
0.0
 11
503.3938320759
 21
118.2651150481
 31
0.0
  0
LINE
  5
767
330
1F
100
AcDbEntity
  8
0
  6
Continuous
 62
     7
370
    25
100
AcDbLine
 10
488.2817076925
 20
118.2651150481
 30
0.0
 11
488.2817076925
 21
149.265115531
 31
0.0
  0
LINE
  5
768
330
1F
100
AcDbEntity
  8
0
  6
Continuous
 62
     7
370
    25
100
AcDbLine
 10
519.3938319045
 20
131.2651153163
 30
0.0
 11
519.3938319045
 21
149.265115531
 31
0.0
  0
LINE
  5
769
330
1F
100
AcDbEntity
  8
0
  6
Continuous
 62
     7
370
    25
100
AcDbLine
 10
505.1438318971
 20
149.265115531
 30
0.0
 11
488.2817076925
 21
149.265115531
 31
0.0
  0
LINE
  5
76A
330
1F
100
AcDbEntity
  8
0
  6
Continuous
 62
     7
370
    25
100
AcDbLine
 10
519.3938319045
 20
149.265115531
 30
0.0
 11
507.6438323069
 21
149.265115531
 31
0.0
  0
LINE
  5
76B
330
1F
100
AcDbEntity
  8
0
  6
Continuous
 62
     7
370
    25
100
AcDbLine
 10
543.3938311818
 20
155.2651155249
 30
0.0
 11
543.3938311818
 21
131.2651153163
 31
0.0
  0
LINE
  5
76C
330
1F
100
AcDbEntity
  8
0
  6
Continuous
 62
     7
370
    25
100
AcDbLine
 10
546.3938316736
 20
131.2651153163
 30
0.0
 11
548.3938320014
 21
133.2651156441
 31
0.0
  0
LINE
  5
76D
330
1F
100
AcDbEntity
  8
0
  6
Continuous
 62
     7
370
    25
100
AcDbLine
 10
543.3938311818
 20
131.2651153163
 30
0.0
 11
546.3938316736
 21
131.2651153163
 31
0.0
  0
LINE
  5
76E
330
1F
100
AcDbEntity
  8
0
  6
Continuous
 62
     7
370
    25
100
AcDbLine
 10
548.3938320014
 20
155.2651155249
 30
0.0
 11
548.3938320014
 21
133.2651156441
 31
0.0
  0
LINE
  5
76F
330
1F
100
AcDbEntity
  8
0
  6
Continuous
 62
     7
370
    25
100
AcDbLine
 10
519.3938319045
 20
131.2651153163
 30
0.0
 11
543.3938311818
 21
131.2651153163
 31
0.0
  0
LINE
  5
770
330
1F
100
AcDbEntity
  8
0
  6
Continuous
 62
     7
370
    25
100
AcDbLine
 10
536.3938318971
 20
149.265115531
 30
0.0
 11
519.3938319045
 21
149.265115531
 31
0.0
  0
LINE
  5
771
330
1F
100
AcDbEntity
  8
0
  6
Continuous
 62
     7
370
    25
100
AcDbLine
 10
536.3938318971
 20
155.2651155249
 30
0.0
 11
536.3938318971
 21
149.265115531
 31
0.0
  0
INSERT
  5
78B
330
1F
100
AcDbEntity
  8
0
  6
Continuous
 62
     7
370
    18
100
AcDbBlockReference
  2
SW_HATCH_1
 10
492.7260088208
 20
149.265115531
 30
0.0
  0
DIMENSION
  5
78C
330
1F
100
AcDbEntity
  8
FORMAT
100
AcDbDimension
  2
_D_26
 10
558.3938318914
 20
131.2651155547
 30
0.0
 11
558.3938318914
 21
143.2651155547
 31
0.0
 70
   160
  1
<>
 71
     2
 42
-1.0
  3
SLDDIMSTYLE0
100
AcDbAlignedDimension
 13
548.3938318914
 23
155.2651155547
 33
0.0
 14
546.3938318914
 24
131.2651155547
 34
0.0
 50
90.0
100
AcDbRotatedDimension
  0
DIMENSION
  5
796
330
1F
100
AcDbEntity
  8
FORMAT
100
AcDbDimension
  2
_D_27
 10
548.3938318914
 20
114.4128848364
 30
0.0
 11
533.8938318914
 21
114.4128848364
 31
0.0
 70
   160
  1
<>
 71
     2
 42
-1.0
  3
SLDDIMSTYLE0
100
AcDbAlignedDimension
 13
519.3938318914
 23
131.2651155547
 33
0.0
 14
548.3938318914
 24
133.2651156441
 34
0.0
100
AcDbRotatedDimension
  0
DIMENSION
  5
7A0
330
1F
100
AcDbEntity
  8
FORMAT
100
AcDbDimension
  2
_D_28
 10
543.3938318914
 20
122.1694272083
 30
0.0
 11
531.3938318914
 21
122.1694272083
 31
0.0
 70
   160
  1
<>
 71
     2
 42
-1.0
  3
SLDDIMSTYLE0
100
AcDbAlignedDimension
 13
519.3938318914
 23
131.2651155547
 33
0.0
 14
543.3938318914
 24
131.2651155547
 34
0.0
100
AcDbRotatedDimension
  0
DIMENSION
  5
7AA
330
1F
100
AcDbEntity
  8
FORMAT
100
AcDbDimension
  2
_D_29
 10
478.2817083859
 20
149.2651155547
 30
0.0
 11
478.2817083859
 21
152.2651155547
 31
0.0
 70
   160
  1
<>
 71
     2
 42
-1.0
  3
SLDDIMSTYLE2
100
AcDbAlignedDimension
 13
536.3938318914
 23
155.2651155547
 33
0.0
 14
488.2817083859
 24
149.2651155547
 34
0.0
 50
90.0
100
AcDbRotatedDimension
  0
LINE
  5
7B6
330
1F
100
AcDbEntity
  8
FORMAT
  6
CENTERX2
370
    18
100
AcDbLine
 10
506.3938325676
 20
134.265115808
 30
0.0
 11
506.3938325676
 21
151.2651155677
 31
0.0
  0
LINE
  5
7B7
330
1F
100
AcDbEntity
  8
FORMAT
  6
CENTERX2
370
    18
100
AcDbLine
 10
506.3938325676
 20
134.265115808
 30
0.0
 11
506.3938325676
 21
131.514039214
 31
0.0
  0
LINE
  5
7B8
330
1F
100
AcDbEntity
  8
FORMAT
  6
CENTERX2
370
    18
100
AcDbLine
 10
531.3938320088
 20
157.2651153871
 30
0.0
 11
531.3938320088
 21
129.5185837404
 31
0.0
  0
LWPOLYLINE
  5
7B9
330
1F
100
AcDbEntity
  8
0
  6
CENTER
 62
     7
370
    18
100
AcDbPolyline
 90
       12
 70
   128
 43
0.0
 10
423.4533994742
 20
178.7182762401
 10
427.4534001299
 20
178.7182762401
 10
431.4534007855
 20
178.7182762401
 10
436.4533997424
 20
178.7182762401
 10
438.4534000702
 20
178.7182762401
 10
469.8454370074
 20
178.7182762401
 10
469.8454370074
 20
371.1870460885
 10
438.4534000702
 20
371.1870460885
 10
436.4533997424
 20
371.1870460885
 10
431.4534007855
 20
371.1870460885
 10
427.4534001299
 20
371.1870460885
 10
423.4533994742
 20
371.1870460885
  0
LINE
  5
7BA
330
1F
100
AcDbEntity
  8
0
  6
Continuous
 62
     7
370
    25
100
AcDbLine
 10
460.453399951
 20
229.0215938466
 30
0.0
 11
460.453399951
 21
323.0215906279
 31
0.0
  0
LINE
  5
7BB
330
1F
100
AcDbEntity
  8
0
  6
Continuous
 62
     7
370
    25
100
AcDbLine
 10
460.453399951
 20
323.0215906279
 30
0.0
 11
438.4534000702
 21
323.0215906279
 31
0.0
  0
LINE
  5
7BC
330
1F
100
AcDbEntity
  8
0
  6
Continuous
 62
     7
370
    25
100
AcDbLine
 10
438.4534000702
 20
371.1870460885
 30
0.0
 11
438.4534000702
 21
323.0215906279
 31
0.0
  0
LINE
  5
7BD
330
1F
100
AcDbEntity
  8
0
  6
Continuous
 62
     7
370
    25
100
AcDbLine
 10
438.4534000702
 20
229.0215938466
 30
0.0
 11
438.4534000702
 21
178.7182762401
 31
0.0
  0
LINE
  5
7BE
330
1F
100
AcDbEntity
  8
0
  6
Continuous
 62
     7
370
    25
100
AcDbLine
 10
460.453399951
 20
229.0215938466
 30
0.0
 11
438.4534000702
 21
229.0215938466
 31
0.0
  0
LINE
  5
7BF
330
1F
100
AcDbEntity
  8
0
  6
Continuous
 62
     7
370
    25
100
AcDbLine
 10
436.4533997424
 20
323.0215906279
 30
0.0
 11
436.4533997424
 21
371.1870460885
 31
0.0
  0
LINE
  5
7C0
330
1F
100
AcDbEntity
  8
0
  6
Continuous
 62
     7
370
    25
100
AcDbLine
 10
438.4534000702
 20
323.0215906279
 30
0.0
 11
436.4533997424
 21
323.0215906279
 31
0.0
  0
LINE
  5
7C1
330
1F
100
AcDbEntity
  8
0
  6
Continuous
 62
     7
370
    25
100
AcDbLine
 10
436.4533997424
 20
178.7182762401
 30
0.0
 11
436.4533997424
 21
229.0215938466
 31
0.0
  0
LINE
  5
7C2
330
1F
100
AcDbEntity
  8
0
  6
Continuous
 62
     7
370
    25
100
AcDbLine
 10
436.4533997424
 20
229.0215938466
 30
0.0
 11
438.4534000702
 21
229.0215938466
 31
0.0
  0
LINE
  5
7C3
330
1F
100
AcDbEntity
  8
0
  6
Continuous
 62
     7
370
    25
100
AcDbLine
 10
454.4533999571
 20
229.0215938466
 30
0.0
 11
454.4533999571
 21
323.0215906279
 31
0.0
  0
LINE
  5
7C4
330
1F
100
AcDbEntity
  8
0
  6
Continuous
 62
     7
370
    25
100
AcDbLine
 10
436.4533997424
 20
323.0215906279
 30
0.0
 11
436.4533997424
 21
229.0215938466
 31
0.0
  0
LINE
  5
7C5
330
1F
100
AcDbEntity
  8
0
  6
Continuous
 62
     7
370
    25
100
AcDbLine
 10
431.4534007855
 20
178.7182762401
 30
0.0
 11
431.4534007855
 21
371.1870460885
 31
0.0
  0
LINE
  5
7C6
330
1F
100
AcDbEntity
  8
0
  6
Continuous
 62
     7
370
    25
100
AcDbLine
 10
427.4534001299
 20
178.7182762401
 30
0.0
 11
427.4534001299
 21
371.1870460885
 31
0.0
  0
LINE
  5
7C7
330
1F
100
AcDbEntity
  8
0
  6
Continuous
 62
     7
370
    25
100
AcDbLine
 10
423.4533994742
 20
178.7182762401
 30
0.0
 11
423.4533994742
 21
371.1870460885
 31
0.0
  0
ARC
  5
7C8
330
1F
100
AcDbEntity
  8
FORMAT
370
    25
100
AcDbCircle
 10
455.4533999808
 20
318.0215922372
 30
0.0
 40
5.0
100
AcDbArc
 50
0.0
 51
79.4608162714
  0
ARC
  5
7C9
330
1F
100
AcDbEntity
  8
FORMAT
370
    25
100
AcDbCircle
 10
455.4533999808
 20
234.0215922372
 30
0.0
 40
5.000000000000032
100
AcDbArc
 50
270.0
 51
5.3145456699
  0
INSERT
  5
7D0
102
{ACAD_REACTORS
330
7D7
102
}
330
1F
100
AcDbEntity
  8
FORMAT
100
AcDbBlockReference
  2
SW_NOTE_0_9
 10
444.0919911984
 20
159.6127447261
 30
0.0
  0
LEADER
  5
7D7
330
1F
100
AcDbEntity
  8
FORMAT
100
AcDbLeader
  3
SLDDIMSTYLE4
 73
     2
 76
     3
 10
459.607516259
 20
229.9503553576
 30
0.0
 10
462.2107420448
 20
159.6127447261
 30
0.0
 10
444.0919911984
 20
159.6127447261
 30
0.0
340
7D0
  0
LINE
  5
7D8
330
1F
100
AcDbEntity
  8
FORMAT
  6
CENTERX2
370
    18
100
AcDbLine
 10
471.6869364776
 20
276.0215922372
 30
0.0
 11
420.4491987177
 21
276.0215922372
 31
0.0
  0
ENDSEC
  0
SECTION
  2
OBJECTS
  0
DICTIONARY
  5
C
330
0
100
AcDbDictionary
281
     1
  3
ACAD_GROUP
350
D
  3
ACAD_LAYOUT
350
1A
  3
ACAD_MLINESTYLE
350
17
  3
ACAD_PLOTSETTINGS
350
19
  3
ACAD_PLOTSTYLENAME
350
E
  3
ACAD_SCALELIST
350
47
  3
DWGPROPS
350
7D9
  0
DICTIONARY
  5
D
102
{ACAD_REACTORS
330
C
102
}
330
C
100
AcDbDictionary
281
     1
  0
DICTIONARY
  5
1A
102
{ACAD_REACTORS
330
C
102
}
330
C
100
AcDbDictionary
281
     1
  3
Layout1
350
1E
  3
Layout2
350
26
  3
Model
350
22
  0
DICTIONARY
  5
17
102
{ACAD_REACTORS
330
C
102
}
330
C
100
AcDbDictionary
281
     1
  3
Standard
350
18
  0
DICTIONARY
  5
19
102
{ACAD_REACTORS
330
C
102
}
330
C
100
AcDbDictionary
281
     1
  0
ACDBDICTIONARYWDFLT
  5
E
102
{ACAD_REACTORS
330
C
102
}
330
C
100
AcDbDictionary
281
     1
  3
Normal
350
F
100
AcDbDictionaryWithDefault
340
F
  0
DICTIONARY
  5
47
102
{ACAD_REACTORS
330
C
102
}
330
C
100
AcDbDictionary
281
     1
  3
A0
350
48
  3
A1
350
49
  3
A2
350
4A
  3
A3
350
4B
  3
A4
350
4C
  3
A5
350
4D
  3
A6
350
4E
  3
A7
350
4F
  3
A8
350
50
  3
A9
350
51
  3
B0
350
52
  3
B1
350
53
  3
B2
350
54
  3
B3
350
55
  3
B4
350
56
  3
B5
350
57
  3
B6
350
58
  3
B7
350
59
  3
B8
350
5A
  3
B9
350
5B
  3
C0
350
5C
  3
C1
350
5D
  3
C2
350
5E
  3
C3
350
5F
  3
C4
350
60
  3
C5
350
61
  3
C6
350
62
  3
C7
350
63
  3
C8
350
64
  3
C9
350
65
  3
D0
350
66
  3
D1
350
67
  3
D2
350
68
  0
XRECORD
  5
7D9
102
{ACAD_REACTORS
330
C
102
}
330
C
100
AcDbXrecord
280
     1
  1
DWGPROPS COOKIE
  2

  3

  4

  6

  7

  8
pieper
  9

300
=
301
=
302
=
303
=
304
=
305
=
306
=
307
=
308
=
309
=
 40
0.0
 41
2459551.415149699
 42
2459551.415154653
  1

 90
        0
  0
LAYOUT
  5
1E
102
{ACAD_REACTORS
330
1A
102
}
330
1A
100
AcDbPlotSettings
  1

  2
none_device
  4

  6

 40
0.0
 41
0.0
 42
0.0
 43
0.0
 44
0.0
 45
0.0
 46
0.0
 47
0.0
 48
0.0
 49
0.0
140
0.0
141
0.0
142
1.0
143
1.0
 70
   688
 72
     1
 73
     0
 74
     5
  7

 75
    16
147
1.0
148
0.0
149
0.0
100
AcDbLayout
  1
Layout1
 70
     1
 71
     1
 10
0.0
 20
0.0
 11
420.0
 21
297.0
 12
0.0
 22
0.0
 32
0.0
 14
1.0000000000E+20
 24
1.0000000000E+20
 34
1.0000000000E+20
 15
-1.0000000000E+20
 25
-1.0000000000E+20
 35
-1.0000000000E+20
146
0.0
 13
0.0
 23
0.0
 33
0.0
 16
1.0
 26
0.0
 36
0.0
 17
0.0
 27
1.0
 37
0.0
 76
     0
330
1B
  0
LAYOUT
  5
26
102
{ACAD_REACTORS
330
1A
102
}
330
1A
100
AcDbPlotSettings
  1

  2
none_device
  4

  6

 40
0.0
 41
0.0
 42
0.0
 43
0.0
 44
0.0
 45
0.0
 46
0.0
 47
0.0
 48
0.0
 49
0.0
140
0.0
141
0.0
142
1.0
143
1.0
 70
   688
 72
     1
 73
     0
 74
     5
  7

 75
    16
147
1.0
148
0.0
149
0.0
100
AcDbLayout
  1
Layout2
 70
     1
 71
     2
 10
0.0
 20
0.0
 11
0.0
 21
0.0
 12
0.0
 22
0.0
 32
0.0
 14
0.0
 24
0.0
 34
0.0
 15
0.0
 25
0.0
 35
0.0
146
0.0
 13
0.0
 23
0.0
 33
0.0
 16
1.0
 26
0.0
 36
0.0
 17
0.0
 27
1.0
 37
0.0
 76
     0
330
23
  0
LAYOUT
  5
22
102
{ACAD_REACTORS
330
1A
102
}
330
1A
100
AcDbPlotSettings
  1

  2
none_device
  4
Letter_(8.50_x_11.00_Inches)
  6

 40
6.35
 41
6.35
 42
6.35000508
 43
6.35000508
 44
215.9
 45
279.4
 46
0.0
 47
0.0
 48
0.0
 49
0.0
140
0.0
141
0.0
142
1.0
143
1.0
 70
  1712
 72
     1
 73
     0
 74
     0
  7

 75
     0
147
1.0
148
0.0
149
0.0
100
AcDbLayout
  1
Model
 70
     1
 71
     0
 10
0.0
 20
0.0
 11
594.0
 21
420.0
 12
0.0
 22
0.0
 32
0.0
 14
0.0
 24
0.0
 34
0.0
 15
594.0
 25
420.0
 35
0.0
146
0.0
 13
0.0
 23
0.0
 33
0.0
 16
1.0
 26
0.0
 36
0.0
 17
0.0
 27
1.0
 37
0.0
 76
     0
330
1F
331
29
  0
MLINESTYLE
  5
18
102
{ACAD_REACTORS
330
17
102
}
330
17
100
AcDbMlineStyle
  2
Standard
 70
     0
  3

 62
   256
 51
90.0
 52
90.0
 71
     2
 49
0.5
 62
   256
  6
BYLAYER
 49
-0.5
 62
   256
  6
BYLAYER
  0
ACDBPLACEHOLDER
  5
F
102
{ACAD_REACTORS
330
E
102
}
330
E
  0
SCALE
  5
48
102
{ACAD_REACTORS
330
47
102
}
330
47
100
AcDbScale
 70
     0
300
1:1
140
1.0
141
1.0
290
     1
  0
SCALE
  5
49
102
{ACAD_REACTORS
330
47
102
}
330
47
100
AcDbScale
 70
     0
300
1:2
140
1.0
141
2.0
290
     0
  0
SCALE
  5
4A
102
{ACAD_REACTORS
330
47
102
}
330
47
100
AcDbScale
 70
     0
300
1:4
140
1.0
141
4.0
290
     0
  0
SCALE
  5
4B
102
{ACAD_REACTORS
330
47
102
}
330
47
100
AcDbScale
 70
     0
300
1:5
140
1.0
141
5.0
290
     0
  0
SCALE
  5
4C
102
{ACAD_REACTORS
330
47
102
}
330
47
100
AcDbScale
 70
     0
300
1:8
140
1.0
141
8.0
290
     0
  0
SCALE
  5
4D
102
{ACAD_REACTORS
330
47
102
}
330
47
100
AcDbScale
 70
     0
300
1:10
140
1.0
141
10.0
290
     0
  0
SCALE
  5
4E
102
{ACAD_REACTORS
330
47
102
}
330
47
100
AcDbScale
 70
     0
300
1:16
140
1.0
141
16.0
290
     0
  0
SCALE
  5
4F
102
{ACAD_REACTORS
330
47
102
}
330
47
100
AcDbScale
 70
     0
300
1:20
140
1.0
141
20.0
290
     0
  0
SCALE
  5
50
102
{ACAD_REACTORS
330
47
102
}
330
47
100
AcDbScale
 70
     0
300
1:30
140
1.0
141
30.0
290
     0
  0
SCALE
  5
51
102
{ACAD_REACTORS
330
47
102
}
330
47
100
AcDbScale
 70
     0
300
1:40
140
1.0
141
40.0
290
     0
  0
SCALE
  5
52
102
{ACAD_REACTORS
330
47
102
}
330
47
100
AcDbScale
 70
     0
300
1:50
140
1.0
141
50.0
290
     0
  0
SCALE
  5
53
102
{ACAD_REACTORS
330
47
102
}
330
47
100
AcDbScale
 70
     0
300
1:100
140
1.0
141
100.0
290
     0
  0
SCALE
  5
54
102
{ACAD_REACTORS
330
47
102
}
330
47
100
AcDbScale
 70
     0
300
2:1
140
2.0
141
1.0
290
     0
  0
SCALE
  5
55
102
{ACAD_REACTORS
330
47
102
}
330
47
100
AcDbScale
 70
     0
300
4:1
140
4.0
141
1.0
290
     0
  0
SCALE
  5
56
102
{ACAD_REACTORS
330
47
102
}
330
47
100
AcDbScale
 70
     0
300
8:1
140
8.0
141
1.0
290
     0
  0
SCALE
  5
57
102
{ACAD_REACTORS
330
47
102
}
330
47
100
AcDbScale
 70
     0
300
10:1
140
10.0
141
1.0
290
     0
  0
SCALE
  5
58
102
{ACAD_REACTORS
330
47
102
}
330
47
100
AcDbScale
 70
     0
300
100:1
140
100.0
141
1.0
290
     0
  0
SCALE
  5
59
102
{ACAD_REACTORS
330
47
102
}
330
47
100
AcDbScale
 70
     0
300
1/128" = 1'-0"
140
0.0078125
141
12.0
290
     0
  0
SCALE
  5
5A
102
{ACAD_REACTORS
330
47
102
}
330
47
100
AcDbScale
 70
     0
300
1/64" = 1'-0"
140
0.015625
141
12.0
290
     0
  0
SCALE
  5
5B
102
{ACAD_REACTORS
330
47
102
}
330
47
100
AcDbScale
 70
     0
300
1/32" = 1'-0"
140
0.03125
141
12.0
290
     0
  0
SCALE
  5
5C
102
{ACAD_REACTORS
330
47
102
}
330
47
100
AcDbScale
 70
     0
300
1/16" = 1'-0"
140
0.0625
141
12.0
290
     0
  0
SCALE
  5
5D
102
{ACAD_REACTORS
330
47
102
}
330
47
100
AcDbScale
 70
     0
300
3/32" = 1'-0"
140
0.09375
141
12.0
290
     0
  0
SCALE
  5
5E
102
{ACAD_REACTORS
330
47
102
}
330
47
100
AcDbScale
 70
     0
300
1/8" = 1'-0"
140
0.125
141
12.0
290
     0
  0
SCALE
  5
5F
102
{ACAD_REACTORS
330
47
102
}
330
47
100
AcDbScale
 70
     0
300
3/16" = 1'-0"
140
0.1875
141
12.0
290
     0
  0
SCALE
  5
60
102
{ACAD_REACTORS
330
47
102
}
330
47
100
AcDbScale
 70
     0
300
1/4" = 1'-0"
140
0.25
141
12.0
290
     0
  0
SCALE
  5
61
102
{ACAD_REACTORS
330
47
102
}
330
47
100
AcDbScale
 70
     0
300
3/8" = 1'-0"
140
0.375
141
12.0
290
     0
  0
SCALE
  5
62
102
{ACAD_REACTORS
330
47
102
}
330
47
100
AcDbScale
 70
     0
300
1/2" = 1'-0"
140
0.5
141
12.0
290
     0
  0
SCALE
  5
63
102
{ACAD_REACTORS
330
47
102
}
330
47
100
AcDbScale
 70
     0
300
3/4" = 1'-0"
140
0.75
141
12.0
290
     0
  0
SCALE
  5
64
102
{ACAD_REACTORS
330
47
102
}
330
47
100
AcDbScale
 70
     0
300
1" = 1'-0"
140
1.0
141
12.0
290
     0
  0
SCALE
  5
65
102
{ACAD_REACTORS
330
47
102
}
330
47
100
AcDbScale
 70
     0
300
1-1/2" = 1'-0"
140
1.5
141
12.0
290
     0
  0
SCALE
  5
66
102
{ACAD_REACTORS
330
47
102
}
330
47
100
AcDbScale
 70
     0
300
3" = 1'-0"
140
3.0
141
12.0
290
     0
  0
SCALE
  5
67
102
{ACAD_REACTORS
330
47
102
}
330
47
100
AcDbScale
 70
     0
300
6" = 1'-0"
140
6.0
141
12.0
290
     0
  0
SCALE
  5
68
102
{ACAD_REACTORS
330
47
102
}
330
47
100
AcDbScale
 70
     0
300
1'-0" = 1'-0"
140
12.0
141
12.0
290
     0
  0
ENDSEC
  0
EOF
