  0
SECTION
  2
HEADER
  9
$ACADVER
  1
AC1015
  9
$ACADMAINTVER
 70
     6
  9
$DWGCODEPAGE
  3
ANSI_1252
  9
$INSBASE
 10
0.0
 20
0.0
 30
0.0
  9
$EXTMIN
 10
0.0
 20
0.0
 30
0.0
  9
$EXTMAX
 10
594.0
 20
420.0
 30
0.0
  9
$LIMMIN
 10
0.0
 20
0.0
  9
$LIMMAX
 10
594.0
 20
420.0
  9
$ORTHOMODE
 70
     0
  9
$REGENMODE
 70
     1
  9
$FILLMODE
 70
     1
  9
$QTEXTMODE
 70
     0
  9
$MIRRTEXT
 70
     1
  9
$LTSCALE
 40
1.0
  9
$ATTMODE
 70
     1
  9
$TEXTSIZE
 40
3.5
  9
$TRACEWID
 40
1.0
  9
$TEXTSTYLE
  7
STANDARD
  9
$CLAYER
  8
0
  9
$CELTYPE
  6
ByLayer
  9
$CECOLOR
 62
   256
  9
$CELTSCALE
 40
1.0
  9
$DISPSILH
 70
     0
  9
$DIMSCALE
 40
1.0
  9
$DIMASZ
 40
3.302
  9
$DIMEXO
 40
1.0
  9
$DIMDLI
 40
3.75
  9
$DIMRND
 40
0.0
  9
$DIMDLE
 40
0.0
  9
$DIMEXE
 40
1.0
  9
$DIMTP
 40
0.0
  9
$DIMTM
 40
0.0
  9
$DIMTXT
 40
3.5
  9
$DIMCEN
 40
2.5
  9
$DIMTSZ
 40
0.0
  9
$DIMTOL
 70
     0
  9
$DIMLIM
 70
     0
  9
$DIMTIH
 70
     1
  9
$DIMTOH
 70
     1
  9
$DIMSE1
 70
     0
  9
$DIMSE2
 70
     0
  9
$DIMTAD
 70
     1
  9
$DIMZIN
 70
     0
  9
$DIMBLK
  1

  9
$DIMASO
 70
     1
  9
$DIMSHO
 70
     1
  9
$DIMPOST
  1

  9
$DIMAPOST
  1

  9
$DIMALT
 70
     0
  9
$DIMALTD
 70
     3
  9
$DIMALTF
 40
0.0393700787
  9
$DIMLFAC
 40
1.0
  9
$DIMTOFL
 70
     1
  9
$DIMTVP
 40
0.0
  9
$DIMTIX
 70
     0
  9
$DIMSOXD
 70
     0
  9
$DIMSAH
 70
     0
  9
$DIMBLK1
  1

  9
$DIMBLK2
  1

  9
$DIMSTYLE
  2
ISO-25
  9
$DIMCLRD
 70
     0
  9
$DIMCLRE
 70
     0
  9
$DIMCLRT
 70
     0
  9
$DIMTFAC
 40
1.0
  9
$DIMGAP
 40
3.0
  9
$DIMJUST
 70
     0
  9
$DIMSD1
 70
     0
  9
$DIMSD2
 70
     0
  9
$DIMTOLJ
 70
     0
  9
$DIMTZIN
 70
     0
  9
$DIMALTZ
 70
     0
  9
$DIMALTTZ
 70
     0
  9
$DIMUPT
 70
     0
  9
$DIMDEC
 70
     2
  9
$DIMTDEC
 70
     2
  9
$DIMALTU
 70
     2
  9
$DIMALTTD
 70
     3
  9
$DIMTXSTY
  7
STANDARD
  9
$DIMAUNIT
 70
     0
  9
$DIMADEC
 70
     2
  9
$DIMALTRND
 40
0.0
  9
$DIMAZIN
 70
     0
  9
$DIMDSEP
 70
    44
  9
$DIMATFIT
 70
     3
  9
$DIMFRAC
 70
     0
  9
$DIMLDRBLK
  1

  9
$DIMLUNIT
 70
     2
  9
$DIMLWD
 70
    -2
  9
$DIMLWE
 70
    -2
  9
$DIMTMOVE
 70
     0
  9
$LUNITS
 70
     2
  9
$LUPREC
 70
     2
  9
$SKETCHINC
 40
1.0
  9
$FILLETRAD
 40
10.0
  9
$AUNITS
 70
     0
  9
$AUPREC
 70
     2
  9
$MENU
  1
.
  9
$ELEVATION
 40
0.0
  9
$PELEVATION
 40
0.0
  9
$THICKNESS
 40
0.0
  9
$LIMCHECK
 70
     0
  9
$CHAMFERA
 40
0.0
  9
$CHAMFERB
 40
0.0
  9
$CHAMFERC
 40
0.0
  9
$CHAMFERD
 40
0.0
  9
$SKPOLY
 70
     0
  9
$TDCREATE
 40
2459563.347706111
  9
$TDUCREATE
 40
2459563.306039445
  9
$TDUPDATE
 40
2459563.347709965
  9
$TDUUPDATE
 40
2459563.306043298
  9
$TDINDWG
 40
0.0000000116
  9
$TDUSRTIMER
 40
0.0000000116
  9
$USRTIMER
 70
     1
  9
$ANGBASE
 50
0.0
  9
$ANGDIR
 70
     0
  9
$PDMODE
 70
     0
  9
$PDSIZE
 40
-1.0
  9
$PLINEWID
 40
0.0
  9
$SPLFRAME
 70
     0
  9
$SPLINETYPE
 70
     6
  9
$SPLINESEGS
 70
     8
  9
$HANDSEED
  5
55C
  9
$SURFTAB1
 70
     6
  9
$SURFTAB2
 70
     6
  9
$SURFTYPE
 70
     6
  9
$SURFU
 70
     6
  9
$SURFV
 70
     6
  9
$UCSBASE
  2

  9
$UCSNAME
  2

  9
$UCSORG
 10
0.0
 20
0.0
 30
0.0
  9
$UCSXDIR
 10
1.0
 20
0.0
 30
0.0
  9
$UCSYDIR
 10
0.0
 20
1.0
 30
0.0
  9
$UCSORTHOREF
  2

  9
$UCSORTHOVIEW
 70
     0
  9
$UCSORGTOP
 10
0.0
 20
0.0
 30
0.0
  9
$UCSORGBOTTOM
 10
0.0
 20
0.0
 30
0.0
  9
$UCSORGLEFT
 10
0.0
 20
0.0
 30
0.0
  9
$UCSORGRIGHT
 10
0.0
 20
0.0
 30
0.0
  9
$UCSORGFRONT
 10
0.0
 20
0.0
 30
0.0
  9
$UCSORGBACK
 10
0.0
 20
0.0
 30
0.0
  9
$PUCSBASE
  2

  9
$PUCSNAME
  2

  9
$PUCSORG
 10
0.0
 20
0.0
 30
0.0
  9
$PUCSXDIR
 10
1.0
 20
0.0
 30
0.0
  9
$PUCSYDIR
 10
0.0
 20
1.0
 30
0.0
  9
$PUCSORTHOREF
  2

  9
$PUCSORTHOVIEW
 70
     0
  9
$PUCSORGTOP
 10
0.0
 20
0.0
 30
0.0
  9
$PUCSORGBOTTOM
 10
0.0
 20
0.0
 30
0.0
  9
$PUCSORGLEFT
 10
0.0
 20
0.0
 30
0.0
  9
$PUCSORGRIGHT
 10
0.0
 20
0.0
 30
0.0
  9
$PUCSORGFRONT
 10
0.0
 20
0.0
 30
0.0
  9
$PUCSORGBACK
 10
0.0
 20
0.0
 30
0.0
  9
$USERI1
 70
     0
  9
$USERI2
 70
     0
  9
$USERI3
 70
     0
  9
$USERI4
 70
     0
  9
$USERI5
 70
     0
  9
$USERR1
 40
0.0
  9
$USERR2
 40
0.0
  9
$USERR3
 40
0.0
  9
$USERR4
 40
0.0
  9
$USERR5
 40
0.0
  9
$WORLDVIEW
 70
     1
  9
$SHADEDGE
 70
     3
  9
$SHADEDIF
 70
    70
  9
$TILEMODE
 70
     1
  9
$MAXACTVP
 70
    64
  9
$PINSBASE
 10
0.0
 20
0.0
 30
0.0
  9
$PLIMCHECK
 70
     0
  9
$PEXTMIN
 10
1.0000000000E+20
 20
1.0000000000E+20
 30
1.0000000000E+20
  9
$PEXTMAX
 10
-1.0000000000E+20
 20
-1.0000000000E+20
 30
-1.0000000000E+20
  9
$PLIMMIN
 10
0.0
 20
0.0
  9
$PLIMMAX
 10
420.0
 20
297.0
  9
$UNITMODE
 70
     0
  9
$VISRETAIN
 70
     1
  9
$PLINEGEN
 70
     0
  9
$PSLTSCALE
 70
     1
  9
$TREEDEPTH
 70
  3020
  9
$CMLSTYLE
  2
Standard
  9
$CMLJUST
 70
     0
  9
$CMLSCALE
 40
20.0
  9
$PROXYGRAPHICS
 70
     1
  9
$MEASUREMENT
 70
     1
  9
$CELWEIGHT
370
    -1
  9
$ENDCAPS
280
     0
  9
$JOINSTYLE
280
     0
  9
$LWDISPLAY
290
     1
  9
$INSUNITS
 70
     4
  9
$HYPERLINKBASE
  1

  9
$STYLESHEET
  1

  9
$XEDIT
290
     1
  9
$CEPSNTYPE
380
     0
  9
$PSTYLEMODE
290
     1
  9
$FINGERPRINTGUID
  2
{7ec60942-c482-47b3-aa9a-4861366f1826}
  9
$VERSIONGUID
  2
{FAEB1C32-E019-11D5-929B-00C0DF256EC4}
  9
$EXTNAMES
290
     1
  9
$PSVPSCALE
 40
0.0
  9
$OLESTARTUP
290
     0
  0
ENDSEC
  0
SECTION
  2
CLASSES
  0
CLASS
  1
ACDBDICTIONARYWDFLT
  2
AcDbDictionaryWithDefault
  3
ObjectDBX Classes
 90
        0
280
     0
281
     0
  0
CLASS
  1
VISUALSTYLE
  2
AcDbVisualStyle
  3
ObjectDBX Classes
 90
     4095
280
     0
281
     0
  0
CLASS
  1
MATERIAL
  2
AcDbMaterial
  3
ObjectDBX Classes
 90
     1153
280
     0
281
     0
  0
CLASS
  1
SCALE
  2
AcDbScale
  3
ObjectDBX Classes
 90
     1153
280
     0
281
     0
  0
CLASS
  1
TABLESTYLE
  2
AcDbTableStyle
  3
ObjectDBX Classes
 90
     4095
280
     0
281
     0
  0
CLASS
  1
MLEADERSTYLE
  2
AcDbMLeaderStyle
  3
ACDB_MLEADERSTYLE_CLASS
 90
     4095
280
     0
281
     0
  0
CLASS
  1
SUN
  2
AcDbSun
  3
SCENEOE
 90
     1153
280
     0
281
     0
  0
CLASS
  1
ACDBPLACEHOLDER
  2
AcDbPlaceHolder
  3
ObjectDBX Classes
 90
        0
280
     0
281
     0
  0
CLASS
  1
LAYOUT
  2
AcDbLayout
  3
ObjectDBX Classes
 90
        0
280
     0
281
     0
  0
ENDSEC
  0
SECTION
  2
TABLES
  0
TABLE
  2
VPORT
  5
8
330
0
100
AcDbSymbolTable
 70
     1
  0
VPORT
  5
29
330
8
100
AcDbSymbolTableRecord
100
AcDbViewportTableRecord
  2
*Active
 70
     0
 10
0.0
 20
0.0
 11
1.0
 21
1.0
 12
297.0
 22
210.0
 13
0.0
 23
0.0
 14
10.0
 24
10.0
 15
10.0
 25
10.0
 16
0.0
 26
0.0
 36
1.0
 17
0.0
 27
0.0
 37
0.0
 40
420.0
 41
1.4142857143
 42
50.0
 43
0.0
 44
0.0
 50
0.0
 51
0.0
 71
     0
 72
  2000
 73
     1
 74
     3
 75
     0
 76
     0
 77
     0
 78
     0
281
     0
 65
     1
110
0.0
120
0.0
130
0.0
111
1.0
121
0.0
131
0.0
112
0.0
122
1.0
132
0.0
 79
     0
146
0.0
  0
ENDTAB
  0
TABLE
  2
LTYPE
  5
5
330
0
100
AcDbSymbolTable
 70
     6
  0
LTYPE
  5
14
330
5
100
AcDbSymbolTableRecord
100
AcDbLinetypeTableRecord
  2
ByBlock
 70
     0
  3

 72
    65
 73
     0
 40
0.0
  0
LTYPE
  5
15
330
5
100
AcDbSymbolTableRecord
100
AcDbLinetypeTableRecord
  2
ByLayer
 70
     0
  3

 72
    65
 73
     0
 40
0.0
  0
LTYPE
  5
16
330
5
100
AcDbSymbolTableRecord
100
AcDbLinetypeTableRecord
  2
Continuous
 70
     0
  3
Solid line
 72
    65
 73
     0
 40
0.0
  0
LTYPE
  5
6E
330
5
100
AcDbSymbolTableRecord
100
AcDbLinetypeTableRecord
  2
HIDDEN
 70
     0
  3
Hidden __ __ __ __ __ __ __ __ __ __ __ __ __ __
 72
    65
 73
     2
 40
1.905
 49
1.27
 74
     0
 49
-0.635
 74
     0
  0
LTYPE
  5
6F
330
5
100
AcDbSymbolTableRecord
100
AcDbLinetypeTableRecord
  2
PHANTOM
 70
     0
  3
Phantom ______  __  __  ______  __  __  ______
 72
    65
 73
     6
 40
12.7
 49
6.35
 74
     0
 49
-1.27
 74
     0
 49
1.27
 74
     0
 49
-1.27
 74
     0
 49
1.27
 74
     0
 49
-1.27
 74
     0
  0
LTYPE
  5
70
330
5
100
AcDbSymbolTableRecord
100
AcDbLinetypeTableRecord
  2
CENTER
 70
     0
  3
Center ____ _ ____ _ ____ _ ____ _ ____ _ ____
 72
    65
 73
     4
 40
10.16
 49
6.35
 74
     0
 49
-1.27
 74
     0
 49
1.27
 74
     0
 49
-1.27
 74
     0
  0
LTYPE
  5
71
330
5
100
AcDbSymbolTableRecord
100
AcDbLinetypeTableRecord
  2
CENTERX2
 70
     0
  3
Center (2x) ________  __  ________  __  _____
 72
    65
 73
     4
 40
20.32
 49
12.7
 74
     0
 49
-2.54
 74
     0
 49
2.54
 74
     0
 49
-2.54
 74
     0
  0
LTYPE
  5
72
330
5
100
AcDbSymbolTableRecord
100
AcDbLinetypeTableRecord
  2
DOT2
 70
     0
  3
Dot (.5x) ........................................
 72
    65
 73
     2
 40
0.635
 49
0.0
 74
     0
 49
-0.635
 74
     0
  0
ENDTAB
  0
TABLE
  2
LAYER
  5
2
330
0
100
AcDbSymbolTable
 70
     7
  0
LAYER
  5
10
330
2
100
AcDbSymbolTableRecord
100
AcDbLayerTableRecord
  2
0
 70
     0
 62
     7
  6
Continuous
370
    -3
390
F
  0
LAYER
  5
73
330
2
100
AcDbSymbolTableRecord
100
AcDbLayerTableRecord
  2
FORMAT
 70
     0
 62
     7
  6
Continuous
370
    -3
390
F
  0
LAYER
  5
74
330
2
100
AcDbSymbolTableRecord
100
AcDbLayerTableRecord
  2
VORLAGE
 70
     0
 62
     7
  6
Continuous
370
    -3
390
F
  0
LAYER
  5
75
330
2
100
AcDbSymbolTableRecord
100
AcDbLayerTableRecord
  2
1
 70
     0
 62
   179
  6
Continuous
370
    -3
390
F
  0
LAYER
  5
76
330
2
100
AcDbSymbolTableRecord
100
AcDbLayerTableRecord
  2
LAYER0
 70
     0
 62
     7
  6
Continuous
370
    -3
390
F
  0
LAYER
  5
77
330
2
100
AcDbSymbolTableRecord
100
AcDbLayerTableRecord
  2
BEMASSUNG
 70
     0
 62
     1
  6
Continuous
370
    -3
390
F
  0
LAYER
  5
78
330
2
100
AcDbSymbolTableRecord
100
AcDbLayerTableRecord
  2
ÄNDERUNG
 70
     0
 62
     1
  6
Continuous
370
    -3
390
F
  0
ENDTAB
  0
TABLE
  2
STYLE
  5
3
330
0
100
AcDbSymbolTable
 70
     5
  0
STYLE
  5
11
330
3
100
AcDbSymbolTableRecord
100
AcDbTextStyleTableRecord
  2
STANDARD
 70
     0
 40
0.0
 41
1.0
 50
0.0
 71
     0
 42
3.5
  3
ARIAL.TTF
  4

1001
ACAD
1000
ARIAL
1071
       34
  0
STYLE
  5
83
330
3
100
AcDbSymbolTableRecord
100
AcDbTextStyleTableRecord
  2
SLDTEXTSTYLE0
 70
     0
 40
0.0
 41
0.948
 50
0.0
 71
     0
 42
3.5
  3
ARIAL.TTF
  4

1001
ACAD
1000
Arial
1071
      290
  0
STYLE
  5
EE
330
3
100
AcDbSymbolTableRecord
100
AcDbTextStyleTableRecord
  2
SLDTEXTSTYLE1
 70
     0
 40
0.0
 41
1.0
 50
0.0
 71
     0
 42
3.5
  3
ARIALUNI.TTF
  4

1001
ACAD
1000
Arial Unicode MS
1071
 33554722
  0
STYLE
  5
F4
330
3
100
AcDbSymbolTableRecord
100
AcDbTextStyleTableRecord
  2
SLDTEXTSTYLE2
 70
     0
 40
0.0
 41
0.87
 50
0.0
 71
     0
 42
3.5
  3
ARIALN.TTF
  4

1001
ACAD
1000
Arial Narrow
1071
      290
  0
STYLE
  5
10A
330
3
100
AcDbSymbolTableRecord
100
AcDbTextStyleTableRecord
  2
SLDTEXTSTYLE3
 70
     0
 40
0.0
 41
0.948
 50
0.0
 71
     0
 42
3.5
  3
ARIALBD.TTF
  4

1001
ACAD
1000
Arial
1071
 33554722
  0
ENDTAB
  0
TABLE
  2
VIEW
  5
6
330
0
100
AcDbSymbolTable
 70
     0
  0
ENDTAB
  0
TABLE
  2
UCS
  5
7
330
0
100
AcDbSymbolTable
 70
     0
  0
ENDTAB
  0
TABLE
  2
APPID
  5
9
330
0
100
AcDbSymbolTable
 70
     1
  0
APPID
  5
12
330
9
100
AcDbSymbolTableRecord
100
AcDbRegAppTableRecord
  2
ACAD
 70
     0
  0
ENDTAB
  0
TABLE
  2
DIMSTYLE
  5
A
330
0
100
AcDbSymbolTable
 70
     7
100
AcDbDimStyleTable
  0
DIMSTYLE
105
27
330
A
100
AcDbSymbolTableRecord
100
AcDbDimStyleTableRecord
  2
ISO-25
 70
     0
 41
2.5
 42
0.625
 43
3.75
 44
1.25
 73
     0
 74
     0
 77
     1
 78
     8
140
2.5
141
2.5
143
0.0393700787
147
0.625
171
     3
172
     1
178
     0
271
     2
272
     2
274
     3
278
    44
283
     0
284
     8
340
11
  0
DIMSTYLE
105
1CD
102
{ACAD_REACTORS
330
1CC
330
273
330
27D
330
287
330
291
330
29B
330
398
330
3A2
330
3CB
330
3D5
330
3F8
330
402
330
40C
330
423
102
}
330
A
100
AcDbSymbolTableRecord
100
AcDbDimStyleTableRecord
  2
SLDDIMSTYLE0
 70
     0
 41
3.302
 44
0.0
 45
0.000000001
 73
     0
 74
     0
 77
     1
 78
    12
 79
     3
140
3.5
147
0.875
173
     1
178
     0
271
     2
272
     2
276
     2
284
    12
340
83
  0
DIMSTYLE
105
1D8
102
{ACAD_REACTORS
330
1D7
330
2A5
330
2BE
330
3DE
330
3EB
330
416
330
542
102
}
330
A
100
AcDbSymbolTableRecord
100
AcDbDimStyleTableRecord
  2
SLDDIMSTYLE1
 70
     0
 41
3.302
 44
0.0
 45
0.000000001
 73
     0
 74
     0
 77
     1
 78
    12
 79
     3
140
3.5
147
0.875
172
     1
173
     1
178
     0
271
     2
272
     2
276
     2
284
    12
289
     0
340
83
  0
DIMSTYLE
105
2B2
102
{ACAD_REACTORS
330
2B1
102
}
330
A
100
AcDbSymbolTableRecord
100
AcDbDimStyleTableRecord
  2
SLDDIMSTYLE2
 70
     0
 41
3.302
 44
0.0
 45
0.000000001
 73
     0
 74
     0
 77
     1
 78
    12
 79
     3
140
3.5
147
0.875
173
     1
178
     0
271
     0
272
     2
276
     2
284
    12
340
83
  0
DIMSTYLE
105
52C
102
{ACAD_REACTORS
330
52B
102
}
330
A
100
AcDbSymbolTableRecord
100
AcDbDimStyleTableRecord
  2
SLDDIMSTYLE3
 70
     0
 41
3.302
 44
0.0
 45
0.000000001
 73
     0
 74
     0
 77
     1
 78
    12
 79
     3
140
3.5
147
0.875
172
     1
173
     1
178
     0
271
     1
272
     1
276
     2
284
    12
289
     0
340
83
  0
DIMSTYLE
105
539
102
{ACAD_REACTORS
330
538
102
}
330
A
100
AcDbSymbolTableRecord
100
AcDbDimStyleTableRecord
  2
SLDDIMSTYLE4
 70
     0
 41
3.302
 44
0.0
 45
0.000000001
 73
     0
 74
     0
 77
     1
 78
    12
 79
     3
140
3.5
147
0.875
173
     1
178
     0
271
     1
272
     2
276
     2
284
    12
340
83
  0
DIMSTYLE
105
550
102
{ACAD_REACTORS
330
54F
102
}
330
A
100
AcDbSymbolTableRecord
100
AcDbDimStyleTableRecord
  2
SLDDIMSTYLE5
 70
     0
 41
3.302
 44
0.0
 73
     0
 74
     0
 77
     1
 78
    12
 79
     3
140
3.5
147
0.875
173
     1
178
     0
179
     2
272
     2
276
     2
284
    12
340
83
  0
ENDTAB
  0
TABLE
  2
BLOCK_RECORD
  5
1
330
0
100
AcDbSymbolTable
 70
    57
  0
BLOCK_RECORD
  5
1F
330
1
100
AcDbSymbolTableRecord
100
AcDbBlockTableRecord
  2
*Model_Space
340
22
  0
BLOCK_RECORD
  5
1B
330
1
100
AcDbSymbolTableRecord
100
AcDbBlockTableRecord
  2
*Paper_Space
340
1E
  0
BLOCK_RECORD
  5
23
330
1
100
AcDbSymbolTableRecord
100
AcDbBlockTableRecord
  2
*Paper_Space0
340
26
  0
BLOCK_RECORD
  5
79
330
1
100
AcDbSymbolTableRecord
100
AcDbBlockTableRecord
  2
Prüfmaß DE
340
0
  0
BLOCK_RECORD
  5
80
330
1
100
AcDbSymbolTableRecord
100
AcDbBlockTableRecord
  2
SW_NOTE_0
340
0
102
{BLKREFS
331
85
102
}
  0
BLOCK_RECORD
  5
86
330
1
100
AcDbSymbolTableRecord
100
AcDbBlockTableRecord
  2
Werkstückkanten DE
340
0
  0
BLOCK_RECORD
  5
9D
330
1
100
AcDbSymbolTableRecord
100
AcDbBlockTableRecord
  2
SW_NOTE_0_1
340
0
102
{BLKREFS
331
A2
102
}
  0
BLOCK_RECORD
  5
A5
330
1
100
AcDbSymbolTableRecord
100
AcDbBlockTableRecord
  2
Detailordner2
340
0
  0
BLOCK_RECORD
  5
A9
330
1
100
AcDbSymbolTableRecord
100
AcDbBlockTableRecord
  2
SW_NOTE_0_2
340
0
102
{BLKREFS
331
AD
102
}
  0
BLOCK_RECORD
  5
AE
330
1
100
AcDbSymbolTableRecord
100
AcDbBlockTableRecord
  2
Änderung a_
340
0
  0
BLOCK_RECORD
  5
B2
330
1
100
AcDbSymbolTableRecord
100
AcDbBlockTableRecord
  2
SW_NOTE_0_3
340
0
102
{BLKREFS
331
B6
102
}
  0
BLOCK_RECORD
  5
B7
330
1
100
AcDbSymbolTableRecord
100
AcDbBlockTableRecord
  2
Block1_4
340
0
102
{BLKREFS
331
108
102
}
  0
BLOCK_RECORD
  5
C5
330
1
100
AcDbSymbolTableRecord
100
AcDbBlockTableRecord
  2
SW_NOTE_0_4
340
0
102
{BLKREFS
331
CA
102
}
  0
BLOCK_RECORD
  5
CB
330
1
100
AcDbSymbolTableRecord
100
AcDbBlockTableRecord
  2
Block2_4
340
0
102
{BLKREFS
331
109
102
}
  0
BLOCK_RECORD
  5
EB
330
1
100
AcDbSymbolTableRecord
100
AcDbBlockTableRecord
  2
SW_NOTE_0_5
340
0
102
{BLKREFS
331
F0
102
}
  0
BLOCK_RECORD
  5
F1
330
1
100
AcDbSymbolTableRecord
100
AcDbBlockTableRecord
  2
SW_NOTE_0_6
340
0
102
{BLKREFS
331
F8
102
}
  0
BLOCK_RECORD
  5
11D
330
1
100
AcDbSymbolTableRecord
100
AcDbBlockTableRecord
  2
SW_NOTE_0_7
340
0
102
{BLKREFS
331
129
102
}
  0
BLOCK_RECORD
  5
1CE
330
1
100
AcDbSymbolTableRecord
100
AcDbBlockTableRecord
  2
_D
340
0
  0
BLOCK_RECORD
  5
1D9
330
1
100
AcDbSymbolTableRecord
100
AcDbBlockTableRecord
  2
_D_1
340
0
  0
BLOCK_RECORD
  5
274
330
1
100
AcDbSymbolTableRecord
100
AcDbBlockTableRecord
  2
_D_2
340
0
  0
BLOCK_RECORD
  5
27E
330
1
100
AcDbSymbolTableRecord
100
AcDbBlockTableRecord
  2
_D_3
340
0
  0
BLOCK_RECORD
  5
288
330
1
100
AcDbSymbolTableRecord
100
AcDbBlockTableRecord
  2
_D_4
340
0
  0
BLOCK_RECORD
  5
292
330
1
100
AcDbSymbolTableRecord
100
AcDbBlockTableRecord
  2
_D_5
340
0
  0
BLOCK_RECORD
  5
29C
330
1
100
AcDbSymbolTableRecord
100
AcDbBlockTableRecord
  2
_D_6
340
0
  0
BLOCK_RECORD
  5
2A6
330
1
100
AcDbSymbolTableRecord
100
AcDbBlockTableRecord
  2
_D_7
340
0
  0
BLOCK_RECORD
  5
2B3
330
1
100
AcDbSymbolTableRecord
100
AcDbBlockTableRecord
  2
_D_8
340
0
  0
BLOCK_RECORD
  5
2BF
330
1
100
AcDbSymbolTableRecord
100
AcDbBlockTableRecord
  2
_D_9
340
0
  0
BLOCK_RECORD
  5
2CB
330
1
100
AcDbSymbolTableRecord
100
AcDbBlockTableRecord
  2
SW_CENTERMARKSYMBOL_0
340
0
102
{BLKREFS
331
2D6
102
}
  0
BLOCK_RECORD
  5
2D7
330
1
100
AcDbSymbolTableRecord
100
AcDbBlockTableRecord
  2
SW_CENTERMARKSYMBOL_1
340
0
102
{BLKREFS
331
2E2
102
}
  0
BLOCK_RECORD
  5
2E3
330
1
100
AcDbSymbolTableRecord
100
AcDbBlockTableRecord
  2
SW_CENTERMARKSYMBOL_2
340
0
102
{BLKREFS
331
2EE
102
}
  0
BLOCK_RECORD
  5
2EF
330
1
100
AcDbSymbolTableRecord
100
AcDbBlockTableRecord
  2
SW_CENTERMARKSYMBOL_3
340
0
102
{BLKREFS
331
2FA
102
}
  0
BLOCK_RECORD
  5
2FB
330
1
100
AcDbSymbolTableRecord
100
AcDbBlockTableRecord
  2
SW_CENTERMARKSYMBOL_4
340
0
102
{BLKREFS
331
306
102
}
  0
BLOCK_RECORD
  5
307
330
1
100
AcDbSymbolTableRecord
100
AcDbBlockTableRecord
  2
SW_CENTERMARKSYMBOL_5
340
0
102
{BLKREFS
331
312
102
}
  0
BLOCK_RECORD
  5
313
330
1
100
AcDbSymbolTableRecord
100
AcDbBlockTableRecord
  2
SW_CENTERMARKSYMBOL_6
340
0
102
{BLKREFS
331
31E
102
}
  0
BLOCK_RECORD
  5
31F
330
1
100
AcDbSymbolTableRecord
100
AcDbBlockTableRecord
  2
SW_CENTERMARKSYMBOL_7
340
0
102
{BLKREFS
331
32A
102
}
  0
BLOCK_RECORD
  5
32B
330
1
100
AcDbSymbolTableRecord
100
AcDbBlockTableRecord
  2
SW_CENTERMARKSYMBOL_8
340
0
102
{BLKREFS
331
336
102
}
  0
BLOCK_RECORD
  5
399
330
1
100
AcDbSymbolTableRecord
100
AcDbBlockTableRecord
  2
_D_10
340
0
  0
BLOCK_RECORD
  5
3A3
330
1
100
AcDbSymbolTableRecord
100
AcDbBlockTableRecord
  2
_D_11
340
0
  0
BLOCK_RECORD
  5
3CC
330
1
100
AcDbSymbolTableRecord
100
AcDbBlockTableRecord
  2
_D_12
340
0
  0
BLOCK_RECORD
  5
3D6
330
1
100
AcDbSymbolTableRecord
100
AcDbBlockTableRecord
  2
_D_13
340
0
  0
BLOCK_RECORD
  5
3DF
330
1
100
AcDbSymbolTableRecord
100
AcDbBlockTableRecord
  2
_D_14
340
0
  0
BLOCK_RECORD
  5
3EC
330
1
100
AcDbSymbolTableRecord
100
AcDbBlockTableRecord
  2
_D_15
340
0
  0
BLOCK_RECORD
  5
3F9
330
1
100
AcDbSymbolTableRecord
100
AcDbBlockTableRecord
  2
_D_16
340
0
  0
BLOCK_RECORD
  5
403
330
1
100
AcDbSymbolTableRecord
100
AcDbBlockTableRecord
  2
_D_17
340
0
  0
BLOCK_RECORD
  5
40D
330
1
100
AcDbSymbolTableRecord
100
AcDbBlockTableRecord
  2
_D_18
340
0
  0
BLOCK_RECORD
  5
417
330
1
100
AcDbSymbolTableRecord
100
AcDbBlockTableRecord
  2
_D_19
340
0
  0
BLOCK_RECORD
  5
424
330
1
100
AcDbSymbolTableRecord
100
AcDbBlockTableRecord
  2
_D_20
340
0
  0
BLOCK_RECORD
  5
42E
330
1
100
AcDbSymbolTableRecord
100
AcDbBlockTableRecord
  2
SW_CENTERMARKSYMBOL_9
340
0
102
{BLKREFS
331
439
102
}
  0
BLOCK_RECORD
  5
43A
330
1
100
AcDbSymbolTableRecord
100
AcDbBlockTableRecord
  2
SW_CENTERMARKSYMBOL_10
340
0
102
{BLKREFS
331
445
102
}
  0
BLOCK_RECORD
  5
446
330
1
100
AcDbSymbolTableRecord
100
AcDbBlockTableRecord
  2
SW_CENTERMARKSYMBOL_11
340
0
102
{BLKREFS
331
451
102
}
  0
BLOCK_RECORD
  5
452
330
1
100
AcDbSymbolTableRecord
100
AcDbBlockTableRecord
  2
SW_CENTERMARKSYMBOL_12
340
0
102
{BLKREFS
331
45D
102
}
  0
BLOCK_RECORD
  5
45E
330
1
100
AcDbSymbolTableRecord
100
AcDbBlockTableRecord
  2
SW_CENTERMARKSYMBOL_13
340
0
102
{BLKREFS
331
469
102
}
  0
BLOCK_RECORD
  5
46A
330
1
100
AcDbSymbolTableRecord
100
AcDbBlockTableRecord
  2
SW_CENTERMARKSYMBOL_14
340
0
102
{BLKREFS
331
475
102
}
  0
BLOCK_RECORD
  5
476
330
1
100
AcDbSymbolTableRecord
100
AcDbBlockTableRecord
  2
SW_CENTERMARKSYMBOL_15
340
0
102
{BLKREFS
331
481
102
}
  0
BLOCK_RECORD
  5
4FB
330
1
100
AcDbSymbolTableRecord
100
AcDbBlockTableRecord
  2
SW_HATCH_0
340
0
102
{BLKREFS
331
52A
102
}
  0
BLOCK_RECORD
  5
52D
330
1
100
AcDbSymbolTableRecord
100
AcDbBlockTableRecord
  2
_D_21
340
0
  0
BLOCK_RECORD
  5
53A
330
1
100
AcDbSymbolTableRecord
100
AcDbBlockTableRecord
  2
_D_22
340
0
  0
BLOCK_RECORD
  5
543
330
1
100
AcDbSymbolTableRecord
100
AcDbBlockTableRecord
  2
_D_23
340
0
  0
BLOCK_RECORD
  5
551
330
1
100
AcDbSymbolTableRecord
100
AcDbBlockTableRecord
  2
_D_24
340
0
  0
ENDTAB
  0
ENDSEC
  0
SECTION
  2
BLOCKS
  0
BLOCK
  5
20
330
1F
100
AcDbEntity
  8
0
100
AcDbBlockBegin
  2
*Model_Space
 70
     0
 10
0.0
 20
0.0
 30
0.0
  3
*Model_Space
  1

  0
ENDBLK
  5
21
330
1F
100
AcDbEntity
  8
0
100
AcDbBlockEnd
  0
BLOCK
  5
1C
330
1B
100
AcDbEntity
 67
     1
  8
0
100
AcDbBlockBegin
  2
*Paper_Space
 70
     0
 10
0.0
 20
0.0
 30
0.0
  3
*Paper_Space
  1

  0
ENDBLK
  5
1D
330
1B
100
AcDbEntity
 67
     1
  8
0
100
AcDbBlockEnd
  0
BLOCK
  5
24
330
23
100
AcDbEntity
  8
0
100
AcDbBlockBegin
  2
*Paper_Space0
 70
     0
 10
0.0
 20
0.0
 30
0.0
  3
*Paper_Space0
  1

  0
ENDBLK
  5
25
330
23
100
AcDbEntity
  8
0
100
AcDbBlockEnd
  0
BLOCK
  5
7A
330
79
100
AcDbEntity
  8
0
100
AcDbBlockBegin
  2
Prüfmaß DE
 70
     0
 10
0.0
 20
0.0
 30
0.0
  3
Prüfmaß DE
  1

  0
ARC
  5
7C
330
79
100
AcDbEntity
  8
0
  6
Continuous
 62
     7
370
    18
100
AcDbCircle
 10
540.152787322
 20
157.1730042205
 30
0.0
 40
2.041521022103069
100
AcDbArc
 50
270.0
 51
90.0
  0
ARC
  5
7D
330
79
100
AcDbEntity
  8
0
  6
Continuous
 62
     7
370
    18
100
AcDbCircle
 10
533.7278363882
 20
157.1730042205
 30
0.0
 40
2.041521022103069
100
AcDbArc
 50
90.0
 51
270.0
  0
LINE
  5
7E
330
79
100
AcDbEntity
  8
0
  6
Continuous
 62
     7
370
    18
100
AcDbLine
 10
533.7278363882
 20
159.2145252426
 30
0.0
 11
540.152787322
 21
159.2145252426
 31
0.0
  0
LINE
  5
7F
330
79
100
AcDbEntity
  8
0
  6
Continuous
 62
     7
370
    18
100
AcDbLine
 10
540.152787322
 20
155.1314831984
 30
0.0
 11
533.7278363882
 21
155.1314831984
 31
0.0
  0
INSERT
  5
85
330
79
100
AcDbEntity
  8
0
  6
Continuous
 62
     7
370
     0
100
AcDbBlockReference
  2
SW_NOTE_0
 10
545.3826769281
 20
154.3828978528
 30
0.0
  0
ENDBLK
  5
7B
330
79
100
AcDbEntity
  8
0
100
AcDbBlockEnd
  0
BLOCK
  5
81
330
80
100
AcDbEntity
  8
0
100
AcDbBlockBegin
  2
SW_NOTE_0
 70
     0
 10
0.0
 20
0.0
 30
0.0
  3
SW_NOTE_0
  1

  0
MTEXT
  5
84
330
80
100
AcDbEntity
  8
0
  6
Continuous
 62
     0
370
     0
100
AcDbMText
 10
0.0
 20
4.5117370892
 30
0.0
 40
3.5
 41
0.0
 71
     1
 72
     1
  1
Prüfmaß
  7
SLDTEXTSTYLE0
 73
     1
 44
1.0
  0
ENDBLK
  5
82
330
80
100
AcDbEntity
  8
0
100
AcDbBlockEnd
  0
BLOCK
  5
87
330
86
100
AcDbEntity
  8
0
100
AcDbBlockBegin
  2
Werkstückkanten DE
 70
     2
 10
0.0
 20
0.0
 30
0.0
  3
Werkstückkanten DE
  1

  0
LINE
  5
89
330
86
100
AcDbEntity
  8
0
  6
Continuous
 62
     7
370
    18
100
AcDbLine
 10
27.0931409182
 20
7.7123106012
 30
0.0
 11
27.0931409182
 21
12.7123106012
 31
0.0
  0
LINE
  5
8A
330
86
100
AcDbEntity
  8
0
  6
Continuous
 62
     7
370
    18
100
AcDbLine
 10
26.0931409182
 20
6.7123106012
 30
0.0
 11
36.0931409182
 21
6.7123106012
 31
0.0
  0
LINE
  5
8B
330
86
100
AcDbEntity
  8
0
  6
Continuous
 62
     7
370
    18
100
AcDbLine
 10
26.0931409182
 20
6.7123106012
 30
0.0
 11
20.880830317
 21
1.5
 31
0.0
  0
LINE
  5
8C
330
86
100
AcDbEntity
  8
0
  6
Continuous
 62
     7
370
    18
100
AcDbLine
 10
20.880830317
 20
1.5
 30
0.0
 11
22.4158663354
 21
3.5004978875
 31
0.0
  0
LINE
  5
8D
330
86
100
AcDbEntity
  8
0
  6
Continuous
 62
     7
370
    18
100
AcDbLine
 10
22.4158663354
 20
3.5004978875
 30
0.0
 11
22.8813282044
 21
3.0350360185
 31
0.0
  0
LINE
  5
8E
330
86
100
AcDbEntity
  8
0
  6
Continuous
 62
     7
370
    18
100
AcDbLine
 10
22.8813282044
 20
3.0350360185
 30
0.0
 11
20.880830317
 21
1.5
 31
0.0
  0
LINE
  5
8F
330
86
100
AcDbEntity
  8
0
  6
Continuous
 62
     7
370
    35
100
AcDbLine
 10
20.880830317
 20
1.5
 30
0.0
 11
20.880830317
 21
7.5
 31
0.0
  0
LINE
  5
90
330
86
100
AcDbEntity
  8
0
  6
Continuous
 62
     7
370
    35
100
AcDbLine
 10
20.880830317
 20
1.5
 30
0.0
 11
26.880830317
 21
1.5
 31
0.0
  0
LINE
  5
91
330
86
100
AcDbEntity
  8
0
  6
Continuous
 62
     7
370
    35
100
AcDbLine
 10
34.0931409182
 20
3.0
 30
0.0
 11
40.0931409182
 21
3.0
 31
0.0
  0
LINE
  5
92
330
86
100
AcDbEntity
  8
0
  6
Continuous
 62
     7
370
    35
100
AcDbLine
 10
40.0931409182
 20
3.0
 30
0.0
 11
40.0931409182
 21
-3.0
 31
0.0
  0
LINE
  5
93
330
86
100
AcDbEntity
  8
0
  6
Continuous
 62
     7
370
    18
100
AcDbLine
 10
40.0931409182
 20
3.0
 30
0.0
 11
43.8054515194
 21
6.7123106012
 31
0.0
  0
LINE
  5
94
330
86
100
AcDbEntity
  8
0
  6
Continuous
 62
     7
370
    18
100
AcDbLine
 10
43.8054515194
 20
6.7123106012
 30
0.0
 11
53.8054515194
 21
6.7123106012
 31
0.0
  0
LINE
  5
95
330
86
100
AcDbEntity
  8
0
  6
Continuous
 62
     7
370
    18
100
AcDbLine
 10
27.0931409182
 20
7.7123106012
 30
0.0
 11
32.0931409182
 21
7.7123106012
 31
0.0
  0
LINE
  5
96
330
86
100
AcDbEntity
  8
0
  6
Continuous
 62
     7
370
    18
100
AcDbLine
 10
40.0931409182
 20
3.0
 30
0.0
 11
41.6281769367
 21
5.0004978875
 31
0.0
  0
LINE
  5
97
330
86
100
AcDbEntity
  8
0
  6
Continuous
 62
     7
370
    18
100
AcDbLine
 10
41.6281769367
 20
5.0004978875
 30
0.0
 11
42.0936388057
 21
4.5350360185
 31
0.0
  0
LINE
  5
98
330
86
100
AcDbEntity
  8
0
  6
Continuous
 62
     7
370
    18
100
AcDbLine
 10
42.0936388057
 20
4.5350360185
 30
0.0
 11
40.0931409182
 21
3.0
 31
0.0
  0
LINE
  5
99
330
86
100
AcDbEntity
  8
0
  6
Continuous
 62
     7
370
    18
100
AcDbLine
 10
44.8054515194
 20
12.7123106012
 30
0.0
 11
44.8054515194
 21
7.7123106012
 31
0.0
  0
LINE
  5
9A
330
86
100
AcDbEntity
  8
0
  6
Continuous
 62
     7
370
    18
100
AcDbLine
 10
44.8054515194
 20
7.7123106012
 30
0.0
 11
49.8054515194
 21
7.7123106012
 31
0.0
  0
HATCH
  5
9B
330
86
100
AcDbEntity
  8
0
  6
Continuous
 62
     7
100
AcDbHatch
 10
0.0
 20
0.0
 30
0.0
210
0.0
220
0.0
230
1.0
  2
SOLID
 70
     1
 71
     0
 91
        1
 92
        0
 93
        3
 72
     1
 10
20.88083031696525
 20
1.499999999999918
 11
22.41586633542109
 21
3.500497887476778
 72
     1
 10
22.41586633542109
 20
3.500497887476778
 11
22.88132820444211
 21
3.035036018455783
 72
     1
 10
22.88132820444211
 20
3.035036018455783
 11
20.88083031696525
 21
1.499999999999918
 97
        0
 75
     0
 76
     1
 98
        1
 10
0.0
 20
0.0
  0
HATCH
  5
9C
330
86
100
AcDbEntity
  8
0
  6
Continuous
 62
     7
100
AcDbHatch
 10
0.0
 20
0.0
 30
0.0
210
0.0
220
0.0
230
1.0
  2
SOLID
 70
     1
 71
     0
 91
        1
 92
        0
 93
        3
 72
     1
 10
42.0936388056714
 20
4.535036018455754
 11
40.09314091819458
 21
2.999999999999892
 72
     1
 10
40.09314091819458
 20
2.999999999999892
 11
41.6281769366504
 21
5.000497887476764
 72
     1
 10
41.6281769366504
 20
5.000497887476764
 11
42.0936388056714
 21
4.535036018455754
 97
        0
 75
     0
 76
     1
 98
        1
 10
0.0
 20
0.0
  0
INSERT
  5
A2
330
86
100
AcDbEntity
  8
0
  6
Continuous
 62
     7
370
    18
100
AcDbBlockReference
  2
SW_NOTE_0_1
 10
-16.5296667739
 20
8.0719974576
 30
0.0
  0
ATTDEF
  5
A3
330
86
100
AcDbEntity
  8
0
  6
Continuous
 62
     7
370
    18
100
AcDbText
 10
45.5382827001
 20
8.730024094
 30
0.0
 40
3.5
  1
-0,3
 41
0.948
  7
SLDTEXTSTYLE0
 11
45.5382827001
 21
7.6943422758
 31
0.0
100
AcDbAttributeDefinition
  3

  2
WERT_2
 70
     0
 74
     1
  0
ATTDEF
  5
A4
330
86
100
AcDbEntity
  8
0
  6
Continuous
 62
     7
370
    18
100
AcDbText
 10
27.3508161078
 20
8.7387064472
 30
0.0
 40
3.5
  1
+0,3
 41
0.948
  7
SLDTEXTSTYLE0
 11
27.3508161078
 21
7.703024629
 31
0.0
100
AcDbAttributeDefinition
  3

  2
WERT_1
 70
     0
 74
     1
  0
ENDBLK
  5
88
330
86
100
AcDbEntity
  8
0
100
AcDbBlockEnd
  0
BLOCK
  5
9E
330
9D
100
AcDbEntity
  8
0
100
AcDbBlockBegin
  2
SW_NOTE_0_1
 70
     0
 10
0.0
 20
0.0
 30
0.0
  3
SW_NOTE_0_1
  1

  0
MTEXT
  5
A0
330
9D
100
AcDbEntity
  8
0
  6
Continuous
 62
     0
370
    18
100
AcDbMText
 10
0.0
 20
4.5117370892
 30
0.0
 40
3.5
 41
0.0
 71
     1
 72
     1
  1
Werkstückkanten
  7
SLDTEXTSTYLE0
 73
     1
 44
1.0
  0
MTEXT
  5
A1
330
9D
100
AcDbEntity
  8
0
  6
Continuous
 62
     0
370
    18
100
AcDbMText
 10
0.0
 20
0.0006261389
 30
0.0
 40
3.5
 41
0.0
 71
     1
 72
     1
  1
DIN ISO 13715
  7
SLDTEXTSTYLE0
 73
     1
 44
1.0
  0
ENDBLK
  5
9F
330
9D
100
AcDbEntity
  8
0
100
AcDbBlockEnd
  0
BLOCK
  5
A6
330
A5
100
AcDbEntity
  8
0
100
AcDbBlockBegin
  2
Detailordner2
 70
     0
 10
0.0
 20
0.0
 30
0.0
  3
Detailordner2
  1

  0
CIRCLE
  5
A8
330
A5
100
AcDbEntity
  8
FORMAT
 62
     7
100
AcDbCircle
 10
1.1638359766
 20
1.1638359766
 30
0.0
 40
1.163835976649359
  0
INSERT
  5
AD
330
A5
100
AcDbEntity
  8
FORMAT
 62
     7
100
AcDbBlockReference
  2
SW_NOTE_0_2
 10
0.4980838732
 20
0.0632960535
 30
0.0
  0
ENDBLK
  5
A7
330
A5
100
AcDbEntity
  8
0
100
AcDbBlockEnd
  0
BLOCK
  5
AA
330
A9
100
AcDbEntity
  8
0
100
AcDbBlockBegin
  2
SW_NOTE_0_2
 70
     0
 10
0.0
 20
0.0
 30
0.0
  3
SW_NOTE_0_2
  1

  0
MTEXT
  5
AC
330
A9
100
AcDbEntity
  8
FORMAT
 62
     0
100
AcDbMText
 10
0.0
 20
2.2558685446
 30
0.0
 40
1.75
 41
0.0
 71
     1
 72
     1
  1
a
  7
SLDTEXTSTYLE0
 73
     1
 44
1.0
  0
ENDBLK
  5
AB
330
A9
100
AcDbEntity
  8
0
100
AcDbBlockEnd
  0
BLOCK
  5
AF
330
AE
100
AcDbEntity
  8
0
100
AcDbBlockBegin
  2
Änderung a_
 70
     0
 10
0.0
 20
0.0
 30
0.0
  3
Änderung a_
  1

  0
CIRCLE
  5
B1
330
AE
100
AcDbEntity
  8
FORMAT
 62
     7
100
AcDbCircle
 10
1.1638359766
 20
1.1638359766
 30
0.0
 40
1.163835976649359
  0
INSERT
  5
B6
330
AE
100
AcDbEntity
  8
FORMAT
 62
     7
100
AcDbBlockReference
  2
SW_NOTE_0_3
 10
0.4980838732
 20
0.0632960535
 30
0.0
  0
ENDBLK
  5
B0
330
AE
100
AcDbEntity
  8
0
100
AcDbBlockEnd
  0
BLOCK
  5
B3
330
B2
100
AcDbEntity
  8
0
100
AcDbBlockBegin
  2
SW_NOTE_0_3
 70
     0
 10
0.0
 20
0.0
 30
0.0
  3
SW_NOTE_0_3
  1

  0
MTEXT
  5
B5
330
B2
100
AcDbEntity
  8
FORMAT
 62
     0
100
AcDbMText
 10
0.0
 20
2.2558685446
 30
0.0
 40
1.75
 41
0.0
 71
     1
 72
     1
  1
a
  7
SLDTEXTSTYLE0
 73
     1
 44
1.0
  0
ENDBLK
  5
B4
330
B2
100
AcDbEntity
  8
0
100
AcDbBlockEnd
  0
BLOCK
  5
B8
330
B7
100
AcDbEntity
  8
0
100
AcDbBlockBegin
  2
Block1_4
 70
     0
 10
0.0
 20
0.0
 30
0.0
  3
Block1_4
  1

  0
CIRCLE
  5
BA
330
B7
100
AcDbEntity
  8
0
  6
Continuous
 62
     7
370
    18
100
AcDbCircle
 10
11.6137544821
 20
9.0896586992
 30
0.0
 40
1.255909011058753
  0
CIRCLE
  5
BB
330
B7
100
AcDbEntity
  8
0
  6
Continuous
 62
     7
370
    18
100
AcDbCircle
 10
11.6137544821
 20
9.0896586992
 30
0.0
 40
2.216014863655655
  0
LINE
  5
BC
330
B7
100
AcDbEntity
  8
0
  6
CENTERX2
 62
     7
370
    18
100
AcDbLine
 10
11.6137544821
 20
9.0896586992
 30
0.0
 11
7.8977396184
 21
9.0896586992
 31
0.0
  0
LINE
  5
BD
330
B7
100
AcDbEntity
  8
0
  6
Continuous
 62
     7
370
    18
100
AcDbLine
 10
8.165753588
 20
6.8736438356
 30
0.0
 11
8.165753588
 21
11.3071584591
 31
0.0
  0
LINE
  5
BE
330
B7
100
AcDbEntity
  8
0
  6
Continuous
 62
     7
370
    18
100
AcDbLine
 10
2.6797147895
 20
10.3455677103
 30
0.0
 11
2.6797147895
 21
7.8337496881
 31
0.0
  0
LINE
  5
BF
330
B7
100
AcDbEntity
  8
0
  6
Continuous
 62
     7
370
    18
100
AcDbLine
 10
2.6797147895
 20
7.8337496881
 30
0.0
 11
8.165753588
 21
6.8736438356
 31
0.0
  0
LINE
  5
C0
330
B7
100
AcDbEntity
  8
0
  6
CENTERX2
 62
     7
370
    18
100
AcDbLine
 10
9.665753588
 20
9.0896586992
 30
0.0
 11
1.1797147895
 21
9.0896586992
 31
0.0
  0
LINE
  5
C1
330
B7
100
AcDbEntity
  8
0
  6
Continuous
 62
     7
370
    18
100
AcDbLine
 10
8.165753588
 20
11.3071584591
 30
0.0
 11
2.6797147895
 21
10.3455677103
 31
0.0
  0
LINE
  5
C2
330
B7
100
AcDbEntity
  8
0
  6
CENTERX2
 62
     7
370
    18
100
AcDbLine
 10
11.6137544821
 20
9.0896586992
 30
0.0
 11
11.6137544821
 21
5.3736438356
 31
0.0
  0
LINE
  5
C3
330
B7
100
AcDbEntity
  8
0
  6
CENTERX2
 62
     7
370
    18
100
AcDbLine
 10
11.6137544821
 20
9.0896586992
 30
0.0
 11
11.6137544821
 21
12.8056735629
 31
0.0
  0
LINE
  5
C4
330
B7
100
AcDbEntity
  8
0
  6
CENTERX2
 62
     7
370
    18
100
AcDbLine
 10
11.6137544821
 20
9.0896586992
 30
0.0
 11
15.3297693458
 21
9.0896586992
 31
0.0
  0
INSERT
  5
CA
330
B7
100
AcDbEntity
  8
0
  6
Continuous
 62
     7
370
     0
100
AcDbBlockReference
  2
SW_NOTE_0_4
 10
2.1031832889
 20
2.3754472768
 30
0.0
  0
ENDBLK
  5
B9
330
B7
100
AcDbEntity
  8
0
100
AcDbBlockEnd
  0
BLOCK
  5
C6
330
C5
100
AcDbEntity
  8
0
100
AcDbBlockBegin
  2
SW_NOTE_0_4
 70
     0
 10
0.0
 20
0.0
 30
0.0
  3
SW_NOTE_0_4
  1

  0
MTEXT
  5
C8
330
C5
100
AcDbEntity
  8
0
  6
Continuous
 62
     0
370
     0
100
AcDbMText
 10
6.590625
 20
2.4492287056
 30
0.0
 40
1.9
 41
0.0
 71
     2
 72
     1
  1
DIN 6  T1 - 
  7
SLDTEXTSTYLE0
 73
     1
 44
1.0
  0
MTEXT
  5
C9
330
C5
100
AcDbEntity
  8
0
  6
Continuous
 62
     0
370
     0
100
AcDbMText
 10
6.6569262624
 20
0.0003397443
 30
0.0
 40
1.9
 41
0.0
 71
     2
 72
     1
  1
Proj.methode 1
  7
SLDTEXTSTYLE0
 73
     1
 44
1.0
  0
ENDBLK
  5
C7
330
C5
100
AcDbEntity
  8
0
100
AcDbBlockEnd
  0
BLOCK
  5
CC
330
CB
100
AcDbEntity
  8
0
100
AcDbBlockBegin
  2
Block2_4
 70
     0
 10
0.0
 20
0.0
 30
0.0
  3
Block2_4
  1

  0
ARC
  5
CE
330
CB
100
AcDbEntity
  8
FORMAT
100
AcDbCircle
 10
236.7496365382
 20
57.0990600997
 30
0.0
 40
3.75000000000001
100
AcDbArc
 50
93.8225537293
 51
266.1774462707
  0
ARC
  5
CF
330
CB
100
AcDbEntity
  8
FORMAT
100
AcDbCircle
 10
236.7496365382
 20
57.0990600997
 30
0.0
 40
3.000000000000012
100
AcDbArc
 50
94.7801918472
 51
265.2198081528
  0
ARC
  5
D0
330
CB
100
AcDbEntity
  8
FORMAT
100
AcDbCircle
 10
236.7496365382
 20
57.0990600997
 30
0.0
 40
3.75000000000001
100
AcDbArc
 50
273.8225537293
 51
86.1774462707
  0
ARC
  5
D1
330
CB
100
AcDbEntity
  8
FORMAT
100
AcDbCircle
 10
236.7496365382
 20
57.0990600997
 30
0.0
 40
3.000000000000012
100
AcDbArc
 50
274.7801918472
 51
85.2198081528
  0
ARC
  5
D2
330
CB
100
AcDbEntity
  8
FORMAT
100
AcDbCircle
 10
236.7496365382
 20
58.2320416436
 30
0.0
 40
0.8604027828068846
100
AcDbArc
 50
304.8395134495
 51
73.1084194601
  0
ARC
  5
D3
330
CB
100
AcDbEntity
  8
FORMAT
100
AcDbCircle
 10
236.7496365382
 20
58.2320416436
 30
0.0
 40
1.402314431660661
100
AcDbArc
 50
313.8988153445
 51
79.7306010333
  0
ARC
  5
D4
330
CB
100
AcDbEntity
  8
FORMAT
100
AcDbCircle
 10
236.7496365382
 20
55.4979572256
 30
0.0
 40
0.4915306686725103
100
AcDbArc
 50
300.5716370086
 51
0.0
  0
ARC
  5
D5
330
CB
100
AcDbEntity
  8
FORMAT
100
AcDbCircle
 10
236.7496365382
 20
58.2320416436
 30
0.0
 40
1.402314431660661
100
AcDbArc
 50
100.2693989667
 51
226.1011846555
  0
ARC
  5
D6
330
CB
100
AcDbEntity
  8
FORMAT
100
AcDbCircle
 10
236.7496365382
 20
55.4979572256
 30
0.0
 40
0.9723464985416115
100
AcDbArc
 50
180.0
 51
255.1013518888
  0
ARC
  5
D7
330
CB
100
AcDbEntity
  8
FORMAT
100
AcDbCircle
 10
236.7496365382
 20
55.4979572256
 30
0.0
 40
0.9723464985416115
100
AcDbArc
 50
284.8986481112
 51
0.0
  0
ARC
  5
D8
330
CB
100
AcDbEntity
  8
FORMAT
100
AcDbCircle
 10
236.7496365382
 20
55.4979572256
 30
0.0
 40
0.4915306686725099
100
AcDbArc
 50
180.0
 51
239.4283629914
  0
ARC
  5
D9
330
CB
100
AcDbEntity
  8
FORMAT
100
AcDbCircle
 10
236.7496365382
 20
58.2320416436
 30
0.0
 40
0.8604027828068846
100
AcDbArc
 50
106.8915805399
 51
235.1604865505
  0
LINE
  5
DA
330
CB
100
AcDbEntity
  8
FORMAT
100
AcDbLine
 10
232.5312401271
 20
52.8806636887
 30
0.0
 11
240.9680329492
 21
52.8806636887
 31
0.0
  0
LINE
  5
DB
330
CB
100
AcDbEntity
  8
FORMAT
100
AcDbLine
 10
232.5312401271
 20
61.3174565107
 30
0.0
 11
240.9680329492
 21
61.3174565107
 31
0.0
  0
LINE
  5
DC
330
CB
100
AcDbEntity
  8
FORMAT
100
AcDbLine
 10
232.5312401271
 20
61.3174565107
 30
0.0
 11
232.5312401271
 21
52.8806636887
 31
0.0
  0
LINE
  5
DD
330
CB
100
AcDbEntity
  8
FORMAT
100
AcDbLine
 10
240.9680329492
 20
61.3174565107
 30
0.0
 11
240.9680329492
 21
52.8806636887
 31
0.0
  0
LINE
  5
DE
330
CB
100
AcDbEntity
  8
FORMAT
100
AcDbLine
 10
236.4996365382
 20
60.8407174865
 30
0.0
 11
236.4996365382
 21
60.0886252855
 31
0.0
  0
LINE
  5
DF
330
CB
100
AcDbEntity
  8
FORMAT
100
AcDbLine
 10
236.9996365382
 20
60.8407174865
 30
0.0
 11
236.9996365382
 21
60.0886252855
 31
0.0
  0
LINE
  5
E0
330
CB
100
AcDbEntity
  8
FORMAT
100
AcDbLine
 10
236.4996365382
 20
54.1094949139
 30
0.0
 11
236.4996365382
 21
53.3574027129
 31
0.0
  0
LINE
  5
E1
330
CB
100
AcDbEntity
  8
FORMAT
100
AcDbLine
 10
236.9996365382
 20
54.1094949139
 30
0.0
 11
236.9996365382
 21
53.3574027129
 31
0.0
  0
LINE
  5
E2
330
CB
100
AcDbEntity
  8
FORMAT
100
AcDbLine
 10
236.9996365382
 20
59.6118915504
 30
0.0
 11
236.9996365382
 21
59.0553234597
 31
0.0
  0
LINE
  5
E3
330
CB
100
AcDbEntity
  8
FORMAT
100
AcDbLine
 10
236.4996365382
 20
59.6118915504
 30
0.0
 11
236.4996365382
 21
59.0553234597
 31
0.0
  0
LINE
  5
E4
330
CB
100
AcDbEntity
  8
FORMAT
100
AcDbLine
 10
235.7772900396
 20
55.4979572256
 30
0.0
 11
235.7772900396
 21
57.2215823164
 31
0.0
  0
LINE
  5
E5
330
CB
100
AcDbEntity
  8
FORMAT
100
AcDbLine
 10
237.7219830367
 20
55.4979572256
 30
0.0
 11
237.7219830367
 21
57.2215823164
 31
0.0
  0
LINE
  5
E6
330
CB
100
AcDbEntity
  8
FORMAT
100
AcDbLine
 10
237.2411672068
 20
55.4979572256
 30
0.0
 11
237.2411672068
 21
57.5258613901
 31
0.0
  0
LINE
  5
E7
330
CB
100
AcDbEntity
  8
FORMAT
100
AcDbLine
 10
236.2581058695
 20
55.4979572256
 30
0.0
 11
236.2581058695
 21
57.5258613901
 31
0.0
  0
LINE
  5
E8
330
CB
100
AcDbEntity
  8
FORMAT
100
AcDbLine
 10
236.4996365382
 20
55.0747523127
 30
0.0
 11
236.4996365382
 21
54.5582989296
 31
0.0
  0
LINE
  5
E9
330
CB
100
AcDbEntity
  8
FORMAT
100
AcDbLine
 10
236.9996365382
 20
55.0747523127
 30
0.0
 11
236.9996365382
 21
54.5582989296
 31
0.0
  0
HATCH
  5
EA
330
CB
100
AcDbEntity
  8
0
  6
Continuous
 62
     7
100
AcDbHatch
 10
0.0
 20
0.0
 30
0.0
210
0.0
220
0.0
230
1.0
  2
SOLID
 70
     1
 71
     0
 91
        5
 92
        0
 93
        4
 72
     1
 10
240.9680329492058
 20
61.31745651073599
 11
240.9680329492058
 21
52.88066368865002
 72
     1
 10
240.9680329492058
 20
52.88066368865002
 11
232.5312401271199
 21
52.88066368865002
 72
     1
 10
232.5312401271199
 20
52.88066368865002
 11
232.5312401271199
 21
61.31745651073599
 72
     1
 10
232.5312401271199
 20
61.31745651073599
 11
240.9680329492058
 21
61.31745651073599
 97
        0
 92
        0
 93
        4
 72
     2
 10
236.7496365381628
 20
57.09906009969301
 40
3.000000000000011
 50
94.78019184719915
 51
265.2198081528016
 73
     0
 72
     1
 10
236.4996365381628
 20
60.08862528546836
 11
236.4996365381628
 21
60.84071748646695
 72
     2
 10
236.7496365381628
 20
57.09906009969301
 40
3.750000000000007
 50
93.82255372927435
 51
266.1774462707265
 73
     1
 72
     1
 10
236.4996365381628
 20
53.35740271291905
 11
236.4996365381628
 21
54.10949491391764
 97
        0
 92
        0
 93
        8
 72
     1
 10
237.7219830367044
 20
55.49795722557887
 11
237.7219830367044
 21
57.22158231636488
 72
     2
 10
236.7496365381628
 20
58.23204164361047
 40
1.402314431660656
 50
313.8988153445118
 51
439.730601033339
 73
     1
 72
     1
 10
236.9996365381628
 20
59.61189155039155
 11
236.9996365381628
 21
59.05532345967459
 72
     2
 10
236.7496365381628
 20
58.23204164361047
 40
0.8604027828068782
 50
286.8915805399266
 51
415.1604865505413
 73
     0
 72
     1
 10
237.2411672068353
 20
57.52586139012261
 11
237.2411672068353
 21
55.49795722557887
 72
     2
 10
236.7496365381628
 20
55.49795722557887
 40
0.4915306686725041
 50
0.0
 51
59.42836299135124
 73
     0
 72
     1
 10
236.9996365381628
 20
55.07475231274628
 11
236.9996365381628
 21
54.55829892958712
 72
     2
 10
236.7496365381628
 20
55.49795722557887
 40
0.9723464985416097
 50
284.8986481111874
 51
360.0000000000008
 73
     1
 97
        0
 92
        0
 93
        8
 72
     2
 10
236.7496365381628
 20
55.49795722557887
 40
0.4915306686725041
 50
120.5716370086484
 51
180.0
 73
     0
 72
     1
 10
236.2581058694904
 20
55.49795722557887
 11
236.2581058694904
 21
57.52586139012261
 72
     2
 10
236.7496365381628
 20
58.23204164361047
 40
0.8604027828068782
 50
124.839513449458
 51
253.108419460075
 73
     0
 72
     1
 10
236.4996365381628
 20
59.05532345967459
 11
236.4996365381628
 21
59.61189155039155
 72
     2
 10
236.7496365381628
 20
58.23204164361047
 40
1.402314431660656
 50
100.2693989666618
 51
226.1011846554898
 73
     1
 72
     1
 10
235.7772900396212
 20
57.22158231636488
 11
235.7772900396212
 21
55.49795722557887
 72
     2
 10
236.7496365381628
 20
55.49795722557887
 40
0.9723464985416097
 50
180.0
 51
255.1013518888143
 73
     1
 72
     1
 10
236.4996365381628
 20
54.55829892958712
 11
236.4996365381628
 21
55.07475231274628
 97
        0
 92
        0
 93
        4
 72
     2
 10
236.7496365381628
 20
57.09906009969301
 40
3.000000000000011
 50
274.7801918471999
 51
445.2198081528016
 73
     0
 72
     1
 10
236.9996365381628
 20
54.10949491391764
 11
236.9996365381628
 21
53.35740271291905
 72
     2
 10
236.7496365381628
 20
57.09906009969301
 40
3.750000000000007
 50
273.8225537292751
 51
446.1774462707265
 73
     1
 72
     1
 10
236.9996365381628
 20
60.84071748646695
 11
236.9996365381628
 21
60.08862528546836
 97
        0
 75
     0
 76
     1
 98
        1
 10
0.0
 20
0.0
  0
INSERT
  5
F0
330
CB
100
AcDbEntity
  8
FORMAT
 62
     7
100
AcDbBlockReference
  2
SW_NOTE_0_5
 10
232.2514665163
 20
47.7232938825
 30
0.0
  0
INSERT
  5
F8
330
CB
100
AcDbEntity
  8
0
  6
Continuous
 62
     7
370
     0
100
AcDbBlockReference
  2
SW_NOTE_0_6
 10
244.0723034979
 20
57.1176018272
 30
0.0
  0
ENDBLK
  5
CD
330
CB
100
AcDbEntity
  8
0
100
AcDbBlockEnd
  0
BLOCK
  5
EC
330
EB
100
AcDbEntity
  8
0
100
AcDbBlockBegin
  2
SW_NOTE_0_5
 70
     0
 10
0.0
 20
0.0
 30
0.0
  3
SW_NOTE_0_5
  1

  0
MTEXT
  5
EF
330
EB
100
AcDbEntity
  8
FORMAT
 62
     0
100
AcDbMText
 10
0.0
 20
3.8651911469
 30
0.0
 40
3.0
 41
0.0
 71
     1
 72
     1
  1
ECO
  7
SLDTEXTSTYLE1
 73
     1
 44
1.0
  0
ENDBLK
  5
ED
330
EB
100
AcDbEntity
  8
0
100
AcDbBlockEnd
  0
BLOCK
  5
F2
330
F1
100
AcDbEntity
  8
0
100
AcDbBlockBegin
  2
SW_NOTE_0_6
 70
     0
 10
0.0
 20
0.0
 30
0.0
  3
SW_NOTE_0_6
  1

  0
MTEXT
  5
F5
330
F1
100
AcDbEntity
  8
0
  6
Continuous
 62
     0
370
     0
100
AcDbMText
 10
0.0
 20
3.2226693494
 30
0.0
 40
2.5
 41
0.0
 71
     1
 72
     1
  1
ECO Schulte GmbH & Co. KG
  7
SLDTEXTSTYLE2
 73
     1
 44
1.0
  0
MTEXT
  5
F6
330
F1
100
AcDbEntity
  8
0
  6
Continuous
 62
     0
370
     0
100
AcDbMText
 10
0.0
 20
-0.2773307586
 30
0.0
 40
2.5
 41
0.0
 71
     1
 72
     1
  1
Postfach 206
  7
SLDTEXTSTYLE2
 73
     1
 44
1.0
  0
MTEXT
  5
F7
330
F1
100
AcDbEntity
  8
0
  6
Continuous
 62
     0
370
     0
100
AcDbMText
 10
0.0
 20
-3.7773308666
 30
0.0
 40
2.5
 41
0.0
 71
     1
 72
     1
  1
58682 Menden
  7
SLDTEXTSTYLE2
 73
     1
 44
1.0
  0
ENDBLK
  5
F3
330
F1
100
AcDbEntity
  8
0
100
AcDbBlockEnd
  0
BLOCK
  5
11E
330
11D
100
AcDbEntity
  8
0
100
AcDbBlockBegin
  2
SW_NOTE_0_7
 70
     0
 10
0.0
 20
0.0
 30
0.0
  3
SW_NOTE_0_7
  1

  0
MTEXT
  5
120
330
11D
100
AcDbEntity
  8
FORMAT
 62
     0
100
AcDbMText
 10
0.0
 20
2.5781354795
 30
0.0
 40
2.0
 41
0.0
 71
     1
 72
     1
  1
Technische Änderungen und Irrtümer vorbehalten. Aus dem Gebrauch der 
  7
SLDTEXTSTYLE0
 73
     1
 44
1.0
  0
MTEXT
  5
121
330
11D
100
AcDbEntity
  8
FORMAT
 62
     0
100
AcDbMText
 10
0.0
 20
-0.4218645465
 30
0.0
 40
2.0
 41
0.0
 71
     1
 72
     1
  1
Zeichnung können keinerlei Ansprüche (inkl. Schadenersatzansprüche) erhoben und 
  7
SLDTEXTSTYLE0
 73
     1
 44
1.0
  0
MTEXT
  5
122
330
11D
100
AcDbEntity
  8
FORMAT
 62
     0
100
AcDbMText
 10
0.0
 20
-3.4218645726
 30
0.0
 40
2.0
 41
0.0
 71
     1
 72
     1
  1
gegen ECO Schulte geltend gemacht werden. Die Zeichnung bleibt unser Eigentum. 
  7
SLDTEXTSTYLE0
 73
     1
 44
1.0
  0
MTEXT
  5
123
330
11D
100
AcDbEntity
  8
FORMAT
 62
     0
100
AcDbMText
 10
0.0
 20
-6.4218645987
 30
0.0
 40
2.0
 41
0.0
 71
     1
 72
     1
  1
Sämtliche sich aus der Zeichnung ergebenden Ansprüche stehen ausschließlich 
  7
SLDTEXTSTYLE0
 73
     1
 44
1.0
  0
MTEXT
  5
124
330
11D
100
AcDbEntity
  8
FORMAT
 62
     0
100
AcDbMText
 10
0.0
 20
-9.4218646248
 30
0.0
 40
2.0
 41
0.0
 71
     1
 72
     1
  1
ECO Schulte zu. 
  7
SLDTEXTSTYLE0
 73
     1
 44
1.0
  0
MTEXT
  5
125
330
11D
100
AcDbEntity
  8
FORMAT
 62
     0
100
AcDbMText
 10
0.0
 20
-15.4218646769
 30
0.0
 40
2.0
 41
0.0
 71
     1
 72
     1
  1
Technical changes and errors excepted. No claims (including compensation claims) 
  7
SLDTEXTSTYLE0
 73
     1
 44
1.0
  0
MTEXT
  5
126
330
11D
100
AcDbEntity
  8
FORMAT
 62
     0
100
AcDbMText
 10
0.0
 20
-18.421864703
 30
0.0
 40
2.0
 41
0.0
 71
     1
 72
     1
  1
may be raised against ECO Schulte by using of this drawing. The drawing remains 
  7
SLDTEXTSTYLE0
 73
     1
 44
1.0
  0
MTEXT
  5
127
330
11D
100
AcDbEntity
  8
FORMAT
 62
     0
100
AcDbMText
 10
0.0
 20
-21.4218647291
 30
0.0
 40
2.0
 41
0.0
 71
     1
 72
     1
  1
the property of ECO Schulte. All claims resulting from this drawing are solely entitled 
  7
SLDTEXTSTYLE0
 73
     1
 44
1.0
  0
MTEXT
  5
128
330
11D
100
AcDbEntity
  8
FORMAT
 62
     0
100
AcDbMText
 10
0.0
 20
-24.4218647551
 30
0.0
 40
2.0
 41
0.0
 71
     1
 72
     1
  1
to ECO Schulte.
  7
SLDTEXTSTYLE0
 73
     1
 44
1.0
  0
ENDBLK
  5
11F
330
11D
100
AcDbEntity
  8
0
100
AcDbBlockEnd
  0
BLOCK
  5
1CF
330
1CE
100
AcDbEntity
  8
0
100
AcDbBlockBegin
  2
_D
 70
     0
 10
0.0
 20
0.0
 30
0.0
  3
_D
  1

  0
SOLID
  5
1D1
330
1CE
100
AcDbEntity
  8
FORMAT
100
AcDbTrace
 10
123.1074650618
 20
377.6533071323
 30
0.0
 11
126.4094650618
 21
377.1453071323
 31
0.0
 12
126.4094650618
 22
378.1613071323
 32
0.0
 13
126.4094650618
 23
378.1613071323
 33
0.0
  0
SOLID
  5
1D2
330
1CE
100
AcDbEntity
  8
FORMAT
100
AcDbTrace
 10
144.1074650618
 20
377.6533071323
 30
0.0
 11
140.8054650618
 21
378.1613071323
 31
0.0
 12
140.8054650618
 22
377.1453071323
 32
0.0
 13
140.8054650618
 23
377.1453071323
 33
0.0
  0
LINE
  5
1D3
330
1CE
100
AcDbEntity
  8
FORMAT
100
AcDbLine
 10
123.1074650618
 20
342.2576498799
 30
0.0
 11
123.1074650618
 21
378.6533071323
 31
0.0
  0
LINE
  5
1D4
330
1CE
100
AcDbEntity
  8
FORMAT
100
AcDbLine
 10
144.1074650618
 20
370.7576498799
 30
0.0
 11
144.1074650618
 21
378.6533071323
 31
0.0
  0
LINE
  5
1D5
330
1CE
100
AcDbEntity
  8
FORMAT
100
AcDbLine
 10
123.1074650618
 20
377.6533071323
 30
0.0
 11
144.1074650618
 21
377.6533071323
 31
0.0
  0
MTEXT
  5
1D6
330
1CE
100
AcDbEntity
  8
FORMAT
100
AcDbMText
 10
130.9338540169
 20
382.1650444544
 30
0.0
 40
3.5
 41
0.0
 71
     1
 72
     1
  1
21
  7
SLDTEXTSTYLE0
 73
     1
 44
1.0
  0
ENDBLK
  5
1D0
330
1CE
100
AcDbEntity
  8
0
100
AcDbBlockEnd
  0
BLOCK
  5
1DA
330
1D9
100
AcDbEntity
  8
0
100
AcDbBlockBegin
  2
_D_1
 70
     0
 10
0.0
 20
0.0
 30
0.0
  3
_D_1
  1

  0
SOLID
  5
1DC
330
1D9
100
AcDbEntity
  8
FORMAT
100
AcDbTrace
 10
141.1074650618
 20
179.7576498799
 30
0.0
 11
137.8054650618
 21
180.2656498799
 31
0.0
 12
137.8054650618
 22
179.2496498799
 32
0.0
 13
137.8054650618
 23
179.2496498799
 33
0.0
  0
SOLID
  5
1DD
330
1D9
100
AcDbEntity
  8
FORMAT
100
AcDbTrace
 10
144.1074650618
 20
179.7576498799
 30
0.0
 11
147.4094650618
 21
179.2496498799
 31
0.0
 12
147.4094650618
 22
180.2656498799
 32
0.0
 13
147.4094650618
 23
180.2656498799
 33
0.0
  0
LINE
  5
1DE
330
1D9
100
AcDbEntity
  8
FORMAT
100
AcDbLine
 10
141.1074650618
 20
188.7576498799
 30
0.0
 11
141.1074650618
 21
178.7576498799
 31
0.0
  0
LINE
  5
1DF
330
1D9
100
AcDbEntity
  8
FORMAT
100
AcDbLine
 10
144.1074650618
 20
188.7576498799
 30
0.0
 11
144.1074650618
 21
178.7576498799
 31
0.0
  0
LINE
  5
1E0
330
1D9
100
AcDbEntity
  8
FORMAT
100
AcDbLine
 10
141.1074650618
 20
179.7576498799
 30
0.0
 11
134.7574650618
 21
179.7576498799
 31
0.0
  0
LINE
  5
1E1
330
1D9
100
AcDbEntity
  8
FORMAT
100
AcDbLine
 10
141.1074650618
 20
179.7576498799
 30
0.0
 11
144.1074650618
 21
179.7576498799
 31
0.0
  0
LINE
  5
1E2
330
1D9
100
AcDbEntity
  8
FORMAT
100
AcDbLine
 10
144.1074650618
 20
179.7576498799
 30
0.0
 11
154.4678816291
 21
179.7576498799
 31
0.0
  0
MTEXT
  5
1E3
330
1D9
100
AcDbEntity
  8
FORMAT
100
AcDbMText
 10
151.7942705842
 20
184.2693872019
 30
0.0
 40
3.5
 41
0.0
 71
     1
 72
     1
  1
3
  7
SLDTEXTSTYLE0
 73
     1
 44
1.0
  0
ENDBLK
  5
1DB
330
1D9
100
AcDbEntity
  8
0
100
AcDbBlockEnd
  0
BLOCK
  5
275
330
274
100
AcDbEntity
  8
0
100
AcDbBlockBegin
  2
_D_2
 70
     0
 10
0.0
 20
0.0
 30
0.0
  3
_D_2
  1

  0
SOLID
  5
277
330
274
100
AcDbEntity
  8
FORMAT
100
AcDbTrace
 10
47.6905462187
 20
307.7576498799
 30
0.0
 11
47.1825462187
 21
304.4556498799
 31
0.0
 12
48.1985462187
 22
304.4556498799
 32
0.0
 13
48.1985462187
 23
304.4556498799
 33
0.0
  0
SOLID
  5
278
330
274
100
AcDbEntity
  8
FORMAT
100
AcDbTrace
 10
47.6905462187
 20
279.7576498799
 30
0.0
 11
48.1985462187
 21
283.0596498799
 31
0.0
 12
47.1825462187
 22
283.0596498799
 32
0.0
 13
47.1825462187
 23
283.0596498799
 33
0.0
  0
LINE
  5
279
330
274
100
AcDbEntity
  8
FORMAT
100
AcDbLine
 10
64.5838950524
 20
307.7576498799
 30
0.0
 11
46.6905462187
 21
307.7576498799
 31
0.0
  0
LINE
  5
27A
330
274
100
AcDbEntity
  8
FORMAT
100
AcDbLine
 10
52.2125142816
 20
279.7576498799
 30
0.0
 11
46.6905462187
 21
279.7576498799
 31
0.0
  0
LINE
  5
27B
330
274
100
AcDbEntity
  8
FORMAT
100
AcDbLine
 10
47.6905462187
 20
307.7576498799
 30
0.0
 11
47.6905462187
 21
279.7576498799
 31
0.0
  0
MTEXT
  5
27C
330
274
100
AcDbEntity
  8
FORMAT
100
AcDbMText
 10
43.1788088966
 20
291.084038835
 30
0.0
 40
3.5
 41
0.0
 71
     1
 72
     1
  1
28
  7
SLDTEXTSTYLE0
 11
-7.044195017643634E-15
 21
1.0
 31
0.0
 73
     1
 44
1.0
  0
ENDBLK
  5
276
330
274
100
AcDbEntity
  8
0
100
AcDbBlockEnd
  0
BLOCK
  5
27F
330
27E
100
AcDbEntity
  8
0
100
AcDbBlockBegin
  2
_D_3
 70
     0
 10
0.0
 20
0.0
 30
0.0
  3
_D_3
  1

  0
SOLID
  5
281
330
27E
100
AcDbEntity
  8
FORMAT
100
AcDbTrace
 10
47.6905462187
 20
279.7576498799
 30
0.0
 11
47.1825462187
 21
276.4556498799
 31
0.0
 12
48.1985462187
 22
276.4556498799
 32
0.0
 13
48.1985462187
 23
276.4556498799
 33
0.0
  0
SOLID
  5
282
330
27E
100
AcDbEntity
  8
FORMAT
100
AcDbTrace
 10
47.6905462187
 20
251.7576498799
 30
0.0
 11
48.1985462187
 21
255.0596498799
 31
0.0
 12
47.1825462187
 22
255.0596498799
 32
0.0
 13
47.1825462187
 23
255.0596498799
 33
0.0
  0
LINE
  5
283
330
27E
100
AcDbEntity
  8
FORMAT
100
AcDbLine
 10
52.2125142816
 20
279.7576498799
 30
0.0
 11
46.6905462187
 21
279.7576498799
 31
0.0
  0
LINE
  5
284
330
27E
100
AcDbEntity
  8
FORMAT
100
AcDbLine
 10
64.5838950524
 20
251.7576498799
 30
0.0
 11
46.6905462187
 21
251.7576498799
 31
0.0
  0
LINE
  5
285
330
27E
100
AcDbEntity
  8
FORMAT
100
AcDbLine
 10
47.6905462187
 20
279.7576498799
 30
0.0
 11
47.6905462187
 21
251.7576498799
 31
0.0
  0
MTEXT
  5
286
330
27E
100
AcDbEntity
  8
FORMAT
100
AcDbMText
 10
43.1788088966
 20
263.084038835
 30
0.0
 40
3.5
 41
0.0
 71
     1
 72
     1
  1
28
  7
SLDTEXTSTYLE0
 11
-7.044195017643634E-15
 21
1.0
 31
0.0
 73
     1
 44
1.0
  0
ENDBLK
  5
280
330
27E
100
AcDbEntity
  8
0
100
AcDbBlockEnd
  0
BLOCK
  5
289
330
288
100
AcDbEntity
  8
0
100
AcDbBlockBegin
  2
_D_4
 70
     0
 10
0.0
 20
0.0
 30
0.0
  3
_D_4
  1

  0
SOLID
  5
28B
330
288
100
AcDbEntity
  8
FORMAT
100
AcDbTrace
 10
40.5613390948
 20
335.7576498799
 30
0.0
 11
40.0533390948
 21
332.4556498799
 31
0.0
 12
41.0693390948
 22
332.4556498799
 32
0.0
 13
41.0693390948
 23
332.4556498799
 33
0.0
  0
SOLID
  5
28C
330
288
100
AcDbEntity
  8
FORMAT
100
AcDbTrace
 10
40.5613390948
 20
223.7576498799
 30
0.0
 11
41.0693390948
 21
227.0596498799
 31
0.0
 12
40.0533390948
 22
227.0596498799
 32
0.0
 13
40.0533390948
 23
227.0596498799
 33
0.0
  0
LINE
  5
28D
330
288
100
AcDbEntity
  8
FORMAT
100
AcDbLine
 10
67.5838950524
 20
335.7576498799
 30
0.0
 11
39.5613390948
 21
335.7576498799
 31
0.0
  0
LINE
  5
28E
330
288
100
AcDbEntity
  8
FORMAT
100
AcDbLine
 10
67.5838950524
 20
223.7576498799
 30
0.0
 11
39.5613390948
 21
223.7576498799
 31
0.0
  0
LINE
  5
28F
330
288
100
AcDbEntity
  8
FORMAT
100
AcDbLine
 10
40.5613390948
 20
335.7576498799
 30
0.0
 11
40.5613390948
 21
223.7576498799
 31
0.0
  0
MTEXT
  5
290
330
288
100
AcDbEntity
  8
FORMAT
100
AcDbMText
 10
36.0496017728
 20
275.7472333126
 30
0.0
 40
3.5
 41
0.0
 71
     1
 72
     1
  1
112
  7
SLDTEXTSTYLE0
 11
-7.044195017643634E-15
 21
1.0
 31
0.0
 73
     1
 44
1.0
  0
ENDBLK
  5
28A
330
288
100
AcDbEntity
  8
0
100
AcDbBlockEnd
  0
BLOCK
  5
293
330
292
100
AcDbEntity
  8
0
100
AcDbBlockBegin
  2
_D_5
 70
     0
 10
0.0
 20
0.0
 30
0.0
  3
_D_5
  1

  0
SOLID
  5
295
330
292
100
AcDbEntity
  8
FORMAT
100
AcDbTrace
 10
33.0974619298
 20
357.7576498799
 30
0.0
 11
32.5894619298
 21
354.4556498799
 31
0.0
 12
33.6054619298
 22
354.4556498799
 32
0.0
 13
33.6054619298
 23
354.4556498799
 33
0.0
  0
SOLID
  5
296
330
292
100
AcDbEntity
  8
FORMAT
100
AcDbTrace
 10
33.0974619298
 20
201.7576498799
 30
0.0
 11
33.6054619298
 21
205.0596498799
 31
0.0
 12
32.5894619298
 22
205.0596498799
 32
0.0
 13
32.5894619298
 23
205.0596498799
 33
0.0
  0
LINE
  5
297
330
292
100
AcDbEntity
  8
FORMAT
100
AcDbLine
 10
62.5838950524
 20
357.7576498799
 30
0.0
 11
32.0974619298
 21
357.7576498799
 31
0.0
  0
LINE
  5
298
330
292
100
AcDbEntity
  8
FORMAT
100
AcDbLine
 10
67.5838950524
 20
201.7576498799
 30
0.0
 11
32.0974619298
 21
201.7576498799
 31
0.0
  0
LINE
  5
299
330
292
100
AcDbEntity
  8
FORMAT
100
AcDbLine
 10
33.0974619298
 20
357.7576498799
 30
0.0
 11
33.0974619298
 21
201.7576498799
 31
0.0
  0
MTEXT
  5
29A
330
292
100
AcDbEntity
  8
FORMAT
100
AcDbMText
 10
28.5857246078
 20
275.7472333126
 30
0.0
 40
3.5
 41
0.0
 71
     1
 72
     1
  1
156
  7
SLDTEXTSTYLE0
 11
-7.044195017643634E-15
 21
1.0
 31
0.0
 73
     1
 44
1.0
  0
ENDBLK
  5
294
330
292
100
AcDbEntity
  8
0
100
AcDbBlockEnd
  0
BLOCK
  5
29D
330
29C
100
AcDbEntity
  8
0
100
AcDbBlockBegin
  2
_D_6
 70
     0
 10
0.0
 20
0.0
 30
0.0
  3
_D_6
  1

  0
SOLID
  5
29F
330
29C
100
AcDbEntity
  8
FORMAT
100
AcDbTrace
 10
26.4539142921
 20
369.7576498799
 30
0.0
 11
25.9459142921
 21
366.4556498799
 31
0.0
 12
26.9619142921
 22
366.4556498799
 32
0.0
 13
26.9619142921
 23
366.4556498799
 33
0.0
  0
SOLID
  5
2A0
330
29C
100
AcDbEntity
  8
FORMAT
100
AcDbTrace
 10
26.4539142921
 20
189.7576498799
 30
0.0
 11
26.9619142921
 21
193.0596498799
 31
0.0
 12
25.9459142921
 22
193.0596498799
 32
0.0
 13
25.9459142921
 23
193.0596498799
 33
0.0
  0
LINE
  5
2A1
330
29C
100
AcDbEntity
  8
FORMAT
100
AcDbLine
 10
67.5838950524
 20
369.7576498799
 30
0.0
 11
25.4539142921
 21
369.7576498799
 31
0.0
  0
LINE
  5
2A2
330
29C
100
AcDbEntity
  8
FORMAT
100
AcDbLine
 10
67.5838950524
 20
189.7576498799
 30
0.0
 11
25.4539142921
 21
189.7576498799
 31
0.0
  0
LINE
  5
2A3
330
29C
100
AcDbEntity
  8
FORMAT
100
AcDbLine
 10
26.4539142921
 20
369.7576498799
 30
0.0
 11
26.4539142921
 21
189.7576498799
 31
0.0
  0
MTEXT
  5
2A4
330
29C
100
AcDbEntity
  8
FORMAT
100
AcDbMText
 10
21.9421769701
 20
275.7472333126
 30
0.0
 40
3.5
 41
0.0
 71
     1
 72
     1
  1
180
  7
SLDTEXTSTYLE0
 11
-7.044195017643634E-15
 21
1.0
 31
0.0
 73
     1
 44
1.0
  0
ENDBLK
  5
29E
330
29C
100
AcDbEntity
  8
0
100
AcDbBlockEnd
  0
BLOCK
  5
2A7
330
2A6
100
AcDbEntity
  8
0
100
AcDbBlockBegin
  2
_D_7
 70
     0
 10
0.0
 20
0.0
 30
0.0
  3
_D_7
  1

  0
SOLID
  5
2A9
330
2A6
100
AcDbEntity
  8
FORMAT
100
AcDbTrace
 10
68.5838950524
 20
240.5257925274
 30
0.0
 11
71.8858950524
 21
240.0177925274
 31
0.0
 12
71.8858950524
 22
241.0337925274
 32
0.0
 13
71.8858950524
 23
241.0337925274
 33
0.0
  0
SOLID
  5
2AA
330
2A6
100
AcDbEntity
  8
FORMAT
100
AcDbTrace
 10
65.5838950524
 20
240.5257925274
 30
0.0
 11
62.2818950524
 21
241.0337925274
 31
0.0
 12
62.2818950524
 22
240.0177925274
 32
0.0
 13
62.2818950524
 23
240.0177925274
 33
0.0
  0
LINE
  5
2AB
330
2A6
100
AcDbEntity
  8
FORMAT
100
AcDbLine
 10
68.5838950524
 20
232.7576498799
 30
0.0
 11
68.5838950524
 21
241.5257925274
 31
0.0
  0
LINE
  5
2AC
330
2A6
100
AcDbEntity
  8
FORMAT
100
AcDbLine
 10
65.5838950524
 20
250.7576498799
 30
0.0
 11
65.5838950524
 21
239.5257925274
 31
0.0
  0
LINE
  5
2AD
330
2A6
100
AcDbEntity
  8
FORMAT
100
AcDbLine
 10
68.5838950524
 20
240.5257925274
 30
0.0
 11
76.1143101764
 21
240.5257925274
 31
0.0
  0
LINE
  5
2AE
330
2A6
100
AcDbEntity
  8
FORMAT
100
AcDbLine
 10
68.5838950524
 20
240.5257925274
 30
0.0
 11
65.5838950524
 21
240.5257925274
 31
0.0
  0
LINE
  5
2AF
330
2A6
100
AcDbEntity
  8
FORMAT
100
AcDbLine
 10
65.5838950524
 20
240.5257925274
 30
0.0
 11
59.2338950524
 21
240.5257925274
 31
0.0
  0
MTEXT
  5
2B0
330
2A6
100
AcDbEntity
  8
FORMAT
100
AcDbMText
 10
73.4406991315
 20
245.0375298494
 30
0.0
 40
3.5
 41
0.0
 71
     1
 72
     1
  1
3
  7
SLDTEXTSTYLE0
 73
     1
 44
1.0
  0
ENDBLK
  5
2A8
330
2A6
100
AcDbEntity
  8
0
100
AcDbBlockEnd
  0
BLOCK
  5
2B4
330
2B3
100
AcDbEntity
  8
0
100
AcDbBlockBegin
  2
_D_8
 70
     0
 10
0.0
 20
0.0
 30
0.0
  3
_D_8
  1

  0
SOLID
  5
2B6
330
2B3
100
AcDbEntity
  8
FORMAT
100
AcDbTrace
 10
80.4838950524
 20
182.6699223158
 30
0.0
 11
77.1818950524
 21
183.1779223158
 31
0.0
 12
77.1818950524
 22
182.1619223158
 32
0.0
 13
77.1818950524
 23
182.1619223158
 33
0.0
  0
SOLID
  5
2B7
330
2B3
100
AcDbEntity
  8
FORMAT
100
AcDbTrace
 10
56.6838950524
 20
182.6699223158
 30
0.0
 11
59.9858950524
 21
182.1619223158
 31
0.0
 12
59.9858950524
 22
183.1779223158
 32
0.0
 13
59.9858950524
 23
183.1779223158
 33
0.0
  0
LINE
  5
2B8
330
2B3
100
AcDbEntity
  8
FORMAT
100
AcDbLine
 10
80.4838950524
 20
223.6576498799
 30
0.0
 11
80.4838950524
 21
181.6699223158
 31
0.0
  0
LINE
  5
2B9
330
2B3
100
AcDbEntity
  8
FORMAT
100
AcDbLine
 10
56.6838950524
 20
223.6576498799
 30
0.0
 11
56.6838950524
 21
203.2576498799
 31
0.0
  0
LINE
  5
2BA
330
2B3
100
AcDbEntity
  8
FORMAT
100
AcDbLine
 10
56.6838950524
 20
200.2576498799
 30
0.0
 11
56.6838950524
 21
191.2576498799
 31
0.0
  0
LINE
  5
2BB
330
2B3
100
AcDbEntity
  8
FORMAT
100
AcDbLine
 10
56.6838950524
 20
188.2576498799
 30
0.0
 11
56.6838950524
 21
181.6699223158
 31
0.0
  0
LINE
  5
2BC
330
2B3
100
AcDbEntity
  8
FORMAT
100
AcDbLine
 10
80.4838950524
 20
182.6699223158
 30
0.0
 11
56.6838950524
 21
182.6699223158
 31
0.0
  0
MTEXT
  5
2BD
330
2B3
100
AcDbEntity
  8
FORMAT
100
AcDbMText
 10
65.9102840075
 20
187.1816596378
 30
0.0
 40
3.5
 41
0.0
 71
     1
 72
     1
  1
24
  7
SLDTEXTSTYLE0
 73
     1
 44
1.0
  0
ENDBLK
  5
2B5
330
2B3
100
AcDbEntity
  8
0
100
AcDbBlockEnd
  0
BLOCK
  5
2C0
330
2BF
100
AcDbEntity
  8
0
100
AcDbBlockBegin
  2
_D_9
 70
     0
 10
0.0
 20
0.0
 30
0.0
  3
_D_9
  1

  0
SOLID
  5
2C2
330
2BF
100
AcDbEntity
  8
FORMAT
100
AcDbTrace
 10
90.6064510099
 20
198.7576498799
 30
0.0
 11
90.0984510099
 21
195.4556498799
 31
0.0
 12
91.1144510099
 22
195.4556498799
 32
0.0
 13
91.1144510099
 23
195.4556498799
 33
0.0
  0
SOLID
  5
2C3
330
2BF
100
AcDbEntity
  8
FORMAT
100
AcDbTrace
 10
90.6064510099
 20
204.7576498799
 30
0.0
 11
91.1144510099
 21
208.0596498799
 31
0.0
 12
90.0984510099
 22
208.0596498799
 32
0.0
 13
90.0984510099
 23
208.0596498799
 33
0.0
  0
LINE
  5
2C4
330
2BF
100
AcDbEntity
  8
FORMAT
100
AcDbLine
 10
69.5838950524
 20
198.7576498799
 30
0.0
 11
91.6064510099
 21
198.7576498799
 31
0.0
  0
LINE
  5
2C5
330
2BF
100
AcDbEntity
  8
FORMAT
100
AcDbLine
 10
69.5838950524
 20
204.7576498799
 30
0.0
 11
91.6064510099
 21
204.7576498799
 31
0.0
  0
LINE
  5
2C6
330
2BF
100
AcDbEntity
  8
FORMAT
100
AcDbLine
 10
90.6064510099
 20
198.7576498799
 30
0.0
 11
90.6064510099
 21
192.4076498799
 31
0.0
  0
LINE
  5
2C7
330
2BF
100
AcDbEntity
  8
FORMAT
100
AcDbLine
 10
90.6064510099
 20
198.7576498799
 30
0.0
 11
90.6064510099
 21
204.7576498799
 31
0.0
  0
LINE
  5
2C8
330
2BF
100
AcDbEntity
  8
FORMAT
100
AcDbLine
 10
90.6064510099
 20
204.7576498799
 30
0.0
 11
90.6064510099
 21
216.2489918161
 31
0.0
  0
MTEXT
  5
2C9
330
2BF
100
AcDbEntity
  8
FORMAT
100
AcDbMText
 10
86.0947136879
 20
209.5698252421
 30
0.0
 40
3.5
 41
0.0
 71
     1
 72
     1
  1
M6
  7
SLDTEXTSTYLE0
 11
6.944615092633338E-15
 21
1.0
 31
0.0
 73
     1
 44
1.0
  0
ENDBLK
  5
2C1
330
2BF
100
AcDbEntity
  8
0
100
AcDbBlockEnd
  0
BLOCK
  5
2CC
330
2CB
100
AcDbEntity
  8
0
100
AcDbBlockBegin
  2
SW_CENTERMARKSYMBOL_0
 70
     0
 10
0.0
 20
0.0
 30
0.0
  3
SW_CENTERMARKSYMBOL_0
  1

  0
LINE
  5
2CE
330
2CB
100
AcDbEntity
  8
FORMAT
 62
     0
100
AcDbLine
 10
0.0
 20
0.0
 30
0.0
 11
0.0
 21
2.5
 31
0.0
  0
LINE
  5
2CF
330
2CB
100
AcDbEntity
  8
FORMAT
 62
     0
100
AcDbLine
 10
0.0
 20
0.0
 30
0.0
 11
-2.5
 21
0.0
 31
0.0
  0
LINE
  5
2D0
330
2CB
100
AcDbEntity
  8
FORMAT
 62
     0
100
AcDbLine
 10
0.0
 20
0.0
 30
0.0
 11
0.0
 21
-2.5
 31
0.0
  0
LINE
  5
2D1
330
2CB
100
AcDbEntity
  8
FORMAT
 62
     0
100
AcDbLine
 10
0.0
 20
0.0
 30
0.0
 11
2.5
 21
0.0
 31
0.0
  0
LINE
  5
2D2
330
2CB
100
AcDbEntity
  8
FORMAT
 62
     0
100
AcDbLine
 10
0.0
 20
2.5
 30
0.0
 11
0.0
 21
5.0
 31
0.0
  0
LINE
  5
2D3
330
2CB
100
AcDbEntity
  8
FORMAT
 62
     0
100
AcDbLine
 10
-2.5
 20
0.0
 30
0.0
 11
-5.0
 21
0.0
 31
0.0
  0
LINE
  5
2D4
330
2CB
100
AcDbEntity
  8
FORMAT
 62
     0
100
AcDbLine
 10
0.0
 20
-2.5
 30
0.0
 11
0.0
 21
-5.0
 31
0.0
  0
LINE
  5
2D5
330
2CB
100
AcDbEntity
  8
FORMAT
 62
     0
100
AcDbLine
 10
2.5
 20
0.0
 30
0.0
 11
5.0
 21
0.0
 31
0.0
  0
ENDBLK
  5
2CD
330
2CB
100
AcDbEntity
  8
0
100
AcDbBlockEnd
  0
BLOCK
  5
2D8
330
2D7
100
AcDbEntity
  8
0
100
AcDbBlockBegin
  2
SW_CENTERMARKSYMBOL_1
 70
     0
 10
0.0
 20
0.0
 30
0.0
  3
SW_CENTERMARKSYMBOL_1
  1

  0
LINE
  5
2DA
330
2D7
100
AcDbEntity
  8
FORMAT
 62
     0
100
AcDbLine
 10
0.0
 20
0.0
 30
0.0
 11
0.0
 21
2.5
 31
0.0
  0
LINE
  5
2DB
330
2D7
100
AcDbEntity
  8
FORMAT
 62
     0
100
AcDbLine
 10
0.0
 20
0.0
 30
0.0
 11
-2.5
 21
0.0
 31
0.0
  0
LINE
  5
2DC
330
2D7
100
AcDbEntity
  8
FORMAT
 62
     0
100
AcDbLine
 10
0.0
 20
0.0
 30
0.0
 11
0.0
 21
-2.5
 31
0.0
  0
LINE
  5
2DD
330
2D7
100
AcDbEntity
  8
FORMAT
 62
     0
100
AcDbLine
 10
0.0
 20
0.0
 30
0.0
 11
2.5
 21
0.0
 31
0.0
  0
LINE
  5
2DE
330
2D7
100
AcDbEntity
  8
FORMAT
 62
     0
100
AcDbLine
 10
0.0
 20
2.5
 30
0.0
 11
0.0
 21
5.0
 31
0.0
  0
LINE
  5
2DF
330
2D7
100
AcDbEntity
  8
FORMAT
 62
     0
100
AcDbLine
 10
-2.5
 20
0.0
 30
0.0
 11
-5.0
 21
0.0
 31
0.0
  0
LINE
  5
2E0
330
2D7
100
AcDbEntity
  8
FORMAT
 62
     0
100
AcDbLine
 10
0.0
 20
-2.5
 30
0.0
 11
0.0
 21
-5.0
 31
0.0
  0
LINE
  5
2E1
330
2D7
100
AcDbEntity
  8
FORMAT
 62
     0
100
AcDbLine
 10
2.5
 20
0.0
 30
0.0
 11
5.0
 21
0.0
 31
0.0
  0
ENDBLK
  5
2D9
330
2D7
100
AcDbEntity
  8
0
100
AcDbBlockEnd
  0
BLOCK
  5
2E4
330
2E3
100
AcDbEntity
  8
0
100
AcDbBlockBegin
  2
SW_CENTERMARKSYMBOL_2
 70
     0
 10
0.0
 20
0.0
 30
0.0
  3
SW_CENTERMARKSYMBOL_2
  1

  0
LINE
  5
2E6
330
2E3
100
AcDbEntity
  8
FORMAT
 62
     0
100
AcDbLine
 10
0.0
 20
0.0
 30
0.0
 11
0.0
 21
2.5
 31
0.0
  0
LINE
  5
2E7
330
2E3
100
AcDbEntity
  8
FORMAT
 62
     0
100
AcDbLine
 10
0.0
 20
0.0
 30
0.0
 11
-2.5
 21
0.0
 31
0.0
  0
LINE
  5
2E8
330
2E3
100
AcDbEntity
  8
FORMAT
 62
     0
100
AcDbLine
 10
0.0
 20
0.0
 30
0.0
 11
0.0
 21
-2.5
 31
0.0
  0
LINE
  5
2E9
330
2E3
100
AcDbEntity
  8
FORMAT
 62
     0
100
AcDbLine
 10
0.0
 20
0.0
 30
0.0
 11
2.5
 21
0.0
 31
0.0
  0
LINE
  5
2EA
330
2E3
100
AcDbEntity
  8
FORMAT
 62
     0
100
AcDbLine
 10
0.0
 20
5.0
 30
0.0
 11
0.0
 21
8.0
 31
0.0
  0
LINE
  5
2EB
330
2E3
100
AcDbEntity
  8
FORMAT
 62
     0
100
AcDbLine
 10
-5.0
 20
0.0
 30
0.0
 11
-8.0
 21
0.0
 31
0.0
  0
LINE
  5
2EC
330
2E3
100
AcDbEntity
  8
FORMAT
 62
     0
100
AcDbLine
 10
0.0
 20
-5.0
 30
0.0
 11
0.0
 21
-8.0
 31
0.0
  0
LINE
  5
2ED
330
2E3
100
AcDbEntity
  8
FORMAT
 62
     0
100
AcDbLine
 10
5.0
 20
0.0
 30
0.0
 11
8.0
 21
0.0
 31
0.0
  0
ENDBLK
  5
2E5
330
2E3
100
AcDbEntity
  8
0
100
AcDbBlockEnd
  0
BLOCK
  5
2F0
330
2EF
100
AcDbEntity
  8
0
100
AcDbBlockBegin
  2
SW_CENTERMARKSYMBOL_3
 70
     0
 10
0.0
 20
0.0
 30
0.0
  3
SW_CENTERMARKSYMBOL_3
  1

  0
LINE
  5
2F2
330
2EF
100
AcDbEntity
  8
FORMAT
 62
     0
100
AcDbLine
 10
0.0
 20
0.0
 30
0.0
 11
0.0
 21
2.5
 31
0.0
  0
LINE
  5
2F3
330
2EF
100
AcDbEntity
  8
FORMAT
 62
     0
100
AcDbLine
 10
0.0
 20
0.0
 30
0.0
 11
-2.5
 21
0.0
 31
0.0
  0
LINE
  5
2F4
330
2EF
100
AcDbEntity
  8
FORMAT
 62
     0
100
AcDbLine
 10
0.0
 20
0.0
 30
0.0
 11
0.0
 21
-2.5
 31
0.0
  0
LINE
  5
2F5
330
2EF
100
AcDbEntity
  8
FORMAT
 62
     0
100
AcDbLine
 10
0.0
 20
0.0
 30
0.0
 11
2.5
 21
0.0
 31
0.0
  0
LINE
  5
2F6
330
2EF
100
AcDbEntity
  8
FORMAT
 62
     0
100
AcDbLine
 10
0.0
 20
5.0
 30
0.0
 11
0.0
 21
8.0
 31
0.0
  0
LINE
  5
2F7
330
2EF
100
AcDbEntity
  8
FORMAT
 62
     0
100
AcDbLine
 10
-5.0
 20
0.0
 30
0.0
 11
-8.0
 21
0.0
 31
0.0
  0
LINE
  5
2F8
330
2EF
100
AcDbEntity
  8
FORMAT
 62
     0
100
AcDbLine
 10
0.0
 20
-5.0
 30
0.0
 11
0.0
 21
-8.0
 31
0.0
  0
LINE
  5
2F9
330
2EF
100
AcDbEntity
  8
FORMAT
 62
     0
100
AcDbLine
 10
5.0
 20
0.0
 30
0.0
 11
8.0
 21
0.0
 31
0.0
  0
ENDBLK
  5
2F1
330
2EF
100
AcDbEntity
  8
0
100
AcDbBlockEnd
  0
BLOCK
  5
2FC
330
2FB
100
AcDbEntity
  8
0
100
AcDbBlockBegin
  2
SW_CENTERMARKSYMBOL_4
 70
     0
 10
0.0
 20
0.0
 30
0.0
  3
SW_CENTERMARKSYMBOL_4
  1

  0
LINE
  5
2FE
330
2FB
100
AcDbEntity
  8
FORMAT
 62
     0
100
AcDbLine
 10
0.0
 20
0.0
 30
0.0
 11
0.0
 21
2.5
 31
0.0
  0
LINE
  5
2FF
330
2FB
100
AcDbEntity
  8
FORMAT
 62
     0
100
AcDbLine
 10
0.0
 20
0.0
 30
0.0
 11
-2.5
 21
0.0
 31
0.0
  0
LINE
  5
300
330
2FB
100
AcDbEntity
  8
FORMAT
 62
     0
100
AcDbLine
 10
0.0
 20
0.0
 30
0.0
 11
0.0
 21
-2.5
 31
0.0
  0
LINE
  5
301
330
2FB
100
AcDbEntity
  8
FORMAT
 62
     0
100
AcDbLine
 10
0.0
 20
0.0
 30
0.0
 11
2.5
 21
0.0
 31
0.0
  0
LINE
  5
302
330
2FB
100
AcDbEntity
  8
FORMAT
 62
     0
100
AcDbLine
 10
0.0
 20
5.0
 30
0.0
 11
0.0
 21
5.25
 31
0.0
  0
LINE
  5
303
330
2FB
100
AcDbEntity
  8
FORMAT
 62
     0
100
AcDbLine
 10
-5.0
 20
0.0
 30
0.0
 11
-5.25
 21
0.0
 31
0.0
  0
LINE
  5
304
330
2FB
100
AcDbEntity
  8
FORMAT
 62
     0
100
AcDbLine
 10
0.0
 20
-5.0
 30
0.0
 11
0.0
 21
-5.25
 31
0.0
  0
LINE
  5
305
330
2FB
100
AcDbEntity
  8
FORMAT
 62
     0
100
AcDbLine
 10
5.0
 20
0.0
 30
0.0
 11
5.25
 21
0.0
 31
0.0
  0
ENDBLK
  5
2FD
330
2FB
100
AcDbEntity
  8
0
100
AcDbBlockEnd
  0
BLOCK
  5
308
330
307
100
AcDbEntity
  8
0
100
AcDbBlockBegin
  2
SW_CENTERMARKSYMBOL_5
 70
     0
 10
0.0
 20
0.0
 30
0.0
  3
SW_CENTERMARKSYMBOL_5
  1

  0
LINE
  5
30A
330
307
100
AcDbEntity
  8
FORMAT
 62
     0
100
AcDbLine
 10
0.0
 20
0.0
 30
0.0
 11
0.0
 21
2.5
 31
0.0
  0
LINE
  5
30B
330
307
100
AcDbEntity
  8
FORMAT
 62
     0
100
AcDbLine
 10
0.0
 20
0.0
 30
0.0
 11
-2.5
 21
0.0
 31
0.0
  0
LINE
  5
30C
330
307
100
AcDbEntity
  8
FORMAT
 62
     0
100
AcDbLine
 10
0.0
 20
0.0
 30
0.0
 11
0.0
 21
-2.5
 31
0.0
  0
LINE
  5
30D
330
307
100
AcDbEntity
  8
FORMAT
 62
     0
100
AcDbLine
 10
0.0
 20
0.0
 30
0.0
 11
2.5
 21
0.0
 31
0.0
  0
LINE
  5
30E
330
307
100
AcDbEntity
  8
FORMAT
 62
     0
100
AcDbLine
 10
0.0
 20
5.0
 30
0.0
 11
0.0
 21
5.25
 31
0.0
  0
LINE
  5
30F
330
307
100
AcDbEntity
  8
FORMAT
 62
     0
100
AcDbLine
 10
-5.0
 20
0.0
 30
0.0
 11
-5.25
 21
0.0
 31
0.0
  0
LINE
  5
310
330
307
100
AcDbEntity
  8
FORMAT
 62
     0
100
AcDbLine
 10
0.0
 20
-5.0
 30
0.0
 11
0.0
 21
-5.25
 31
0.0
  0
LINE
  5
311
330
307
100
AcDbEntity
  8
FORMAT
 62
     0
100
AcDbLine
 10
5.0
 20
0.0
 30
0.0
 11
6.2095978255
 21
0.0
 31
0.0
  0
ENDBLK
  5
309
330
307
100
AcDbEntity
  8
0
100
AcDbBlockEnd
  0
BLOCK
  5
314
330
313
100
AcDbEntity
  8
0
100
AcDbBlockBegin
  2
SW_CENTERMARKSYMBOL_6
 70
     0
 10
0.0
 20
0.0
 30
0.0
  3
SW_CENTERMARKSYMBOL_6
  1

  0
LINE
  5
316
330
313
100
AcDbEntity
  8
FORMAT
 62
     0
100
AcDbLine
 10
0.0
 20
0.0
 30
0.0
 11
0.0
 21
2.5
 31
0.0
  0
LINE
  5
317
330
313
100
AcDbEntity
  8
FORMAT
 62
     0
100
AcDbLine
 10
0.0
 20
0.0
 30
0.0
 11
-2.5
 21
0.0
 31
0.0
  0
LINE
  5
318
330
313
100
AcDbEntity
  8
FORMAT
 62
     0
100
AcDbLine
 10
0.0
 20
0.0
 30
0.0
 11
0.0
 21
-2.5
 31
0.0
  0
LINE
  5
319
330
313
100
AcDbEntity
  8
FORMAT
 62
     0
100
AcDbLine
 10
0.0
 20
0.0
 30
0.0
 11
2.5
 21
0.0
 31
0.0
  0
LINE
  5
31A
330
313
100
AcDbEntity
  8
FORMAT
 62
     0
100
AcDbLine
 10
0.0
 20
5.0
 30
0.0
 11
0.0
 21
5.75
 31
0.0
  0
LINE
  5
31B
330
313
100
AcDbEntity
  8
FORMAT
 62
     0
100
AcDbLine
 10
-5.0
 20
0.0
 30
0.0
 11
-5.75
 21
0.0
 31
0.0
  0
LINE
  5
31C
330
313
100
AcDbEntity
  8
FORMAT
 62
     0
100
AcDbLine
 10
0.0
 20
-5.0
 30
0.0
 11
0.0
 21
-5.75
 31
0.0
  0
LINE
  5
31D
330
313
100
AcDbEntity
  8
FORMAT
 62
     0
100
AcDbLine
 10
5.0
 20
0.0
 30
0.0
 11
5.75
 21
0.0
 31
0.0
  0
ENDBLK
  5
315
330
313
100
AcDbEntity
  8
0
100
AcDbBlockEnd
  0
BLOCK
  5
320
330
31F
100
AcDbEntity
  8
0
100
AcDbBlockBegin
  2
SW_CENTERMARKSYMBOL_7
 70
     0
 10
0.0
 20
0.0
 30
0.0
  3
SW_CENTERMARKSYMBOL_7
  1

  0
LINE
  5
322
330
31F
100
AcDbEntity
  8
FORMAT
 62
     0
100
AcDbLine
 10
0.0
 20
0.0
 30
0.0
 11
0.0
 21
2.5
 31
0.0
  0
LINE
  5
323
330
31F
100
AcDbEntity
  8
FORMAT
 62
     0
100
AcDbLine
 10
0.0
 20
0.0
 30
0.0
 11
-2.5
 21
0.0
 31
0.0
  0
LINE
  5
324
330
31F
100
AcDbEntity
  8
FORMAT
 62
     0
100
AcDbLine
 10
0.0
 20
0.0
 30
0.0
 11
0.0
 21
-2.5
 31
0.0
  0
LINE
  5
325
330
31F
100
AcDbEntity
  8
FORMAT
 62
     0
100
AcDbLine
 10
0.0
 20
0.0
 30
0.0
 11
2.5
 21
0.0
 31
0.0
  0
LINE
  5
326
330
31F
100
AcDbEntity
  8
FORMAT
 62
     0
100
AcDbLine
 10
0.0
 20
5.0
 30
0.0
 11
0.0
 21
5.75
 31
0.0
  0
LINE
  5
327
330
31F
100
AcDbEntity
  8
FORMAT
 62
     0
100
AcDbLine
 10
-5.0
 20
0.0
 30
0.0
 11
-12.3713807707
 21
0.0
 31
0.0
  0
LINE
  5
328
330
31F
100
AcDbEntity
  8
FORMAT
 62
     0
100
AcDbLine
 10
0.0
 20
-5.0
 30
0.0
 11
0.0
 21
-5.75
 31
0.0
  0
LINE
  5
329
330
31F
100
AcDbEntity
  8
FORMAT
 62
     0
100
AcDbLine
 10
5.0
 20
0.0
 30
0.0
 11
25.7261535827
 21
0.0
 31
0.0
  0
ENDBLK
  5
321
330
31F
100
AcDbEntity
  8
0
100
AcDbBlockEnd
  0
BLOCK
  5
32C
330
32B
100
AcDbEntity
  8
0
100
AcDbBlockBegin
  2
SW_CENTERMARKSYMBOL_8
 70
     0
 10
0.0
 20
0.0
 30
0.0
  3
SW_CENTERMARKSYMBOL_8
  1

  0
LINE
  5
32E
330
32B
100
AcDbEntity
  8
FORMAT
 62
     0
100
AcDbLine
 10
0.0
 20
0.0
 30
0.0
 11
0.0
 21
2.5
 31
0.0
  0
LINE
  5
32F
330
32B
100
AcDbEntity
  8
FORMAT
 62
     0
100
AcDbLine
 10
0.0
 20
0.0
 30
0.0
 11
-2.5
 21
0.0
 31
0.0
  0
LINE
  5
330
330
32B
100
AcDbEntity
  8
FORMAT
 62
     0
100
AcDbLine
 10
0.0
 20
0.0
 30
0.0
 11
0.0
 21
-2.5
 31
0.0
  0
LINE
  5
331
330
32B
100
AcDbEntity
  8
FORMAT
 62
     0
100
AcDbLine
 10
0.0
 20
0.0
 30
0.0
 11
2.5
 21
0.0
 31
0.0
  0
LINE
  5
332
330
32B
100
AcDbEntity
  8
FORMAT
 62
     0
100
AcDbLine
 10
0.0
 20
5.0
 30
0.0
 11
0.0
 21
5.75
 31
0.0
  0
LINE
  5
333
330
32B
100
AcDbEntity
  8
FORMAT
 62
     0
100
AcDbLine
 10
-5.0
 20
0.0
 30
0.0
 11
-5.75
 21
0.0
 31
0.0
  0
LINE
  5
334
330
32B
100
AcDbEntity
  8
FORMAT
 62
     0
100
AcDbLine
 10
0.0
 20
-5.0
 30
0.0
 11
0.0
 21
-5.75
 31
0.0
  0
LINE
  5
335
330
32B
100
AcDbEntity
  8
FORMAT
 62
     0
100
AcDbLine
 10
5.0
 20
0.0
 30
0.0
 11
5.75
 21
0.0
 31
0.0
  0
ENDBLK
  5
32D
330
32B
100
AcDbEntity
  8
0
100
AcDbBlockEnd
  0
BLOCK
  5
39A
330
399
100
AcDbEntity
  8
0
100
AcDbBlockBegin
  2
_D_10
 70
     0
 10
0.0
 20
0.0
 30
0.0
  3
_D_10
  1

  0
SOLID
  5
39C
330
399
100
AcDbEntity
  8
FORMAT
100
AcDbTrace
 10
472.6734136683
 20
208.4575504637
 30
0.0
 11
475.9754136683
 21
207.9495504637
 31
0.0
 12
475.9754136683
 22
208.9655504637
 32
0.0
 13
475.9754136683
 23
208.9655504637
 33
0.0
  0
SOLID
  5
39D
330
399
100
AcDbEntity
  8
FORMAT
100
AcDbTrace
 10
482.6734136683
 20
208.4575504637
 30
0.0
 11
479.3714136683
 21
208.9655504637
 31
0.0
 12
479.3714136683
 22
207.9495504637
 32
0.0
 13
479.3714136683
 23
207.9495504637
 33
0.0
  0
LINE
  5
39E
330
399
100
AcDbEntity
  8
FORMAT
100
AcDbLine
 10
472.6734136683
 20
219.116713319
 30
0.0
 11
472.6734136683
 21
207.4575504637
 31
0.0
  0
LINE
  5
39F
330
399
100
AcDbEntity
  8
FORMAT
100
AcDbLine
 10
482.6734136683
 20
219.116713319
 30
0.0
 11
482.6734136683
 21
207.4575504637
 31
0.0
  0
LINE
  5
3A0
330
399
100
AcDbEntity
  8
FORMAT
100
AcDbLine
 10
472.6734136683
 20
208.4575504637
 30
0.0
 11
482.6734136683
 21
208.4575504637
 31
0.0
  0
MTEXT
  5
3A1
330
399
100
AcDbEntity
  8
FORMAT
100
AcDbMText
 10
474.9998026234
 20
212.9692877857
 30
0.0
 40
3.5
 41
0.0
 71
     1
 72
     1
  1
10
  7
SLDTEXTSTYLE0
 73
     1
 44
1.0
  0
ENDBLK
  5
39B
330
399
100
AcDbEntity
  8
0
100
AcDbBlockEnd
  0
BLOCK
  5
3A4
330
3A3
100
AcDbEntity
  8
0
100
AcDbBlockBegin
  2
_D_11
 70
     0
 10
0.0
 20
0.0
 30
0.0
  3
_D_11
  1

  0
SOLID
  5
3A6
330
3A3
100
AcDbEntity
  8
FORMAT
100
AcDbTrace
 10
436.6234136683
 20
220.116713319
 30
0.0
 11
437.1314136683
 21
223.418713319
 31
0.0
 12
436.1154136683
 22
223.418713319
 32
0.0
 13
436.1154136683
 23
223.418713319
 33
0.0
  0
SOLID
  5
3A7
330
3A3
100
AcDbEntity
  8
FORMAT
100
AcDbTrace
 10
436.6234136683
 20
310.116713319
 30
0.0
 11
436.1154136683
 21
306.814713319
 31
0.0
 12
437.1314136683
 22
306.814713319
 32
0.0
 13
437.1314136683
 23
306.814713319
 33
0.0
  0
LINE
  5
3A8
330
3A3
100
AcDbEntity
  8
FORMAT
100
AcDbLine
 10
471.6734136683
 20
220.116713319
 30
0.0
 11
435.6234136683
 21
220.116713319
 31
0.0
  0
LINE
  5
3A9
330
3A3
100
AcDbEntity
  8
FORMAT
100
AcDbLine
 10
471.6734136683
 20
310.116713319
 30
0.0
 11
435.6234136683
 21
310.116713319
 31
0.0
  0
LINE
  5
3AA
330
3A3
100
AcDbEntity
  8
FORMAT
100
AcDbLine
 10
436.6234136683
 20
220.116713319
 30
0.0
 11
436.6234136683
 21
310.116713319
 31
0.0
  0
MTEXT
  5
3AB
330
3A3
100
AcDbEntity
  8
FORMAT
100
AcDbMText
 10
432.1116763463
 20
262.4431022741
 30
0.0
 40
3.5
 41
0.0
 71
     1
 72
     1
  1
90
  7
SLDTEXTSTYLE0
 11
6.123233995736766E-17
 21
1.0
 31
0.0
 73
     1
 44
1.0
  0
ENDBLK
  5
3A5
330
3A3
100
AcDbEntity
  8
0
100
AcDbBlockEnd
  0
BLOCK
  5
3CD
330
3CC
100
AcDbEntity
  8
0
100
AcDbBlockBegin
  2
_D_12
 70
     0
 10
0.0
 20
0.0
 30
0.0
  3
_D_12
  1

  0
SOLID
  5
3CF
330
3CC
100
AcDbEntity
  8
FORMAT
100
AcDbTrace
 10
285.6479898953
 20
367.2238771377
 30
0.0
 11
282.3459898953
 21
367.7318771377
 31
0.0
 12
282.3459898953
 22
366.7158771377
 32
0.0
 13
282.3459898953
 23
366.7158771377
 33
0.0
  0
SOLID
  5
3D0
330
3CC
100
AcDbEntity
  8
FORMAT
100
AcDbTrace
 10
273.6479898953
 20
367.2238771377
 30
0.0
 11
276.9499898953
 21
366.7158771377
 31
0.0
 12
276.9499898953
 22
367.7318771377
 32
0.0
 13
276.9499898953
 23
367.7318771377
 33
0.0
  0
LINE
  5
3D1
330
3CC
100
AcDbEntity
  8
FORMAT
100
AcDbLine
 10
285.6479898953
 20
344.116713319
 30
0.0
 11
285.6479898953
 21
368.2238771377
 31
0.0
  0
LINE
  5
3D2
330
3CC
100
AcDbEntity
  8
FORMAT
100
AcDbLine
 10
273.6479898953
 20
356.308306528
 30
0.0
 11
273.6479898953
 21
368.2238771377
 31
0.0
  0
LINE
  5
3D3
330
3CC
100
AcDbEntity
  8
FORMAT
100
AcDbLine
 10
285.6479898953
 20
367.2238771377
 30
0.0
 11
273.6479898953
 21
367.2238771377
 31
0.0
  0
MTEXT
  5
3D4
330
3CC
100
AcDbEntity
  8
FORMAT
100
AcDbMText
 10
276.9743788504
 20
371.7356144597
 30
0.0
 40
3.5
 41
0.0
 71
     1
 72
     1
  1
12
  7
SLDTEXTSTYLE0
 73
     1
 44
1.0
  0
ENDBLK
  5
3CE
330
3CC
100
AcDbEntity
  8
0
100
AcDbBlockEnd
  0
BLOCK
  5
3D7
330
3D6
100
AcDbEntity
  8
0
100
AcDbBlockBegin
  2
_D_13
 70
     0
 10
0.0
 20
0.0
 30
0.0
  3
_D_13
  1

  0
SOLID
  5
3D9
330
3D6
100
AcDbEntity
  8
FORMAT
100
AcDbTrace
 10
282.6479898953
 20
306.0013080895
 30
0.0
 11
279.3459898953
 21
306.5093080895
 31
0.0
 12
279.3459898953
 22
305.4933080895
 32
0.0
 13
279.3459898953
 23
305.4933080895
 33
0.0
  0
SOLID
  5
3DA
330
3D6
100
AcDbEntity
  8
FORMAT
100
AcDbTrace
 10
273.6479898953
 20
306.0013080895
 30
0.0
 11
276.9499898953
 21
305.4933080895
 31
0.0
 12
276.9499898953
 22
306.5093080895
 32
0.0
 13
276.9499898953
 23
306.5093080895
 33
0.0
  0
LINE
  5
3DB
330
3D6
100
AcDbEntity
  8
FORMAT
100
AcDbLine
 10
282.6479898953
 20
294.116713319
 30
0.0
 11
282.6479898953
 21
307.0013080895
 31
0.0
  0
LINE
  5
3DC
330
3D6
100
AcDbEntity
  8
FORMAT
100
AcDbLine
 10
282.6479898953
 20
306.0013080895
 30
0.0
 11
273.6479898953
 21
306.0013080895
 31
0.0
  0
MTEXT
  5
3DD
330
3D6
100
AcDbEntity
  8
FORMAT
100
AcDbMText
 10
276.8111843728
 20
310.5130454115
 30
0.0
 40
3.5
 41
0.0
 71
     1
 72
     1
  1
9
  7
SLDTEXTSTYLE0
 73
     1
 44
1.0
  0
ENDBLK
  5
3D8
330
3D6
100
AcDbEntity
  8
0
100
AcDbBlockEnd
  0
BLOCK
  5
3E0
330
3DF
100
AcDbEntity
  8
0
100
AcDbBlockBegin
  2
_D_14
 70
     0
 10
0.0
 20
0.0
 30
0.0
  3
_D_14
  1

  0
SOLID
  5
3E2
330
3DF
100
AcDbEntity
  8
FORMAT
100
AcDbTrace
 10
306.7626829816
 20
298.366713319
 30
0.0
 11
307.2706829816
 21
301.668713319
 31
0.0
 12
306.2546829816
 22
301.668713319
 32
0.0
 13
306.2546829816
 23
301.668713319
 33
0.0
  0
SOLID
  5
3E3
330
3DF
100
AcDbEntity
  8
FORMAT
100
AcDbTrace
 10
306.7626829816
 20
287.866713319
 30
0.0
 11
306.2546829816
 21
284.564713319
 31
0.0
 12
307.2706829816
 22
284.564713319
 32
0.0
 13
307.2706829816
 23
284.564713319
 33
0.0
  0
LINE
  5
3E4
330
3DF
100
AcDbEntity
  8
FORMAT
100
AcDbLine
 10
283.6479898953
 20
298.366713319
 30
0.0
 11
307.7626829816
 21
298.366713319
 31
0.0
  0
LINE
  5
3E5
330
3DF
100
AcDbEntity
  8
FORMAT
100
AcDbLine
 10
283.6479898953
 20
287.866713319
 30
0.0
 11
307.7626829816
 21
287.866713319
 31
0.0
  0
LINE
  5
3E6
330
3DF
100
AcDbEntity
  8
FORMAT
100
AcDbLine
 10
306.7626829816
 20
298.366713319
 30
0.0
 11
306.7626829816
 21
304.716713319
 31
0.0
  0
LINE
  5
3E7
330
3DF
100
AcDbEntity
  8
FORMAT
100
AcDbLine
 10
306.7626829816
 20
298.366713319
 30
0.0
 11
306.7626829816
 21
287.866713319
 31
0.0
  0
LINE
  5
3E8
330
3DF
100
AcDbEntity
  8
FORMAT
100
AcDbLine
 10
306.7626829816
 20
287.866713319
 30
0.0
 11
306.7626829816
 21
268.9563752788
 31
0.0
  0
MTEXT
  5
3E9
330
3DF
100
AcDbEntity
  8
FORMAT
100
AcDbMText
 10
302.2509458924
 20
268.9563752788
 30
0.0
 40
3.5
 41
0.0
 71
     1
 72
     1
  1
%%c
  7
SLDTEXTSTYLE0
 11
-7.044195017643634E-15
 21
1.0
 31
0.0
 73
     1
 44
1.0
  0
MTEXT
  5
3EA
330
3DF
100
AcDbEntity
  8
FORMAT
100
AcDbMText
 10
302.2412235832
 20
274.0593268241
 30
0.0
 40
3.5
 41
0.0
 71
     1
 72
     1
  1
10,5
  7
SLDTEXTSTYLE0
 11
-7.044195017643634E-15
 21
1.0
 31
0.0
 73
     1
 44
1.0
  0
ENDBLK
  5
3E1
330
3DF
100
AcDbEntity
  8
0
100
AcDbBlockEnd
  0
BLOCK
  5
3ED
330
3EC
100
AcDbEntity
  8
0
100
AcDbBlockBegin
  2
_D_15
 70
     0
 10
0.0
 20
0.0
 30
0.0
  3
_D_15
  1

  0
SOLID
  5
3EF
330
3EC
100
AcDbEntity
  8
FORMAT
100
AcDbTrace
 10
297.8763256576
 20
326.116713319
 30
0.0
 11
298.3843256576
 21
329.418713319
 31
0.0
 12
297.3683256576
 22
329.418713319
 32
0.0
 13
297.3683256576
 23
329.418713319
 33
0.0
  0
SOLID
  5
3F0
330
3EC
100
AcDbEntity
  8
FORMAT
100
AcDbTrace
 10
297.8763256576
 20
316.116713319
 30
0.0
 11
297.3683256576
 21
312.814713319
 31
0.0
 12
298.3843256576
 22
312.814713319
 32
0.0
 13
298.3843256576
 23
312.814713319
 33
0.0
  0
LINE
  5
3F1
330
3EC
100
AcDbEntity
  8
FORMAT
100
AcDbLine
 10
286.6479898953
 20
326.116713319
 30
0.0
 11
298.8763256576
 21
326.116713319
 31
0.0
  0
LINE
  5
3F2
330
3EC
100
AcDbEntity
  8
FORMAT
100
AcDbLine
 10
286.6479898953
 20
316.116713319
 30
0.0
 11
298.8763256576
 21
316.116713319
 31
0.0
  0
LINE
  5
3F3
330
3EC
100
AcDbEntity
  8
FORMAT
100
AcDbLine
 10
297.8763256576
 20
326.116713319
 30
0.0
 11
297.8763256576
 21
332.466713319
 31
0.0
  0
LINE
  5
3F4
330
3EC
100
AcDbEntity
  8
FORMAT
100
AcDbLine
 10
297.8763256576
 20
326.116713319
 30
0.0
 11
297.8763256576
 21
316.116713319
 31
0.0
  0
LINE
  5
3F5
330
3EC
100
AcDbEntity
  8
FORMAT
100
AcDbLine
 10
297.8763256576
 20
316.116713319
 30
0.0
 11
297.8763256576
 21
309.766713319
 31
0.0
  0
MTEXT
  5
3F6
330
3EC
100
AcDbEntity
  8
FORMAT
100
AcDbMText
 10
293.3645885684
 20
315.8916267343
 30
0.0
 40
3.5
 41
0.0
 71
     1
 72
     1
  1
%%c
  7
SLDTEXTSTYLE0
 11
-7.044195017643634E-15
 21
1.0
 31
0.0
 73
     1
 44
1.0
  0
MTEXT
  5
3F7
330
3EC
100
AcDbEntity
  8
FORMAT
100
AcDbMText
 10
293.3548662593
 20
320.9945782795
 30
0.0
 40
3.5
 41
0.0
 71
     1
 72
     1
  1
10
  7
SLDTEXTSTYLE0
 11
-7.044195017643634E-15
 21
1.0
 31
0.0
 73
     1
 44
1.0
  0
ENDBLK
  5
3EE
330
3EC
100
AcDbEntity
  8
0
100
AcDbBlockEnd
  0
BLOCK
  5
3FA
330
3F9
100
AcDbEntity
  8
0
100
AcDbBlockBegin
  2
_D_16
 70
     0
 10
0.0
 20
0.0
 30
0.0
  3
_D_16
  1

  0
SOLID
  5
3FC
330
3F9
100
AcDbEntity
  8
FORMAT
100
AcDbTrace
 10
261.1479933744
 20
293.116713319
 30
0.0
 11
260.6399933744
 21
289.814713319
 31
0.0
 12
261.6559933744
 22
289.814713319
 32
0.0
 13
261.6559933744
 23
289.814713319
 33
0.0
  0
SOLID
  5
3FD
330
3F9
100
AcDbEntity
  8
FORMAT
100
AcDbTrace
 10
261.1479933744
 20
265.116713319
 30
0.0
 11
261.6559933744
 21
268.418713319
 31
0.0
 12
260.6399933744
 22
268.418713319
 32
0.0
 13
260.6399933744
 23
268.418713319
 33
0.0
  0
LINE
  5
3FE
330
3F9
100
AcDbEntity
  8
FORMAT
100
AcDbLine
 10
273.8979898953
 20
293.116713319
 30
0.0
 11
260.1479933744
 21
293.116713319
 31
0.0
  0
LINE
  5
3FF
330
3F9
100
AcDbEntity
  8
FORMAT
100
AcDbLine
 10
281.6479898953
 20
265.116713319
 30
0.0
 11
260.1479933744
 21
265.116713319
 31
0.0
  0
LINE
  5
400
330
3F9
100
AcDbEntity
  8
FORMAT
100
AcDbLine
 10
261.1479933744
 20
293.116713319
 30
0.0
 11
261.1479933744
 21
265.116713319
 31
0.0
  0
MTEXT
  5
401
330
3F9
100
AcDbEntity
  8
FORMAT
100
AcDbMText
 10
256.6362560524
 20
276.4431022741
 30
0.0
 40
3.5
 41
0.0
 71
     1
 72
     1
  1
28
  7
SLDTEXTSTYLE0
 11
-7.044195017643634E-15
 21
1.0
 31
0.0
 73
     1
 44
1.0
  0
ENDBLK
  5
3FB
330
3F9
100
AcDbEntity
  8
0
100
AcDbBlockEnd
  0
BLOCK
  5
404
330
403
100
AcDbEntity
  8
0
100
AcDbBlockBegin
  2
_D_17
 70
     0
 10
0.0
 20
0.0
 30
0.0
  3
_D_17
  1

  0
SOLID
  5
406
330
403
100
AcDbEntity
  8
FORMAT
100
AcDbTrace
 10
255.1479933744
 20
321.116713319
 30
0.0
 11
254.6399933744
 21
317.814713319
 31
0.0
 12
255.6559933744
 22
317.814713319
 32
0.0
 13
255.6559933744
 23
317.814713319
 33
0.0
  0
SOLID
  5
407
330
403
100
AcDbEntity
  8
FORMAT
100
AcDbTrace
 10
255.1479933744
 20
209.116713319
 30
0.0
 11
255.6559933744
 21
212.418713319
 31
0.0
 12
254.6399933744
 22
212.418713319
 32
0.0
 13
254.6399933744
 23
212.418713319
 33
0.0
  0
LINE
  5
408
330
403
100
AcDbEntity
  8
FORMAT
100
AcDbLine
 10
277.1479898953
 20
321.116713319
 30
0.0
 11
254.1479933744
 21
321.116713319
 31
0.0
  0
LINE
  5
409
330
403
100
AcDbEntity
  8
FORMAT
100
AcDbLine
 10
277.1479898953
 20
209.116713319
 30
0.0
 11
254.1479933744
 21
209.116713319
 31
0.0
  0
LINE
  5
40A
330
403
100
AcDbEntity
  8
FORMAT
100
AcDbLine
 10
255.1479933744
 20
321.116713319
 30
0.0
 11
255.1479933744
 21
209.116713319
 31
0.0
  0
MTEXT
  5
40B
330
403
100
AcDbEntity
  8
FORMAT
100
AcDbMText
 10
250.6362560524
 20
261.1062967516
 30
0.0
 40
3.5
 41
0.0
 71
     1
 72
     1
  1
112
  7
SLDTEXTSTYLE0
 11
-7.044195017643634E-15
 21
1.0
 31
0.0
 73
     1
 44
1.0
  0
ENDBLK
  5
405
330
403
100
AcDbEntity
  8
0
100
AcDbBlockEnd
  0
BLOCK
  5
40E
330
40D
100
AcDbEntity
  8
0
100
AcDbBlockBegin
  2
_D_18
 70
     0
 10
0.0
 20
0.0
 30
0.0
  3
_D_18
  1

  0
SOLID
  5
410
330
40D
100
AcDbEntity
  8
FORMAT
100
AcDbTrace
 10
249.1479933744
 20
343.116713319
 30
0.0
 11
248.6399933744
 21
339.814713319
 31
0.0
 12
249.6559933744
 22
339.814713319
 32
0.0
 13
249.6559933744
 23
339.814713319
 33
0.0
  0
SOLID
  5
411
330
40D
100
AcDbEntity
  8
FORMAT
100
AcDbTrace
 10
249.1479933744
 20
187.116713319
 30
0.0
 11
249.6559933744
 21
190.418713319
 31
0.0
 12
248.6399933744
 22
190.418713319
 32
0.0
 13
248.6399933744
 23
190.418713319
 33
0.0
  0
LINE
  5
412
330
40D
100
AcDbEntity
  8
FORMAT
100
AcDbLine
 10
284.6479898953
 20
343.116713319
 30
0.0
 11
248.1479933744
 21
343.116713319
 31
0.0
  0
LINE
  5
413
330
40D
100
AcDbEntity
  8
FORMAT
100
AcDbLine
 10
284.6479898953
 20
187.116713319
 30
0.0
 11
248.1479933744
 21
187.116713319
 31
0.0
  0
LINE
  5
414
330
40D
100
AcDbEntity
  8
FORMAT
100
AcDbLine
 10
249.1479933744
 20
343.116713319
 30
0.0
 11
249.1479933744
 21
187.116713319
 31
0.0
  0
MTEXT
  5
415
330
40D
100
AcDbEntity
  8
FORMAT
100
AcDbMText
 10
244.6362560524
 20
261.1062967516
 30
0.0
 40
3.5
 41
0.0
 71
     1
 72
     1
  1
156
  7
SLDTEXTSTYLE0
 11
-7.044195017643634E-15
 21
1.0
 31
0.0
 73
     1
 44
1.0
  0
ENDBLK
  5
40F
330
40D
100
AcDbEntity
  8
0
100
AcDbBlockEnd
  0
BLOCK
  5
418
330
417
100
AcDbEntity
  8
0
100
AcDbBlockBegin
  2
_D_19
 70
     0
 10
0.0
 20
0.0
 30
0.0
  3
_D_19
  1

  0
SOLID
  5
41A
330
417
100
AcDbEntity
  8
FORMAT
100
AcDbTrace
 10
297.8763256576
 20
270.366713319
 30
0.0
 11
298.3843256576
 21
273.668713319
 31
0.0
 12
297.3683256576
 22
273.668713319
 32
0.0
 13
297.3683256576
 23
273.668713319
 33
0.0
  0
SOLID
  5
41B
330
417
100
AcDbEntity
  8
FORMAT
100
AcDbTrace
 10
297.8763256576
 20
259.866713319
 30
0.0
 11
297.3683256576
 21
256.564713319
 31
0.0
 12
298.3843256576
 22
256.564713319
 32
0.0
 13
298.3843256576
 23
256.564713319
 33
0.0
  0
LINE
  5
41C
330
417
100
AcDbEntity
  8
FORMAT
100
AcDbLine
 10
283.6479898953
 20
270.366713319
 30
0.0
 11
298.8763256576
 21
270.366713319
 31
0.0
  0
LINE
  5
41D
330
417
100
AcDbEntity
  8
FORMAT
100
AcDbLine
 10
283.6479898953
 20
259.866713319
 30
0.0
 11
298.8763256576
 21
259.866713319
 31
0.0
  0
LINE
  5
41E
330
417
100
AcDbEntity
  8
FORMAT
100
AcDbLine
 10
297.8763256576
 20
270.366713319
 30
0.0
 11
297.8763256576
 21
276.716713319
 31
0.0
  0
LINE
  5
41F
330
417
100
AcDbEntity
  8
FORMAT
100
AcDbLine
 10
297.8763256576
 20
270.366713319
 30
0.0
 11
297.8763256576
 21
259.866713319
 31
0.0
  0
LINE
  5
420
330
417
100
AcDbEntity
  8
FORMAT
100
AcDbLine
 10
297.8763256576
 20
259.866713319
 30
0.0
 11
297.8763256576
 21
242.7796109999
 31
0.0
  0
MTEXT
  5
421
330
417
100
AcDbEntity
  8
FORMAT
100
AcDbMText
 10
293.3645885684
 20
242.7796109999
 30
0.0
 40
3.5
 41
0.0
 71
     1
 72
     1
  1
%%c
  7
SLDTEXTSTYLE0
 11
-7.044195017643634E-15
 21
1.0
 31
0.0
 73
     1
 44
1.0
  0
MTEXT
  5
422
330
417
100
AcDbEntity
  8
FORMAT
100
AcDbMText
 10
293.3548662593
 20
247.8825625451
 30
0.0
 40
3.5
 41
0.0
 71
     1
 72
     1
  1
10,5
  7
SLDTEXTSTYLE0
 11
-7.044195017643634E-15
 21
1.0
 31
0.0
 73
     1
 44
1.0
  0
ENDBLK
  5
419
330
417
100
AcDbEntity
  8
0
100
AcDbBlockEnd
  0
BLOCK
  5
425
330
424
100
AcDbEntity
  8
0
100
AcDbBlockBegin
  2
_D_20
 70
     0
 10
0.0
 20
0.0
 30
0.0
  3
_D_20
  1

  0
SOLID
  5
427
330
424
100
AcDbEntity
  8
FORMAT
100
AcDbTrace
 10
261.1479933744
 20
265.116713319
 30
0.0
 11
260.6399933744
 21
261.814713319
 31
0.0
 12
261.6559933744
 22
261.814713319
 32
0.0
 13
261.6559933744
 23
261.814713319
 33
0.0
  0
SOLID
  5
428
330
424
100
AcDbEntity
  8
FORMAT
100
AcDbTrace
 10
261.1479933744
 20
237.116713319
 30
0.0
 11
261.6559933744
 21
240.418713319
 31
0.0
 12
260.6399933744
 22
240.418713319
 32
0.0
 13
260.6399933744
 23
240.418713319
 33
0.0
  0
LINE
  5
429
330
424
100
AcDbEntity
  8
FORMAT
100
AcDbLine
 10
281.6479898953
 20
265.116713319
 30
0.0
 11
260.1479933744
 21
265.116713319
 31
0.0
  0
LINE
  5
42A
330
424
100
AcDbEntity
  8
FORMAT
100
AcDbLine
 10
281.6479898953
 20
237.116713319
 30
0.0
 11
260.1479933744
 21
237.116713319
 31
0.0
  0
LINE
  5
42B
330
424
100
AcDbEntity
  8
FORMAT
100
AcDbLine
 10
261.1479933744
 20
265.116713319
 30
0.0
 11
261.1479933744
 21
237.116713319
 31
0.0
  0
MTEXT
  5
42C
330
424
100
AcDbEntity
  8
FORMAT
100
AcDbMText
 10
256.6362560524
 20
248.4431022741
 30
0.0
 40
3.5
 41
0.0
 71
     1
 72
     1
  1
28
  7
SLDTEXTSTYLE0
 11
-7.044195017643634E-15
 21
1.0
 31
0.0
 73
     1
 44
1.0
  0
ENDBLK
  5
426
330
424
100
AcDbEntity
  8
0
100
AcDbBlockEnd
  0
BLOCK
  5
42F
330
42E
100
AcDbEntity
  8
0
100
AcDbBlockBegin
  2
SW_CENTERMARKSYMBOL_9
 70
     0
 10
0.0
 20
0.0
 30
0.0
  3
SW_CENTERMARKSYMBOL_9
  1

  0
LINE
  5
431
330
42E
100
AcDbEntity
  8
FORMAT
 62
     0
100
AcDbLine
 10
0.0
 20
0.0
 30
0.0
 11
0.0
 21
2.4999976158
 31
0.0
  0
LINE
  5
432
330
42E
100
AcDbEntity
  8
FORMAT
 62
     0
100
AcDbLine
 10
0.0
 20
0.0
 30
0.0
 11
-2.5000050664
 21
0.0
 31
0.0
  0
LINE
  5
433
330
42E
100
AcDbEntity
  8
FORMAT
 62
     0
100
AcDbLine
 10
0.0
 20
0.0
 30
0.0
 11
0.0
 21
-2.5000050664
 31
0.0
  0
LINE
  5
434
330
42E
100
AcDbEntity
  8
FORMAT
 62
     0
100
AcDbLine
 10
0.0
 20
0.0
 30
0.0
 11
2.4999976158
 21
0.0
 31
0.0
  0
LINE
  5
435
330
42E
100
AcDbEntity
  8
FORMAT
 62
     0
100
AcDbLine
 10
0.0
 20
4.9999952316
 30
0.0
 11
0.0
 21
8.7999999523
 31
0.0
  0
LINE
  5
436
330
42E
100
AcDbEntity
  8
FORMAT
 62
     0
100
AcDbLine
 10
-5.0000026822
 20
0.0
 30
0.0
 11
-8.7999999523
 21
0.0
 31
0.0
  0
LINE
  5
437
330
42E
100
AcDbEntity
  8
FORMAT
 62
     0
100
AcDbLine
 10
0.0
 20
-5.0000026822
 30
0.0
 11
0.0
 21
-8.7999999523
 31
0.0
  0
LINE
  5
438
330
42E
100
AcDbEntity
  8
FORMAT
 62
     0
100
AcDbLine
 10
4.9999952316
 20
0.0
 30
0.0
 11
8.799996227
 21
0.0
 31
0.0
  0
ENDBLK
  5
430
330
42E
100
AcDbEntity
  8
0
100
AcDbBlockEnd
  0
BLOCK
  5
43B
330
43A
100
AcDbEntity
  8
0
100
AcDbBlockBegin
  2
SW_CENTERMARKSYMBOL_10
 70
     0
 10
0.0
 20
0.0
 30
0.0
  3
SW_CENTERMARKSYMBOL_10
  1

  0
LINE
  5
43D
330
43A
100
AcDbEntity
  8
FORMAT
 62
     0
100
AcDbLine
 10
0.0
 20
0.0
 30
0.0
 11
0.0
 21
2.4999976158
 31
0.0
  0
LINE
  5
43E
330
43A
100
AcDbEntity
  8
FORMAT
 62
     0
100
AcDbLine
 10
0.0
 20
0.0
 30
0.0
 11
-2.5000050664
 21
0.0
 31
0.0
  0
LINE
  5
43F
330
43A
100
AcDbEntity
  8
FORMAT
 62
     0
100
AcDbLine
 10
0.0
 20
0.0
 30
0.0
 11
0.0
 21
-2.5000050664
 31
0.0
  0
LINE
  5
440
330
43A
100
AcDbEntity
  8
FORMAT
 62
     0
100
AcDbLine
 10
0.0
 20
0.0
 30
0.0
 11
2.4999976158
 21
0.0
 31
0.0
  0
LINE
  5
441
330
43A
100
AcDbEntity
  8
FORMAT
 62
     0
100
AcDbLine
 10
0.0
 20
4.9999952316
 30
0.0
 11
0.0
 21
7.500000298
 31
0.0
  0
LINE
  5
442
330
43A
100
AcDbEntity
  8
FORMAT
 62
     0
100
AcDbLine
 10
-5.0000026822
 20
0.0
 30
0.0
 11
-7.500000298
 21
0.0
 31
0.0
  0
LINE
  5
443
330
43A
100
AcDbEntity
  8
FORMAT
 62
     0
100
AcDbLine
 10
0.0
 20
-5.0000026822
 30
0.0
 11
0.0
 21
-7.500000298
 31
0.0
  0
LINE
  5
444
330
43A
100
AcDbEntity
  8
FORMAT
 62
     0
100
AcDbLine
 10
4.9999952316
 20
0.0
 30
0.0
 11
7.4999965727
 21
0.0
 31
0.0
  0
ENDBLK
  5
43C
330
43A
100
AcDbEntity
  8
0
100
AcDbBlockEnd
  0
BLOCK
  5
447
330
446
100
AcDbEntity
  8
0
100
AcDbBlockBegin
  2
SW_CENTERMARKSYMBOL_11
 70
     0
 10
0.0
 20
0.0
 30
0.0
  3
SW_CENTERMARKSYMBOL_11
  1

  0
LINE
  5
449
330
446
100
AcDbEntity
  8
FORMAT
 62
     0
100
AcDbLine
 10
0.0
 20
0.0
 30
0.0
 11
0.0
 21
2.5000013411
 31
0.0
  0
LINE
  5
44A
330
446
100
AcDbEntity
  8
FORMAT
 62
     0
100
AcDbLine
 10
0.0
 20
0.0
 30
0.0
 11
-2.4999976158
 21
0.0
 31
0.0
  0
LINE
  5
44B
330
446
100
AcDbEntity
  8
FORMAT
 62
     0
100
AcDbLine
 10
0.0
 20
0.0
 30
0.0
 11
0.0
 21
-2.4999976158
 31
0.0
  0
LINE
  5
44C
330
446
100
AcDbEntity
  8
FORMAT
 62
     0
100
AcDbLine
 10
0.0
 20
0.0
 30
0.0
 11
2.5000050664
 21
0.0
 31
0.0
  0
LINE
  5
44D
330
446
100
AcDbEntity
  8
FORMAT
 62
     0
100
AcDbLine
 10
0.0
 20
5.0000026822
 30
0.0
 11
0.0
 21
7.7500008047
 31
0.0
  0
LINE
  5
44E
330
446
100
AcDbEntity
  8
FORMAT
 62
     0
100
AcDbLine
 10
-4.9999952316
 20
0.0
 30
0.0
 11
-7.7499970794
 21
0.0
 31
0.0
  0
LINE
  5
44F
330
446
100
AcDbEntity
  8
FORMAT
 62
     0
100
AcDbLine
 10
0.0
 20
-4.9999989569
 30
0.0
 11
0.0
 21
-7.7499970794
 31
0.0
  0
LINE
  5
450
330
446
100
AcDbEntity
  8
FORMAT
 62
     0
100
AcDbLine
 10
5.0000026822
 20
0.0
 30
0.0
 11
7.75000453
 21
0.0
 31
0.0
  0
ENDBLK
  5
448
330
446
100
AcDbEntity
  8
0
100
AcDbBlockEnd
  0
BLOCK
  5
453
330
452
100
AcDbEntity
  8
0
100
AcDbBlockBegin
  2
SW_CENTERMARKSYMBOL_12
 70
     0
 10
0.0
 20
0.0
 30
0.0
  3
SW_CENTERMARKSYMBOL_12
  1

  0
LINE
  5
455
330
452
100
AcDbEntity
  8
FORMAT
 62
     0
100
AcDbLine
 10
0.0
 20
0.0
 30
0.0
 11
0.0
 21
2.5000013411
 31
0.0
  0
LINE
  5
456
330
452
100
AcDbEntity
  8
FORMAT
 62
     0
100
AcDbLine
 10
0.0
 20
0.0
 30
0.0
 11
-2.5000050664
 21
0.0
 31
0.0
  0
LINE
  5
457
330
452
100
AcDbEntity
  8
FORMAT
 62
     0
100
AcDbLine
 10
0.0
 20
0.0
 30
0.0
 11
0.0
 21
-2.4999976158
 31
0.0
  0
LINE
  5
458
330
452
100
AcDbEntity
  8
FORMAT
 62
     0
100
AcDbLine
 10
0.0
 20
0.0
 30
0.0
 11
2.4999976158
 21
0.0
 31
0.0
  0
LINE
  5
459
330
452
100
AcDbEntity
  8
FORMAT
 62
     0
100
AcDbLine
 10
0.0
 20
5.0000008196
 30
0.0
 11
0.0
 21
7.500000298
 31
0.0
  0
LINE
  5
45A
330
452
100
AcDbEntity
  8
FORMAT
 62
     0
100
AcDbLine
 10
-5.0000026822
 20
0.0
 30
0.0
 11
-7.500000298
 21
0.0
 31
0.0
  0
LINE
  5
45B
330
452
100
AcDbEntity
  8
FORMAT
 62
     0
100
AcDbLine
 10
0.0
 20
-4.9999989569
 30
0.0
 11
0.0
 21
-7.500000298
 31
0.0
  0
LINE
  5
45C
330
452
100
AcDbEntity
  8
FORMAT
 62
     0
100
AcDbLine
 10
4.9999952316
 20
0.0
 30
0.0
 11
7.4999965727
 21
0.0
 31
0.0
  0
ENDBLK
  5
454
330
452
100
AcDbEntity
  8
0
100
AcDbBlockEnd
  0
BLOCK
  5
45F
330
45E
100
AcDbEntity
  8
0
100
AcDbBlockBegin
  2
SW_CENTERMARKSYMBOL_13
 70
     0
 10
0.0
 20
0.0
 30
0.0
  3
SW_CENTERMARKSYMBOL_13
  1

  0
LINE
  5
461
330
45E
100
AcDbEntity
  8
FORMAT
 62
     0
100
AcDbLine
 10
0.0
 20
0.0
 30
0.0
 11
0.0
 21
2.5000013411
 31
0.0
  0
LINE
  5
462
330
45E
100
AcDbEntity
  8
FORMAT
 62
     0
100
AcDbLine
 10
0.0
 20
0.0
 30
0.0
 11
-2.5000050664
 21
0.0
 31
0.0
  0
LINE
  5
463
330
45E
100
AcDbEntity
  8
FORMAT
 62
     0
100
AcDbLine
 10
0.0
 20
0.0
 30
0.0
 11
0.0
 21
-2.5000013411
 31
0.0
  0
LINE
  5
464
330
45E
100
AcDbEntity
  8
FORMAT
 62
     0
100
AcDbLine
 10
0.0
 20
0.0
 30
0.0
 11
2.4999976158
 21
0.0
 31
0.0
  0
LINE
  5
465
330
45E
100
AcDbEntity
  8
FORMAT
 62
     0
100
AcDbLine
 10
0.0
 20
4.9999989569
 30
0.0
 11
0.0
 21
8.7999999523
 31
0.0
  0
LINE
  5
466
330
45E
100
AcDbEntity
  8
FORMAT
 62
     0
100
AcDbLine
 10
-5.0000026822
 20
0.0
 30
0.0
 11
-8.7999999523
 21
0.0
 31
0.0
  0
LINE
  5
467
330
45E
100
AcDbEntity
  8
FORMAT
 62
     0
100
AcDbLine
 10
0.0
 20
-4.9999989569
 30
0.0
 11
0.0
 21
-8.7999999523
 31
0.0
  0
LINE
  5
468
330
45E
100
AcDbEntity
  8
FORMAT
 62
     0
100
AcDbLine
 10
4.9999952316
 20
0.0
 30
0.0
 11
8.799996227
 21
0.0
 31
0.0
  0
ENDBLK
  5
460
330
45E
100
AcDbEntity
  8
0
100
AcDbBlockEnd
  0
BLOCK
  5
46B
330
46A
100
AcDbEntity
  8
0
100
AcDbBlockBegin
  2
SW_CENTERMARKSYMBOL_14
 70
     0
 10
0.0
 20
0.0
 30
0.0
  3
SW_CENTERMARKSYMBOL_14
  1

  0
LINE
  5
46D
330
46A
100
AcDbEntity
  8
FORMAT
 62
     0
100
AcDbLine
 10
0.0
 20
0.0
 30
0.0
 11
0.0
 21
2.5000013411
 31
0.0
  0
LINE
  5
46E
330
46A
100
AcDbEntity
  8
FORMAT
 62
     0
100
AcDbLine
 10
0.0
 20
0.0
 30
0.0
 11
-2.4999976158
 21
0.0
 31
0.0
  0
LINE
  5
46F
330
46A
100
AcDbEntity
  8
FORMAT
 62
     0
100
AcDbLine
 10
0.0
 20
0.0
 30
0.0
 11
0.0
 21
-2.4999994785
 31
0.0
  0
LINE
  5
470
330
46A
100
AcDbEntity
  8
FORMAT
 62
     0
100
AcDbLine
 10
0.0
 20
0.0
 30
0.0
 11
2.5000050664
 21
0.0
 31
0.0
  0
LINE
  5
471
330
46A
100
AcDbEntity
  8
FORMAT
 62
     0
100
AcDbLine
 10
0.0
 20
5.0000008196
 30
0.0
 11
0.0
 21
7.7500008047
 31
0.0
  0
LINE
  5
472
330
46A
100
AcDbEntity
  8
FORMAT
 62
     0
100
AcDbLine
 10
-4.9999952316
 20
0.0
 30
0.0
 11
-7.7499970794
 21
0.0
 31
0.0
  0
LINE
  5
473
330
46A
100
AcDbEntity
  8
FORMAT
 62
     0
100
AcDbLine
 10
0.0
 20
-4.9999989569
 30
0.0
 11
0.0
 21
-7.749998942
 31
0.0
  0
LINE
  5
474
330
46A
100
AcDbEntity
  8
FORMAT
 62
     0
100
AcDbLine
 10
5.0000026822
 20
0.0
 30
0.0
 11
69.6156618069
 21
0.0
 31
0.0
  0
ENDBLK
  5
46C
330
46A
100
AcDbEntity
  8
0
100
AcDbBlockEnd
  0
BLOCK
  5
477
330
476
100
AcDbEntity
  8
0
100
AcDbBlockBegin
  2
SW_CENTERMARKSYMBOL_15
 70
     0
 10
0.0
 20
0.0
 30
0.0
  3
SW_CENTERMARKSYMBOL_15
  1

  0
LINE
  5
479
330
476
100
AcDbEntity
  8
FORMAT
 62
     0
100
AcDbLine
 10
0.0
 20
0.0
 30
0.0
 11
0.0
 21
2.500000177
 31
0.0
  0
LINE
  5
47A
330
476
100
AcDbEntity
  8
FORMAT
 62
     0
100
AcDbLine
 10
0.0
 20
0.0
 30
0.0
 11
-2.4999976158
 21
0.0
 31
0.0
  0
LINE
  5
47B
330
476
100
AcDbEntity
  8
FORMAT
 62
     0
100
AcDbLine
 10
0.0
 20
0.0
 30
0.0
 11
0.0
 21
-2.4999999441
 31
0.0
  0
LINE
  5
47C
330
476
100
AcDbEntity
  8
FORMAT
 62
     0
100
AcDbLine
 10
0.0
 20
0.0
 30
0.0
 11
2.5000050664
 21
0.0
 31
0.0
  0
LINE
  5
47D
330
476
100
AcDbEntity
  8
FORMAT
 62
     0
100
AcDbLine
 10
0.0
 20
5.0000002084
 30
0.0
 11
0.0
 21
7.7500001062
 31
0.0
  0
LINE
  5
47E
330
476
100
AcDbEntity
  8
FORMAT
 62
     0
100
AcDbLine
 10
-4.9999952316
 20
0.0
 30
0.0
 11
-7.7499970794
 21
0.0
 31
0.0
  0
LINE
  5
47F
330
476
100
AcDbEntity
  8
FORMAT
 62
     0
100
AcDbLine
 10
0.0
 20
-4.9999994226
 30
0.0
 11
0.0
 21
-7.7499994077
 31
0.0
  0
LINE
  5
480
330
476
100
AcDbEntity
  8
FORMAT
 62
     0
100
AcDbLine
 10
5.0000026822
 20
0.0
 30
0.0
 11
7.75000453
 21
0.0
 31
0.0
  0
ENDBLK
  5
478
330
476
100
AcDbEntity
  8
0
100
AcDbBlockEnd
  0
BLOCK
  5
4FC
330
4FB
100
AcDbEntity
  8
0
100
AcDbBlockBegin
  2
SW_HATCH_0
 70
     0
 10
0.0
 20
0.0
 30
0.0
  3
SW_HATCH_0
  1

  0
LINE
  5
4FE
330
4FB
100
AcDbEntity
  8
0
  6
Continuous
 62
     0
370
    18
100
AcDbLine
 10
0.0
 20
0.0
 30
0.0
 11
-0.4541091621
 21
-0.4541128874
 31
0.0
  0
LINE
  5
4FF
330
4FB
100
AcDbEntity
  8
0
  6
Continuous
 62
     0
370
    18
100
AcDbLine
 10
2.045892179
 20
-2.4442374706
 30
0.0
 11
-0.4541091621
 21
-4.9442350864
 31
0.0
  0
LINE
  5
500
330
4FB
100
AcDbEntity
  8
0
  6
Continuous
 62
     0
370
    18
100
AcDbLine
 10
4.9802549183
 20
-4.0000081062
 30
0.0
 11
1.9802562892
 21
-6.9999992847
 31
0.0
  0
LINE
  5
501
330
4FB
100
AcDbEntity
  8
0
  6
Continuous
 62
     0
370
    18
100
AcDbLine
 10
9.470384568
 20
-4.0000081062
 30
0.0
 11
6.4703859389
 21
-6.9999992847
 31
0.0
  0
LINE
  5
502
330
4FB
100
AcDbEntity
  8
0
  6
Continuous
 62
     0
370
    18
100
AcDbLine
 10
0.1289770007
 20
36.0499918461
 30
0.0
 11
-0.4541091621
 21
35.4669094086
 31
0.0
  0
LINE
  5
503
330
4FB
100
AcDbEntity
  8
0
  6
Continuous
 62
     0
370
    18
100
AcDbLine
 10
2.045892179
 20
33.4767848253
 30
0.0
 11
-0.4541091621
 21
30.9767872095
 31
0.0
  0
LINE
  5
504
330
4FB
100
AcDbEntity
  8
0
  6
Continuous
 62
     0
370
    18
100
AcDbLine
 10
4.6191029251
 20
36.0499918461
 30
0.0
 11
2.1191053092
 21
33.5499942303
 31
0.0
  0
LINE
  5
505
330
4FB
100
AcDbEntity
  8
0
  6
Continuous
 62
     0
370
    18
100
AcDbLine
 10
2.045892179
 20
28.9866626263
 30
0.0
 11
-0.4541091621
 21
26.4866501093
 31
0.0
  0
LINE
  5
506
330
4FB
100
AcDbEntity
  8
0
  6
Continuous
 62
     0
370
    18
100
AcDbLine
 10
9.1092325747
 20
36.0499918461
 30
0.0
 11
5.0458908081
 21
31.9866538048
 31
0.0
  0
LINE
  5
507
330
4FB
100
AcDbEntity
  8
0
  6
Continuous
 62
     0
370
    18
100
AcDbLine
 10
2.5458931923
 20
24.9965339899
 30
0.0
 11
-0.4541091621
 21
21.9965279102
 31
0.0
  0
LINE
  5
508
330
4FB
100
AcDbEntity
  8
0
  6
Continuous
 62
     0
370
    18
100
AcDbLine
 10
10.045889765
 20
32.4965268373
 30
0.0
 11
8.0458931625
 21
30.4965227842
 31
0.0
  0
LINE
  5
509
330
4FB
100
AcDbEntity
  8
0
  6
Continuous
 62
     0
370
    18
100
AcDbLine
 10
2.045892179
 20
20.006403327
 30
0.0
 11
-0.4541091621
 21
17.5064057112
 31
0.0
  0
LINE
  5
50A
330
4FB
100
AcDbEntity
  8
0
  6
Continuous
 62
     0
370
    18
100
AcDbLine
 10
2.045892179
 20
15.5162662268
 30
0.0
 11
-0.4541091621
 21
13.016268611
 31
0.0
  0
LINE
  5
50B
330
4FB
100
AcDbEntity
  8
0
  6
Continuous
 62
     0
370
    18
100
AcDbLine
 10
5.5796168745
 20
19.0500020981
 30
0.0
 11
4.0796175599
 21
17.5499916077
 31
0.0
  0
LINE
  5
50C
330
4FB
100
AcDbEntity
  8
0
  6
Continuous
 62
     0
370
    18
100
AcDbLine
 10
2.045892179
 20
11.0261440277
 30
0.0
 11
1.0197460651
 21
9.9999904633
 31
0.0
  0
LINE
  5
50D
330
4FB
100
AcDbEntity
  8
0
  6
Continuous
 62
     0
370
    18
100
AcDbLine
 10
9.545892477
 20
18.5261517763
 30
0.0
 11
8.5697434843
 21
17.5499916077
 31
0.0
  0
LINE
  5
50E
330
4FB
100
AcDbEntity
  8
0
  6
Continuous
 62
     0
370
    18
100
AcDbLine
 10
17.6482666284
 20
-4.8023760319
 30
0.0
 11
18.450640142
 21
-4.0000081062
 31
0.0
  0
LINE
  5
50F
330
4FB
100
AcDbEntity
  8
0
  6
Continuous
 62
     0
370
    18
100
AcDbLine
 10
19.9407692999
 20
-6.9999992847
 30
0.0
 11
22.9407697916
 21
-4.0000081062
 31
0.0
  0
LINE
  5
510
330
4FB
100
AcDbEntity
  8
0
  6
Continuous
 62
     0
370
    18
100
AcDbLine
 10
24.4308970869
 20
-6.9999992847
 30
0.0
 11
27.4308975786
 21
-4.0000081062
 31
0.0
  0
LINE
  5
511
330
4FB
100
AcDbEntity
  8
0
  6
Continuous
 62
     0
370
    18
100
AcDbLine
 10
28.9210248739
 20
-6.9999992847
 30
0.0
 11
31.9210253656
 21
-4.0000081062
 31
0.0
  0
LINE
  5
512
330
4FB
100
AcDbEntity
  8
0
  6
Continuous
 62
     0
370
    18
100
AcDbLine
 10
33.4111526608
 20
-6.9999992847
 30
0.0
 11
36.4111531526
 21
-4.0000081062
 31
0.0
  0
LINE
  5
513
330
4FB
100
AcDbEntity
  8
0
  6
Continuous
 62
     0
370
    18
100
AcDbLine
 10
37.9012813792
 20
-6.9999992847
 30
0.0
 11
40.9012811724
 21
-4.0000081062
 31
0.0
  0
LINE
  5
514
330
4FB
100
AcDbEntity
  8
0
  6
Continuous
 62
     0
370
    18
100
AcDbLine
 10
42.3914091662
 20
-6.9999992847
 30
0.0
 11
45.3914091922
 21
-4.0000081062
 31
0.0
  0
LINE
  5
515
330
4FB
100
AcDbEntity
  8
0
  6
Continuous
 62
     0
370
    18
100
AcDbLine
 10
53.1102530658
 20
-0.7712841034
 30
0.0
 11
54.0815368295
 21
0.2000033855
 31
0.0
  0
LINE
  5
516
330
4FB
100
AcDbEntity
  8
0
  6
Continuous
 62
     0
370
    18
100
AcDbLine
 10
46.881537186
 20
-6.9999992847
 30
0.0
 11
49.8815374449
 21
-4.0000081062
 31
0.0
  0
LINE
  5
517
330
4FB
100
AcDbEntity
  8
0
  6
Continuous
 62
     0
370
    18
100
AcDbLine
 10
54.7537533566
 20
-3.6179125309
 30
0.0
 11
58.5009679198
 21
0.1292973757
 31
0.0
  0
LINE
  5
518
330
4FB
100
AcDbEntity
  8
0
  6
Continuous
 62
     0
370
    18
100
AcDbLine
 10
51.3716652058
 20
-6.9999992847
 30
0.0
 11
54.3716652319
 21
-4.0000081062
 31
0.0
  0
LINE
  5
519
330
4FB
100
AcDbEntity
  8
0
  6
Continuous
 62
     0
370
    18
100
AcDbLine
 10
55.8617934585
 20
-6.9999992847
 30
0.0
 11
59.5458913594
 21
-3.315910697
 31
0.0
  0
LINE
  5
51A
330
4FB
100
AcDbEntity
  8
0
  6
Continuous
 62
     0
370
    18
100
AcDbLine
 10
56.5458908677
 20
-10.8060389757
 30
0.0
 11
59.5458913594
 21
-7.806032896
 31
0.0
  0
LINE
  5
51B
330
4FB
100
AcDbEntity
  8
0
  6
Continuous
 62
     0
370
    18
100
AcDbLine
 10
47.5436290726
 20
-19.8082923889
 30
0.0
 11
49.6443645097
 21
-17.7075564861
 31
0.0
  0
LINE
  5
51C
330
4FB
100
AcDbEntity
  8
0
  6
Continuous
 62
     0
370
    18
100
AcDbLine
 10
56.5458908677
 20
-15.2961611748
 30
0.0
 11
59.5458913594
 21
-12.2961550951
 31
0.0
  0
LINE
  5
51D
330
4FB
100
AcDbEntity
  8
0
  6
Continuous
 62
     0
370
    18
100
AcDbLine
 10
49.840840511
 20
-22.0012068748
 30
0.0
 11
54.6420495957
 21
-17.2000080347
 31
0.0
  0
LINE
  5
51E
330
4FB
100
AcDbEntity
  8
0
  6
Continuous
 62
     0
370
    18
100
AcDbLine
 10
54.330968298
 20
-22.0012068748
 30
0.0
 11
59.5458913594
 21
-16.7862921953
 31
0.0
  0
LINE
  5
51F
330
4FB
100
AcDbEntity
  8
0
  6
Continuous
 62
     0
370
    18
100
AcDbLine
 10
65.9615509212
 20
-14.8607641459
 30
0.0
 11
68.6286538839
 21
-12.1936500072
 31
0.0
  0
LINE
  5
520
330
4FB
100
AcDbEntity
  8
0
  6
Continuous
 62
     0
370
    18
100
AcDbLine
 10
58.8210970163
 20
-22.0012068748
 30
0.0
 11
63.8723056763
 21
-16.9499963522
 31
0.0
  0
LINE
  5
521
330
4FB
100
AcDbEntity
  8
0
  6
Continuous
 62
     0
370
    18
100
AcDbLine
 10
70.6187821925
 20
-14.6936476231
 30
0.0
 11
71.4615508914
 21
-13.8508826494
 31
0.0
  0
LINE
  5
522
330
4FB
100
AcDbEntity
  8
0
  6
Continuous
 62
     0
370
    18
100
AcDbLine
 10
63.3112248033
 20
-22.0012068748
 30
0.0
 11
68.4615503997
 21
-16.8508887291
 31
0.0
  0
LINE
  5
523
330
4FB
100
AcDbEntity
  8
0
  6
Continuous
 62
     0
370
    18
100
AcDbLine
 10
67.8013525903
 20
-22.0012068748
 30
0.0
 11
70.8089098334
 21
-18.9936608076
 31
0.0
  0
LINE
  5
524
330
4FB
100
AcDbEntity
  8
0
  6
Continuous
 62
     0
370
    18
100
AcDbLine
 10
80.461550504
 20
-13.8311386108
 30
0.0
 11
82.0990391076
 21
-12.1936500072
 31
0.0
  0
LINE
  5
525
330
4FB
100
AcDbEntity
  8
0
  6
Continuous
 62
     0
370
    18
100
AcDbLine
 10
72.2914803773
 20
-22.0012068748
 30
0.0
 11
75.2990376204
 21
-18.9936608076
 31
0.0
  0
LINE
  5
526
330
4FB
100
AcDbEntity
  8
0
  6
Continuous
 62
     0
370
    18
100
AcDbLine
 10
83.4615491331
 20
-15.3212696314
 30
0.0
 11
85.9615504742
 21
-12.8212720156
 31
0.0
  0
LINE
  5
527
330
4FB
100
AcDbEntity
  8
0
  6
Continuous
 62
     0
370
    18
100
AcDbLine
 10
76.7816081643
 20
-22.0012068748
 30
0.0
 11
79.7891654074
 21
-18.9936608076
 31
0.0
  0
LINE
  5
528
330
4FB
100
AcDbEntity
  8
0
  6
Continuous
 62
     0
370
    18
100
AcDbLine
 10
81.2717378139
 20
-22.0012068748
 30
0.0
 11
85.9615504742
 21
-17.3113942146
 31
0.0
  0
LINE
  5
529
330
4FB
100
AcDbEntity
  8
0
  6
Continuous
 62
     0
370
    18
100
AcDbLine
 10
85.7618637383
 20
-22.0012068748
 30
0.0
 11
88.7694209814
 21
-18.9936608076
 31
0.0
  0
ENDBLK
  5
4FD
330
4FB
100
AcDbEntity
  8
0
100
AcDbBlockEnd
  0
BLOCK
  5
52E
330
52D
100
AcDbEntity
  8
0
100
AcDbBlockBegin
  2
_D_21
 70
     0
 10
0.0
 20
0.0
 30
0.0
  3
_D_21
  1

  0
SOLID
  5
530
330
52D
100
AcDbEntity
  8
FORMAT
100
AcDbTrace
 10
262.679689126
 20
98.733919476
 30
0.0
 11
263.187689126
 21
102.035919476
 31
0.0
 12
262.171689126
 22
102.035919476
 32
0.0
 13
262.171689126
 23
102.035919476
 33
0.0
  0
SOLID
  5
531
330
52D
100
AcDbEntity
  8
FORMAT
100
AcDbTrace
 10
262.679689126
 20
94.733919476
 30
0.0
 11
262.171689126
 21
91.431919476
 31
0.0
 12
263.187689126
 22
91.431919476
 32
0.0
 13
263.187689126
 23
91.431919476
 33
0.0
  0
LINE
  5
532
330
52D
100
AcDbEntity
  8
FORMAT
100
AcDbLine
 10
270.1479898953
 20
98.733919476
 30
0.0
 11
261.679689126
 21
98.733919476
 31
0.0
  0
LINE
  5
533
330
52D
100
AcDbEntity
  8
FORMAT
100
AcDbLine
 10
277.6432906292
 20
94.733919476
 30
0.0
 11
261.679689126
 21
94.733919476
 31
0.0
  0
LINE
  5
534
330
52D
100
AcDbEntity
  8
FORMAT
100
AcDbLine
 10
262.679689126
 20
98.733919476
 30
0.0
 11
262.679689126
 21
105.083919476
 31
0.0
  0
LINE
  5
535
330
52D
100
AcDbEntity
  8
FORMAT
100
AcDbLine
 10
262.679689126
 20
98.733919476
 30
0.0
 11
262.679689126
 21
94.733919476
 31
0.0
  0
LINE
  5
536
330
52D
100
AcDbEntity
  8
FORMAT
100
AcDbLine
 10
262.679689126
 20
94.733919476
 30
0.0
 11
262.679689126
 21
88.383919476
 31
0.0
  0
MTEXT
  5
537
330
52D
100
AcDbEntity
  8
FORMAT
100
AcDbMText
 10
258.167951804
 20
95.3971139536
 30
0.0
 40
3.5
 41
0.0
 71
     1
 72
     1
  1
4
  7
SLDTEXTSTYLE0
 11
-6.156016597943509E-15
 21
1.0
 31
0.0
 73
     1
 44
1.0
  0
ENDBLK
  5
52F
330
52D
100
AcDbEntity
  8
0
100
AcDbBlockEnd
  0
BLOCK
  5
53B
330
53A
100
AcDbEntity
  8
0
100
AcDbBlockBegin
  2
_D_22
 70
     0
 10
0.0
 20
0.0
 30
0.0
  3
_D_22
  1

  0
SOLID
  5
53D
330
53A
100
AcDbEntity
  8
FORMAT
100
AcDbTrace
 10
273.6479898953
 20
110.1336845875
 30
0.0
 11
276.9499898953
 21
109.6256845875
 31
0.0
 12
276.9499898953
 22
110.6416845875
 32
0.0
 13
276.9499898953
 23
110.6416845875
 33
0.0
  0
SOLID
  5
53E
330
53A
100
AcDbEntity
  8
FORMAT
100
AcDbTrace
 10
285.6479898953
 20
110.1336845875
 30
0.0
 11
282.3459898953
 21
110.6416845875
 31
0.0
 12
282.3459898953
 22
109.6256845875
 32
0.0
 13
282.3459898953
 23
109.6256845875
 33
0.0
  0
LINE
  5
53F
330
53A
100
AcDbEntity
  8
FORMAT
100
AcDbLine
 10
285.6479898953
 20
89.7265387038
 30
0.0
 11
285.6479898953
 21
111.1336845875
 31
0.0
  0
LINE
  5
540
330
53A
100
AcDbEntity
  8
FORMAT
100
AcDbLine
 10
273.6479898953
 20
110.1336845875
 30
0.0
 11
285.6479898953
 21
110.1336845875
 31
0.0
  0
MTEXT
  5
541
330
53A
100
AcDbEntity
  8
FORMAT
100
AcDbMText
 10
276.9743788504
 20
114.6454219095
 30
0.0
 40
3.5
 41
0.0
 71
     1
 72
     1
  1
12
  7
SLDTEXTSTYLE0
 73
     1
 44
1.0
  0
ENDBLK
  5
53C
330
53A
100
AcDbEntity
  8
0
100
AcDbBlockEnd
  0
BLOCK
  5
544
330
543
100
AcDbEntity
  8
0
100
AcDbBlockBegin
  2
_D_23
 70
     0
 10
0.0
 20
0.0
 30
0.0
  3
_D_23
  1

  0
SOLID
  5
546
330
543
100
AcDbEntity
  8
FORMAT
100
AcDbTrace
 10
282.3479898953
 20
102.018011745
 30
0.0
 11
279.0459898953
 21
102.526011745
 31
0.0
 12
279.0459898953
 22
101.510011745
 32
0.0
 13
279.0459898953
 23
101.510011745
 33
0.0
  0
SOLID
  5
547
330
543
100
AcDbEntity
  8
FORMAT
100
AcDbTrace
 10
288.9479898953
 20
102.018011745
 30
0.0
 11
292.2499898953
 21
101.510011745
 31
0.0
 12
292.2499898953
 22
102.526011745
 32
0.0
 13
292.2499898953
 23
102.526011745
 33
0.0
  0
LINE
  5
548
330
543
100
AcDbEntity
  8
FORMAT
100
AcDbLine
 10
282.3479898953
 20
95.233919476
 30
0.0
 11
282.3479898953
 21
103.018011745
 31
0.0
  0
LINE
  5
549
330
543
100
AcDbEntity
  8
FORMAT
100
AcDbLine
 10
288.9479898953
 20
95.233919476
 30
0.0
 11
288.9479898953
 21
103.018011745
 31
0.0
  0
LINE
  5
54A
330
543
100
AcDbEntity
  8
FORMAT
100
AcDbLine
 10
282.3479898953
 20
102.018011745
 30
0.0
 11
275.9979898953
 21
102.018011745
 31
0.0
  0
LINE
  5
54B
330
543
100
AcDbEntity
  8
FORMAT
100
AcDbLine
 10
282.3479898953
 20
102.018011745
 30
0.0
 11
288.9479898953
 21
102.018011745
 31
0.0
  0
LINE
  5
54C
330
543
100
AcDbEntity
  8
FORMAT
100
AcDbLine
 10
288.9479898953
 20
102.018011745
 30
0.0
 11
302.954778177
 21
102.018011745
 31
0.0
  0
MTEXT
  5
54D
330
543
100
AcDbEntity
  8
FORMAT
100
AcDbMText
 10
291.1677994852
 20
106.5297488342
 30
0.0
 40
3.5
 41
0.0
 71
     1
 72
     1
  1
%%c
  7
SLDTEXTSTYLE0
 73
     1
 44
1.0
  0
MTEXT
  5
54E
330
543
100
AcDbEntity
  8
FORMAT
100
AcDbMText
 10
296.2707510305
 20
106.5394711434
 30
0.0
 40
3.5
 41
0.0
 71
     1
 72
     1
  1
6,6
  7
SLDTEXTSTYLE0
 73
     1
 44
1.0
  0
ENDBLK
  5
545
330
543
100
AcDbEntity
  8
0
100
AcDbBlockEnd
  0
BLOCK
  5
552
330
551
100
AcDbEntity
  8
0
100
AcDbBlockBegin
  2
_D_24
 70
     0
 10
0.0
 20
0.0
 30
0.0
  3
_D_24
  1

  0
ARC
  5
554
330
551
100
AcDbEntity
  8
FORMAT
100
AcDbCircle
 10
285.6479898953
 20
97.533919476
 30
0.0
 40
15.0901267944058
100
AcDbArc
 50
225.0
 51
315.0
  0
SOLID
  5
555
330
551
100
AcDbEntity
  8
FORMAT
100
AcDbTrace
 10
274.97765891
 20
86.8635884907
 30
0.0
 11
277.2314882286
 21
84.3975144037
 31
0.0
 12
277.86851261
 22
85.1890040989
 32
0.0
 13
277.86851261
 23
85.1890040989
 33
0.0
  0
SOLID
  5
556
330
551
100
AcDbEntity
  8
FORMAT
100
AcDbTrace
 10
296.3183208806
 20
86.8635884907
 30
0.0
 11
293.4274671806
 21
85.1890040989
 31
0.0
 12
294.064491562
 22
84.3975144037
 32
0.0
 13
294.064491562
 23
84.3975144037
 33
0.0
  0
LINE
  5
557
330
551
100
AcDbEntity
  8
FORMAT
100
AcDbLine
 10
279.1408831141
 20
91.0268126948
 30
0.0
 11
274.2705521288
 21
86.1564817095
 31
0.0
  0
LINE
  5
558
330
551
100
AcDbEntity
  8
FORMAT
100
AcDbLine
 10
292.1550966765
 20
91.0268126948
 30
0.0
 11
297.0254276618
 21
86.1564817095
 31
0.0
  0
MTEXT
  5
559
330
551
100
AcDbEntity
  8
FORMAT
100
AcDbMText
 10
282.0118788556
 20
86.9555300036
 30
0.0
 40
3.5
 41
0.0
 71
     1
 72
     1
  1
90°
  7
SLDTEXTSTYLE0
 73
     1
 44
1.0
  0
ENDBLK
  5
553
330
551
100
AcDbEntity
  8
0
100
AcDbBlockEnd
  0
ENDSEC
  0
SECTION
  2
ENTITIES
  0
LINE
  5
F9
330
1F
100
AcDbEntity
  8
FORMAT
  6
Continuous
370
    25
100
AcDbLine
 10
391.4361486486
 20
409.8872569821
 30
0.0
 11
186.9654496776
 21
409.8872569821
 31
0.0
  0
LINE
  5
FA
330
1F
100
AcDbEntity
  8
FORMAT
  6
Continuous
 62
     7
370
    18
100
AcDbLine
 10
552.4485281661
 20
35.6464717326
 30
0.0
 11
477.9807868016
 21
35.6464717326
 31
0.0
  0
LINE
  5
FB
330
1F
100
AcDbEntity
  8
FORMAT
  6
Continuous
 62
     7
370
    18
100
AcDbLine
 10
552.4485281661
 20
48.7420674192
 30
0.0
 11
584.0
 21
48.7420674192
 31
0.0
  0
LINE
  5
FC
330
1F
100
AcDbEntity
  8
FORMAT
100
AcDbLine
 10
584.0
 20
410.0
 30
0.0
 11
10.0
 21
410.0
 31
0.0
  0
LINE
  5
FD
330
1F
100
AcDbEntity
  8
FORMAT
100
AcDbLine
 10
10.0
 20
10.0
 30
0.0
 11
584.0
 21
10.0
 31
0.0
  0
LINE
  5
FE
330
1F
100
AcDbEntity
  8
FORMAT
  6
Continuous
 62
     7
370
    18
100
AcDbLine
 10
538.7662011232
 20
35.6464717326
 30
0.0
 11
538.7662011232
 21
25.9765524102
 31
0.0
  0
LINE
  5
FF
330
1F
100
AcDbEntity
  8
FORMAT
100
AcDbLine
 10
584.0
 20
10.0
 30
0.0
 11
584.0
 21
410.0
 31
0.0
  0
LINE
  5
100
330
1F
100
AcDbEntity
  8
BEMASSUNG
  6
Continuous
 62
     7
370
    18
100
AcDbLine
 10
552.4485281661
 20
40.5638075942
 30
0.0
 11
584.0
 21
40.5638075942
 31
0.0
  0
LINE
  5
101
330
1F
100
AcDbEntity
  8
FORMAT
 62
     7
370
    18
100
AcDbLine
 10
477.9807868016
 20
52.5731122919
 30
0.0
 11
477.9807868016
 21
10.0
 31
0.0
  0
LINE
  5
102
330
1F
100
AcDbEntity
  8
FORMAT
 62
     7
100
AcDbLine
 10
569.2554595171
 20
10.0
 30
0.0
 11
569.2554595171
 21
19.3470401503
 31
0.0
  0
LINE
  5
103
330
1F
100
AcDbEntity
  8
FORMAT
 62
     7
100
AcDbLine
 10
477.9807868016
 20
25.9765524102
 30
0.0
 11
584.0
 21
25.9765524102
 31
0.0
  0
LINE
  5
104
330
1F
100
AcDbEntity
  8
FORMAT
 62
     7
100
AcDbLine
 10
552.4485281661
 20
19.3470401503
 30
0.0
 11
584.0
 21
19.3470401503
 31
0.0
  0
LINE
  5
105
330
1F
100
AcDbEntity
  8
FORMAT
 62
     7
100
AcDbLine
 10
477.9807868016
 20
52.5731122919
 30
0.0
 11
584.0133818865
 21
52.5731122919
 31
0.0
  0
LINE
  5
106
330
1F
100
AcDbEntity
  8
FORMAT
 62
     7
100
AcDbLine
 10
552.4485281661
 20
10.0
 30
0.0
 11
552.4485281661
 21
52.5731122919
 31
0.0
  0
LINE
  5
107
330
1F
100
AcDbEntity
  8
FORMAT
100
AcDbLine
 10
10.0
 20
410.0
 30
0.0
 11
10.0
 21
10.0
 31
0.0
  0
INSERT
  5
108
330
1F
100
AcDbEntity
  8
0
  6
Continuous
 62
     7
100
AcDbBlockReference
  2
Block1_4
 10
559.8580737497
 20
27.0956685316
 30
0.0
  0
INSERT
  5
109
330
1F
100
AcDbEntity
  8
0
  6
Continuous
 62
     7
100
AcDbBlockReference
  2
Block2_4
 10
247.0697431328
 20
-36.8671961253
 30
0.0
  0
MTEXT
  5
10B
330
1F
100
AcDbEntity
  8
0
  6
Continuous
 62
     7
370
     0
100
AcDbMText
 10
479.3437582251
 20
31.2949773348
 30
0.0
 40
3.175
 41
0.0
 71
     1
 72
     1
  1
D042-38413
  7
SLDTEXTSTYLE3
 73
     1
 44
1.0
  0
MTEXT
  5
10C
330
1F
100
AcDbEntity
  8
BEMASSUNG
 62
     7
100
AcDbMText
 10
553.7763905777
 20
47.9755397851
 30
0.0
 40
2.0
 41
0.0
 71
     1
 72
     1
  1
Ausführung:
  7
SLDTEXTSTYLE0
 73
     1
 44
1.0
  0
MTEXT
  5
10D
330
1F
100
AcDbEntity
  8
FORMAT
100
AcDbMText
 10
542.2434271781
 20
34.2372658327
 30
0.0
 40
2.0
 41
0.0
 71
     1
 72
     1
  1
Index:
  7
SLDTEXTSTYLE0
 73
     1
 44
1.0
  0
MTEXT
  5
10E
330
1F
100
AcDbEntity
  8
FORMAT
100
AcDbMText
 10
555.5261115553
 20
51.6401066847
 30
0.0
 40
1.8
 41
0.0
 71
     1
 72
     1
  1
KATALOGZEICHNUNG
  7
SLDTEXTSTYLE3
 73
     1
 44
1.0
  0
MTEXT
  5
10F
330
1F
100
AcDbEntity
  8
FORMAT
100
AcDbMText
 10
479.6285527947
 20
35.0066019157
 30
0.0
 40
2.0
 41
0.0
 71
     1
 72
     1
  1
Zeichnungsnummer:
  7
SLDTEXTSTYLE0
 73
     1
 44
1.0
  0
MTEXT
  5
110
330
1F
100
AcDbEntity
  8
FORMAT
100
AcDbMText
 10
563.5143577849
 20
14.3197534241
 30
0.0
 40
2.1166666667
 41
0.0
 71
     1
 72
     1
  1
2
  7
SLDTEXTSTYLE0
 73
     1
 44
1.0
  0
MTEXT
  5
111
330
1F
100
AcDbEntity
  8
FORMAT
100
AcDbMText
 10
557.4418360635
 20
14.3197534241
 30
0.0
 40
2.1166666667
 41
0.0
 71
     1
 72
     1
  1
2
  7
SLDTEXTSTYLE0
 73
     1
 44
1.0
  0
MTEXT
  5
112
330
1F
100
AcDbEntity
  8
FORMAT
100
AcDbMText
 10
575.2135811923
 20
14.3097390777
 30
0.0
 40
2.1166666667
 41
0.0
 71
     1
 72
     1
  1
A2
  7
SLDTEXTSTYLE0
 73
     1
 44
1.0
  0
MTEXT
  5
113
330
1F
100
AcDbEntity
  8
FORMAT
100
AcDbMText
 10
567.7935306486
 20
23.7403696931
 30
0.0
 40
2.1166666667
 41
0.0
 71
     1
 72
     1
  1
1:1
  7
SLDTEXTSTYLE0
 73
     1
 44
1.0
  0
MTEXT
  5
114
330
1F
100
AcDbEntity
  8
FORMAT
100
AcDbMText
 10
561.2188625262
 20
14.4244955189
 30
0.0
 40
2.5
 41
0.0
 71
     2
 72
     1
  1
/
  7
SLDTEXTSTYLE0
 73
     1
 44
1.0
  0
MTEXT
  5
115
330
1F
100
AcDbEntity
  8
FORMAT
100
AcDbMText
 10
555.2228552181
 20
17.9289543804
 30
0.0
 40
2.0
 41
0.0
 71
     1
 72
     1
  1
Blatt / von
  7
SLDTEXTSTYLE0
 73
     1
 44
1.0
  0
MTEXT
  5
116
330
1F
100
AcDbEntity
  8
FORMAT
100
AcDbMText
 10
479.3201484029
 20
51.7452513937
 30
0.0
 40
2.0
 41
0.0
 71
     1
 72
     1
  1
Benennung:
  7
SLDTEXTSTYLE0
 73
     1
 44
1.0
  0
MTEXT
  5
117
330
1F
100
AcDbEntity
  8
FORMAT
100
AcDbMText
 10
572.5728183857
 20
17.9289543804
 30
0.0
 40
2.0
 41
0.0
 71
     1
 72
     1
  1
Format
  7
SLDTEXTSTYLE0
 73
     1
 44
1.0
  0
MTEXT
  5
118
330
1F
100
AcDbEntity
  8
FORMAT
100
AcDbMText
 10
553.9012852158
 20
23.6119228032
 30
0.0
 40
2.0
 41
0.0
 71
     1
 72
     1
  1
Maßstab:
  7
SLDTEXTSTYLE0
 73
     1
 44
1.0
  0
MTEXT
  5
119
330
1F
100
AcDbEntity
  8
FORMAT
100
AcDbMText
 10
544.9125245099
 20
30.055540019
 30
0.0
 40
2.5
 41
0.0
 71
     1
 72
     1
  1
a
  7
SLDTEXTSTYLE3
 73
     1
 44
1.0
  0
MTEXT
  5
11A
330
1F
100
AcDbEntity
  8
FORMAT
100
AcDbMText
 10
479.0530809004
 20
40.1412111551
 30
0.0
 40
2.5
 41
0.0
 71
     1
 72
     1
  1
Aufnahmeelement OBX-31XX-3D
  7
SLDTEXTSTYLE3
 73
     1
 44
1.0
  0
MTEXT
  5
11B
330
1F
100
AcDbEntity
  8
FORMAT
100
AcDbMText
 10
479.0811759552
 20
43.5764214053
 30
0.0
 40
2.5
 41
0.0
 71
     1
 72
     1
  1
Funktionsblock C
  7
SLDTEXTSTYLE3
 73
     1
 44
1.0
  0
MTEXT
  5
11C
330
1F
100
AcDbEntity
  8
FORMAT
100
AcDbMText
 10
479.0811759552
 20
48.1721199954
 30
0.0
 40
3.5
 41
0.0
 71
     1
 72
     1
  1
Zusammenbau
  7
SLDTEXTSTYLE3
 73
     1
 44
1.0
  0
INSERT
  5
129
330
1F
100
AcDbEntity
  8
FORMAT
100
AcDbBlockReference
  2
SW_NOTE_0_7
 10
477.3563365029
 20
81.8756277673
 30
0.0
  0
LWPOLYLINE
  5
12A
330
1F
100
AcDbEntity
  8
0
  6
Continuous
 62
     7
370
    25
100
AcDbPolyline
 90
        7
 70
   128
 43
0.0
 10
123.1074650618
 20
211.7576498799
 10
123.1742435881
 20
211.2117607227
 10
123.3883118575
 20
210.6533657512
 10
123.7594830169
 20
210.1160206198
 10
124.279037937
 20
209.6363295363
 10
125.6350862235
 20
208.9682849767
 10
127.1074650618
 20
208.7576498799
  0
LWPOLYLINE
  5
12B
330
1F
100
AcDbEntity
  8
0
  6
Continuous
 62
     7
370
    25
100
AcDbPolyline
 90
        7
 70
   128
 43
0.0
 10
127.1074650618
 20
350.7576498799
 10
125.6350862235
 20
350.5470147831
 10
124.279037937
 20
349.8789702235
 10
123.7594830169
 20
349.3992791401
 10
123.3883118575
 20
348.8619340086
 10
123.1742435881
 20
348.3035390371
 10
123.1074650618
 20
347.7576498799
  0
LINE
  5
12C
330
1F
100
AcDbEntity
  8
0
  6
Continuous
 62
     7
370
    25
100
AcDbLine
 10
144.1074650618
 20
369.7576498799
 30
0.0
 11
141.1074650618
 21
369.7576498799
 31
0.0
  0
LINE
  5
12D
330
1F
100
AcDbEntity
  8
0
  6
Continuous
 62
     7
370
    25
100
AcDbLine
 10
141.1074650618
 20
189.7576498799
 30
0.0
 11
144.1074650618
 21
189.7576498799
 31
0.0
  0
ARC
  5
12E
330
1F
100
AcDbEntity
  8
0
  6
Continuous
 62
     7
370
    25
100
AcDbCircle
 10
140.1074650618
 20
351.7576498799
 30
0.0
 40
1.0
100
AcDbArc
 50
270.0
 51
0.0
  0
ARC
  5
12F
330
1F
100
AcDbEntity
  8
0
  6
Continuous
 62
     7
370
    25
100
AcDbCircle
 10
140.1074650618
 20
207.7576498799
 30
0.0
 40
1.0
100
AcDbArc
 50
0.0
 51
90.0
  0
LINE
  5
130
330
1F
100
AcDbEntity
  8
0
  6
Continuous
 62
     7
370
    25
100
AcDbLine
 10
127.0923434126
 20
208.7576498799
 30
0.0
 11
140.1074650618
 21
208.7576498799
 31
0.0
  0
LINE
  5
131
330
1F
100
AcDbEntity
  8
0
  6
Continuous
 62
     7
370
    25
100
AcDbLine
 10
140.1074650618
 20
350.7576498799
 30
0.0
 11
127.1074650618
 21
350.7576498799
 31
0.0
  0
LINE
  5
132
330
1F
100
AcDbEntity
  8
0
  6
Continuous
 62
     7
370
    25
100
AcDbLine
 10
140.8574650618
 20
302.7576498799
 30
0.0
 11
145.2574650618
 21
303.1425999994
 31
0.0
  0
LINE
  5
133
330
1F
100
AcDbEntity
  8
0
  6
Continuous
 62
     7
370
    25
100
AcDbLine
 10
145.2574650618
 20
312.3726997604
 30
0.0
 11
140.8574650618
 21
312.7576498799
 31
0.0
  0
LINE
  5
134
330
1F
100
AcDbEntity
  8
0
  6
Continuous
 62
     7
370
    25
100
AcDbLine
 10
132.8574650618
 20
304.7576498799
 30
0.0
 11
136.8574650618
 21
304.7576498799
 31
0.0
  0
LINE
  5
135
330
1F
100
AcDbEntity
  8
0
  6
Continuous
 62
     7
370
    25
100
AcDbLine
 10
136.8574650618
 20
310.7576498799
 30
0.0
 11
132.8574650618
 21
310.7576498799
 31
0.0
  0
LINE
  5
136
330
1F
100
AcDbEntity
  8
0
  6
Continuous
 62
     7
370
    25
100
AcDbLine
 10
140.8574650618
 20
246.7576498799
 30
0.0
 11
145.2574650618
 21
247.1425999994
 31
0.0
  0
LINE
  5
137
330
1F
100
AcDbEntity
  8
0
  6
Continuous
 62
     7
370
    25
100
AcDbLine
 10
145.2574650618
 20
256.3726997604
 30
0.0
 11
140.8574650618
 21
256.7576498799
 31
0.0
  0
LINE
  5
138
330
1F
100
AcDbEntity
  8
0
  6
Continuous
 62
     7
370
    25
100
AcDbLine
 10
132.8574650618
 20
248.7576498799
 30
0.0
 11
136.8574650618
 21
248.7576498799
 31
0.0
  0
LINE
  5
139
330
1F
100
AcDbEntity
  8
0
  6
Continuous
 62
     7
370
    25
100
AcDbLine
 10
136.8574650618
 20
254.7576498799
 30
0.0
 11
132.8574650618
 21
254.7576498799
 31
0.0
  0
LINE
  5
13A
330
1F
100
AcDbEntity
  8
0
  6
Continuous
 62
     7
370
    25
100
AcDbLine
 10
140.8574650618
 20
274.7576498799
 30
0.0
 11
145.2574650618
 21
275.1425999994
 31
0.0
  0
LINE
  5
13B
330
1F
100
AcDbEntity
  8
0
  6
Continuous
 62
     7
370
    25
100
AcDbLine
 10
145.2574650618
 20
284.3726997604
 30
0.0
 11
140.8574650618
 21
284.7576498799
 31
0.0
  0
LINE
  5
13C
330
1F
100
AcDbEntity
  8
0
  6
Continuous
 62
     7
370
    25
100
AcDbLine
 10
132.8574650618
 20
276.7576498799
 30
0.0
 11
136.8574650618
 21
276.7576498799
 31
0.0
  0
LINE
  5
13D
330
1F
100
AcDbEntity
  8
0
  6
Continuous
 62
     7
370
    25
100
AcDbLine
 10
136.8574650618
 20
282.7576498799
 30
0.0
 11
132.8574650618
 21
282.7576498799
 31
0.0
  0
LINE
  5
13E
330
1F
100
AcDbEntity
  8
0
  6
Continuous
 62
     7
370
    25
100
AcDbLine
 10
142.6074650618
 20
215.7576498799
 30
0.0
 11
144.1074650618
 21
217.2576498799
 31
0.0
  0
LINE
  5
13F
330
1F
100
AcDbEntity
  8
0
  6
Continuous
 62
     7
370
    25
100
AcDbLine
 10
144.1074650618
 20
230.2576498799
 30
0.0
 11
142.6074650618
 21
231.7576498799
 31
0.0
  0
LINE
  5
140
330
1F
100
AcDbEntity
  8
0
  6
Continuous
 62
     7
370
    25
100
AcDbLine
 10
127.6074650618
 20
231.7576498799
 30
0.0
 11
126.1074650618
 21
230.2576498799
 31
0.0
  0
LINE
  5
141
330
1F
100
AcDbEntity
  8
0
  6
Continuous
 62
     7
370
    25
100
AcDbLine
 10
126.1074650618
 20
217.2576498799
 30
0.0
 11
127.6074650618
 21
215.7576498799
 31
0.0
  0
LINE
  5
142
330
1F
100
AcDbEntity
  8
0
  6
Continuous
 62
     7
370
    25
100
AcDbLine
 10
142.6074650618
 20
231.7576498799
 30
0.0
 11
140.8574650618
 21
231.7576498799
 31
0.0
  0
LINE
  5
143
330
1F
100
AcDbEntity
  8
0
  6
Continuous
 62
     7
370
    25
100
AcDbLine
 10
129.7929828885
 20
231.7576498799
 30
0.0
 11
127.6074650618
 21
231.7576498799
 31
0.0
  0
LINE
  5
144
330
1F
100
AcDbEntity
  8
0
  6
Continuous
 62
     7
370
    25
100
AcDbLine
 10
127.6074650618
 20
215.7576498799
 30
0.0
 11
132.8574650618
 21
215.7576498799
 31
0.0
  0
LINE
  5
145
330
1F
100
AcDbEntity
  8
0
  6
Continuous
 62
     7
370
    25
100
AcDbLine
 10
140.8574650618
 20
215.7576498799
 30
0.0
 11
142.6074650618
 21
215.7576498799
 31
0.0
  0
LINE
  5
146
330
1F
100
AcDbEntity
  8
0
  6
Continuous
 62
     7
370
    25
100
AcDbLine
 10
147.3574650618
 20
228.7576498799
 30
0.0
 11
144.1074650618
 21
228.7576498799
 31
0.0
  0
LINE
  5
147
330
1F
100
AcDbEntity
  8
0
  6
Continuous
 62
     7
370
    25
100
AcDbLine
 10
144.1074650618
 20
218.7576498799
 30
0.0
 11
147.3574650618
 21
218.7576498799
 31
0.0
  0
LINE
  5
148
330
1F
100
AcDbEntity
  8
0
  6
Continuous
 62
     7
370
    25
100
AcDbLine
 10
123.1074650618
 20
227.7576498799
 30
0.0
 11
122.8574650618
 21
227.7576498799
 31
0.0
  0
LINE
  5
149
330
1F
100
AcDbEntity
  8
0
  6
Continuous
 62
     7
370
    25
100
AcDbLine
 10
122.8574650618
 20
219.7576498799
 30
0.0
 11
123.1074650618
 21
219.7576498799
 31
0.0
  0
LINE
  5
14A
330
1F
100
AcDbEntity
  8
0
  6
Continuous
 62
     7
370
    25
100
AcDbLine
 10
142.6074650618
 20
327.7576498799
 30
0.0
 11
144.1074650618
 21
329.2576498799
 31
0.0
  0
LINE
  5
14B
330
1F
100
AcDbEntity
  8
0
  6
Continuous
 62
     7
370
    25
100
AcDbLine
 10
144.1074650618
 20
342.2576498799
 30
0.0
 11
142.6074650618
 21
343.7576498799
 31
0.0
  0
LINE
  5
14C
330
1F
100
AcDbEntity
  8
0
  6
Continuous
 62
     7
370
    25
100
AcDbLine
 10
127.6074650618
 20
343.7576498799
 30
0.0
 11
126.1074650618
 21
342.2576498799
 31
0.0
  0
LINE
  5
14D
330
1F
100
AcDbEntity
  8
0
  6
Continuous
 62
     7
370
    25
100
AcDbLine
 10
126.1074650618
 20
329.2576498799
 30
0.0
 11
127.6074650618
 21
327.7576498799
 31
0.0
  0
LINE
  5
14E
330
1F
100
AcDbEntity
  8
0
  6
Continuous
 62
     7
370
    25
100
AcDbLine
 10
142.6074650618
 20
343.7576498799
 30
0.0
 11
140.8574650618
 21
343.7576498799
 31
0.0
  0
LINE
  5
14F
330
1F
100
AcDbEntity
  8
0
  6
Continuous
 62
     7
370
    25
100
AcDbLine
 10
132.8574650618
 20
343.7576498799
 30
0.0
 11
127.6074650618
 21
343.7576498799
 31
0.0
  0
LINE
  5
150
330
1F
100
AcDbEntity
  8
0
  6
Continuous
 62
     7
370
    25
100
AcDbLine
 10
127.6074650618
 20
327.7576498799
 30
0.0
 11
129.7929828885
 21
327.7576498799
 31
0.0
  0
LINE
  5
151
330
1F
100
AcDbEntity
  8
0
  6
Continuous
 62
     7
370
    25
100
AcDbLine
 10
140.8574650618
 20
327.7576498799
 30
0.0
 11
142.6074650618
 21
327.7576498799
 31
0.0
  0
LINE
  5
152
330
1F
100
AcDbEntity
  8
0
  6
Continuous
 62
     7
370
    25
100
AcDbLine
 10
147.3574650618
 20
340.7576498799
 30
0.0
 11
144.1074650618
 21
340.7576498799
 31
0.0
  0
LINE
  5
153
330
1F
100
AcDbEntity
  8
0
  6
Continuous
 62
     7
370
    25
100
AcDbLine
 10
144.1074650618
 20
330.7576498799
 30
0.0
 11
147.3574650618
 21
330.7576498799
 31
0.0
  0
LINE
  5
154
330
1F
100
AcDbEntity
  8
0
  6
Continuous
 62
     7
370
    25
100
AcDbLine
 10
123.1074650618
 20
339.7576498799
 30
0.0
 11
122.8574650618
 21
339.7576498799
 31
0.0
  0
LINE
  5
155
330
1F
100
AcDbEntity
  8
0
  6
Continuous
 62
     7
370
    25
100
AcDbLine
 10
122.8574650618
 20
331.7576498799
 30
0.0
 11
123.1074650618
 21
331.7576498799
 31
0.0
  0
ARC
  5
156
330
1F
100
AcDbEntity
  8
0
  6
Continuous
 62
     7
370
    25
100
AcDbCircle
 10
135.8574650618
 20
325.2576498799
 30
0.0
 40
1.0
100
AcDbArc
 50
0.0
 51
90.0
  0
ARC
  5
157
330
1F
100
AcDbEntity
  8
0
  6
Continuous
 62
     7
370
    25
100
AcDbCircle
 10
135.8574650618
 20
234.2576498799
 30
0.0
 40
1.0
100
AcDbArc
 50
270.0
 51
0.0
  0
LINE
  5
158
330
1F
100
AcDbEntity
  8
0
  6
Continuous
 62
     7
370
    25
100
AcDbLine
 10
133.7463539507
 20
326.2576498799
 30
0.0
 11
135.8574650618
 21
326.2576498799
 31
0.0
  0
LINE
  5
159
330
1F
100
AcDbEntity
  8
0
  6
Continuous
 62
     7
370
    25
100
AcDbLine
 10
135.8574650618
 20
233.2576498799
 30
0.0
 11
133.7463539507
 21
233.2576498799
 31
0.0
  0
LINE
  5
15A
330
1F
100
AcDbEntity
  8
0
  6
Continuous
 62
     7
370
    25
100
AcDbLine
 10
123.1074650618
 20
220.761370901
 30
0.0
 11
123.1074650618
 21
211.7576498799
 31
0.0
  0
LWPOLYLINE
  5
15B
330
1F
100
AcDbEntity
  8
0
  6
Continuous
 62
     7
370
    25
100
AcDbPolyline
 90
       12
 70
   128
 43
0.0
 10
127.1074650618
 20
212.8204283872
 10
125.8770112545
 20
213.0420828518
 10
125.3103522753
 20
213.3123994832
 10
124.7969301708
 20
213.6813283826
 10
124.0192350795
 20
214.5966560155
 10
123.7233120295
 20
215.1598651693
 10
123.4893386432
 20
215.7934378814
 10
123.2712722041
 20
216.757596711
 10
123.1625002229
 20
217.7318694283
 10
123.1196166163
 20
218.7025169454
 10
123.1085235698
 20
219.6639699377
 10
123.1074651621
 20
220.761370901
  0
LWPOLYLINE
  5
15C
330
1F
100
AcDbEntity
  8
0
  6
Continuous
 62
     7
370
    25
100
AcDbPolyline
 90
       12
 70
   128
 43
0.0
 10
127.1074650618
 20
346.6948713733
 10
125.8772175252
 20
346.4732937415
 10
125.3108665824
 20
346.2032046917
 10
124.7972652425
 20
345.8342592175
 10
124.0196939314
 20
344.9194000583
 10
123.7237093772
 20
344.3562790373
 10
123.4895922239
 20
343.7226970553
 10
123.2714558234
 20
342.7588076468
 10
123.1625796762
 20
341.7845329794
 10
123.1196353093
 20
340.8136656466
 10
123.1085249571
 20
339.8518194997
 10
123.1074651621
 20
338.7539288588
  0
LINE
  5
15D
330
1F
100
AcDbEntity
  8
0
  6
Continuous
 62
     7
370
    25
100
AcDbLine
 10
123.1074650618
 20
338.7539288588
 30
0.0
 11
123.1074650618
 21
347.7576498799
 31
0.0
  0
LINE
  5
15E
330
1F
100
AcDbEntity
  8
0
  6
Continuous
 62
     7
370
    25
100
AcDbLine
 10
126.1074650618
 20
224.6576498799
 30
0.0
 11
126.1074650618
 21
221.7576498799
 31
0.0
  0
LINE
  5
15F
330
1F
100
AcDbEntity
  8
0
  6
Continuous
 62
     7
370
    25
100
AcDbLine
 10
123.1074650618
 20
221.7576498799
 30
0.0
 11
126.1074650618
 21
221.7576498799
 31
0.0
  0
LINE
  5
160
330
1F
100
AcDbEntity
  8
0
  6
Continuous
 62
     7
370
    25
100
AcDbLine
 10
123.1074650618
 20
221.7576498799
 30
0.0
 11
123.1074650618
 21
224.6576498799
 31
0.0
  0
LINE
  5
161
330
1F
100
AcDbEntity
  8
0
  6
Continuous
 62
     7
370
    25
100
AcDbLine
 10
123.1074650618
 20
224.6576498799
 30
0.0
 11
126.1074650618
 21
224.6576498799
 31
0.0
  0
LINE
  5
162
330
1F
100
AcDbEntity
  8
0
  6
Continuous
 62
     7
370
    25
100
AcDbLine
 10
126.1074650618
 20
334.8576498799
 30
0.0
 11
123.1074650618
 21
334.8576498799
 31
0.0
  0
LINE
  5
163
330
1F
100
AcDbEntity
  8
0
  6
Continuous
 62
     7
370
    25
100
AcDbLine
 10
126.1074650618
 20
224.6576498799
 30
0.0
 11
126.1074650618
 21
334.8576498799
 31
0.0
  0
LINE
  5
164
330
1F
100
AcDbEntity
  8
0
  6
Continuous
 62
     7
370
    25
100
AcDbLine
 10
123.1074650618
 20
334.8576498799
 30
0.0
 11
123.1074650618
 21
224.6576498799
 31
0.0
  0
LINE
  5
165
330
1F
100
AcDbEntity
  8
0
  6
Continuous
 62
     7
370
    25
100
AcDbLine
 10
144.1074650618
 20
369.7576498799
 30
0.0
 11
144.1074650618
 21
359.3036123633
 31
0.0
  0
LINE
  5
166
330
1F
100
AcDbEntity
  8
0
  6
Continuous
 62
     7
370
    25
100
AcDbLine
 10
141.1074650618
 20
359.3036123633
 30
0.0
 11
144.1074650618
 21
359.3036123633
 31
0.0
  0
LINE
  5
167
330
1F
100
AcDbEntity
  8
0
  6
Continuous
 62
     7
370
    25
100
AcDbLine
 10
141.1074650618
 20
369.7576498799
 30
0.0
 11
141.1074650618
 21
359.3036123633
 31
0.0
  0
LINE
  5
168
330
1F
100
AcDbEntity
  8
0
  6
Continuous
 62
     7
370
    25
100
AcDbLine
 10
141.1074650618
 20
211.5652617245
 30
0.0
 11
141.1074650618
 21
208.8576498799
 31
0.0
  0
ARC
  5
169
330
1F
100
AcDbEntity
  8
0
  6
Continuous
 62
     7
370
    25
100
AcDbCircle
 10
140.5906618275
 20
211.5638161648
 30
0.0
 40
0.516805256005145
100
AcDbArc
 50
0.160262642
 51
22.0281092461
  0
LINE
  5
16A
330
1F
100
AcDbEntity
  8
0
  6
Continuous
 62
     7
370
    25
100
AcDbLine
 10
141.0697402799
 20
211.7576498799
 30
0.0
 11
143.9540764829
 21
211.7576498799
 31
0.0
  0
LWPOLYLINE
  5
16B
330
1F
100
AcDbEntity
  8
0
  6
Continuous
 62
     7
370
    25
100
AcDbPolyline
 90
        3
 70
   128
 43
0.0
 10
144.1074650618
 20
210.9723778848
 10
144.0760242699
 20
211.3304901431
 10
143.9540764829
 20
211.7576498799
  0
LINE
  5
16C
330
1F
100
AcDbEntity
  8
0
  6
Continuous
 62
     7
370
    25
100
AcDbLine
 10
144.1074650618
 20
208.8576498799
 30
0.0
 11
141.1074650618
 21
208.8576498799
 31
0.0
  0
LINE
  5
16D
330
1F
100
AcDbEntity
  8
0
  6
Continuous
 62
     7
370
    25
100
AcDbLine
 10
144.1074650618
 20
210.9723778848
 30
0.0
 11
144.1074650618
 21
208.8576498799
 31
0.0
  0
LINE
  5
16E
330
1F
100
AcDbEntity
  8
0
  6
Continuous
 62
     7
370
    25
100
AcDbLine
 10
144.1074650618
 20
200.2116873965
 30
0.0
 11
141.1074650618
 21
200.2116873965
 31
0.0
  0
LINE
  5
16F
330
1F
100
AcDbEntity
  8
0
  6
Continuous
 62
     7
370
    25
100
AcDbLine
 10
141.1074650618
 20
200.2116873965
 30
0.0
 11
141.1074650618
 21
208.8576498799
 31
0.0
  0
LINE
  5
170
330
1F
100
AcDbEntity
  8
0
  6
Continuous
 62
     7
370
    25
100
AcDbLine
 10
144.1074650618
 20
200.2116873965
 30
0.0
 11
144.1074650618
 21
208.8576498799
 31
0.0
  0
LINE
  5
171
330
1F
100
AcDbEntity
  8
0
  6
Continuous
 62
     7
370
    25
100
AcDbLine
 10
141.1074650618
 20
350.6576498799
 30
0.0
 11
144.1074650618
 21
350.6576498799
 31
0.0
  0
LINE
  5
172
330
1F
100
AcDbEntity
  8
0
  6
Continuous
 62
     7
370
    25
100
AcDbLine
 10
144.1074650618
 20
359.3036123633
 30
0.0
 11
144.1074650618
 21
350.6576498799
 31
0.0
  0
LINE
  5
173
330
1F
100
AcDbEntity
  8
0
  6
Continuous
 62
     7
370
    25
100
AcDbLine
 10
141.1074650618
 20
359.3036123633
 30
0.0
 11
141.1074650618
 21
350.6576498799
 31
0.0
  0
LINE
  5
174
330
1F
100
AcDbEntity
  8
0
  6
Continuous
 62
     7
370
    25
100
AcDbLine
 10
141.1074650618
 20
200.2116873965
 30
0.0
 11
141.1074650618
 21
189.7576498799
 31
0.0
  0
LINE
  5
175
330
1F
100
AcDbEntity
  8
0
  6
Continuous
 62
     7
370
    25
100
AcDbLine
 10
144.1074650618
 20
200.2116873965
 30
0.0
 11
144.1074650618
 21
189.7576498799
 31
0.0
  0
LINE
  5
176
330
1F
100
AcDbEntity
  8
0
  6
Continuous
 62
     7
370
    25
100
AcDbLine
 10
143.9540764829
 20
347.7576498799
 30
0.0
 11
144.1074650618
 21
348.542921875
 31
0.0
  0
LINE
  5
177
330
1F
100
AcDbEntity
  8
0
  6
Continuous
 62
     7
370
    25
100
AcDbLine
 10
141.0697402799
 20
347.7576498799
 30
0.0
 11
143.9540764829
 21
347.7576498799
 31
0.0
  0
ARC
  5
178
330
1F
100
AcDbEntity
  8
0
  6
Continuous
 62
     7
370
    25
100
AcDbCircle
 10
140.5906618274
 20
347.951483595
 30
0.0
 40
0.5168052560421583
100
AcDbArc
 50
337.9718907543
 51
359.8397373569
  0
LINE
  5
179
330
1F
100
AcDbEntity
  8
0
  6
Continuous
 62
     7
370
    25
100
AcDbLine
 10
144.1074650618
 20
348.542921875
 30
0.0
 11
144.1074650618
 21
350.6576498799
 31
0.0
  0
LINE
  5
17A
330
1F
100
AcDbEntity
  8
0
  6
Continuous
 62
     7
370
    25
100
AcDbLine
 10
141.1074650618
 20
347.9500380353
 30
0.0
 11
141.1074650618
 21
350.6576498799
 31
0.0
  0
LINE
  5
17B
330
1F
100
AcDbEntity
  8
0
  6
Continuous
 62
     7
370
    25
100
AcDbLine
 10
123.1074650618
 20
337.7576498799
 30
0.0
 11
126.1074650618
 21
337.7576498799
 31
0.0
  0
LINE
  5
17C
330
1F
100
AcDbEntity
  8
0
  6
Continuous
 62
     7
370
    25
100
AcDbLine
 10
126.1074650618
 20
337.7576498799
 30
0.0
 11
126.1074650618
 21
334.8576498799
 31
0.0
  0
LINE
  5
17D
330
1F
100
AcDbEntity
  8
0
  6
Continuous
 62
     7
370
    25
100
AcDbLine
 10
123.1074650618
 20
334.8576498799
 30
0.0
 11
123.1074650618
 21
337.7576498799
 31
0.0
  0
ARC
  5
17E
330
1F
100
AcDbEntity
  8
0
  6
Continuous
 62
     7
370
    25
100
AcDbCircle
 10
139.4400088372
 20
348.450166321
 30
0.0
 40
4.566879211355021
100
AcDbArc
 50
278.4040009175
 51
351.2780860885
  0
LWPOLYLINE
  5
17F
330
1F
100
AcDbEntity
  8
0
  6
Continuous
 62
     7
370
    25
100
AcDbPolyline
 90
        6
 70
   128
 43
0.0
 10
143.9540764829
 20
211.7576498799
 10
143.280905502
 20
213.4491378764
 10
142.2414728114
 20
214.7156079783
 10
141.2385838588
 20
215.3493298599
 10
140.3342447283
 20
215.5737057053
 10
140.1074678618
 20
215.5829740935
  0
ARC
  5
180
330
1F
100
AcDbEntity
  8
0
  6
Continuous
 62
     7
370
    25
100
AcDbCircle
 10
139.9214733364
 20
347.8303365046
 30
0.0
 40
1.150565217101326
100
AcDbArc
 50
279.3028253281
 51
356.3779436798
  0
LWPOLYLINE
  5
181
330
1F
100
AcDbEntity
  8
0
  6
Continuous
 62
     7
370
    25
100
AcDbPolyline
 90
        7
 70
   128
 43
0.0
 10
141.0697402799
 20
211.7576498799
 10
140.939737704
 20
212.1615000159
 10
140.7054713914
 20
212.5233549744
 10
140.4651718118
 20
212.7207124846
 10
140.2340247986
 20
212.8082443074
 10
140.1860509858
 20
212.8157210645
 10
140.1074650618
 20
212.8203959467
  0
LWPOLYLINE
  5
182
330
1F
100
AcDbEntity
  8
0
  6
Continuous
 62
     7
370
    25
100
AcDbPolyline
 90
        7
 70
   128
 43
0.0
 10
126.1074650618
 20
217.0987393483
 10
126.1112108695
 20
216.9606397259
 10
126.2410237296
 20
216.3214861928
 10
126.4534748923
 20
215.9376819166
 10
126.6908451848
 20
215.7145072503
 10
126.9279662783
 20
215.6063945561
 10
127.1074650618
 20
215.5829740935
  0
LINE
  5
183
330
1F
100
AcDbEntity
  8
0
  6
Continuous
 62
     7
370
    25
100
AcDbLine
 10
127.1074650618
 20
215.5829740935
 30
0.0
 11
140.1074678618
 21
215.5829740935
 31
0.0
  0
LINE
  5
184
330
1F
100
AcDbEntity
  8
0
  6
Continuous
 62
     7
370
    25
100
AcDbLine
 10
127.1074650618
 20
212.8203959467
 30
0.0
 11
140.1074650618
 21
212.8203959467
 31
0.0
  0
LINE
  5
185
330
1F
100
AcDbEntity
  8
0
  6
Continuous
 62
     7
370
    25
100
AcDbLine
 10
126.1074650618
 20
221.7576498799
 30
0.0
 11
126.1074650618
 21
217.0987393483
 31
0.0
  0
LINE
  5
186
330
1F
100
AcDbEntity
  8
0
  6
Continuous
 62
     7
370
    25
100
AcDbLine
 10
123.1074650618
 20
220.761370901
 30
0.0
 11
123.1074650618
 21
221.7576498799
 31
0.0
  0
LINE
  5
187
330
1F
100
AcDbEntity
  8
0
  6
Continuous
 62
     7
370
    25
100
AcDbLine
 10
140.1074678622
 20
343.9323256664
 30
0.0
 11
127.1074650618
 21
343.9323256664
 31
0.0
  0
LWPOLYLINE
  5
188
330
1F
100
AcDbEntity
  8
0
  6
Continuous
 62
     7
370
    25
100
AcDbPolyline
 90
        7
 70
   128
 43
0.0
 10
127.1074650618
 20
343.9323256664
 10
127.0742207192
 20
343.9315291538
 10
126.8148014698
 20
343.8691133905
 10
126.5920196743
 20
343.724853194
 10
126.3511738435
 20
343.426213485
 10
126.1562530825
 20
342.9023586706
 10
126.1074650618
 20
342.4165604115
  0
LINE
  5
189
330
1F
100
AcDbEntity
  8
0
  6
Continuous
 62
     7
370
    25
100
AcDbLine
 10
127.1074650618
 20
346.6949038131
 30
0.0
 11
140.1074650618
 21
346.6949038131
 31
0.0
  0
LINE
  5
18A
330
1F
100
AcDbEntity
  8
0
  6
Continuous
 62
     7
370
    25
100
AcDbLine
 10
126.1074650618
 20
342.4165604115
 30
0.0
 11
126.1074650618
 21
337.7576498799
 31
0.0
  0
LINE
  5
18B
330
1F
100
AcDbEntity
  8
0
  6
Continuous
 62
     7
370
    25
100
AcDbLine
 10
123.1074650618
 20
337.7576498799
 30
0.0
 11
123.1074650618
 21
338.7539288588
 31
0.0
  0
LINE
  5
18C
330
1F
100
AcDbEntity
  8
0
  6
Continuous
 62
     7
370
    25
100
AcDbLine
 10
145.2574650618
 20
311.0084176021
 30
0.0
 11
145.2574650618
 21
312.3726997604
 31
0.0
  0
LINE
  5
18D
330
1F
100
AcDbEntity
  8
0
  6
Continuous
 62
     7
370
    25
100
AcDbLine
 10
145.2574650618
 20
303.1425999994
 30
0.0
 11
145.2574650618
 21
311.0084176021
 31
0.0
  0
LINE
  5
18E
330
1F
100
AcDbEntity
  8
0
  6
Continuous
 62
     7
370
    25
100
AcDbLine
 10
145.2574650618
 20
247.1425999994
 30
0.0
 11
145.2574650618
 21
256.3726997604
 31
0.0
  0
LINE
  5
18F
330
1F
100
AcDbEntity
  8
0
  6
Continuous
 62
     7
370
    25
100
AcDbLine
 10
145.2574650618
 20
275.1425999994
 30
0.0
 11
145.2574650618
 21
284.3726997604
 31
0.0
  0
LINE
  5
190
330
1F
100
AcDbEntity
  8
0
  6
Continuous
 62
     7
370
    25
100
AcDbLine
 10
142.6074650618
 20
231.7576498799
 30
0.0
 11
142.6074650618
 21
215.7576498799
 31
0.0
  0
LINE
  5
191
330
1F
100
AcDbEntity
  8
0
  6
Continuous
 62
     7
370
    25
100
AcDbLine
 10
144.1074650618
 20
230.2576498799
 30
0.0
 11
144.1074650618
 21
217.2576498799
 31
0.0
  0
LINE
  5
192
330
1F
100
AcDbEntity
  8
0
  6
Continuous
 62
     7
370
    25
100
AcDbLine
 10
127.6074650618
 20
231.7576498799
 30
0.0
 11
127.6074650618
 21
215.7576498799
 31
0.0
  0
LINE
  5
193
330
1F
100
AcDbEntity
  8
0
  6
Continuous
 62
     7
370
    25
100
AcDbLine
 10
147.3574650618
 20
228.7576498799
 30
0.0
 11
147.3574650618
 21
218.7576498799
 31
0.0
  0
LINE
  5
194
330
1F
100
AcDbEntity
  8
0
  6
Continuous
 62
     7
370
    25
100
AcDbLine
 10
122.8574650618
 20
227.7576498799
 30
0.0
 11
122.8574650618
 21
219.7576498799
 31
0.0
  0
LINE
  5
195
330
1F
100
AcDbEntity
  8
0
  6
Continuous
 62
     7
370
    25
100
AcDbLine
 10
142.6074650618
 20
343.7576498799
 30
0.0
 11
142.6074650618
 21
327.7576498799
 31
0.0
  0
LINE
  5
196
330
1F
100
AcDbEntity
  8
0
  6
Continuous
 62
     7
370
    25
100
AcDbLine
 10
144.1074650618
 20
342.2576498799
 30
0.0
 11
144.1074650618
 21
329.2576498799
 31
0.0
  0
LINE
  5
197
330
1F
100
AcDbEntity
  8
0
  6
Continuous
 62
     7
370
    25
100
AcDbLine
 10
127.6074650618
 20
343.7576498799
 30
0.0
 11
127.6074650618
 21
327.7576498799
 31
0.0
  0
LINE
  5
198
330
1F
100
AcDbEntity
  8
0
  6
Continuous
 62
     7
370
    25
100
AcDbLine
 10
147.3574650618
 20
340.7576498799
 30
0.0
 11
147.3574650618
 21
330.7576498799
 31
0.0
  0
LINE
  5
199
330
1F
100
AcDbEntity
  8
0
  6
Continuous
 62
     7
370
    25
100
AcDbLine
 10
122.8574650618
 20
339.7576498799
 30
0.0
 11
122.8574650618
 21
331.7576498799
 31
0.0
  0
ARC
  5
19A
330
1F
100
AcDbEntity
  8
0
  6
Continuous
 62
     7
370
    25
100
AcDbCircle
 10
133.8574650618
 20
324.8774505576
 30
0.0
 40
4.999999999999981
100
AcDbArc
 50
138.3664606634
 51
139.1297075021
  0
ARC
  5
19B
330
1F
100
AcDbEntity
  8
0
  6
Continuous
 62
     7
370
    25
100
AcDbCircle
 10
133.8574650618
 20
324.8774505576
 30
0.0
 40
1.000000000000001
100
AcDbArc
 50
138.3664606634
 51
139.1297075021
  0
LINE
  5
19C
330
1F
100
AcDbEntity
  8
0
  6
Continuous
 62
     7
370
    25
100
AcDbLine
 10
133.1012722152
 20
325.531799378
 30
0.0
 11
130.076500829
 21
328.1491946598
 31
0.0
  0
LINE
  5
19D
330
1F
100
AcDbEntity
  8
0
  6
Continuous
 62
     7
370
    25
100
AcDbLine
 10
129.569220113
 20
327.4486283537
 30
0.0
 11
130.076500829
 21
328.1491946598
 31
0.0
  0
LINE
  5
19E
330
1F
100
AcDbEntity
  8
0
  6
Continuous
 62
     7
370
    25
100
AcDbLine
 10
132.999816072
 20
325.3916861168
 30
0.0
 11
133.1012722152
 21
325.531799378
 31
0.0
  0
LINE
  5
19F
330
1F
100
AcDbEntity
  8
0
  6
Continuous
 62
     7
370
    25
100
AcDbLine
 10
132.999816072
 20
325.3916861168
 30
0.0
 11
129.569220113
 21
327.4486283537
 31
0.0
  0
ARC
  5
1A0
330
1F
100
AcDbEntity
  8
0
  6
Continuous
 62
     7
370
    25
100
AcDbCircle
 10
133.8574650618
 20
234.6378492023
 30
0.0
 40
5.0
100
AcDbArc
 50
220.8702924979
 51
221.6335393366
  0
LINE
  5
1A1
330
1F
100
AcDbEntity
  8
0
  6
Continuous
 62
     7
370
    25
100
AcDbLine
 10
133.1012722152
 20
233.9835003818
 30
0.0
 11
130.076500829
 21
231.3661051
 31
0.0
  0
ARC
  5
1A2
330
1F
100
AcDbEntity
  8
0
  6
Continuous
 62
     7
370
    25
100
AcDbCircle
 10
133.8574650618
 20
234.6378492023
 30
0.0
 40
1.000000000000001
100
AcDbArc
 50
220.8702924979
 51
221.6335393366
  0
ARC
  5
1A3
330
1F
100
AcDbEntity
  8
0
  6
Continuous
 62
     7
370
    25
100
AcDbCircle
 10
133.8574650618
 20
234.6378492023
 30
0.0
 40
5.000000000000028
100
AcDbArc
 50
180.0
 51
180.7632468387
  0
ARC
  5
1A4
330
1F
100
AcDbEntity
  8
0
  6
Continuous
 62
     7
370
    25
100
AcDbCircle
 10
133.8574650618
 20
234.6378492023
 30
0.0
 40
1.000000000000034
100
AcDbArc
 50
180.0
 51
180.7632468387
  0
LINE
  5
1A5
330
1F
100
AcDbEntity
  8
0
  6
Continuous
 62
     7
370
    25
100
AcDbLine
 10
132.8575537873
 20
234.6245284259
 30
0.0
 11
128.8579086892
 21
234.5712453204
 31
0.0
  0
LINE
  5
1A6
330
1F
100
AcDbEntity
  8
0
  6
Continuous
 62
     7
370
    25
100
AcDbLine
 10
128.9441932753
 20
233.7106165711
 30
0.0
 11
128.8579086892
 21
234.5712453204
 31
0.0
  0
LINE
  5
1A7
330
1F
100
AcDbEntity
  8
0
  6
Continuous
 62
     7
370
    25
100
AcDbLine
 10
132.8748107045
 20
234.452402676
 30
0.0
 11
132.8575537873
 21
234.6245284259
 31
0.0
  0
LINE
  5
1A8
330
1F
100
AcDbEntity
  8
0
  6
Continuous
 62
     7
370
    25
100
AcDbLine
 10
132.8748107045
 20
234.452402676
 30
0.0
 11
128.9441932753
 21
233.7106165711
 31
0.0
  0
LINE
  5
1A9
330
1F
100
AcDbEntity
  8
0
  6
Continuous
 62
     7
370
    25
100
AcDbLine
 10
130.076500829
 20
231.3661051
 30
0.0
 11
129.569220113
 21
232.0666714061
 31
0.0
  0
LINE
  5
1AA
330
1F
100
AcDbEntity
  8
0
  6
Continuous
 62
     7
370
    25
100
AcDbLine
 10
132.999816072
 20
234.123613643
 30
0.0
 11
129.569220113
 21
232.0666714061
 31
0.0
  0
LINE
  5
1AB
330
1F
100
AcDbEntity
  8
0
  6
Continuous
 62
     7
370
    25
100
AcDbLine
 10
133.1012722152
 20
233.9835003818
 30
0.0
 11
132.999816072
 21
234.123613643
 31
0.0
  0
LINE
  5
1AC
330
1F
100
AcDbEntity
  8
0
  6
Continuous
 62
     7
370
    25
100
AcDbLine
 10
132.8575537873
 20
324.8907713339
 30
0.0
 11
128.8579086892
 21
324.9440544394
 31
0.0
  0
ARC
  5
1AD
330
1F
100
AcDbEntity
  8
0
  6
Continuous
 62
     7
370
    25
100
AcDbCircle
 10
133.8574650618
 20
324.8774505576
 30
0.0
 40
1.000000000000005
100
AcDbArc
 50
179.2367531613
 51
180.0
  0
ARC
  5
1AE
330
1F
100
AcDbEntity
  8
0
  6
Continuous
 62
     7
370
    25
100
AcDbCircle
 10
133.8574650618
 20
324.8774505576
 30
0.0
 40
5.000000000000028
100
AcDbArc
 50
179.2367531613
 51
180.0
  0
LINE
  5
1AF
330
1F
100
AcDbEntity
  8
0
  6
Continuous
 62
     7
370
    25
100
AcDbLine
 10
132.8748107045
 20
325.0628970838
 30
0.0
 11
128.9441932753
 21
325.8046831887
 31
0.0
  0
LINE
  5
1B0
330
1F
100
AcDbEntity
  8
0
  6
Continuous
 62
     7
370
    25
100
AcDbLine
 10
132.8575537873
 20
324.8907713339
 30
0.0
 11
132.8748107045
 21
325.0628970838
 31
0.0
  0
LINE
  5
1B1
330
1F
100
AcDbEntity
  8
0
  6
Continuous
 62
     7
370
    25
100
AcDbLine
 10
128.8579086892
 20
324.9440544394
 30
0.0
 11
128.9441932753
 21
325.8046831887
 31
0.0
  0
LINE
  5
1B2
330
1F
100
AcDbEntity
  8
0
  6
Continuous
 62
     7
370
    25
100
AcDbLine
 10
130.1204184684
 20
328.1992697517
 30
0.0
 11
133.8678277871
 21
332.4151052352
 31
0.0
  0
LINE
  5
1B3
330
1F
100
AcDbEntity
  8
0
  6
Continuous
 62
     7
370
    25
100
AcDbLine
 10
133.8678277871
 20
332.4151052352
 30
0.0
 11
136.8574650618
 21
329.7576498799
 31
0.0
  0
LINE
  5
1B4
330
1F
100
AcDbEntity
  8
0
  6
Continuous
 62
     7
370
    25
100
AcDbLine
 10
133.1100557431
 20
325.5418143964
 30
0.0
 11
136.8574650618
 21
329.7576498799
 31
0.0
  0
LINE
  5
1B5
330
1F
100
AcDbEntity
  8
0
  6
Continuous
 62
     7
370
    25
100
AcDbLine
 10
128.8574650618
 20
234.6378492023
 30
0.0
 11
128.8574650618
 21
324.8774505576
 31
0.0
  0
LINE
  5
1B6
330
1F
100
AcDbEntity
  8
0
  6
Continuous
 62
     7
370
    25
100
AcDbLine
 10
132.8574650618
 20
234.6378492023
 30
0.0
 11
132.8574650618
 21
324.8774505576
 31
0.0
  0
LINE
  5
1B7
330
1F
100
AcDbEntity
  8
0
  6
Continuous
 62
     7
370
    25
100
AcDbLine
 10
136.8574650618
 20
229.7576498799
 30
0.0
 11
133.8678277871
 21
227.1001945246
 31
0.0
  0
LINE
  5
1B8
330
1F
100
AcDbEntity
  8
0
  6
Continuous
 62
     7
370
    25
100
AcDbLine
 10
133.8678277871
 20
227.1001945246
 30
0.0
 11
130.1204184684
 21
231.3160300081
 31
0.0
  0
LINE
  5
1B9
330
1F
100
AcDbEntity
  8
0
  6
Continuous
 62
     7
370
    25
100
AcDbLine
 10
136.8574650618
 20
229.7576498799
 30
0.0
 11
133.1100557431
 21
233.9734853634
 31
0.0
  0
ARC
  5
1BA
330
1F
100
AcDbEntity
  8
0
  6
Continuous
 62
     7
370
    25
100
AcDbCircle
 10
133.8574650618
 20
324.8774505576
 30
0.0
 40
1.000000000000018
100
AcDbArc
 50
149.0536276197
 51
169.3128330437
  0
ARC
  5
1BB
330
1F
100
AcDbEntity
  8
0
  6
Continuous
 62
     7
370
    25
100
AcDbCircle
 10
133.8574650618
 20
324.8774505576
 30
0.0
 40
5.000000000000005
100
AcDbArc
 50
149.0536276197
 51
169.3128330437
  0
ARC
  5
1BC
330
1F
100
AcDbEntity
  8
0
  6
Continuous
 62
     7
370
    25
100
AcDbCircle
 10
133.8574650618
 20
234.6378492023
 30
0.0
 40
5.0
100
AcDbArc
 50
190.6871669563
 51
210.9463723803
  0
ARC
  5
1BD
330
1F
100
AcDbEntity
  8
0
  6
Continuous
 62
     7
370
    25
100
AcDbCircle
 10
133.8574650618
 20
234.6378492023
 30
0.0
 40
1.000000000000024
100
AcDbArc
 50
190.6871669563
 51
210.9463723803
  0
LINE
  5
1BE
330
1F
100
AcDbEntity
  8
0
  6
Continuous
 62
     7
370
    25
100
AcDbLine
 10
132.8574650618
 20
324.8774505576
 30
0.0
 11
132.8668957931
 21
324.9839513458
 31
0.0
  0
LINE
  5
1BF
330
1F
100
AcDbEntity
  8
0
  6
Continuous
 62
     7
370
    25
100
AcDbLine
 10
132.9903039781
 20
325.3666674139
 30
0.0
 11
133.0475171961
 21
325.4639524373
 31
0.0
  0
LINE
  5
1C0
330
1F
100
AcDbEntity
  8
0
  6
Continuous
 62
     7
370
    25
100
AcDbLine
 10
133.0475171961
 20
234.0513473225
 30
0.0
 11
132.9904839871
 21
234.1481588866
 31
0.0
  0
LINE
  5
1C1
330
1F
100
AcDbEntity
  8
0
  6
Continuous
 62
     7
370
    25
100
AcDbLine
 10
132.89383706
 20
234.4023595686
 30
0.0
 11
132.8574650618
 21
234.6378492023
 31
0.0
  0
LINE
  5
1C2
330
1F
100
AcDbEntity
  8
0
  6
Continuous
 62
     7
370
    25
100
AcDbLine
 10
136.8574650618
 20
335.7576498799
 30
0.0
 11
136.8574650618
 21
343.9323256664
 31
0.0
  0
LINE
  5
1C3
330
1F
100
AcDbEntity
  8
0
  6
Continuous
 62
     7
370
    25
100
AcDbLine
 10
140.8574650618
 20
335.7576498799
 30
0.0
 11
140.8574650618
 21
344.0598337226
 31
0.0
  0
LINE
  5
1C4
330
1F
100
AcDbEntity
  8
0
  6
Continuous
 62
     7
370
    25
100
AcDbLine
 10
140.8574650618
 20
223.7576498799
 30
0.0
 11
140.8574650618
 21
335.7576498799
 31
0.0
  0
LINE
  5
1C5
330
1F
100
AcDbEntity
  8
0
  6
Continuous
 62
     7
370
    25
100
AcDbLine
 10
136.8574650618
 20
223.7576498799
 30
0.0
 11
136.8574650618
 21
335.7576498799
 31
0.0
  0
LINE
  5
1C6
330
1F
100
AcDbEntity
  8
0
  6
Continuous
 62
     7
370
    25
100
AcDbLine
 10
140.8574650618
 20
215.3658524823
 30
0.0
 11
140.8574650618
 21
223.7576498799
 31
0.0
  0
LINE
  5
1C7
330
1F
100
AcDbEntity
  8
0
  6
Continuous
 62
     7
370
    25
100
AcDbLine
 10
136.8574650618
 20
215.5829740935
 30
0.0
 11
136.8574650618
 21
223.7576498799
 31
0.0
  0
LINE
  5
1C8
330
1F
100
AcDbEntity
  8
0
  6
Continuous
 62
     7
370
    25
100
AcDbLine
 10
132.8574650618
 20
331.2784471693
 30
0.0
 11
132.8574650618
 21
343.9323256664
 31
0.0
  0
LINE
  5
1C9
330
1F
100
AcDbEntity
  8
0
  6
Continuous
 62
     7
370
    25
100
AcDbLine
 10
132.8574650618
 20
223.7576498799
 30
0.0
 11
132.8574650618
 21
228.2368525905
 31
0.0
  0
LINE
  5
1CA
330
1F
100
AcDbEntity
  8
0
  6
Continuous
 62
     7
370
    25
100
AcDbLine
 10
132.8574650618
 20
215.5829740935
 30
0.0
 11
132.8574650618
 21
223.7576498799
 31
0.0
  0
LINE
  5
1CB
330
1F
100
AcDbEntity
  8
FORMAT
  6
Continuous
370
    25
100
AcDbLine
 10
140.1074650618
 20
350.7576498799
 30
0.0
 11
139.821114277
 21
350.7576498799
 31
0.0
  0
DIMENSION
  5
1CC
330
1F
100
AcDbEntity
  8
FORMAT
100
AcDbDimension
  2
_D
 10
144.1074650618
 20
377.6533071323
 30
0.0
 11
133.6074650618
 21
377.6533071323
 31
0.0
 70
   160
  1
<>
 71
     2
 42
-1.0
  3
SLDDIMSTYLE0
100
AcDbAlignedDimension
 13
123.1074650618
 23
341.2576498799
 33
0.0
 14
144.1074650618
 24
369.7576498799
 34
0.0
 50
0.0
100
AcDbRotatedDimension
  0
DIMENSION
  5
1D7
330
1F
100
AcDbEntity
  8
FORMAT
100
AcDbDimension
  2
_D_1
 10
144.1074650618
 20
179.7576498799
 30
0.0
 11
153.1310761067
 21
179.7576498799
 31
0.0
 70
   160
  1
<>
 71
     2
 42
-1.0
  3
SLDDIMSTYLE1
100
AcDbAlignedDimension
 13
141.1074650618
 23
189.7576498799
 33
0.0
 14
144.1074650618
 24
189.7576498799
 34
0.0
100
AcDbRotatedDimension
  0
LINE
  5
1E4
330
1F
100
AcDbEntity
  8
FORMAT
100
AcDbLine
 10
126.7794650618
 20
328.5856498799
 30
0.0
 11
130.4638674712
 21
328.5856498799
 31
0.0
  0
LINE
  5
1E5
330
1F
100
AcDbEntity
  8
FORMAT
100
AcDbLine
 10
140.8574650618
 20
328.5856498799
 30
0.0
 11
143.4354650618
 21
328.5856498799
 31
0.0
  0
LINE
  5
1E6
330
1F
100
AcDbEntity
  8
FORMAT
100
AcDbLine
 10
143.4354650618
 20
342.9296498799
 30
0.0
 11
140.8574650618
 21
342.9296498799
 31
0.0
  0
LINE
  5
1E7
330
1F
100
AcDbEntity
  8
FORMAT
100
AcDbLine
 10
132.8574650618
 20
342.9296498799
 30
0.0
 11
126.7794650618
 21
342.9296498799
 31
0.0
  0
LINE
  5
1E8
330
1F
100
AcDbEntity
  8
FORMAT
100
AcDbLine
 10
126.7794650618
 20
328.5856498799
 30
0.0
 11
126.7794650618
 21
328.6159578476
 31
0.0
  0
LWPOLYLINE
  5
1E9
330
1F
100
AcDbEntity
  8
FORMAT
100
AcDbPolyline
 90
       20
 70
   128
 43
0.0
 10
126.7794370651
 20
328.6159578476
 10
126.7794650618
 20
328.8140956635
 10
126.7794650618
 20
329.1920678863
 10
126.7794650618
 20
329.740085234
 10
126.7794650618
 20
330.4439543452
 10
126.7794650618
 20
331.2854453795
 10
126.7794650618
 20
332.2427641613
 10
126.7794650618
 20
333.2911166369
 10
126.7794650618
 20
334.4033510279
 10
126.7794650618
 20
335.5506610477
 10
126.7794650618
 20
336.7033319696
 10
126.7794650618
 20
337.8315102221
 10
126.7794650618
 20
338.9059765811
 10
126.7794650618
 20
339.8989029323
 10
126.7794650618
 20
340.7845730047
 10
126.7794650618
 20
341.5400484087
 10
126.7794650618
 20
342.1457627282
 10
126.7794650618
 20
342.5860282804
 10
126.7794650618
 20
342.8494424188
 10
126.7794650618
 20
342.9296498799
  0
LINE
  5
1EA
330
1F
100
AcDbEntity
  8
FORMAT
100
AcDbLine
 10
126.7794650618
 20
216.5856498799
 30
0.0
 11
132.8574650618
 21
216.5856498799
 31
0.0
  0
LINE
  5
1EB
330
1F
100
AcDbEntity
  8
FORMAT
100
AcDbLine
 10
140.8574650618
 20
216.5856498799
 30
0.0
 11
143.4354650618
 21
216.5856498799
 31
0.0
  0
LINE
  5
1EC
330
1F
100
AcDbEntity
  8
FORMAT
100
AcDbLine
 10
143.4354650618
 20
230.9296498799
 30
0.0
 11
140.8574650618
 21
230.9296498799
 31
0.0
  0
LINE
  5
1ED
330
1F
100
AcDbEntity
  8
FORMAT
100
AcDbLine
 10
130.4638674712
 20
230.9296498799
 30
0.0
 11
126.7794650618
 21
230.9296498799
 31
0.0
  0
LINE
  5
1EE
330
1F
100
AcDbEntity
  8
FORMAT
100
AcDbLine
 10
126.7794650618
 20
229.453796533
 30
0.0
 11
126.7794650618
 21
230.0790930218
 31
0.0
  0
LWPOLYLINE
  5
1EF
330
1F
100
AcDbEntity
  8
FORMAT
100
AcDbPolyline
 90
        5
 70
   128
 43
0.0
 10
126.7794370651
 20
230.0790930218
 10
126.7794650618
 20
230.5406674537
 10
126.7794650618
 20
230.8265652933
 10
126.7794650618
 20
230.9293819369
 10
126.7794650618
 20
230.9296498799
  0
LWPOLYLINE
  5
1F0
330
1F
100
AcDbEntity
  8
FORMAT
100
AcDbPolyline
 90
       17
 70
   128
 43
0.0
 10
126.7794370651
 20
216.5856498799
 10
126.7794650618
 20
216.6041850655
 10
126.7794650618
 20
216.7794790975
 10
126.7794650618
 20
217.1355040872
 10
126.7794650618
 20
217.6630391746
 10
126.7794650618
 20
218.3484214778
 10
126.7794650618
 20
219.1738999553
 10
126.7794650618
 20
220.1180951482
 10
126.7794650618
 20
221.1565528968
 10
126.7794650618
 20
222.262377691
 10
126.7794650618
 20
223.4069292495
 10
126.7794650618
 20
224.560564288
 10
126.7794650618
 20
225.6934042652
 10
126.7794650618
 20
226.7761092205
 10
126.7794650618
 20
227.7806376645
 10
126.7794650618
 20
228.680972838
 10
126.7794650618
 20
229.453796533
  0
LINE
  5
1F1
330
1F
100
AcDbEntity
  8
FORMAT
100
AcDbLine
 10
136.8574650618
 20
310.2163998799
 30
0.0
 11
132.8574650618
 21
310.2163998799
 31
0.0
  0
LINE
  5
1F2
330
1F
100
AcDbEntity
  8
FORMAT
100
AcDbLine
 10
132.8574650618
 20
305.2988998799
 30
0.0
 11
136.8574650618
 21
305.2988998799
 31
0.0
  0
LINE
  5
1F3
330
1F
100
AcDbEntity
  8
FORMAT
100
AcDbLine
 10
136.8574650618
 20
282.2163998799
 30
0.0
 11
132.8574650618
 21
282.2163998799
 31
0.0
  0
LINE
  5
1F4
330
1F
100
AcDbEntity
  8
FORMAT
100
AcDbLine
 10
132.8574650618
 20
277.2988998799
 30
0.0
 11
136.8574650618
 21
277.2988998799
 31
0.0
  0
LINE
  5
1F5
330
1F
100
AcDbEntity
  8
FORMAT
100
AcDbLine
 10
136.8574650618
 20
254.2163998799
 30
0.0
 11
132.8574650618
 21
254.2163998799
 31
0.0
  0
LINE
  5
1F6
330
1F
100
AcDbEntity
  8
FORMAT
100
AcDbLine
 10
132.8574650618
 20
249.2988998799
 30
0.0
 11
136.8574650618
 21
249.2988998799
 31
0.0
  0
LINE
  5
1F7
330
1F
100
AcDbEntity
  8
FORMAT
  6
CENTERX2
370
    18
100
AcDbLine
 10
126.8574650618
 20
307.7576498799
 30
0.0
 11
147.2574650618
 21
307.7576498799
 31
0.0
  0
LINE
  5
1F8
330
1F
100
AcDbEntity
  8
FORMAT
  6
CENTERX2
370
    18
100
AcDbLine
 10
120.0319700578
 20
279.7576498799
 30
0.0
 11
147.2574650618
 21
279.7576498799
 31
0.0
  0
LINE
  5
1F9
330
1F
100
AcDbEntity
  8
FORMAT
  6
CENTERX2
370
    18
100
AcDbLine
 10
126.8574650618
 20
251.7576498799
 30
0.0
 11
147.2574650618
 21
251.7576498799
 31
0.0
  0
LINE
  5
1FA
330
1F
100
AcDbEntity
  8
FORMAT
  6
CENTERX2
370
    18
100
AcDbLine
 10
149.3574650618
 20
223.7576498799
 30
0.0
 11
120.8574650618
 21
223.7576498799
 31
0.0
  0
LINE
  5
1FB
330
1F
100
AcDbEntity
  8
FORMAT
  6
CENTERX2
370
    18
100
AcDbLine
 10
149.3574650618
 20
335.7576498799
 30
0.0
 11
120.8574650618
 21
335.7576498799
 31
0.0
  0
LINE
  5
1FC
330
1F
100
AcDbEntity
  8
0
  6
Continuous
 62
     7
370
    25
100
AcDbLine
 10
78.3691670474
 20
348.542921875
 30
0.0
 11
77.5838950524
 21
347.7576498799
 31
0.0
  0
LINE
  5
1FD
330
1F
100
AcDbEntity
  8
0
  6
Continuous
 62
     7
370
    25
100
AcDbLine
 10
77.5838950524
 20
347.7576498799
 30
0.0
 11
77.5838950524
 21
343.9323256664
 31
0.0
  0
ARC
  5
1FE
330
1F
100
AcDbEntity
  8
0
  6
Continuous
 62
     7
370
    25
100
AcDbCircle
 10
68.5838950524
 20
335.2576498799
 30
0.0
 40
12.50000000000036
100
AcDbArc
 50
43.9455195623
 51
136.0544804377
  0
LINE
  5
1FF
330
1F
100
AcDbEntity
  8
0
  6
Continuous
 62
     7
370
    25
100
AcDbLine
 10
59.5838950524
 20
343.9323256664
 30
0.0
 11
59.5838950524
 21
347.7576498799
 31
0.0
  0
LINE
  5
200
330
1F
100
AcDbEntity
  8
0
  6
Continuous
 62
     7
370
    25
100
AcDbLine
 10
59.5838950524
 20
347.7576498799
 30
0.0
 11
58.7986230573
 21
348.542921875
 31
0.0
  0
LINE
  5
201
330
1F
100
AcDbEntity
  8
0
  6
Continuous
 62
     7
370
    25
100
AcDbLine
 10
58.7986230573
 20
210.9723778848
 30
0.0
 11
59.5838950524
 21
211.7576498799
 31
0.0
  0
LINE
  5
202
330
1F
100
AcDbEntity
  8
0
  6
Continuous
 62
     7
370
    25
100
AcDbLine
 10
59.5838950524
 20
211.7576498799
 30
0.0
 11
59.5838950524
 21
215.5829740935
 31
0.0
  0
ARC
  5
203
330
1F
100
AcDbEntity
  8
0
  6
Continuous
 62
     7
370
    25
100
AcDbCircle
 10
68.5838950524
 20
224.2576498799
 30
0.0
 40
12.50000000000031
100
AcDbArc
 50
223.9455195623
 51
316.0544804377
  0
LINE
  5
204
330
1F
100
AcDbEntity
  8
0
  6
Continuous
 62
     7
370
    25
100
AcDbLine
 10
77.5838950524
 20
215.5829740935
 30
0.0
 11
77.5838950524
 21
211.7576498799
 31
0.0
  0
LINE
  5
205
330
1F
100
AcDbEntity
  8
0
  6
Continuous
 62
     7
370
    25
100
AcDbLine
 10
77.5838950524
 20
211.7576498799
 30
0.0
 11
78.3691670474
 21
210.9723778848
 31
0.0
  0
LINE
  5
206
330
1F
100
AcDbEntity
  8
0
  6
Continuous
 62
     7
370
    25
100
AcDbLine
 10
80.4838950524
 20
350.6576498799
 30
0.0
 11
80.4838950524
 21
359.3036123633
 31
0.0
  0
LINE
  5
207
330
1F
100
AcDbEntity
  8
0
  6
Continuous
 62
     7
370
    25
100
AcDbLine
 10
56.6838950524
 20
359.3036123633
 30
0.0
 11
56.6838950524
 21
350.6576498799
 31
0.0
  0
ARC
  5
208
330
1F
100
AcDbEntity
  8
0
  6
Continuous
 62
     7
370
    25
100
AcDbCircle
 10
68.5838950524
 20
357.7576498799
 30
0.0
 40
12.00000000000001
100
AcDbArc
 50
7.4019996877
 51
172.5980003123
  0
CIRCLE
  5
209
330
1F
100
AcDbEntity
  8
0
  6
Continuous
 62
     7
370
    25
100
AcDbCircle
 10
68.5838950524
 20
357.7576498799
 30
0.0
 40
2.5
  0
LINE
  5
20A
330
1F
100
AcDbEntity
  8
0
  6
Continuous
 62
     7
370
    25
100
AcDbLine
 10
80.4838950524
 20
350.6576498799
 30
0.0
 11
78.3691670474
 21
348.542921875
 31
0.0
  0
LINE
  5
20B
330
1F
100
AcDbEntity
  8
0
  6
Continuous
 62
     7
370
    25
100
AcDbLine
 10
58.7986230573
 20
348.542921875
 30
0.0
 11
56.6838950524
 21
350.6576498799
 31
0.0
  0
LINE
  5
20C
330
1F
100
AcDbEntity
  8
0
  6
Continuous
 62
     7
370
    25
100
AcDbLine
 10
80.4838950524
 20
208.8576498799
 30
0.0
 11
80.4838950524
 21
200.2116873965
 31
0.0
  0
ARC
  5
20D
330
1F
100
AcDbEntity
  8
0
  6
Continuous
 62
     7
370
    25
100
AcDbCircle
 10
68.5838950524
 20
201.7576498799
 30
0.0
 40
12.00000000000001
100
AcDbArc
 50
187.4019996877
 51
352.5980003123
  0
LINE
  5
20E
330
1F
100
AcDbEntity
  8
0
  6
Continuous
 62
     7
370
    25
100
AcDbLine
 10
56.6838950524
 20
200.2116873965
 30
0.0
 11
56.6838950524
 21
208.8576498799
 31
0.0
  0
CIRCLE
  5
20F
330
1F
100
AcDbEntity
  8
0
  6
Continuous
 62
     7
370
    25
100
AcDbCircle
 10
68.5838950524
 20
201.7576498799
 30
0.0
 40
2.5
  0
LINE
  5
210
330
1F
100
AcDbEntity
  8
0
  6
Continuous
 62
     7
370
    25
100
AcDbLine
 10
58.7986230573
 20
210.9723778848
 30
0.0
 11
56.6838950524
 21
208.8576498799
 31
0.0
  0
LINE
  5
211
330
1F
100
AcDbEntity
  8
0
  6
Continuous
 62
     7
370
    25
100
AcDbLine
 10
80.4838950524
 20
208.8576498799
 30
0.0
 11
78.3691670474
 21
210.9723778848
 31
0.0
  0
LINE
  5
212
330
1F
100
AcDbEntity
  8
0
  6
Continuous
 62
     7
370
    25
100
AcDbLine
 10
59.5838950524
 20
343.9323256664
 30
0.0
 11
59.5838950524
 21
342.7480526952
 31
0.0
  0
LINE
  5
213
330
1F
100
AcDbEntity
  8
0
  6
Continuous
 62
     7
370
    25
100
AcDbLine
 10
77.5838950524
 20
342.8737336187
 30
0.0
 11
77.5838950524
 21
343.9323256664
 31
0.0
  0
LINE
  5
214
330
1F
100
AcDbEntity
  8
0
  6
Continuous
 62
     7
370
    25
100
AcDbLine
 10
59.5838950524
 20
216.6415661411
 30
0.0
 11
59.5838950524
 21
215.5829740935
 31
0.0
  0
LINE
  5
215
330
1F
100
AcDbEntity
  8
0
  6
Continuous
 62
     7
370
    25
100
AcDbLine
 10
77.5838950524
 20
215.5829740934
 30
0.0
 11
77.5838950524
 21
216.7672470646
 31
0.0
  0
LINE
  5
216
330
1F
100
AcDbEntity
  8
0
  6
Continuous
 62
     7
370
    25
100
AcDbLine
 10
57.0838950524
 20
335.2576498799
 30
0.0
 11
56.6838950524
 21
334.8576498799
 31
0.0
  0
LINE
  5
217
330
1F
100
AcDbEntity
  8
0
  6
Continuous
 62
     7
370
    25
100
AcDbLine
 10
80.4838950524
 20
334.8576498799
 30
0.0
 11
80.0838950524
 21
335.2576498799
 31
0.0
  0
LINE
  5
218
330
1F
100
AcDbEntity
  8
0
  6
Continuous
 62
     7
370
    25
100
AcDbLine
 10
80.4838950524
 20
334.8576498799
 30
0.0
 11
80.4838950524
 21
224.6576498799
 31
0.0
  0
LINE
  5
219
330
1F
100
AcDbEntity
  8
0
  6
Continuous
 62
     7
370
    25
100
AcDbLine
 10
80.0838950524
 20
224.2576498799
 30
0.0
 11
80.4838950524
 21
224.6576498799
 31
0.0
  0
LINE
  5
21A
330
1F
100
AcDbEntity
  8
0
  6
Continuous
 62
     7
370
    25
100
AcDbLine
 10
56.6838950524
 20
224.6576498799
 30
0.0
 11
57.0838950524
 21
224.2576498799
 31
0.0
  0
LINE
  5
21B
330
1F
100
AcDbEntity
  8
0
  6
Continuous
 62
     7
370
    25
100
AcDbLine
 10
56.6838950524
 20
224.6576498799
 30
0.0
 11
56.6838950524
 21
334.8576498799
 31
0.0
  0
CIRCLE
  5
21C
330
1F
100
AcDbEntity
  8
0
  6
Continuous
 62
     7
370
    25
100
AcDbCircle
 10
68.5838950524
 20
293.7576498799
 30
0.0
 40
5.199999999999989
  0
CIRCLE
  5
21D
330
1F
100
AcDbEntity
  8
0
  6
Continuous
 62
     7
370
    25
100
AcDbCircle
 10
68.5838950524
 20
265.7576498799
 30
0.0
 40
5.200000000000003
  0
CIRCLE
  5
21E
330
1F
100
AcDbEntity
  8
0
  6
Continuous
 62
     7
370
    25
100
AcDbCircle
 10
68.5838950524
 20
293.7576498799
 30
0.0
 40
2.75
  0
CIRCLE
  5
21F
330
1F
100
AcDbEntity
  8
0
  6
Continuous
 62
     7
370
    25
100
AcDbCircle
 10
68.5838950524
 20
265.7576498799
 30
0.0
 40
2.75
  0
CIRCLE
  5
220
330
1F
100
AcDbEntity
  8
0
  6
Continuous
 62
     7
370
    25
100
AcDbCircle
 10
65.5838950524
 20
307.7576498799
 30
0.0
 40
4.999999999999997
  0
CIRCLE
  5
221
330
1F
100
AcDbEntity
  8
0
  6
Continuous
 62
     7
370
    25
100
AcDbCircle
 10
65.5838950524
 20
307.7576498799
 30
0.0
 40
4.615049880485927
  0
CIRCLE
  5
222
330
1F
100
AcDbEntity
  8
0
  6
Continuous
 62
     7
370
    25
100
AcDbCircle
 10
65.5838950524
 20
307.7576498799
 30
0.0
 40
2.800000000000011
  0
LWPOLYLINE
  5
223
330
1F
100
AcDbEntity
  8
0
  6
Continuous
 62
     7
370
    25
100
AcDbPolyline
 90
       11
 70
   128
 43
0.0
 10
68.2856823401
 20
308.4927318152
 10
68.2696337227
 20
308.5226478876
 10
68.2396857436
 20
308.5491173554
 10
68.1078503629
 20
308.6061476018
 10
67.5148090204
 20
308.7575100697
 10
66.8987453585
 20
309.0826453957
 10
66.5688845094
 20
309.6961918373
 10
66.4129683372
 20
310.2880522752
 10
66.3549264754
 20
310.4194454214
 10
66.3282276064
 20
310.4491890689
 10
66.2981890664
 20
310.4650072744
  0
LWPOLYLINE
  5
224
330
1F
100
AcDbEntity
  8
0
  6
Continuous
 62
     7
370
    25
100
AcDbPolyline
 90
       13
 70
   128
 43
0.0
 10
67.5713883261
 20
305.7853744207
 10
67.5902572508
 20
305.8169952677
 10
67.5976538807
 20
305.8605742874
 10
67.5898435825
 20
305.9508794619
 10
67.5130386967
 20
306.2370504156
 10
67.3573715426
 20
306.9943800515
 10
67.4743912791
 20
307.4956627568
 10
67.7953022859
 20
307.916247145
 10
68.1325715491
 20
308.2450751076
 10
68.2547873049
 20
308.3860467623
 10
68.2796280935
 20
308.4325258567
 10
68.2882028517
 20
308.473849089
 10
68.2856823401
 20
308.4927318152
  0
LWPOLYLINE
  5
225
330
1F
100
AcDbEntity
  8
0
  6
Continuous
 62
     7
370
    25
100
AcDbPolyline
 90
       14
 70
   128
 43
0.0
 10
66.2981890664
 20
310.4650072744
 10
66.2792875251
 20
310.467382577
 10
66.2446074932
 20
310.4609378635
 10
66.2062978664
 20
310.4425245831
 10
66.1644027144
 20
310.4134309387
 10
66.0517164991
 20
310.3099974917
 10
65.7254905349
 20
309.9702107863
 10
65.3073851244
 20
309.6460766049
 10
64.8070166517
 20
309.5252074159
 10
64.0485129127
 20
309.6750490602
 10
63.7617600821
 20
309.7496521387
 10
63.6513337914
 20
309.7547487559
 10
63.6200844611
 20
309.7459522598
 10
63.5964017786
 20
309.7299253391
  0
LWPOLYLINE
  5
226
330
1F
100
AcDbEntity
  8
0
  6
Continuous
 62
     7
370
    25
100
AcDbPolyline
 90
       13
 70
   128
 43
0.0
 10
63.5964017786
 20
309.7299253391
 10
63.577532854
 20
309.6983044921
 10
63.5701362241
 20
309.6547254724
 10
63.5779465222
 20
309.5644202979
 10
63.654751408
 20
309.2782493442
 10
63.8104185621
 20
308.5209197083
 10
63.6933988256
 20
308.019637003
 10
63.3724878188
 20
307.5990526148
 10
63.0352185557
 20
307.2702246522
 10
62.9130027999
 20
307.1292529975
 10
62.8881620112
 20
307.0827739032
 10
62.8795872531
 20
307.0414506708
 10
62.8821077646
 20
307.0225679446
  0
LWPOLYLINE
  5
227
330
1F
100
AcDbEntity
  8
0
  6
Continuous
 62
     7
370
    25
100
AcDbPolyline
 90
       14
 70
   128
 43
0.0
 10
64.8696010383
 20
305.0502924854
 10
64.8885025797
 20
305.0479171829
 10
64.9231826116
 20
305.0543618963
 10
64.9614922384
 20
305.0727751767
 10
65.0033873904
 20
305.1018688211
 10
65.1160736056
 20
305.2053022681
 10
65.4422995698
 20
305.5450889735
 10
65.8604049804
 20
305.8692231549
 10
66.3607734531
 20
305.9900923439
 10
67.119277192
 20
305.8402506996
 10
67.4060300227
 20
305.7656476211
 10
67.5164563134
 20
305.7605510039
 10
67.5477056437
 20
305.7693475001
 10
67.5713883261
 20
305.7853744207
  0
LWPOLYLINE
  5
228
330
1F
100
AcDbEntity
  8
0
  6
Continuous
 62
     7
370
    25
100
AcDbPolyline
 90
       11
 70
   128
 43
0.0
 10
62.8821077646
 20
307.0225679446
 10
62.898156382
 20
306.9926518722
 10
62.9281043612
 20
306.9661824045
 10
63.0599397418
 20
306.909152158
 10
63.6529810844
 20
306.7577896901
 10
64.2690447463
 20
306.4326543641
 10
64.5989055954
 20
305.8191079225
 10
64.7548217675
 20
305.2272474847
 10
64.8128636293
 20
305.0958543384
 10
64.8395624984
 20
305.0661106909
 10
64.8696010383
 20
305.0502924854
  0
ARC
  5
229
330
1F
100
AcDbEntity
  8
0
  6
Continuous
 62
     7
370
    25
100
AcDbCircle
 10
65.5838950524
 20
307.7576498799
 30
0.0
 40
1.86666666666667
100
AcDbArc
 50
45.2201927219
 51
105.2201927219
  0
ARC
  5
22A
330
1F
100
AcDbEntity
  8
0
  6
Continuous
 62
     7
370
    25
100
AcDbCircle
 10
65.5838950524
 20
307.7576498799
 30
0.0
 40
1.866666666666634
100
AcDbArc
 50
345.2201927219
 51
45.2201927219
  0
ARC
  5
22B
330
1F
100
AcDbEntity
  8
0
  6
Continuous
 62
     7
370
    25
100
AcDbCircle
 10
65.5838950524
 20
307.7576498799
 30
0.0
 40
1.866666666666655
100
AcDbArc
 50
285.2201927219
 51
345.2201927219
  0
ARC
  5
22C
330
1F
100
AcDbEntity
  8
0
  6
Continuous
 62
     7
370
    25
100
AcDbCircle
 10
65.5838950524
 20
307.7576498799
 30
0.0
 40
1.866666666666694
100
AcDbArc
 50
225.2201927219
 51
285.2201927219
  0
ARC
  5
22D
330
1F
100
AcDbEntity
  8
0
  6
Continuous
 62
     7
370
    25
100
AcDbCircle
 10
65.5838950524
 20
307.7576498799
 30
0.0
 40
1.866666666666694
100
AcDbArc
 50
165.2201927219
 51
225.2201927219
  0
ARC
  5
22E
330
1F
100
AcDbEntity
  8
0
  6
Continuous
 62
     7
370
    25
100
AcDbCircle
 10
65.5838950524
 20
307.7576498799
 30
0.0
 40
1.866666666666683
100
AcDbArc
 50
105.2201927219
 51
165.2201927219
  0
CIRCLE
  5
22F
330
1F
100
AcDbEntity
  8
0
  6
Continuous
 62
     7
370
    25
100
AcDbCircle
 10
65.5838950524
 20
251.7576498799
 30
0.0
 40
5.000000000000004
  0
CIRCLE
  5
230
330
1F
100
AcDbEntity
  8
0
  6
Continuous
 62
     7
370
    25
100
AcDbCircle
 10
65.5838950524
 20
251.7576498799
 30
0.0
 40
4.615049880485955
  0
CIRCLE
  5
231
330
1F
100
AcDbEntity
  8
0
  6
Continuous
 62
     7
370
    25
100
AcDbCircle
 10
65.5838950524
 20
251.7576498799
 30
0.0
 40
2.799999999999998
  0
LWPOLYLINE
  5
232
330
1F
100
AcDbEntity
  8
0
  6
Continuous
 62
     7
370
    25
100
AcDbPolyline
 90
       11
 70
   128
 43
0.0
 10
68.2144840229
 20
250.7984827058
 10
68.2186457922
 20
250.8321755712
 10
68.2094678552
 20
250.8710764665
 10
68.1347269629
 20
250.9937419287
 10
67.7378080438
 20
251.4596432083
 10
67.422388694
 20
252.0807374439
 10
67.5071533417
 20
252.7721579891
 10
67.7214460888
 20
253.3454705122
 10
67.7498872201
 20
253.4862686608
 10
67.7452523615
 20
253.5259679337
 10
67.7298526769
 20
253.5562231683
  0
LWPOLYLINE
  5
233
330
1F
100
AcDbEntity
  8
0
  6
Continuous
 62
     7
370
    25
100
AcDbPolyline
 90
       14
 70
   128
 43
0.0
 10
67.7298526769
 20
253.5562231683
 10
67.7157884813
 20
253.5690726324
 10
67.6837485876
 20
253.5838267558
 10
67.6418366003
 20
253.5909021866
 10
67.5908320441
 20
253.591325448
 10
67.4391106322
 20
253.5719018992
 10
66.9765898732
 20
253.4827226845
 10
66.4480738739
 20
253.4593573167
 10
65.9697033829
 20
253.6494616107
 10
65.4367883503
 20
254.2096240946
 10
65.245683111
 20
254.4360564084
 10
65.1584495687
 20
254.5039552323
 10
65.1278537978
 20
254.5148087013
 10
65.0992637064
 20
254.5153903424
  0
LWPOLYLINE
  5
234
330
1F
100
AcDbEntity
  8
0
  6
Continuous
 62
     7
370
    25
100
AcDbPolyline
 90
       13
 70
   128
 43
0.0
 10
65.0992637064
 20
254.5153903424
 10
65.0656039321
 20
254.500459372
 10
65.0344104235
 20
254.4691415478
 10
64.9886652136
 20
254.3908893844
 10
64.8862100682
 20
254.112868255
 10
64.5762069199
 20
253.4045755977
 10
64.1913123748
 20
253.0627654771
 10
63.6864963072
 20
252.9045382995
 10
63.2212827447
 20
252.8306821818
 10
63.0401127593
 20
252.7861048919
 10
62.9930002775
 20
252.7624874184
 10
62.9621467134
 20
252.7336916966
 10
62.9533060818
 20
252.716817054
  0
LWPOLYLINE
  5
235
330
1F
100
AcDbEntity
  8
0
  6
Continuous
 62
     7
370
    25
100
AcDbPolyline
 90
       13
 70
   128
 43
0.0
 10
66.0685263984
 20
248.9999094174
 10
66.1021861726
 20
249.0148403878
 10
66.1333796813
 20
249.046158212
 10
66.1791248911
 20
249.1244103754
 10
66.2815800365
 20
249.4024315048
 10
66.5915831849
 20
250.1107241621
 10
66.9764777299
 20
250.4525342827
 10
67.4812937975
 20
250.6107614604
 10
67.9465073601
 20
250.684617578
 10
68.1276773455
 20
250.7291948679
 10
68.1747898272
 20
250.7528123414
 10
68.2056433913
 20
250.7816080633
 10
68.2144840229
 20
250.7984827058
  0
LWPOLYLINE
  5
236
330
1F
100
AcDbEntity
  8
0
  6
Continuous
 62
     7
370
    25
100
AcDbPolyline
 90
       14
 70
   128
 43
0.0
 10
63.4379374278
 20
249.9590765915
 10
63.4520016235
 20
249.9462271274
 10
63.4840415171
 20
249.931473004
 10
63.5259535044
 20
249.9243975732
 10
63.5769580606
 20
249.9239743118
 10
63.7286794725
 20
249.9433978606
 10
64.1912002315
 20
250.0325770753
 10
64.7197162308
 20
250.0559424432
 10
65.1980867219
 20
249.8658381492
 10
65.7310017544
 20
249.3056756652
 10
65.9221069938
 20
249.0792433515
 10
66.009340536
 20
249.0113445275
 10
66.039936307
 20
249.0004910585
 10
66.0685263984
 20
248.9999094174
  0
LWPOLYLINE
  5
237
330
1F
100
AcDbEntity
  8
0
  6
Continuous
 62
     7
370
    25
100
AcDbPolyline
 90
       11
 70
   128
 43
0.0
 10
62.9533060818
 20
252.716817054
 10
62.9491443125
 20
252.6831241886
 10
62.9583222496
 20
252.6442232933
 10
63.0330631419
 20
252.5215578311
 10
63.4299820609
 20
252.0556565515
 10
63.7454014107
 20
251.4345623159
 10
63.6606367631
 20
250.7431417707
 10
63.446344016
 20
250.1698292476
 10
63.4179028847
 20
250.029031099
 10
63.4225377432
 20
249.9893318262
 10
63.4379374278
 20
249.9590765915
  0
ARC
  5
238
330
1F
100
AcDbEntity
  8
0
  6
Continuous
 62
     7
370
    25
100
AcDbCircle
 10
65.5838950524
 20
251.7576498799
 30
0.0
 40
1.866666666666697
100
AcDbArc
 50
9.9670979195
 51
69.9670979195
  0
ARC
  5
239
330
1F
100
AcDbEntity
  8
0
  6
Continuous
 62
     7
370
    25
100
AcDbCircle
 10
65.5838950524
 20
251.7576498799
 30
0.0
 40
1.866666666666662
100
AcDbArc
 50
129.9670979195
 51
189.9670979195
  0
ARC
  5
23A
330
1F
100
AcDbEntity
  8
0
  6
Continuous
 62
     7
370
    25
100
AcDbCircle
 10
65.5838950524
 20
251.7576498799
 30
0.0
 40
1.866666666666697
100
AcDbArc
 50
69.9670979195
 51
129.9670979195
  0
ARC
  5
23B
330
1F
100
AcDbEntity
  8
0
  6
Continuous
 62
     7
370
    25
100
AcDbCircle
 10
65.5838950524
 20
251.7576498799
 30
0.0
 40
1.866666666666697
100
AcDbArc
 50
309.9670979195
 51
9.9670979195
  0
ARC
  5
23C
330
1F
100
AcDbEntity
  8
0
  6
Continuous
 62
     7
370
    25
100
AcDbCircle
 10
65.5838950524
 20
251.7576498799
 30
0.0
 40
1.866666666666682
100
AcDbArc
 50
249.9670979195
 51
309.9670979195
  0
ARC
  5
23D
330
1F
100
AcDbEntity
  8
0
  6
Continuous
 62
     7
370
    25
100
AcDbCircle
 10
65.5838950524
 20
251.7576498799
 30
0.0
 40
1.866666666666677
100
AcDbArc
 50
189.9670979195
 51
249.9670979195
  0
CIRCLE
  5
23E
330
1F
100
AcDbEntity
  8
0
  6
Continuous
 62
     7
370
    25
100
AcDbCircle
 10
65.5838950524
 20
279.7576498799
 30
0.0
 40
5.000000000000018
  0
CIRCLE
  5
23F
330
1F
100
AcDbEntity
  8
0
  6
Continuous
 62
     7
370
    25
100
AcDbCircle
 10
65.5838950524
 20
279.7576498799
 30
0.0
 40
4.615049880485907
  0
CIRCLE
  5
240
330
1F
100
AcDbEntity
  8
0
  6
Continuous
 62
     7
370
    25
100
AcDbCircle
 10
65.5838950524
 20
279.7576498799
 30
0.0
 40
2.800000000000025
  0
LWPOLYLINE
  5
241
330
1F
100
AcDbEntity
  8
0
  6
Continuous
 62
     7
370
    25
100
AcDbPolyline
 90
       14
 70
   128
 43
0.0
 10
67.8399748234
 20
281.4159936521
 10
67.8267569676
 20
281.4297122022
 10
67.7957210847
 20
281.4464756419
 10
67.7543444011
 20
281.4562042828
 10
67.7034701957
 20
281.4598729526
 10
67.5508201562
 20
281.4501453373
 10
67.0835612043
 20
281.3905848075
 10
66.5546296451
 20
281.4009050598
 10
66.0893285424
 20
281.621070573
 10
65.5931464333
 20
282.2140155578
 10
65.416840307
 20
282.4521519788
 10
65.3341051601
 20
282.5254652563
 10
65.3042622085
 20
282.5382440367
 10
65.275767103
 20
282.5406441607
  0
LWPOLYLINE
  5
242
330
1F
100
AcDbEntity
  8
0
  6
Continuous
 62
     7
370
    25
100
AcDbPolyline
 90
       11
 70
   128
 43
0.0
 10
68.1481027728
 20
278.6329993713
 10
68.1544005404
 20
278.666359042
 10
68.1477171214
 20
278.7057652102
 10
68.080935006
 20
278.8329389719
 10
67.7144738729
 20
279.3231581765
 10
67.4392245729
 20
279.9630685128
 10
67.5678239276
 20
280.6476922209
 10
67.8181715895
 20
281.2062033478
 10
67.8555163799
 20
281.3449058468
 10
67.8534176423
 20
281.3848196224
 10
67.8399748234
 20
281.4159936521
  0
LWPOLYLINE
  5
243
330
1F
100
AcDbEntity
  8
0
  6
Continuous
 62
     7
370
    25
100
AcDbPolyline
 90
       13
 70
   128
 43
0.0
 10
65.275767103
 20
282.5406441607
 10
65.2412252684
 20
282.527885793
 10
65.2081017316
 20
282.4986168265
 10
65.1574687859
 20
282.4234348465
 10
65.0375262686
 20
282.1524983268
 10
64.6830712316
 20
281.4653723797
 10
64.2772020081
 20
281.1487525087
 10
63.7633388331
 20
281.0229759634
 10
63.2943678004
 20
280.978878851
 10
63.1107279442
 20
280.9459227953
 10
63.0622078111
 20
280.9253517555
 10
63.0295840528
 20
280.8985781415
 10
63.0196873319
 20
280.8823003885
  0
LWPOLYLINE
  5
244
330
1F
100
AcDbEntity
  8
0
  6
Continuous
 62
     7
370
    25
100
AcDbPolyline
 90
       13
 70
   128
 43
0.0
 10
65.8920230018
 20
276.9746555991
 10
65.9265648363
 20
276.9874139668
 10
65.9596883732
 20
277.0166829333
 10
66.0103213188
 20
277.0918649133
 10
66.1302638362
 20
277.362801433
 10
66.4847188731
 20
278.0499273801
 10
66.8905880967
 20
278.3665472511
 10
67.4044512716
 20
278.4923237964
 10
67.8734223043
 20
278.5364209088
 10
68.0570621605
 20
278.5693769645
 10
68.1055822936
 20
278.5899480043
 10
68.1382060519
 20
278.6167216183
 10
68.1481027728
 20
278.6329993713
  0
LWPOLYLINE
  5
245
330
1F
100
AcDbEntity
  8
0
  6
Continuous
 62
     7
370
    25
100
AcDbPolyline
 90
       11
 70
   128
 43
0.0
 10
63.0196873319
 20
280.8823003885
 10
63.0133895643
 20
280.8489407178
 10
63.0200729833
 20
280.8095345497
 10
63.0868550987
 20
280.6823607879
 10
63.4533162318
 20
280.1921415833
 10
63.7285655319
 20
279.552231247
 10
63.5999661771
 20
278.8676075389
 10
63.3496185153
 20
278.309096412
 10
63.3122737248
 20
278.170393913
 10
63.3143724624
 20
278.1304801374
 10
63.3278152813
 20
278.0993061077
  0
LWPOLYLINE
  5
246
330
1F
100
AcDbEntity
  8
0
  6
Continuous
 62
     7
370
    25
100
AcDbPolyline
 90
       14
 70
   128
 43
0.0
 10
63.3278152813
 20
278.0993061077
 10
63.3410331371
 20
278.0855875576
 10
63.3720690201
 20
278.0688241179
 10
63.4134457037
 20
278.059095477
 10
63.464319909
 20
278.0554268072
 10
63.6169699485
 20
278.0651544225
 10
64.0842289005
 20
278.1247149523
 10
64.6131604596
 20
278.1143947
 10
65.0784615623
 20
277.8942291868
 10
65.5746436714
 20
277.301284202
 10
65.7509497978
 20
277.063147781
 10
65.8336849447
 20
276.9898345035
 10
65.8635278963
 20
276.9770557231
 10
65.8920230018
 20
276.9746555991
  0
ARC
  5
247
330
1F
100
AcDbEntity
  8
0
  6
Continuous
 62
     7
370
    25
100
AcDbCircle
 10
65.5838950524
 20
279.7576498799
 30
0.0
 40
1.866666666666709
100
AcDbArc
 50
6.3179497613
 51
66.3179497613
  0
ARC
  5
248
330
1F
100
AcDbEntity
  8
0
  6
Continuous
 62
     7
370
    25
100
AcDbCircle
 10
65.5838950524
 20
279.7576498799
 30
0.0
 40
1.866666666666662
100
AcDbArc
 50
126.3179497613
 51
186.3179497613
  0
ARC
  5
249
330
1F
100
AcDbEntity
  8
0
  6
Continuous
 62
     7
370
    25
100
AcDbCircle
 10
65.5838950524
 20
279.7576498799
 30
0.0
 40
1.866666666666709
100
AcDbArc
 50
66.3179497613
 51
126.3179497613
  0
ARC
  5
24A
330
1F
100
AcDbEntity
  8
0
  6
Continuous
 62
     7
370
    25
100
AcDbCircle
 10
65.5838950524
 20
279.7576498799
 30
0.0
 40
1.866666666666696
100
AcDbArc
 50
306.3179497613
 51
6.3179497613
  0
ARC
  5
24B
330
1F
100
AcDbEntity
  8
0
  6
Continuous
 62
     7
370
    25
100
AcDbCircle
 10
65.5838950524
 20
279.7576498799
 30
0.0
 40
1.866666666666647
100
AcDbArc
 50
246.3179497613
 51
306.3179497613
  0
ARC
  5
24C
330
1F
100
AcDbEntity
  8
0
  6
Continuous
 62
     7
370
    25
100
AcDbCircle
 10
65.5838950524
 20
279.7576498799
 30
0.0
 40
1.866666666666662
100
AcDbArc
 50
186.3179497613
 51
246.3179497613
  0
CIRCLE
  5
24D
330
1F
100
AcDbEntity
  8
0
  6
Continuous
 62
     7
370
    25
100
AcDbCircle
 10
68.5838950524
 20
223.7576498799
 30
0.0
 40
2.80000000000002
  0
CIRCLE
  5
24E
330
1F
100
AcDbEntity
  8
0
  6
Continuous
 62
     7
370
    25
100
AcDbCircle
 10
68.5838950524
 20
223.7576498799
 30
0.0
 40
4.999999999999996
  0
LWPOLYLINE
  5
24F
330
1F
100
AcDbEntity
  8
0
  6
Continuous
 62
     7
370
    25
100
AcDbPolyline
 90
       13
 70
   128
 43
0.0
 10
70.8077113698
 20
225.4590143283
 10
70.7789446323
 20
225.4820010439
 10
70.7367730777
 20
225.4952449508
 10
70.6462435877
 20
225.4997656532
 10
70.3522955128
 20
225.4625187145
 10
69.5808446956
 20
225.4110981257
 10
69.1000872725
 20
225.5950825529
 10
68.7269589155
 20
225.9701163262
 10
68.4469582302
 20
226.3489012271
 10
68.3238819718
 20
226.4891222419
 10
68.2812051885
 20
226.520042513
 10
68.2414284685
 20
226.5341474253
 10
68.2223783777
 20
226.5342135284
  0
LWPOLYLINE
  5
250
330
1F
100
AcDbEntity
  8
0
  6
Continuous
 62
     7
370
    25
100
AcDbPolyline
 90
       14
 70
   128
 43
0.0
 10
71.1692280445
 20
222.6824506798
 10
71.1741471975
 20
222.7008548169
 10
71.1724698684
 20
222.7360886857
 10
71.1594274684
 20
222.7765432553
 10
71.1362902937
 20
222.8219999936
 10
71.0491111575
 20
222.9476839595
 10
70.7567540689
 20
223.3170154063
 10
70.4923770239
 20
223.7752510225
 10
70.4405504487
 20
224.2873955094
 10
70.6919700862
 20
225.0185374971
 10
70.8048085865
 20
225.2925088059
 10
70.8248481228
 20
225.4012210783
 10
70.8203750711
 20
225.4333752506
 10
70.8077113698
 20
225.4590143283
  0
LWPOLYLINE
  5
251
330
1F
100
AcDbEntity
  8
0
  6
Continuous
 62
     7
370
    25
100
AcDbPolyline
 90
       11
 70
   128
 43
0.0
 10
68.2223783777
 20
226.5342135284
 10
68.1905606644
 20
226.5223744984
 10
68.1602708481
 20
226.4962968988
 10
68.0858721772
 20
226.3734235722
 10
67.8554069051
 20
225.8064188201
 10
67.4496520868
 20
225.2401940915
 10
66.7970071658
 20
224.9966740249
 10
66.1894600713
 20
224.9225446884
 10
66.0514041313
 20
224.8828763881
 10
66.0183115015
 20
224.8604622848
 10
65.9985620602
 20
224.83284908
  0
LWPOLYLINE
  5
252
330
1F
100
AcDbEntity
  8
0
  6
Continuous
 62
     7
370
    25
100
AcDbPolyline
 90
       11
 70
   128
 43
0.0
 10
68.945411727
 20
220.9810862314
 10
68.9772294403
 20
220.9929252614
 10
69.0075192566
 20
221.0190028611
 10
69.0819179275
 20
221.1418761876
 10
69.3123831997
 20
221.7088809397
 10
69.718138018
 20
222.2751056683
 10
70.3707829389
 20
222.5186257349
 10
70.9783300335
 20
222.5927550714
 10
71.1163859735
 20
222.6324233717
 10
71.1494786033
 20
222.654837475
 10
71.1692280445
 20
222.6824506798
  0
LWPOLYLINE
  5
253
330
1F
100
AcDbEntity
  8
0
  6
Continuous
 62
     7
370
    25
100
AcDbPolyline
 90
       14
 70
   128
 43
0.0
 10
65.9985620602
 20
224.83284908
 10
65.9936429072
 20
224.8144449429
 10
65.9953202364
 20
224.7792110741
 10
66.0083626364
 20
224.7387565045
 10
66.031499811
 20
224.6932997662
 10
66.1186789472
 20
224.5676158003
 10
66.4110360358
 20
224.1982843535
 10
66.6754130808
 20
223.7400487373
 10
66.7272396561
 20
223.2279042504
 10
66.4758200185
 20
222.4967622627
 10
66.3629815182
 20
222.2227909539
 10
66.342941982
 20
222.1140786815
 10
66.3474150336
 20
222.0819245092
 10
66.3600787349
 20
222.0562854315
  0
LWPOLYLINE
  5
254
330
1F
100
AcDbEntity
  8
0
  6
Continuous
 62
     7
370
    25
100
AcDbPolyline
 90
       13
 70
   128
 43
0.0
 10
66.3600787349
 20
222.0562854315
 10
66.3888454724
 20
222.0332987159
 10
66.4310170271
 20
222.020054809
 10
66.521546517
 20
222.0155341066
 10
66.8154945919
 20
222.0527810454
 10
67.5869454092
 20
222.1042016341
 10
68.0677028323
 20
221.9202172069
 10
68.4408311892
 20
221.5451834336
 10
68.7208318745
 20
221.1663985328
 10
68.843908133
 20
221.0261775179
 10
68.8865849162
 20
220.9952572468
 10
68.9263616363
 20
220.9811523345
 10
68.945411727
 20
220.9810862314
  0
ARC
  5
255
330
1F
100
AcDbEntity
  8
0
  6
Continuous
 62
     7
370
    25
100
AcDbCircle
 10
68.5838950524
 20
223.7576498799
 30
0.0
 40
1.86666666666672
100
AcDbArc
 50
7.4183446652
 51
67.4183446653
  0
ARC
  5
256
330
1F
100
AcDbEntity
  8
0
  6
Continuous
 62
     7
370
    25
100
AcDbCircle
 10
68.5838950524
 20
223.7576498799
 30
0.0
 40
1.866666666666703
100
AcDbArc
 50
67.4183446653
 51
127.4183446653
  0
ARC
  5
257
330
1F
100
AcDbEntity
  8
0
  6
Continuous
 62
     7
370
    25
100
AcDbCircle
 10
68.5838950524
 20
223.7576498799
 30
0.0
 40
1.86666666666672
100
AcDbArc
 50
307.4183446653
 51
7.4183446652
  0
ARC
  5
258
330
1F
100
AcDbEntity
  8
0
  6
Continuous
 62
     7
370
    25
100
AcDbCircle
 10
68.5838950524
 20
223.7576498799
 30
0.0
 40
1.866666666666662
100
AcDbArc
 50
247.4183446653
 51
307.4183446653
  0
ARC
  5
259
330
1F
100
AcDbEntity
  8
0
  6
Continuous
 62
     7
370
    25
100
AcDbCircle
 10
68.5838950524
 20
223.7576498799
 30
0.0
 40
1.866666666666685
100
AcDbArc
 50
187.4183446653
 51
247.4183446653
  0
ARC
  5
25A
330
1F
100
AcDbEntity
  8
0
  6
Continuous
 62
     7
370
    25
100
AcDbCircle
 10
68.5838950524
 20
223.7576498799
 30
0.0
 40
1.866666666666685
100
AcDbArc
 50
127.4183446653
 51
187.4183446653
  0
CIRCLE
  5
25B
330
1F
100
AcDbEntity
  8
0
  6
Continuous
 62
     7
370
    25
100
AcDbCircle
 10
68.5838950524
 20
223.7576498799
 30
0.0
 40
8.000000000000007
  0
CIRCLE
  5
25C
330
1F
100
AcDbEntity
  8
0
  6
Continuous
 62
     7
370
    25
100
AcDbCircle
 10
68.5838950524
 20
223.7576498799
 30
0.0
 40
6.500000000000002
  0
CIRCLE
  5
25D
330
1F
100
AcDbEntity
  8
0
  6
Continuous
 62
     7
370
    25
100
AcDbCircle
 10
68.5838950524
 20
335.7576498799
 30
0.0
 40
2.800000000000012
  0
CIRCLE
  5
25E
330
1F
100
AcDbEntity
  8
0
  6
Continuous
 62
     7
370
    25
100
AcDbCircle
 10
68.5838950524
 20
335.7576498799
 30
0.0
 40
5.000000000000014
  0
LWPOLYLINE
  5
25F
330
1F
100
AcDbEntity
  8
0
  6
Continuous
 62
     7
370
    25
100
AcDbPolyline
 90
       11
 70
   128
 43
0.0
 10
71.1721943767
 20
336.8256885531
 10
71.1525214467
 20
336.8533563202
 10
71.1194909877
 20
336.8758619407
 10
70.9815453817
 20
336.9159122388
 10
70.3742058106
 20
336.99172303
 10
69.722237473
 20
337.2370487369
 10
69.3180515643
 20
337.8043944578
 10
69.0891566894
 20
338.3720349838
 10
69.0150984267
 20
338.4951137811
 10
68.9848809113
 20
338.5212751255
 10
68.9530960913
 20
338.533202184
  0
LWPOLYLINE
  5
260
330
1F
100
AcDbEntity
  8
0
  6
Continuous
 62
     7
370
    25
100
AcDbPolyline
 90
       13
 70
   128
 43
0.0
 10
70.8029933378
 20
334.050136249
 10
70.8177486465
 20
334.0838733969
 10
70.8196228455
 20
334.1280359203
 10
70.8005514662
 20
334.2166491687
 10
70.6884717726
 20
334.4909317738
 10
70.4390769575
 20
335.22276691
 10
70.4923209909
 20
335.7347659747
 10
70.7579654557
 20
336.1922680186
 10
71.0513437631
 20
336.5607887827
 10
71.1549196234
 20
336.7159717057
 10
71.1737366999
 20
336.7651986152
 10
71.1770625668
 20
336.80727087
 10
71.1721943767
 20
336.8256885531
  0
LWPOLYLINE
  5
261
330
1F
100
AcDbEntity
  8
0
  6
Continuous
 62
     7
370
    25
100
AcDbPolyline
 90
       14
 70
   128
 43
0.0
 10
68.9530960913
 20
338.533202184
 10
68.9340458905
 20
338.5331888133
 10
68.9004475946
 20
338.5224466789
 10
68.8647489995
 20
338.4993753394
 10
68.8268323086
 20
338.4652583574
 10
68.72800414
 20
338.3485122476
 10
68.4469560206
 20
337.9705038621
 10
68.0727909698
 20
337.5965043746
 10
67.591526105
 20
337.4138514271
 10
66.8202205796
 20
337.4674072562
 10
66.5263767334
 20
337.5054677239
 10
66.4161828505
 20
337.4966785622
 10
66.3862830556
 20
337.4840333553
 10
66.3647967669
 20
337.4651635108
  0
LWPOLYLINE
  5
262
330
1F
100
AcDbEntity
  8
0
  6
Continuous
 62
     7
370
    25
100
AcDbPolyline
 90
       14
 70
   128
 43
0.0
 10
68.2146940134
 20
332.9820975758
 10
68.2337442142
 20
332.9821109465
 10
68.2673425101
 20
332.9928530809
 10
68.3030411053
 20
333.0159244204
 10
68.3409577961
 20
333.0500414024
 10
68.4397859648
 20
333.1667875122
 10
68.7208340841
 20
333.5447958977
 10
69.0949991349
 20
333.9187953852
 10
69.5762639997
 20
334.1014483327
 10
70.3475695251
 20
334.0478925036
 10
70.6414133714
 20
334.0098320359
 10
70.7516072543
 20
334.0186211976
 10
70.7815070491
 20
334.0312664045
 10
70.8029933378
 20
334.050136249
  0
LWPOLYLINE
  5
263
330
1F
100
AcDbEntity
  8
0
  6
Continuous
 62
     7
370
    25
100
AcDbPolyline
 90
       13
 70
   128
 43
0.0
 10
66.3647967669
 20
337.4651635108
 10
66.3500414582
 20
337.4314263629
 10
66.3481672593
 20
337.3872638395
 10
66.3672386386
 20
337.2986505911
 10
66.4793183322
 20
337.024367986
 10
66.7287131473
 20
336.2925328498
 10
66.6754691139
 20
335.7805337851
 10
66.4098246491
 20
335.3230317412
 10
66.1164463416
 20
334.9545109771
 10
66.0128704814
 20
334.7993280541
 10
65.9940534049
 20
334.7501011446
 10
65.990727538
 20
334.7080288898
 10
65.995595728
 20
334.6896112067
  0
LWPOLYLINE
  5
264
330
1F
100
AcDbEntity
  8
0
  6
Continuous
 62
     7
370
    25
100
AcDbPolyline
 90
       11
 70
   128
 43
0.0
 10
65.995595728
 20
334.6896112067
 10
66.015268658
 20
334.6619434396
 10
66.048299117
 20
334.6394378191
 10
66.1862447231
 20
334.599387521
 10
66.7935842941
 20
334.5235767298
 10
67.4455526318
 20
334.278251023
 10
67.8497385404
 20
333.7109053021
 10
68.0786334153
 20
333.143264776
 10
68.1526916781
 20
333.0201859787
 10
68.1829091934
 20
332.9940246343
 10
68.2146940134
 20
332.9820975758
  0
ARC
  5
265
330
1F
100
AcDbEntity
  8
0
  6
Continuous
 62
     7
370
    25
100
AcDbCircle
 10
68.5838950524
 20
335.7576498799
 30
0.0
 40
1.866666666666718
100
AcDbArc
 50
52.4230558519
 51
112.4230558519
  0
ARC
  5
266
330
1F
100
AcDbEntity
  8
0
  6
Continuous
 62
     7
370
    25
100
AcDbCircle
 10
68.5838950524
 20
335.7576498799
 30
0.0
 40
1.866666666666718
100
AcDbArc
 50
352.423055852
 51
52.4230558519
  0
ARC
  5
267
330
1F
100
AcDbEntity
  8
0
  6
Continuous
 62
     7
370
    25
100
AcDbCircle
 10
68.5838950524
 20
335.7576498799
 30
0.0
 40
1.866666666666697
100
AcDbArc
 50
292.4230558519
 51
352.423055852
  0
ARC
  5
268
330
1F
100
AcDbEntity
  8
0
  6
Continuous
 62
     7
370
    25
100
AcDbCircle
 10
68.5838950524
 20
335.7576498799
 30
0.0
 40
1.866666666666695
100
AcDbArc
 50
232.4230558519
 51
292.4230558519
  0
ARC
  5
269
330
1F
100
AcDbEntity
  8
0
  6
Continuous
 62
     7
370
    25
100
AcDbCircle
 10
68.5838950524
 20
335.7576498799
 30
0.0
 40
1.866666666666665
100
AcDbArc
 50
172.4230558519
 51
232.4230558519
  0
ARC
  5
26A
330
1F
100
AcDbEntity
  8
0
  6
Continuous
 62
     7
370
    25
100
AcDbCircle
 10
68.5838950524
 20
335.7576498799
 30
0.0
 40
1.866666666666696
100
AcDbArc
 50
112.4230558519
 51
172.4230558519
  0
CIRCLE
  5
26B
330
1F
100
AcDbEntity
  8
0
  6
Continuous
 62
     7
370
    25
100
AcDbCircle
 10
68.5838950524
 20
335.7576498799
 30
0.0
 40
7.999999999999995
  0
CIRCLE
  5
26C
330
1F
100
AcDbEntity
  8
0
  6
Continuous
 62
     7
370
    25
100
AcDbCircle
 10
68.5838950524
 20
335.7576498799
 30
0.0
 40
6.500000000000004
  0
LINE
  5
26D
330
1F
100
AcDbEntity
  8
0
  6
Continuous
 62
     7
370
    25
100
AcDbLine
 10
80.0838950524
 20
335.7576498799
 30
0.0
 11
80.0838950524
 21
223.7576498799
 31
0.0
  0
ARC
  5
26E
330
1F
100
AcDbEntity
  8
0
  6
Continuous
 62
     7
370
    25
100
AcDbCircle
 10
68.5838950524
 20
223.7576498799
 30
0.0
 40
11.50000000000001
100
AcDbArc
 50
180.0
 51
0.0
  0
LINE
  5
26F
330
1F
100
AcDbEntity
  8
0
  6
Continuous
 62
     7
370
    25
100
AcDbLine
 10
57.0838950524
 20
223.7576498799
 30
0.0
 11
57.0838950524
 21
335.7576498799
 31
0.0
  0
CIRCLE
  5
270
330
1F
100
AcDbEntity
  8
0
  6
Continuous
 62
     7
370
    25
100
AcDbCircle
 10
68.5838950524
 20
265.7576498799
 30
0.0
 40
5.499999999999986
  0
CIRCLE
  5
271
330
1F
100
AcDbEntity
  8
0
  6
Continuous
 62
     7
370
    25
100
AcDbCircle
 10
68.5838950524
 20
293.7576498799
 30
0.0
 40
5.5
  0
ARC
  5
272
330
1F
100
AcDbEntity
  8
0
  6
Continuous
 62
     7
370
    25
100
AcDbCircle
 10
68.5838950524
 20
335.7576498799
 30
0.0
 40
11.5
100
AcDbArc
 50
0.0
 51
180.0
  0
DIMENSION
  5
273
330
1F
100
AcDbEntity
  8
FORMAT
100
AcDbDimension
  2
_D_2
 10
47.6905462187
 20
279.7576498799
 30
0.0
 11
47.6905462187
 21
293.7576498799
 31
0.0
 70
   160
  1
<>
 71
     2
 42
-1.0
  3
SLDDIMSTYLE0
100
AcDbAlignedDimension
 13
65.5838950524
 23
307.7576498799
 33
0.0
 14
53.2125142816
 24
279.7576498799
 34
0.0
 50
90.0
100
AcDbRotatedDimension
  0
DIMENSION
  5
27D
330
1F
100
AcDbEntity
  8
FORMAT
100
AcDbDimension
  2
_D_3
 10
47.6905462187
 20
251.7576498799
 30
0.0
 11
47.6905462187
 21
265.7576498799
 31
0.0
 70
   160
  1
<>
 71
     2
 42
-1.0
  3
SLDDIMSTYLE0
100
AcDbAlignedDimension
 13
53.2125142816
 23
279.7576498799
 33
0.0
 14
65.5838950524
 24
251.7576498799
 34
0.0
 50
90.0
100
AcDbRotatedDimension
  0
DIMENSION
  5
287
330
1F
100
AcDbEntity
  8
FORMAT
100
AcDbDimension
  2
_D_4
 10
40.5613390948
 20
223.7576498799
 30
0.0
 11
40.5613390948
 21
279.7576498799
 31
0.0
 70
   160
  1
<>
 71
     2
 42
-1.0
  3
SLDDIMSTYLE0
100
AcDbAlignedDimension
 13
68.5838950524
 23
335.7576498799
 33
0.0
 14
68.5838950524
 24
223.7576498799
 34
0.0
 50
90.0
100
AcDbRotatedDimension
  0
DIMENSION
  5
291
330
1F
100
AcDbEntity
  8
FORMAT
100
AcDbDimension
  2
_D_5
 10
33.0974619298
 20
201.7576498799
 30
0.0
 11
33.0974619298
 21
279.7576498799
 31
0.0
 70
   160
  1
<>
 71
     2
 42
-1.0
  3
SLDDIMSTYLE0
100
AcDbAlignedDimension
 13
63.5838950524
 23
357.7576498799
 33
0.0
 14
68.5838950524
 24
201.7576498799
 34
0.0
 50
90.0
100
AcDbRotatedDimension
  0
DIMENSION
  5
29B
330
1F
100
AcDbEntity
  8
FORMAT
100
AcDbDimension
  2
_D_6
 10
26.4539142921
 20
189.7576498799
 30
0.0
 11
26.4539142921
 21
279.7576498799
 31
0.0
 70
   160
  1
<>
 71
     2
 42
-1.0
  3
SLDDIMSTYLE0
100
AcDbAlignedDimension
 13
68.5838950524
 23
369.7576498799
 33
0.0
 14
68.5838950524
 24
189.7576498799
 34
0.0
 50
90.0
100
AcDbRotatedDimension
  0
DIMENSION
  5
2A5
330
1F
100
AcDbEntity
  8
FORMAT
100
AcDbDimension
  2
_D_7
 10
65.5838950524
 20
240.5257925274
 30
0.0
 11
74.7775046539
 21
240.5257925274
 31
0.0
 70
   160
  1
<>
 71
     2
 42
-1.0
  3
SLDDIMSTYLE1
100
AcDbAlignedDimension
 13
68.5838950524
 23
231.7576498799
 33
0.0
 14
65.5838950524
 24
251.7576498799
 34
0.0
100
AcDbRotatedDimension
  0
DIMENSION
  5
2B1
330
1F
100
AcDbEntity
  8
FORMAT
100
AcDbDimension
  2
_D_8
 10
56.6838950524
 20
182.6699223158
 30
0.0
 11
68.5838950524
 21
182.6699223158
 31
0.0
 70
   160
  1
<>
 71
     2
 42
-1.0
  3
SLDDIMSTYLE2
100
AcDbAlignedDimension
 13
80.4838950524
 23
224.6576498799
 33
0.0
 14
56.6838950524
 24
224.6576498799
 34
0.0
100
AcDbRotatedDimension
  0
DIMENSION
  5
2BE
330
1F
100
AcDbEntity
  8
FORMAT
100
AcDbDimension
  2
_D_9
 10
90.6064510099
 20
204.7576498799
 30
0.0
 11
90.6064510099
 21
212.9094085291
 31
0.0
 70
   160
  1
M6
 71
     2
 42
-1.0
  3
SLDDIMSTYLE1
100
AcDbAlignedDimension
 13
68.5838950524
 23
198.7576498799
 33
0.0
 14
68.5838950524
 24
204.7576498799
 34
0.0
 50
90.0
100
AcDbRotatedDimension
  0
MTEXT
  5
2CA
330
1F
100
AcDbEntity
  8
FORMAT
100
AcDbMText
 10
82.8793196557
 20
285.0424878257
 30
0.0
 40
3.5
 41
0.0
 71
     1
 72
     1
  1
BBL
  7
SLDTEXTSTYLE0
 73
     1
 44
1.0
  0
INSERT
  5
2D6
330
1F
100
AcDbEntity
  8
FORMAT
100
AcDbBlockReference
  2
SW_CENTERMARKSYMBOL_0
 10
68.5838950524
 20
357.7576498799
 30
0.0
  0
INSERT
  5
2E2
330
1F
100
AcDbEntity
  8
FORMAT
100
AcDbBlockReference
  2
SW_CENTERMARKSYMBOL_1
 10
68.5838950524
 20
201.7576498799
 30
0.0
  0
INSERT
  5
2EE
330
1F
100
AcDbEntity
  8
FORMAT
100
AcDbBlockReference
  2
SW_CENTERMARKSYMBOL_2
 10
68.5838950524
 20
335.7576498799
 30
0.0
  0
INSERT
  5
2FA
330
1F
100
AcDbEntity
  8
FORMAT
100
AcDbBlockReference
  2
SW_CENTERMARKSYMBOL_3
 10
68.5838950524
 20
223.7576498799
 30
0.0
  0
INSERT
  5
306
330
1F
100
AcDbEntity
  8
FORMAT
100
AcDbBlockReference
  2
SW_CENTERMARKSYMBOL_4
 10
68.5838950524
 20
293.7576498799
 30
0.0
  0
INSERT
  5
312
330
1F
100
AcDbEntity
  8
FORMAT
100
AcDbBlockReference
  2
SW_CENTERMARKSYMBOL_5
 10
68.5838950524
 20
265.7576498799
 30
0.0
  0
INSERT
  5
31E
330
1F
100
AcDbEntity
  8
FORMAT
100
AcDbBlockReference
  2
SW_CENTERMARKSYMBOL_6
 10
65.5838950524
 20
251.7576498799
 30
0.0
  0
INSERT
  5
32A
330
1F
100
AcDbEntity
  8
FORMAT
100
AcDbBlockReference
  2
SW_CENTERMARKSYMBOL_7
 10
65.5838950524
 20
279.7576498799
 30
0.0
  0
INSERT
  5
336
330
1F
100
AcDbEntity
  8
FORMAT
100
AcDbBlockReference
  2
SW_CENTERMARKSYMBOL_8
 10
65.5838950524
 20
307.7576498799
 30
0.0
  0
ARC
  5
337
330
1F
100
AcDbEntity
  8
FORMAT
100
AcDbCircle
 10
68.5838950524
 20
223.7576498799
 30
0.0
 40
7.999999999999964
100
AcDbArc
 50
75.0
 51
345.0
  0
ARC
  5
338
330
1F
100
AcDbEntity
  8
FORMAT
100
AcDbCircle
 10
68.5838950524
 20
335.7576498799
 30
0.0
 40
7.999999999999951
100
AcDbArc
 50
75.0
 51
345.0
  0
ARC
  5
339
330
1F
100
AcDbEntity
  8
FORMAT
100
AcDbCircle
 10
68.5838950524
 20
223.7576498799
 30
0.0
 40
8.000000000000034
100
AcDbArc
 50
75.0
 51
345.0
  0
ARC
  5
33A
330
1F
100
AcDbEntity
  8
FORMAT
100
AcDbCircle
 10
68.5838950524
 20
335.7576498799
 30
0.0
 40
8.00000000000002
100
AcDbArc
 50
75.0
 51
345.0
  0
ARC
  5
33B
330
1F
100
AcDbEntity
  8
FORMAT
100
AcDbCircle
 10
68.5838950524
 20
223.7576498799
 30
0.0
 40
8.000000000000034
100
AcDbArc
 50
75.0
 51
345.0
  0
ARC
  5
33C
330
1F
100
AcDbEntity
  8
FORMAT
100
AcDbCircle
 10
68.5838950524
 20
335.7576498799
 30
0.0
 40
8.00000000000002
100
AcDbArc
 50
75.0
 51
345.0
  0
ARC
  5
33D
330
1F
100
AcDbEntity
  8
FORMAT
100
AcDbCircle
 10
68.5838950524
 20
223.7576498799
 30
0.0
 40
8.000000000000034
100
AcDbArc
 50
75.0
 51
345.0
  0
ARC
  5
33E
330
1F
100
AcDbEntity
  8
FORMAT
100
AcDbCircle
 10
68.5838950524
 20
335.7576498799
 30
0.0
 40
8.00000000000002
100
AcDbArc
 50
75.0
 51
345.0
  0
ARC
  5
33F
330
1F
100
AcDbEntity
  8
FORMAT
100
AcDbCircle
 10
68.5838950524
 20
223.7576498799
 30
0.0
 40
8.000000000000034
100
AcDbArc
 50
75.0
 51
345.0
  0
ARC
  5
340
330
1F
100
AcDbEntity
  8
FORMAT
100
AcDbCircle
 10
68.5838950524
 20
335.7576498799
 30
0.0
 40
8.00000000000002
100
AcDbArc
 50
75.0
 51
345.0
  0
ARC
  5
341
330
1F
100
AcDbEntity
  8
FORMAT
100
AcDbCircle
 10
68.5838950524
 20
335.7576498799
 30
0.0
 40
7.172000000000007
100
AcDbArc
 50
75.0
 51
345.0
  0
ARC
  5
342
330
1F
100
AcDbEntity
  8
FORMAT
100
AcDbCircle
 10
68.5838950524
 20
223.7576498799
 30
0.0
 40
7.171999999999981
100
AcDbArc
 50
75.0
 51
345.0
  0
ARC
  5
343
330
1F
100
AcDbEntity
  8
FORMAT
100
AcDbCircle
 10
68.5838950524
 20
357.7576498799
 30
0.0
 40
3.000000000000036
100
AcDbArc
 50
75.0
 51
345.0
  0
ARC
  5
344
330
1F
100
AcDbEntity
  8
FORMAT
100
AcDbCircle
 10
68.5838950524
 20
201.7576498799
 30
0.0
 40
3.000000000000011
100
AcDbArc
 50
75.0
 51
345.0
  0
LINE
  5
345
330
1F
100
AcDbEntity
  8
0
  6
Continuous
 62
     7
370
    25
100
AcDbLine
 10
60.8682332088
 20
143.1751641351
 30
0.0
 11
60.9688451719
 21
142.0251641351
 31
0.0
  0
LINE
  5
346
330
1F
100
AcDbEntity
  8
0
  6
Continuous
 62
     7
370
    25
100
AcDbLine
 10
73.5838950524
 20
139.9251641351
 30
0.0
 11
73.5838950524
 21
143.1751641351
 31
0.0
  0
LINE
  5
347
330
1F
100
AcDbEntity
  8
0
  6
Continuous
 62
     7
370
    25
100
AcDbLine
 10
63.5838950524
 20
143.1751641351
 30
0.0
 11
63.5838950524
 21
139.9251641351
 31
0.0
  0
LINE
  5
348
330
1F
100
AcDbEntity
  8
0
  6
Continuous
 62
     7
370
    25
100
AcDbLine
 10
72.5838950524
 20
164.1751641351
 30
0.0
 11
72.5838950524
 21
164.4251641351
 31
0.0
  0
LINE
  5
349
330
1F
100
AcDbEntity
  8
0
  6
Continuous
 62
     7
370
    25
100
AcDbLine
 10
64.5838950524
 20
164.4251641351
 30
0.0
 11
64.5838950524
 21
164.1751641351
 31
0.0
  0
ARC
  5
34A
330
1F
100
AcDbEntity
  8
0
  6
Continuous
 62
     7
370
    25
100
AcDbCircle
 10
58.0838950524
 20
151.4251641351
 30
0.0
 40
1.0
100
AcDbArc
 50
270.0
 51
0.0
  0
ARC
  5
34B
330
1F
100
AcDbEntity
  8
0
  6
Continuous
 62
     7
370
    25
100
AcDbCircle
 10
79.0838950524
 20
151.4251641351
 30
0.0
 40
1.0
100
AcDbArc
 50
180.0
 51
270.0
  0
LINE
  5
34C
330
1F
100
AcDbEntity
  8
0
  6
Continuous
 62
     7
370
    25
100
AcDbLine
 10
78.0838950524
 20
151.4251641351
 30
0.0
 11
78.0838950524
 21
154.4251641351
 31
0.0
  0
LINE
  5
34D
330
1F
100
AcDbEntity
  8
0
  6
Continuous
 62
     7
370
    25
100
AcDbLine
 10
59.0838950524
 20
154.4251641351
 30
0.0
 11
59.0838950524
 21
151.4251641351
 31
0.0
  0
LINE
  5
34E
330
1F
100
AcDbEntity
  8
0
  6
Continuous
 62
     7
370
    25
100
AcDbLine
 10
80.4838950524
 20
143.1751641351
 30
0.0
 11
80.4838950524
 21
146.1751641351
 31
0.0
  0
LINE
  5
34F
330
1F
100
AcDbEntity
  8
0
  6
Continuous
 62
     7
370
    25
100
AcDbLine
 10
80.4838950524
 20
143.1751641351
 30
0.0
 11
56.6838950524
 21
143.1751641351
 31
0.0
  0
LINE
  5
350
330
1F
100
AcDbEntity
  8
0
  6
Continuous
 62
     7
370
    25
100
AcDbLine
 10
56.6838950524
 20
146.1751641351
 30
0.0
 11
56.6838950524
 21
143.1751641351
 31
0.0
  0
LINE
  5
351
330
1F
100
AcDbEntity
  8
0
  6
Continuous
 62
     7
370
    25
100
AcDbLine
 10
80.4838950524
 20
146.1751641351
 30
0.0
 11
56.6838950524
 21
146.1751641351
 31
0.0
  0
LINE
  5
352
330
1F
100
AcDbEntity
  8
0
  6
Continuous
 62
     7
370
    25
100
AcDbLine
 10
77.5838950524
 20
146.212888917
 30
0.0
 11
77.5838950524
 21
147.1751641351
 31
0.0
  0
ARC
  5
353
330
1F
100
AcDbEntity
  8
0
  6
Continuous
 62
     7
370
    25
100
AcDbCircle
 10
77.7777287675
 20
146.6919673694
 30
0.0
 40
0.5168052560050096
100
AcDbArc
 50
247.9718907539
 51
269.839737358
  0
ARC
  5
354
330
1F
100
AcDbEntity
  8
0
  6
Continuous
 62
     7
370
    25
100
AcDbCircle
 10
59.3900613373
 20
146.6919673695
 30
0.0
 40
0.5168052560430101
100
AcDbArc
 50
270.1602626431
 51
292.0281092456
  0
LINE
  5
355
330
1F
100
AcDbEntity
  8
0
  6
Continuous
 62
     7
370
    25
100
AcDbLine
 10
59.5838950524
 20
147.1751641351
 30
0.0
 11
59.5838950524
 21
146.212888917
 31
0.0
  0
LINE
  5
356
330
1F
100
AcDbEntity
  8
0
  6
Continuous
 62
     7
370
    25
100
AcDbLine
 10
59.5838950524
 20
160.1751641351
 30
0.0
 11
59.5838950524
 21
147.1751641351
 31
0.0
  0
LINE
  5
357
330
1F
100
AcDbEntity
  8
0
  6
Continuous
 62
     7
370
    25
100
AcDbLine
 10
77.5838950524
 20
147.1751641351
 30
0.0
 11
77.5838950524
 21
160.1751641351
 31
0.0
  0
LINE
  5
358
330
1F
100
AcDbEntity
  8
0
  6
Continuous
 62
     7
370
    25
100
AcDbLine
 10
59.5838950524
 20
160.1751641351
 30
0.0
 11
59.5838950524
 21
164.1751640348
 31
0.0
  0
LINE
  5
359
330
1F
100
AcDbEntity
  8
0
  6
Continuous
 62
     7
370
    25
100
AcDbLine
 10
59.5845668417
 20
164.1751641351
 30
0.0
 11
77.5832232631
 21
164.1751641351
 31
0.0
  0
LINE
  5
35A
330
1F
100
AcDbEntity
  8
0
  6
Continuous
 62
     7
370
    25
100
AcDbLine
 10
77.5838950524
 20
164.1751640348
 30
0.0
 11
77.5838950524
 21
160.1751641351
 31
0.0
  0
LINE
  5
35B
330
1F
100
AcDbEntity
  8
0
  6
Continuous
 62
     7
370
    25
100
AcDbLine
 10
56.6838950524
 20
161.1751641351
 30
0.0
 11
56.6838950524
 21
164.1751641351
 31
0.0
  0
LINE
  5
35C
330
1F
100
AcDbEntity
  8
0
  6
Continuous
 62
     7
370
    25
100
AcDbLine
 10
59.5838950524
 20
161.1751641351
 30
0.0
 11
56.6838950524
 21
161.1751641351
 31
0.0
  0
LINE
  5
35D
330
1F
100
AcDbEntity
  8
0
  6
Continuous
 62
     7
370
    25
100
AcDbLine
 10
56.6838950524
 20
164.1751641351
 30
0.0
 11
59.5838950524
 21
164.1751641351
 31
0.0
  0
LINE
  5
35E
330
1F
100
AcDbEntity
  8
0
  6
Continuous
 62
     7
370
    25
100
AcDbLine
 10
80.4838950524
 20
164.1751641351
 30
0.0
 11
80.4838950524
 21
161.1751641351
 31
0.0
  0
LINE
  5
35F
330
1F
100
AcDbEntity
  8
0
  6
Continuous
 62
     7
370
    25
100
AcDbLine
 10
80.4838950524
 20
161.1751641351
 30
0.0
 11
77.5838950524
 21
161.1751641351
 31
0.0
  0
LINE
  5
360
330
1F
100
AcDbEntity
  8
0
  6
Continuous
 62
     7
370
    25
100
AcDbLine
 10
77.5838950524
 20
164.1751641351
 30
0.0
 11
80.4838950524
 21
164.1751641351
 31
0.0
  0
LINE
  5
361
330
1F
100
AcDbEntity
  8
0
  6
Continuous
 62
     7
370
    25
100
AcDbLine
 10
62.3080448397
 20
142.0251641351
 30
0.0
 11
63.5838950524
 21
142.0251641351
 31
0.0
  0
LINE
  5
362
330
1F
100
AcDbEntity
  8
0
  6
Continuous
 62
     7
370
    25
100
AcDbLine
 10
60.9688451719
 20
142.0251641351
 30
0.0
 11
62.3080448397
 21
142.0251641351
 31
0.0
  0
LINE
  5
363
330
1F
100
AcDbEntity
  8
0
  6
Continuous
 62
     7
370
    25
100
AcDbLine
 10
73.5838950524
 20
139.9251641351
 30
0.0
 11
63.5838950524
 21
139.9251641351
 31
0.0
  0
LINE
  5
364
330
1F
100
AcDbEntity
  8
0
  6
Continuous
 62
     7
370
    25
100
AcDbLine
 10
72.5838950524
 20
164.4251641351
 30
0.0
 11
64.5838950524
 21
164.4251641351
 31
0.0
  0
LINE
  5
365
330
1F
100
AcDbEntity
  8
0
  6
Continuous
 62
     7
370
    25
100
AcDbLine
 10
80.0838950524
 20
157.1622107285
 30
0.0
 11
80.0838950524
 21
153.4148014098
 31
0.0
  0
LINE
  5
366
330
1F
100
AcDbEntity
  8
0
  6
Continuous
 62
     7
370
    25
100
AcDbLine
 10
78.0838950524
 20
153.4148014098
 30
0.0
 11
80.0838950524
 21
153.4148014098
 31
0.0
  0
LINE
  5
367
330
1F
100
AcDbEntity
  8
0
  6
Continuous
 62
     7
370
    25
100
AcDbLine
 10
78.0838950524
 20
154.4251641351
 30
0.0
 11
78.0838950524
 21
157.1622107285
 31
0.0
  0
LINE
  5
368
330
1F
100
AcDbEntity
  8
0
  6
Continuous
 62
     7
370
    25
100
AcDbLine
 10
57.0838950524
 20
153.4148014098
 30
0.0
 11
59.0838950524
 21
153.4148014098
 31
0.0
  0
LINE
  5
369
330
1F
100
AcDbEntity
  8
0
  6
Continuous
 62
     7
370
    25
100
AcDbLine
 10
57.0838950524
 20
157.1622107285
 30
0.0
 11
57.0838950524
 21
153.4148014098
 31
0.0
  0
LINE
  5
36A
330
1F
100
AcDbEntity
  8
0
  6
Continuous
 62
     7
370
    25
100
AcDbLine
 10
59.0838950524
 20
157.1622107285
 30
0.0
 11
59.0838950524
 21
154.4251641351
 31
0.0
  0
LINE
  5
36B
330
1F
100
AcDbEntity
  8
0
  6
Continuous
 62
     7
370
    25
100
AcDbLine
 10
80.0838950524
 20
153.4148014098
 30
0.0
 11
80.0838950524
 21
150.4251641351
 31
0.0
  0
LINE
  5
36C
330
1F
100
AcDbEntity
  8
0
  6
Continuous
 62
     7
370
    25
100
AcDbLine
 10
57.0838950524
 20
153.4148014098
 30
0.0
 11
57.0838950524
 21
150.4251641351
 31
0.0
  0
LINE
  5
36D
330
1F
100
AcDbEntity
  8
0
  6
Continuous
 62
     7
370
    25
100
AcDbLine
 10
80.0838950524
 20
157.1622107285
 30
0.0
 11
80.0838950524
 21
157.2061283679
 31
0.0
  0
LINE
  5
36E
330
1F
100
AcDbEntity
  8
0
  6
Continuous
 62
     7
370
    25
100
AcDbLine
 10
78.0838950524
 20
157.4749034633
 30
0.0
 11
78.0838950524
 21
157.1622107285
 31
0.0
  0
LWPOLYLINE
  5
36F
330
1F
100
AcDbEntity
  8
0
  6
Continuous
 62
     7
370
    25
100
AcDbPolyline
 90
        3
 70
   128
 43
0.0
 10
77.5838950524
 20
158.3509453164
 10
77.9249683237
 20
158.194972656
 10
78.0838950524
 20
157.4749034633
  0
LINE
  5
370
330
1F
100
AcDbEntity
  8
0
  6
Continuous
 62
     7
370
    25
100
AcDbLine
 10
77.5838950524
 20
158.4251641351
 30
0.0
 11
80.0838950524
 21
158.4251641351
 31
0.0
  0
LINE
  5
371
330
1F
100
AcDbEntity
  8
0
  6
Continuous
 62
     7
370
    25
100
AcDbLine
 10
80.0838950524
 20
158.4247205077
 30
0.0
 11
80.0838950524
 21
158.4251641351
 31
0.0
  0
LINE
  5
372
330
1F
100
AcDbEntity
  8
0
  6
Continuous
 62
     7
370
    25
100
AcDbLine
 10
79.7838950524
 20
158.3384359216
 30
0.0
 11
80.0838950524
 21
158.4247205077
 31
0.0
  0
LINE
  5
373
330
1F
100
AcDbEntity
  8
0
  6
Continuous
 62
     7
370
    25
100
AcDbLine
 10
79.7838950524
 20
157.7134090839
 30
0.0
 11
79.7838950524
 21
158.3384359216
 31
0.0
  0
LINE
  5
374
330
1F
100
AcDbEntity
  8
0
  6
Continuous
 62
     7
370
    25
100
AcDbLine
 10
80.0838950524
 20
157.2061283679
 30
0.0
 11
79.7838950524
 21
157.7134090839
 31
0.0
  0
LWPOLYLINE
  5
375
330
1F
100
AcDbEntity
  8
0
  6
Continuous
 62
     7
370
    25
100
AcDbPolyline
 90
        3
 70
   128
 43
0.0
 10
59.0838950524
 20
157.4749034633
 10
59.2428535199
 20
158.1921662303
 10
59.5838950524
 20
158.3500357258
  0
LINE
  5
376
330
1F
100
AcDbEntity
  8
0
  6
Continuous
 62
     7
370
    25
100
AcDbLine
 10
59.0838950524
 20
157.1622107285
 30
0.0
 11
59.0838950524
 21
157.4749034633
 31
0.0
  0
LINE
  5
377
330
1F
100
AcDbEntity
  8
0
  6
Continuous
 62
     7
370
    25
100
AcDbLine
 10
57.0838950524
 20
157.2061283679
 30
0.0
 11
57.0838950524
 21
157.1622107285
 31
0.0
  0
LINE
  5
378
330
1F
100
AcDbEntity
  8
0
  6
Continuous
 62
     7
370
    25
100
AcDbLine
 10
57.3838950524
 20
157.7134090839
 30
0.0
 11
57.0838950524
 21
157.2061283679
 31
0.0
  0
LINE
  5
379
330
1F
100
AcDbEntity
  8
0
  6
Continuous
 62
     7
370
    25
100
AcDbLine
 10
57.3838950524
 20
158.3384359216
 30
0.0
 11
57.3838950524
 21
157.7134090839
 31
0.0
  0
LINE
  5
37A
330
1F
100
AcDbEntity
  8
0
  6
Continuous
 62
     7
370
    25
100
AcDbLine
 10
57.0838950524
 20
158.4247205077
 30
0.0
 11
57.3838950524
 21
158.3384359216
 31
0.0
  0
LINE
  5
37B
330
1F
100
AcDbEntity
  8
0
  6
Continuous
 62
     7
370
    25
100
AcDbLine
 10
57.0838950524
 20
158.4251641351
 30
0.0
 11
57.0838950524
 21
158.4247205077
 31
0.0
  0
LINE
  5
37C
330
1F
100
AcDbEntity
  8
0
  6
Continuous
 62
     7
370
    25
100
AcDbLine
 10
57.0838950524
 20
158.4251641351
 30
0.0
 11
59.5838950524
 21
158.4251641351
 31
0.0
  0
LINE
  5
37D
330
1F
100
AcDbEntity
  8
0
  6
Continuous
 62
     7
370
    25
100
AcDbLine
 10
80.0838950524
 20
157.4196261235
 30
0.0
 11
80.0838950524
 21
158.4247205077
 31
0.0
  0
LINE
  5
37E
330
1F
100
AcDbEntity
  8
0
  6
Continuous
 62
     7
370
    25
100
AcDbLine
 10
57.0838950524
 20
157.4196261235
 30
0.0
 11
57.0838950524
 21
158.4247205077
 31
0.0
  0
LINE
  5
37F
330
1F
100
AcDbEntity
  8
0
  6
Continuous
 62
     7
370
    25
100
AcDbLine
 10
57.0838950524
 20
150.4251641351
 30
0.0
 11
57.0838950524
 21
146.4251641351
 31
0.0
  0
LINE
  5
380
330
1F
100
AcDbEntity
  8
0
  6
Continuous
 62
     7
370
    25
100
AcDbLine
 10
57.0838950524
 20
150.4251641351
 30
0.0
 11
59.5838950524
 21
150.4251641351
 31
0.0
  0
LINE
  5
381
330
1F
100
AcDbEntity
  8
0
  6
Continuous
 62
     7
370
    25
100
AcDbLine
 10
77.5838950524
 20
150.4251641351
 30
0.0
 11
80.0838950524
 21
150.4251641351
 31
0.0
  0
LINE
  5
382
330
1F
100
AcDbEntity
  8
0
  6
Continuous
 62
     7
370
    25
100
AcDbLine
 10
80.0838950524
 20
150.4251641351
 30
0.0
 11
80.0838950524
 21
146.4251641351
 31
0.0
  0
LINE
  5
383
330
1F
100
AcDbEntity
  8
0
  6
Continuous
 62
     7
370
    25
100
AcDbLine
 10
57.0838950524
 20
146.4251641351
 30
0.0
 11
59.5025677993
 21
146.4251641351
 31
0.0
  0
LINE
  5
384
330
1F
100
AcDbEntity
  8
0
  6
Continuous
 62
     7
370
    25
100
AcDbLine
 10
77.6060740536
 20
146.4251641351
 30
0.0
 11
80.0838950524
 21
146.4251641351
 31
0.0
  0
LINE
  5
385
330
1F
100
AcDbEntity
  8
0
  6
Continuous
 62
     7
370
    25
100
AcDbLine
 10
59.0838950524
 20
154.4251641351
 30
0.0
 11
59.5838950524
 21
154.4251641351
 31
0.0
  0
LINE
  5
386
330
1F
100
AcDbEntity
  8
0
  6
Continuous
 62
     7
370
    25
100
AcDbLine
 10
77.5838950524
 20
154.4251641351
 30
0.0
 11
78.0838950524
 21
154.4251641351
 31
0.0
  0
LINE
  5
387
330
1F
100
AcDbEntity
  8
0
  6
CENTERX2
 62
     7
100
AcDbLine
 10
489.6734106881
 20
355.1167138792
 30
0.0
 11
489.6734106881
 21
175.1167141773
 31
0.0
  0
LINE
  5
388
330
1F
100
AcDbEntity
  8
0
  6
Continuous
 62
     7
370
    25
100
AcDbLine
 10
499.2809641701
 20
355.1167138792
 30
0.0
 11
499.2809641701
 21
175.1167141773
 31
0.0
  0
LINE
  5
389
330
1F
100
AcDbEntity
  8
0
  6
Continuous
 62
     7
370
    25
100
AcDbLine
 10
490.9734177929
 20
175.1167141773
 30
0.0
 11
490.9734177929
 21
355.1167138792
 31
0.0
  0
LINE
  5
38A
330
1F
100
AcDbEntity
  8
0
  6
CENTER
 62
     7
370
    18
100
AcDbLine
 10
446.6234195572
 20
175.1167141773
 30
0.0
 11
504.6746182782
 21
175.1167141773
 31
0.0
  0
LINE
  5
38B
330
1F
100
AcDbEntity
  8
0
  6
CENTER
 62
     7
370
    18
100
AcDbLine
 10
504.6746182782
 20
355.1167138792
 30
0.0
 11
446.6234195572
 21
355.1167138792
 31
0.0
  0
LINE
  5
38C
330
1F
100
AcDbEntity
  8
0
  6
Continuous
 62
     7
370
    25
100
AcDbLine
 10
482.6734114033
 20
310.1167139537
 30
0.0
 11
482.6734114033
 21
220.1167159654
 31
0.0
  0
LINE
  5
38D
330
1F
100
AcDbEntity
  8
0
  6
Continuous
 62
     7
370
    25
100
AcDbLine
 10
472.6734209401
 20
310.1167139537
 30
0.0
 11
482.6734114033
 21
310.1167139537
 31
0.0
  0
LINE
  5
38E
330
1F
100
AcDbEntity
  8
0
  6
Continuous
 62
     7
370
    25
100
AcDbLine
 10
472.6734209401
 20
220.1167159654
 30
0.0
 11
472.6734209401
 21
310.1167139537
 31
0.0
  0
LINE
  5
38F
330
1F
100
AcDbEntity
  8
0
  6
Continuous
 62
     7
370
    25
100
AcDbLine
 10
482.6734114033
 20
220.1167159654
 30
0.0
 11
472.6734209401
 21
220.1167159654
 31
0.0
  0
LINE
  5
390
330
1F
100
AcDbEntity
  8
0
  6
Continuous
 62
     7
370
    25
100
AcDbLine
 10
446.6234195572
 20
175.1167141773
 30
0.0
 11
446.6234195572
 21
355.1167138792
 31
0.0
  0
LINE
  5
391
330
1F
100
AcDbEntity
  8
0
  6
Continuous
 62
     7
370
    25
100
AcDbLine
 10
489.6734106881
 20
175.1167141773
 30
0.0
 11
489.6734106881
 21
355.1167138792
 31
0.0
  0
LINE
  5
392
330
1F
100
AcDbEntity
  8
0
  6
Continuous
 62
     7
370
    25
100
AcDbLine
 10
504.6746182782
 20
175.1167141773
 30
0.0
 11
504.6746182782
 21
355.1167138792
 31
0.0
  0
LINE
  5
393
330
1F
100
AcDbEntity
  8
0
  6
Continuous
 62
     7
370
    25
100
AcDbLine
 10
499.2734092814
 20
175.1167141773
 30
0.0
 11
499.2734092814
 21
355.1167138792
 31
0.0
  0
LINE
  5
394
330
1F
100
AcDbEntity
  8
0
  6
Continuous
 62
     7
370
    25
100
AcDbLine
 10
482.4734080178
 20
220.1167159654
 30
0.0
 11
482.4734080178
 21
310.1167139537
 31
0.0
  0
LINE
  5
395
330
1F
100
AcDbEntity
  8
0
  6
Continuous
 62
     7
370
    25
100
AcDbLine
 10
495.6234145504
 20
175.1167141773
 30
0.0
 11
495.6234145504
 21
355.1167138792
 31
0.0
  0
LINE
  5
396
330
1F
100
AcDbEntity
  8
0
  6
Continuous
 62
     7
370
    25
100
AcDbLine
 10
495.1234209877
 20
175.1167141773
 30
0.0
 11
495.1234209877
 21
355.1167138792
 31
0.0
  0
LINE
  5
397
330
1F
100
AcDbEntity
  8
0
  6
Continuous
 62
     7
370
    25
100
AcDbLine
 10
494.6234125239
 20
175.1167141773
 30
0.0
 11
494.6234125239
 21
355.1167138792
 31
0.0
  0
DIMENSION
  5
398
330
1F
100
AcDbEntity
  8
FORMAT
100
AcDbDimension
  2
_D_10
 10
482.6734136683
 20
208.4575504637
 30
0.0
 11
477.6734136683
 21
208.4575504637
 31
0.0
 70
   160
  1
<>
 71
     2
 42
-1.0
  3
SLDDIMSTYLE0
100
AcDbAlignedDimension
 13
472.6734136683
 23
220.116713319
 33
0.0
 14
482.6734136683
 24
220.116713319
 34
0.0
100
AcDbRotatedDimension
  0
DIMENSION
  5
3A2
330
1F
100
AcDbEntity
  8
FORMAT
100
AcDbDimension
  2
_D_11
 10
436.6234136683
 20
310.116713319
 30
0.0
 11
436.6234136683
 21
265.116713319
 31
0.0
 70
   160
  1
<>
 71
     2
 42
-1.0
  3
SLDDIMSTYLE0
100
AcDbAlignedDimension
 13
472.6734136683
 23
220.116713319
 33
0.0
 14
472.6734136683
 24
310.116713319
 34
0.0
 50
90.0
100
AcDbRotatedDimension
  0
LINE
  5
3AC
330
1F
100
AcDbEntity
  8
0
  6
CENTER
 62
     7
370
    18
100
AcDbLine
 10
524.8468697033
 20
380.4154948864
 30
0.0
 11
524.8468697033
 21
170.2131750581
 31
0.0
  0
LINE
  5
3AD
330
1F
100
AcDbEntity
  8
0
  6
Continuous
 62
     7
370
    18
100
AcDbLine
 10
537.5468697033
 20
378.4154948864
 30
0.0
 11
524.8468697033
 21
378.4154948864
 31
0.0
  0
SOLID
  5
3AE
330
1F
100
AcDbEntity
  8
0
  6
Continuous
 62
     7
370
    18
100
AcDbTrace
 10
524.8468697033
 20
378.4154948864
 30
0.0
 11
531.1968697033
 21
377.3994948864
 31
0.0
 12
531.1968697033
 22
379.4314948864
 32
0.0
 13
531.1968697033
 23
379.4314948864
 33
0.0
  0
LINE
  5
3AF
330
1F
100
AcDbEntity
  8
0
  6
Continuous
 62
     7
370
    18
100
AcDbLine
 10
537.5468697033
 20
172.2131750581
 30
0.0
 11
524.8468697033
 21
172.2131750581
 31
0.0
  0
SOLID
  5
3B0
330
1F
100
AcDbEntity
  8
0
  6
Continuous
 62
     7
370
    18
100
AcDbTrace
 10
524.8468697033
 20
172.2131750581
 30
0.0
 11
531.1968697033
 21
171.1971750581
 31
0.0
 12
531.1968697033
 22
173.2291750581
 32
0.0
 13
531.1968697033
 23
173.2291750581
 33
0.0
  0
MTEXT
  5
3B1
330
1F
100
AcDbEntity
  8
0
  6
Continuous
 62
     7
100
AcDbMText
 10
532.9675536782
 20
386.082205719
 30
0.0
 40
5.0
 41
0.0
 71
     1
 72
     1
  1
B
  7
SLDTEXTSTYLE0
 73
     1
 44
1.0
  0
MTEXT
  5
3B2
330
1F
100
AcDbEntity
  8
0
  6
Continuous
 62
     7
100
AcDbMText
 10
532.9675536782
 20
169.6601603508
 30
0.0
 40
5.0
 41
0.0
 71
     1
 72
     1
  1
B
  7
SLDTEXTSTYLE0
 73
     1
 44
1.0
  0
LINE
  5
3B3
330
1F
100
AcDbEntity
  8
FORMAT
  6
CENTERX2
370
    18
100
AcDbLine
 10
507.8317422015
 20
265.1167140283
 30
0.0
 11
441.8244409901
 21
265.1167140283
 31
0.0
  0
LINE
  5
3B4
330
1F
100
AcDbEntity
  8
0
  6
Continuous
 62
     7
370
    25
100
AcDbLine
 10
286.1479865199
 20
204.1417775059
 30
0.0
 11
286.1479865199
 21
214.0916497761
 31
0.0
  0
LINE
  5
3B5
330
1F
100
AcDbEntity
  8
0
  6
Continuous
 62
     7
370
    25
100
AcDbLine
 10
286.1479865199
 20
233.2035941386
 30
0.0
 11
286.1479865199
 21
241.0298323107
 31
0.0
  0
LINE
  5
3B6
330
1F
100
AcDbEntity
  8
0
  6
Continuous
 62
     7
370
    25
100
AcDbLine
 10
286.1479865199
 20
261.2035950029
 30
0.0
 11
286.1479865199
 21
269.0298320109
 31
0.0
  0
LINE
  5
3B7
330
1F
100
AcDbEntity
  8
0
  6
Continuous
 62
     7
370
    25
100
AcDbLine
 10
286.1479865199
 20
289.2035958672
 30
0.0
 11
286.1479865199
 21
297.0298310125
 31
0.0
  0
LINE
  5
3B8
330
1F
100
AcDbEntity
  8
0
  6
Continuous
 62
     7
370
    25
100
AcDbLine
 10
286.1479865199
 20
316.1417772377
 30
0.0
 11
286.1479865199
 21
326.0916476452
 31
0.0
  0
LWPOLYLINE
  5
3B9
330
1F
100
AcDbEntity
  8
0
  6
CENTER
 62
     7
370
    18
100
AcDbPolyline
 90
       10
 70
   128
 43
0.0
 10
271.1479933744
 20
175.1167108619
 10
271.6479869371
 20
175.1167108619
 10
319.1457288152
 20
175.1167108619
 10
319.6457261032
 20
175.1167108619
 10
352.2636486844
 20
175.1167108619
 10
352.2636486844
 20
355.1167105639
 10
319.6457261032
 20
355.1167105639
 10
319.1457288152
 20
355.1167105639
 10
271.6479869371
 20
355.1167105639
 10
271.1479933744
 20
355.1167105639
  0
LINE
  5
3BA
330
1F
100
AcDbEntity
  8
0
  6
Continuous
 62
     7
370
    25
100
AcDbLine
 10
319.1457288152
 20
175.1167108619
 30
0.0
 11
319.1457288152
 21
355.1167105639
 31
0.0
  0
CIRCLE
  5
3BB
330
1F
100
AcDbEntity
  8
0
  6
Continuous
 62
     7
370
    25
100
AcDbCircle
 10
285.6479877873
 20
187.1167145248
 30
0.0
 40
5.800001302255041
  0
CIRCLE
  5
3BC
330
1F
100
AcDbEntity
  8
0
  6
Continuous
 62
     7
370
    25
100
AcDbCircle
 10
285.6479877873
 20
343.1167140182
 30
0.0
 40
5.800001302255033
  0
CIRCLE
  5
3BD
330
1F
100
AcDbEntity
  8
0
  6
Continuous
 62
     7
370
    25
100
AcDbCircle
 10
285.6479905041
 20
321.116714645
 30
0.0
 40
4.9999992463048
  0
CIRCLE
  5
3BE
330
1F
100
AcDbEntity
  8
0
  6
Continuous
 62
     7
370
    25
100
AcDbCircle
 10
285.6479914355
 20
209.1167114375
 30
0.0
 40
4.999999246304474
  0
CIRCLE
  5
3BF
330
1F
100
AcDbEntity
  8
0
  6
Continuous
 62
     7
370
    25
100
AcDbCircle
 10
282.6479901332
 20
293.1167120458
 30
0.0
 40
5.25000008469233
  0
CIRCLE
  5
3C0
330
1F
100
AcDbEntity
  8
0
  6
Continuous
 62
     7
370
    25
100
AcDbCircle
 10
282.6479901332
 20
265.1167130442
 30
0.0
 40
5.25000008469233
  0
CIRCLE
  5
3C1
330
1F
100
AcDbEntity
  8
0
  6
Continuous
 62
     7
370
    25
100
AcDbCircle
 10
282.6479901332
 20
237.1167131112
 30
0.0
 40
5.25000008469231
  0
CIRCLE
  5
3C2
330
1F
100
AcDbEntity
  8
0
  6
Continuous
 62
     7
370
    25
100
AcDbCircle
 10
285.6479892319
 20
343.1167123222
 30
0.0
 40
3.300000160664753
  0
CIRCLE
  5
3C3
330
1F
100
AcDbEntity
  8
0
  6
Continuous
 62
     7
370
    25
100
AcDbCircle
 10
285.6479892319
 20
187.1167128289
 30
0.0
 40
3.300000160664753
  0
LINE
  5
3C4
330
1F
100
AcDbEntity
  8
0
  6
Continuous
 62
     7
370
    25
100
AcDbLine
 10
271.1479933744
 20
175.1167108619
 30
0.0
 11
271.1479933744
 21
355.1167105639
 31
0.0
  0
LINE
  5
3C5
330
1F
100
AcDbEntity
  8
0
  6
Continuous
 62
     7
370
    25
100
AcDbLine
 10
281.1479912883
 20
206.9372651482
 30
0.0
 11
281.1479912883
 21
211.2961621338
 31
0.0
  0
LINE
  5
3C6
330
1F
100
AcDbEntity
  8
0
  6
Continuous
 62
     7
370
    25
100
AcDbLine
 10
281.1479912883
 20
232.0855600142
 30
0.0
 11
281.1479912883
 21
242.1478662605
 31
0.0
  0
LINE
  5
3C7
330
1F
100
AcDbEntity
  8
0
  6
Continuous
 62
     7
370
    25
100
AcDbLine
 10
281.1479912883
 20
260.0855608785
 30
0.0
 11
281.1479912883
 21
270.1478661352
 31
0.0
  0
LINE
  5
3C8
330
1F
100
AcDbEntity
  8
0
  6
Continuous
 62
     7
370
    25
100
AcDbLine
 10
281.1479912883
 20
288.0855617428
 30
0.0
 11
281.1479912883
 21
298.1478651369
 31
0.0
  0
LINE
  5
3C9
330
1F
100
AcDbEntity
  8
0
  6
Continuous
 62
     7
370
    25
100
AcDbLine
 10
281.1479912883
 20
318.9372648799
 30
0.0
 11
281.1479912883
 21
323.2961600029
 31
0.0
  0
LINE
  5
3CA
330
1F
100
AcDbEntity
  8
FORMAT
  6
HIDDEN
370
    18
100
AcDbLine
 10
273.6479898953
 20
355.308306528
 30
0.0
 11
273.6479898953
 21
175.3049528055
 31
0.0
  0
DIMENSION
  5
3CB
330
1F
100
AcDbEntity
  8
FORMAT
100
AcDbDimension
  2
_D_12
 10
273.6479898953
 20
367.2238771377
 30
0.0
 11
279.6479898953
 21
367.2238771377
 31
0.0
 70
   160
  1
<>
 71
     2
 42
-1.0
  3
SLDDIMSTYLE0
100
AcDbAlignedDimension
 13
285.6479898953
 23
343.116713319
 33
0.0
 14
273.6479898953
 24
355.308306528
 34
0.0
100
AcDbRotatedDimension
  0
DIMENSION
  5
3D5
330
1F
100
AcDbEntity
  8
FORMAT
100
AcDbDimension
  2
_D_13
 10
273.6479898953
 20
306.0013080895
 30
0.0
 11
278.1479898953
 21
306.0013080895
 31
0.0
 70
   160
  1
<>
 71
     2
 42
-1.0
  3
SLDDIMSTYLE0
100
AcDbAlignedDimension
 13
282.6479898953
 23
293.116713319
 33
0.0
 14
273.6479898953
 24
355.308306528
 34
0.0
100
AcDbRotatedDimension
  0
DIMENSION
  5
3DE
330
1F
100
AcDbEntity
  8
FORMAT
100
AcDbDimension
  2
_D_14
 10
306.7626829816
 20
287.866713319
 30
0.0
 11
306.7626829816
 21
276.1866701472
 31
0.0
 70
   160
  1
%%c<>
 71
     2
 42
-1.0
  3
SLDDIMSTYLE1
100
AcDbAlignedDimension
 13
282.6479898953
 23
298.366713319
 33
0.0
 14
282.6479898953
 24
287.866713319
 34
0.0
 50
90.0
100
AcDbRotatedDimension
  0
DIMENSION
  5
3EB
330
1F
100
AcDbEntity
  8
FORMAT
100
AcDbDimension
  2
_D_15
 10
297.8763256576
 20
316.116713319
 30
0.0
 11
297.8763256576
 21
321.116713319
 31
0.0
 70
   160
  1
%%c<>
 71
     2
 42
-1.0
  3
SLDDIMSTYLE1
100
AcDbAlignedDimension
 13
285.6479898953
 23
326.116713319
 33
0.0
 14
285.6479898953
 24
316.116713319
 34
0.0
 50
90.0
100
AcDbRotatedDimension
  0
DIMENSION
  5
3F8
330
1F
100
AcDbEntity
  8
FORMAT
100
AcDbDimension
  2
_D_16
 10
261.1479933744
 20
265.116713319
 30
0.0
 11
261.1479933744
 21
279.116713319
 31
0.0
 70
   160
  1
<>
 71
     2
 42
-1.0
  3
SLDDIMSTYLE0
100
AcDbAlignedDimension
 13
274.8979898953
 23
293.116713319
 33
0.0
 14
282.6479898953
 24
265.116713319
 34
0.0
 50
90.0
100
AcDbRotatedDimension
  0
DIMENSION
  5
402
330
1F
100
AcDbEntity
  8
FORMAT
100
AcDbDimension
  2
_D_17
 10
255.1479933744
 20
209.116713319
 30
0.0
 11
255.1479933744
 21
265.116713319
 31
0.0
 70
   160
  1
<>
 71
     2
 42
-1.0
  3
SLDDIMSTYLE0
100
AcDbAlignedDimension
 13
278.1479898953
 23
321.116713319
 33
0.0
 14
278.1479898953
 24
209.116713319
 34
0.0
 50
90.0
100
AcDbRotatedDimension
  0
DIMENSION
  5
40C
330
1F
100
AcDbEntity
  8
FORMAT
100
AcDbDimension
  2
_D_18
 10
249.1479933744
 20
187.116713319
 30
0.0
 11
249.1479933744
 21
265.116713319
 31
0.0
 70
   160
  1
<>
 71
     2
 42
-1.0
  3
SLDDIMSTYLE0
100
AcDbAlignedDimension
 13
285.6479898953
 23
343.116713319
 33
0.0
 14
285.6479898953
 24
187.116713319
 34
0.0
 50
90.0
100
AcDbRotatedDimension
  0
DIMENSION
  5
416
330
1F
100
AcDbEntity
  8
FORMAT
100
AcDbDimension
  2
_D_19
 10
297.8763256576
 20
259.866713319
 30
0.0
 11
297.8763256576
 21
250.0099058682
 31
0.0
 70
   160
  1
%%c<>
 71
     2
 42
-1.0
  3
SLDDIMSTYLE1
100
AcDbAlignedDimension
 13
282.6479898953
 23
270.366713319
 33
0.0
 14
282.6479898953
 24
259.866713319
 34
0.0
 50
90.0
100
AcDbRotatedDimension
  0
DIMENSION
  5
423
330
1F
100
AcDbEntity
  8
FORMAT
100
AcDbDimension
  2
_D_20
 10
261.1479933744
 20
237.116713319
 30
0.0
 11
261.1479933744
 21
251.116713319
 31
0.0
 70
   160
  1
<>
 71
     2
 42
-1.0
  3
SLDDIMSTYLE0
100
AcDbAlignedDimension
 13
282.6479898953
 23
265.116713319
 33
0.0
 14
282.6479898953
 24
237.116713319
 34
0.0
 50
90.0
100
AcDbRotatedDimension
  0
MTEXT
  5
42D
330
1F
100
AcDbEntity
  8
FORMAT
100
AcDbMText
 10
332.1890685843
 20
269.2545583128
 30
0.0
 40
3.5
 41
0.0
 71
     1
 72
     1
  1
BBL
  7
SLDTEXTSTYLE0
 73
     1
 44
1.0
  0
INSERT
  5
439
330
1F
100
AcDbEntity
  8
FORMAT
100
AcDbBlockReference
  2
SW_CENTERMARKSYMBOL_9
 10
285.6479929572
 20
343.1167160475
 30
0.0
  0
INSERT
  5
445
330
1F
100
AcDbEntity
  8
FORMAT
100
AcDbBlockReference
  2
SW_CENTERMARKSYMBOL_10
 10
285.6479929572
 20
321.1167161667
 30
0.0
  0
INSERT
  5
451
330
1F
100
AcDbEntity
  8
FORMAT
100
AcDbBlockReference
  2
SW_CENTERMARKSYMBOL_11
 10
282.6479868775
 20
293.1167115772
 30
0.0
  0
INSERT
  5
45D
330
1F
100
AcDbEntity
  8
FORMAT
100
AcDbBlockReference
  2
SW_CENTERMARKSYMBOL_12
 10
285.6479929572
 20
209.1167127097
 30
0.0
  0
INSERT
  5
469
330
1F
100
AcDbEntity
  8
FORMAT
100
AcDbBlockReference
  2
SW_CENTERMARKSYMBOL_13
 10
285.6479929572
 20
187.1167128289
 30
0.0
  0
INSERT
  5
475
330
1F
100
AcDbEntity
  8
FORMAT
100
AcDbBlockReference
  2
SW_CENTERMARKSYMBOL_14
 10
282.6479868775
 20
265.1167125756
 30
0.0
  0
INSERT
  5
481
330
1F
100
AcDbEntity
  8
FORMAT
100
AcDbBlockReference
  2
SW_CENTERMARKSYMBOL_15
 10
282.6479868775
 20
237.1167131083
 30
0.0
  0
LINE
  5
482
330
1F
100
AcDbEntity
  8
0
  6
CENTER
 62
     7
370
    18
100
AcDbLine
 10
276.884443075
 20
223.7435913695
 30
0.0
 11
261.4865835484
 21
223.7435913695
 31
0.0
  0
LINE
  5
483
330
1F
100
AcDbEntity
  8
0
  6
CENTER
 62
     7
370
    18
100
AcDbLine
 10
276.884443075
 20
223.7435913695
 30
0.0
 11
276.884443075
 21
187.116713319
 31
0.0
  0
LINE
  5
484
330
1F
100
AcDbEntity
  8
0
  6
CENTER
 62
     7
370
    18
100
AcDbLine
 10
276.884443075
 20
187.116713319
 30
0.0
 11
360.6804611042
 21
187.116713319
 31
0.0
  0
LINE
  5
485
330
1F
100
AcDbEntity
  8
0
  6
Continuous
 62
     7
370
    18
100
AcDbLine
 10
263.4865835484
 20
236.4435913695
 30
0.0
 11
263.4865835484
 21
223.7435913695
 31
0.0
  0
SOLID
  5
486
330
1F
100
AcDbEntity
  8
0
  6
Continuous
 62
     7
370
    18
100
AcDbTrace
 10
263.4865835484
 20
223.7435913695
 30
0.0
 11
264.5025835484
 21
230.0935913695
 31
0.0
 12
262.4705835484
 22
230.0935913695
 32
0.0
 13
262.4705835484
 23
230.0935913695
 33
0.0
  0
LINE
  5
487
330
1F
100
AcDbEntity
  8
0
  6
Continuous
 62
     7
370
    18
100
AcDbLine
 10
358.6804611042
 20
199.816713319
 30
0.0
 11
358.6804611042
 21
187.116713319
 31
0.0
  0
SOLID
  5
488
330
1F
100
AcDbEntity
  8
0
  6
Continuous
 62
     7
370
    18
100
AcDbTrace
 10
358.6804611042
 20
187.116713319
 30
0.0
 11
359.6964611042
 21
193.466713319
 31
0.0
 12
357.6644611042
 22
193.466713319
 32
0.0
 13
357.6644611042
 23
193.466713319
 33
0.0
  0
LINE
  5
489
330
1F
100
AcDbEntity
  8
0
  6
Continuous
 62
     7
370
    25
100
AcDbLine
 10
279.6479917277
 20
119.0839160428
 30
0.0
 11
279.6479917277
 21
117.7839238391
 31
0.0
  0
ARC
  5
48A
330
1F
100
AcDbEntity
  8
0
  6
Continuous
 62
     7
370
    25
100
AcDbCircle
 10
279.8479842882
 20
119.0839268677
 30
0.0
 40
0.1999925607694307
100
AcDbArc
 50
89.997965988
 51
180.0031012209
  0
LINE
  5
48B
330
1F
100
AcDbEntity
  8
0
  6
Continuous
 62
     7
370
    25
100
AcDbLine
 10
280.947991382
 20
119.2839194283
 30
0.0
 11
279.847991388
 21
119.2839194283
 31
0.0
  0
ARC
  5
48C
330
1F
100
AcDbEntity
  8
0
  6
Continuous
 62
     7
370
    25
100
AcDbCircle
 10
280.9479921227
 20
119.0839205088
 30
0.0
 40
0.1999989195681099
100
AcDbArc
 50
359.9987205849
 51
90.0002122062
  0
LINE
  5
48D
330
1F
100
AcDbEntity
  8
0
  6
Continuous
 62
     7
370
    25
100
AcDbLine
 10
281.1479910423
 20
116.7839218125
 30
0.0
 11
281.1479910423
 21
119.0839160428
 31
0.0
  0
ARC
  5
48E
330
1F
100
AcDbEntity
  8
0
  6
Continuous
 62
     7
370
    25
100
AcDbCircle
 10
280.6479842042
 20
116.7839201867
 30
0.0
 40
0.5000068380712435
100
AcDbArc
 50
270.0006674626
 51
0.000186303
  0
LINE
  5
48F
330
1F
100
AcDbEntity
  8
0
  6
Continuous
 62
     7
370
    25
100
AcDbLine
 10
280.647990029
 20
116.2839133487
 30
0.0
 11
273.6479907442
 21
116.2839133487
 31
0.0
  0
LINE
  5
490
330
1F
100
AcDbEntity
  8
0
  6
Continuous
 62
     7
370
    25
100
AcDbLine
 10
273.6479907442
 20
116.2839133487
 30
0.0
 11
273.6479907442
 21
108.7339122043
 31
0.0
  0
LINE
  5
491
330
1F
100
AcDbEntity
  8
0
  6
Continuous
 62
     7
370
    25
100
AcDbLine
 10
273.6479907442
 20
108.7339122043
 30
0.0
 11
271.1479894031
 21
108.7339122043
 31
0.0
  0
LINE
  5
492
330
1F
100
AcDbEntity
  8
0
  6
Continuous
 62
     7
370
    25
100
AcDbLine
 10
271.1479894031
 20
108.7339122043
 30
0.0
 11
271.1479894031
 21
134.2839200244
 31
0.0
  0
ARC
  5
493
330
1F
100
AcDbEntity
  8
0
  6
Continuous
 62
     7
370
    25
100
AcDbCircle
 10
271.6479708038
 20
134.2839321867
 30
0.0
 40
0.4999814007766584
100
AcDbArc
 50
89.9977524722
 51
180.0013937495
  0
LINE
  5
494
330
1F
100
AcDbEntity
  8
0
  6
Continuous
 62
     7
370
    25
100
AcDbLine
 10
271.6479904164
 20
134.7839135871
 30
0.0
 11
282.3479890038
 21
134.7839135871
 31
0.0
  0
LINE
  5
495
330
1F
100
AcDbEntity
  8
0
  6
Continuous
 62
     7
370
    25
100
AcDbLine
 10
282.3479890038
 20
134.7839135871
 30
0.0
 11
282.3479890038
 21
133.2839179978
 31
0.0
  0
LINE
  5
496
330
1F
100
AcDbEntity
  8
0
  6
Continuous
 62
     7
370
    25
100
AcDbLine
 10
281.6479883302
 20
133.2839179978
 30
0.0
 11
282.3479890038
 21
133.2839179978
 31
0.0
  0
LINE
  5
497
330
1F
100
AcDbEntity
  8
0
  6
Continuous
 62
     7
370
    25
100
AcDbLine
 10
281.6479883302
 20
129.7839183555
 30
0.0
 11
281.6479883302
 21
133.2839179978
 31
0.0
  0
LINE
  5
498
330
1F
100
AcDbEntity
  8
0
  6
Continuous
 62
     7
370
    25
100
AcDbLine
 10
282.3479890038
 20
129.7839183555
 30
0.0
 11
281.6479883302
 21
129.7839183555
 31
0.0
  0
LINE
  5
499
330
1F
100
AcDbEntity
  8
0
  6
Continuous
 62
     7
370
    25
100
AcDbLine
 10
282.3479890038
 20
129.7839183555
 30
0.0
 11
282.3479890038
 21
128.2839227662
 31
0.0
  0
LINE
  5
49A
330
1F
100
AcDbEntity
  8
0
  6
Continuous
 62
     7
370
    25
100
AcDbLine
 10
279.847991388
 20
128.2839227662
 30
0.0
 11
282.3479890038
 21
128.2839227662
 31
0.0
  0
ARC
  5
49B
330
1F
100
AcDbEntity
  8
0
  6
Continuous
 62
     7
370
    25
100
AcDbCircle
 10
279.8479842882
 20
128.4839153268
 30
0.0
 40
0.1999925607694307
100
AcDbArc
 50
179.9968987791
 51
270.002034012
  0
LINE
  5
49C
330
1F
100
AcDbEntity
  8
0
  6
Continuous
 62
     7
370
    25
100
AcDbLine
 10
279.6479917277
 20
130.2839268193
 30
0.0
 11
279.6479917277
 21
128.4839261517
 31
0.0
  0
LINE
  5
49D
330
1F
100
AcDbEntity
  8
0
  6
Continuous
 62
     7
370
    25
100
AcDbLine
 10
279.6479917277
 20
130.2839268193
 30
0.0
 11
276.8479890336
 21
130.2839268193
 31
0.0
  0
ARC
  5
49E
330
1F
100
AcDbEntity
  8
0
  6
Continuous
 62
     7
370
    25
100
AcDbCircle
 10
276.847988293
 20
130.4839257393
 30
0.0
 40
0.1999989199477194
100
AcDbArc
 50
180.0029895849
 51
270.0002121611
  0
LINE
  5
49F
330
1F
100
AcDbEntity
  8
0
  6
Continuous
 62
     7
370
    25
100
AcDbLine
 10
276.6479893733
 20
132.2839159713
 30
0.0
 11
273.6479907442
 21
132.2839159713
 31
0.0
  0
LINE
  5
4A0
330
1F
100
AcDbEntity
  8
0
  6
Continuous
 62
     7
370
    25
100
AcDbLine
 10
273.6479907442
 20
132.2839159713
 30
0.0
 11
273.6479907442
 21
126.7839122758
 31
0.0
  0
LINE
  5
4A1
330
1F
100
AcDbEntity
  8
0
  6
Continuous
 62
     7
370
    25
100
AcDbLine
 10
273.6479907442
 20
126.7839122758
 30
0.0
 11
273.947988372
 21
126.7839122758
 31
0.0
  0
ARC
  5
4A2
330
1F
100
AcDbEntity
  8
0
  6
Continuous
 62
     7
370
    25
100
AcDbCircle
 10
273.9479928378
 20
126.5839133558
 30
0.0
 40
0.1999989200305421
100
AcDbArc
 50
0.0029895948
 51
90.0012793602
  0
LINE
  5
4A3
330
1F
100
AcDbEntity
  8
0
  6
Continuous
 62
     7
370
    25
100
AcDbLine
 10
274.1479917575
 20
126.5839237914
 30
0.0
 11
274.1479917575
 21
120.9839184031
 31
0.0
  0
ARC
  5
4A4
330
1F
100
AcDbEntity
  8
0
  6
Continuous
 62
     7
370
    25
100
AcDbCircle
 10
273.9479928379
 20
120.9839139372
 30
0.0
 40
0.1999989196508767
100
AcDbArc
 50
269.9987205947
 51
0.0012794053
  0
LINE
  5
4A5
330
1F
100
AcDbEntity
  8
0
  6
Continuous
 62
     7
370
    25
100
AcDbLine
 10
273.947988372
 20
120.7839150176
 30
0.0
 11
273.6479907442
 21
120.7839150176
 31
0.0
  0
LINE
  5
4A6
330
1F
100
AcDbEntity
  8
0
  6
Continuous
 62
     7
370
    25
100
AcDbLine
 10
273.6479907442
 20
120.7839150176
 30
0.0
 11
273.6479907442
 21
117.7839238391
 31
0.0
  0
LINE
  5
4A7
330
1F
100
AcDbEntity
  8
0
  6
Continuous
 62
     7
370
    25
100
AcDbLine
 10
273.6479907442
 20
117.7839238391
 30
0.0
 11
279.6479917277
 21
117.7839238391
 31
0.0
  0
LINE
  5
4A8
330
1F
100
AcDbEntity
  8
0
  6
Continuous
 62
     7
370
    25
100
AcDbLine
 10
276.6479893733
 20
130.4839153037
 30
0.0
 11
276.6479893733
 21
132.2839159713
 31
0.0
  0
ARC
  5
4A9
330
1F
100
AcDbEntity
  8
0
  6
Continuous
 62
     7
370
    25
100
AcDbCircle
 10
285.397995078
 20
129.0339205608
 30
0.0
 40
0.7499977946430971
100
AcDbArc
 50
269.9996381879
 51
90.0003618121
  0
LINE
  5
4AA
330
1F
100
AcDbEntity
  8
0
  6
Continuous
 62
     7
370
    25
100
AcDbLine
 10
285.3979903419
 20
129.7839183555
 30
0.0
 11
282.3479890038
 21
129.7839183555
 31
0.0
  0
LINE
  5
4AB
330
1F
100
AcDbEntity
  8
0
  6
Continuous
 62
     7
370
    25
100
AcDbLine
 10
282.3479890038
 20
128.2839227662
 30
0.0
 11
285.3979903419
 21
128.2839227662
 31
0.0
  0
ARC
  5
4AC
330
1F
100
AcDbEntity
  8
0
  6
Continuous
 62
     7
370
    25
100
AcDbCircle
 10
285.397995078
 20
134.0339157925
 30
0.0
 40
0.7499977946430971
100
AcDbArc
 50
269.9996381879
 51
90.0003618121
  0
LINE
  5
4AD
330
1F
100
AcDbEntity
  8
0
  6
Continuous
 62
     7
370
    25
100
AcDbLine
 10
282.3479890038
 20
133.2839179978
 30
0.0
 11
285.3979903419
 21
133.2839179978
 31
0.0
  0
LINE
  5
4AE
330
1F
100
AcDbEntity
  8
0
  6
Continuous
 62
     7
370
    25
100
AcDbLine
 10
282.3479890038
 20
134.7839135871
 30
0.0
 11
285.3979903419
 21
134.7839135871
 31
0.0
  0
LINE
  5
4AF
330
1F
100
AcDbEntity
  8
0
  6
Continuous
 62
     7
370
    25
100
AcDbLine
 10
319.1457276378
 20
81.376363729
 30
0.0
 11
319.1457276378
 21
77.2327084288
 31
0.0
  0
ARC
  5
4B0
330
1F
100
AcDbEntity
  8
0
  6
Continuous
 62
     7
370
    25
100
AcDbCircle
 10
319.8957277608
 20
81.3763688512
 30
0.0
 40
0.7500001229520715
100
AcDbArc
 50
359.9996086885
 51
180.0003913115
  0
LINE
  5
4B1
330
1F
100
AcDbEntity
  8
0
  6
Continuous
 62
     7
370
    25
100
AcDbLine
 10
320.6457278837
 20
81.0263652549
 30
0.0
 11
320.6457278837
 21
81.376363729
 31
0.0
  0
LINE
  5
4B2
330
1F
100
AcDbEntity
  8
0
  6
Continuous
 62
     7
370
    25
100
AcDbLine
 10
323.1479900104
 20
81.0263652549
 30
0.0
 11
320.6457278837
 21
81.0263652549
 31
0.0
  0
LINE
  5
4B3
330
1F
100
AcDbEntity
  8
0
  6
Continuous
 62
     7
370
    25
100
AcDbLine
 10
323.1479900104
 20
81.3839186177
 30
0.0
 11
323.1479900104
 21
81.0263652549
 31
0.0
  0
ARC
  5
4B4
330
1F
100
AcDbEntity
  8
0
  6
Continuous
 62
     7
370
    25
100
AcDbCircle
 10
323.8979947028
 20
81.3839191704
 30
0.0
 40
0.7500046924939502
100
AcDbArc
 50
90.0003490864
 51
180.0000422251
  0
ARC
  5
4B5
330
1F
100
AcDbEntity
  8
0
  6
Continuous
 62
     7
370
    25
100
AcDbCircle
 10
323.8979899025
 20
81.3651768592
 30
0.0
 40
0.7687470037022951
100
AcDbArc
 50
12.6794289265
 51
89.9999827966
  0
LINE
  5
4B6
330
1F
100
AcDbEntity
  8
0
  6
Continuous
 62
     7
370
    25
100
AcDbLine
 10
328.1479894329
 20
81.5339137063
 30
0.0
 11
324.6479897906
 21
81.5339137063
 31
0.0
  0
LINE
  5
4B7
330
1F
100
AcDbEntity
  8
0
  6
Continuous
 62
     7
370
    25
100
AcDbLine
 10
328.1479894329
 20
85.7839185939
 30
0.0
 11
328.1479894329
 21
81.5339137063
 31
0.0
  0
LINE
  5
4B8
330
1F
100
AcDbEntity
  8
0
  6
Continuous
 62
     7
370
    25
100
AcDbLine
 10
328.6479895149
 20
86.2839121566
 30
0.0
 11
328.1479894329
 21
85.7839185939
 31
0.0
  0
LINE
  5
4B9
330
1F
100
AcDbEntity
  8
0
  6
Continuous
 62
     7
370
    25
100
AcDbLine
 10
328.1479894329
 20
86.7839206204
 30
0.0
 11
328.6479895149
 21
86.2839121566
 31
0.0
  0
LINE
  5
4BA
330
1F
100
AcDbEntity
  8
0
  6
Continuous
 62
     7
370
    25
100
AcDbLine
 10
328.1479894329
 20
91.7339224563
 30
0.0
 11
328.1479894329
 21
86.7839206204
 31
0.0
  0
LINE
  5
4BB
330
1F
100
AcDbEntity
  8
0
  6
Continuous
 62
     7
370
    25
100
AcDbLine
 10
324.6479897906
 20
91.7339224563
 30
0.0
 11
328.1479894329
 21
91.7339224563
 31
0.0
  0
LINE
  5
4BC
330
1F
100
AcDbEntity
  8
0
  6
Continuous
 62
     7
370
    25
100
AcDbLine
 10
324.6479897906
 20
91.1839205966
 30
0.0
 11
324.6479897906
 21
91.7339224563
 31
0.0
  0
ARC
  5
4BD
330
1F
100
AcDbEntity
  8
0
  6
Continuous
 62
     7
370
    25
100
AcDbCircle
 10
323.8979899005
 20
91.1839152415
 30
0.0
 40
0.7499998901230542
100
AcDbArc
 50
179.9995909015
 51
0.0004090985
  0
LINE
  5
4BE
330
1F
100
AcDbEntity
  8
0
  6
Continuous
 62
     7
370
    25
100
AcDbLine
 10
323.1479900104
 20
91.7339224563
 30
0.0
 11
323.1479900104
 21
91.1839205966
 31
0.0
  0
LINE
  5
4BF
330
1F
100
AcDbEntity
  8
0
  6
Continuous
 62
     7
370
    25
100
AcDbLine
 10
320.6479900662
 20
91.7339224563
 30
0.0
 11
323.1479900104
 21
91.7339224563
 31
0.0
  0
LINE
  5
4C0
330
1F
100
AcDbEntity
  8
0
  6
Continuous
 62
     7
370
    25
100
AcDbLine
 10
320.6479900662
 20
91.1839205966
 30
0.0
 11
320.6479900662
 21
91.7339224563
 31
0.0
  0
ARC
  5
4C1
330
1F
100
AcDbEntity
  8
0
  6
Continuous
 62
     7
370
    25
100
AcDbCircle
 10
319.8979899433
 20
91.1839154743
 30
0.0
 40
0.7500001229520715
100
AcDbArc
 50
179.9996086885
 51
0.0003913115
  0
LINE
  5
4C2
330
1F
100
AcDbEntity
  8
0
  6
Continuous
 62
     7
370
    25
100
AcDbLine
 10
319.1479898204
 20
91.7339224563
 30
0.0
 11
319.1479898204
 21
91.1839205966
 31
0.0
  0
LINE
  5
4C3
330
1F
100
AcDbEntity
  8
0
  6
Continuous
 62
     7
370
    25
100
AcDbLine
 10
291.4479903091
 20
91.7339224563
 30
0.0
 11
319.1479898204
 21
91.7339224563
 31
0.0
  0
LINE
  5
4C4
330
1F
100
AcDbEntity
  8
0
  6
Continuous
 62
     7
370
    25
100
AcDbLine
 10
291.4479903091
 20
91.7339224563
 30
0.0
 11
288.947988968
 21
94.2339200721
 31
0.0
  0
LINE
  5
4C5
330
1F
100
AcDbEntity
  8
0
  6
Continuous
 62
     7
370
    25
100
AcDbLine
 10
288.947988968
 20
94.2339200721
 30
0.0
 11
288.947988968
 21
94.7339136348
 31
0.0
  0
LINE
  5
4C6
330
1F
100
AcDbEntity
  8
0
  6
Continuous
 62
     7
370
    25
100
AcDbLine
 10
326.5764505748
 20
94.7339136348
 30
0.0
 11
288.947988968
 21
94.7339136348
 31
0.0
  0
LINE
  5
4C7
330
1F
100
AcDbEntity
  8
0
  6
Continuous
 62
     7
370
    25
100
AcDbLine
 10
324.3247845356
 20
98.6339200482
 30
0.0
 11
326.5764505748
 21
94.7339136348
 31
0.0
  0
ARC
  5
4C8
330
1F
100
AcDbEntity
  8
0
  6
Continuous
 62
     7
370
    25
100
AcDbCircle
 10
324.4979925483
 20
98.733921741
 30
0.0
 40
0.2000033855594701
100
AcDbArc
 50
90.0007170331
 51
209.9999999974
  0
LINE
  5
4C9
330
1F
100
AcDbEntity
  8
0
  6
Continuous
 62
     7
370
    25
100
AcDbLine
 10
329.6479896788
 20
98.9339251265
 30
0.0
 11
324.4979900454
 21
98.9339251265
 31
0.0
  0
ARC
  5
4CA
330
1F
100
AcDbEntity
  8
0
  6
Continuous
 62
     7
370
    25
100
AcDbCircle
 10
329.6479789498
 20
97.4339141517
 30
0.0
 40
1.500010974877021
100
AcDbArc
 50
0.0000185034
 51
89.9995901851
  0
LINE
  5
4CB
330
1F
100
AcDbEntity
  8
0
  6
Continuous
 62
     7
370
    25
100
AcDbLine
 10
331.1479899247
 20
81.7839253888
 30
0.0
 11
331.1479899247
 21
97.4339146361
 31
0.0
  0
LINE
  5
4CC
330
1F
100
AcDbEntity
  8
0
  6
Continuous
 62
     7
370
    25
100
AcDbLine
 10
335.9408832301
 20
81.7839253888
 30
0.0
 11
331.1479899247
 21
81.7839253888
 31
0.0
  0
ARC
  5
4CD
330
1F
100
AcDbEntity
  8
0
  6
Continuous
 62
     7
370
    25
100
AcDbCircle
 10
335.9408298736
 20
81.2838038009
 30
0.0
 40
0.5001215907783196
100
AcDbArc
 50
45.0054452569
 51
89.9938872779
  0
LINE
  5
4CE
330
1F
100
AcDbEntity
  8
0
  6
Continuous
 62
     7
370
    25
100
AcDbLine
 10
337.0015441586
 20
80.9303719745
 30
0.0
 11
336.2944356312
 21
81.6374767766
 31
0.0
  0
ARC
  5
4CF
330
1F
100
AcDbEntity
  8
0
  6
Continuous
 62
     7
370
    25
100
AcDbCircle
 10
336.6479728582
 20
80.576812945
 30
0.0
 40
0.5000166514685352
100
AcDbArc
 50
342.9689974692
 51
44.9990057357
  0
ARC
  5
4D0
330
1F
100
AcDbEntity
  8
0
  6
Continuous
 62
     7
370
    25
100
AcDbCircle
 10
336.647987667
 20
80.2839216186
 30
0.0
 40
0.5000002829492766
100
AcDbArc
 50
270.000255291
 51
17.0306731541
  0
LINE
  5
4D1
330
1F
100
AcDbEntity
  8
0
  6
Continuous
 62
     7
370
    25
100
AcDbLine
 10
336.6479898949
 20
79.7402609334
 30
0.0
 11
336.6479898949
 21
79.7839213357
 31
0.0
  0
LINE
  5
4D2
330
1F
100
AcDbEntity
  8
0
  6
Continuous
 62
     7
370
    25
100
AcDbLine
 10
337.0636484731
 20
79.7402609334
 30
0.0
 11
336.6479898949
 21
79.7402609334
 31
0.0
  0
ARC
  5
4D3
330
1F
100
AcDbEntity
  8
0
  6
Continuous
 62
     7
370
    25
100
AcDbCircle
 10
337.0636458281
 20
80.2402645917
 30
0.0
 40
0.5000036583218631
100
AcDbArc
 50
270.0003030947
 51
0.0005506708
  0
LINE
  5
4D4
330
1F
100
AcDbEntity
  8
0
  6
Continuous
 62
     7
370
    25
100
AcDbLine
 10
337.5636494864
 20
86.0402632699
 30
0.0
 11
337.5636494864
 21
80.2402693972
 31
0.0
  0
ARC
  5
4D5
330
1F
100
AcDbEntity
  8
0
  6
Continuous
 62
     7
370
    25
100
AcDbCircle
 10
338.063649965
 20
86.0402712551
 30
0.0
 40
0.5000004786356126
100
AcDbArc
 50
90.0001521703
 51
180.0009150386
  0
LINE
  5
4D6
330
1F
100
AcDbEntity
  8
0
  6
Continuous
 62
     7
370
    25
100
AcDbLine
 10
342.8636479337
 20
86.5402717337
 30
0.0
 11
338.0636486371
 21
86.5402717337
 31
0.0
  0
ARC
  5
4D7
330
1F
100
AcDbEntity
  8
0
  6
Continuous
 62
     7
370
    25
100
AcDbCircle
 10
342.8636505371
 20
86.3402728142
 30
0.0
 40
0.1999989195947017
100
AcDbArc
 50
359.998720588
 51
90.00074581
  0
LINE
  5
4D8
330
1F
100
AcDbEntity
  8
0
  6
Continuous
 62
     7
370
    25
100
AcDbLine
 10
343.0636494566
 20
84.2402626023
 30
0.0
 11
343.0636494566
 21
86.3402683482
 31
0.0
  0
ARC
  5
4D9
330
1F
100
AcDbEntity
  8
0
  6
Continuous
 62
     7
370
    25
100
AcDbCircle
 10
342.8636505369
 20
84.2402730379
 30
0.0
 40
0.1999989199743363
100
AcDbArc
 50
269.9992542351
 51
359.9970104119
  0
LINE
  5
4DA
330
1F
100
AcDbEntity
  8
0
  6
Continuous
 62
     7
370
    25
100
AcDbLine
 10
340.2636486251
 20
84.0402741179
 30
0.0
 11
342.8636479337
 21
84.0402741179
 31
0.0
  0
ARC
  5
4DB
330
1F
100
AcDbEntity
  8
0
  6
Continuous
 62
     7
370
    25
100
AcDbCircle
 10
340.2636701446
 20
83.8402529386
 30
0.0
 40
0.2000211804759459
100
AcDbArc
 50
90.0061642101
 51
179.9949029989
  0
LINE
  5
4DC
330
1F
100
AcDbEntity
  8
0
  6
Continuous
 62
     7
370
    25
100
AcDbLine
 10
340.0636489649
 20
80.2402693972
 30
0.0
 11
340.0636489649
 21
83.8402707324
 31
0.0
  0
ARC
  5
4DD
330
1F
100
AcDbEntity
  8
0
  6
Continuous
 62
     7
370
    25
100
AcDbCircle
 10
340.5636526232
 20
80.2402645917
 30
0.0
 40
0.5000036583445795
100
AcDbArc
 50
179.9994493302
 51
269.9994834608
  0
LINE
  5
4DE
330
1F
100
AcDbEntity
  8
0
  6
Continuous
 62
     7
370
    25
100
AcDbLine
 10
354.5636504103
 20
79.7402609334
 30
0.0
 11
340.5636481155
 21
79.7402609334
 31
0.0
  0
ARC
  5
4DF
330
1F
100
AcDbEntity
  8
0
  6
Continuous
 62
     7
370
    25
100
AcDbCircle
 10
354.5636472197
 20
80.240261412
 30
0.0
 40
0.5000004786499708
100
AcDbArc
 50
270.0003656152
 51
0.0009150379
  0
LINE
  5
4E0
330
1F
100
AcDbEntity
  8
0
  6
Continuous
 62
     7
370
    25
100
AcDbLine
 10
355.0636476983
 20
83.8402707324
 30
0.0
 11
355.0636476983
 21
80.2402693972
 31
0.0
  0
ARC
  5
4E1
330
1F
100
AcDbEntity
  8
0
  6
Continuous
 62
     7
370
    25
100
AcDbCircle
 10
354.8636296992
 20
83.8402561192
 30
0.0
 40
0.2000179996039342
100
AcDbArc
 50
0.0041860023
 51
89.9947467888
  0
LINE
  5
4E2
330
1F
100
AcDbEntity
  8
0
  6
Continuous
 62
     7
370
    25
100
AcDbLine
 10
352.2636487294
 20
84.0402741179
 30
0.0
 11
354.863648038
 21
84.0402741179
 31
0.0
  0
ARC
  5
4E3
330
1F
100
AcDbEntity
  8
0
  6
Continuous
 62
     7
370
    25
100
AcDbCircle
 10
352.2636416295
 20
84.2402666781
 30
0.0
 40
0.199992560340243
100
AcDbArc
 50
180.0011676832
 51
270.0020340629
  0
LINE
  5
4E4
330
1F
100
AcDbEntity
  8
0
  6
Continuous
 62
     7
370
    25
100
AcDbLine
 10
352.0636490692
 20
86.3402683482
 30
0.0
 11
352.0636490692
 21
84.2402626023
 31
0.0
  0
ARC
  5
4E5
330
1F
100
AcDbEntity
  8
0
  6
Continuous
 62
     7
370
    25
100
AcDbCircle
 10
352.2636416297
 20
86.3402791731
 30
0.0
 40
0.1999925607694307
100
AcDbArc
 50
89.997965988
 51
180.0031012209
  0
LINE
  5
4E6
330
1F
100
AcDbEntity
  8
0
  6
Continuous
 62
     7
370
    25
100
AcDbLine
 10
357.0636480261
 20
86.5402717337
 30
0.0
 11
352.2636487294
 21
86.5402717337
 31
0.0
  0
ARC
  5
4E7
330
1F
100
AcDbEntity
  8
0
  6
Continuous
 62
     7
370
    25
100
AcDbCircle
 10
357.0636422013
 20
86.0402648957
 30
0.0
 40
0.5000068380712357
100
AcDbArc
 50
359.999813697
 51
89.9993325374
  0
LINE
  5
4E8
330
1F
100
AcDbEntity
  8
0
  6
Continuous
 62
     7
370
    25
100
AcDbLine
 10
357.5636490394
 20
80.2402693972
 30
0.0
 11
357.5636490394
 21
86.0402632699
 31
0.0
  0
ARC
  5
4E9
330
1F
100
AcDbEntity
  8
0
  6
Continuous
 62
     7
370
    25
100
AcDbCircle
 10
358.063649518
 20
80.240261412
 30
0.0
 40
0.5000004786330546
100
AcDbArc
 50
179.9990849613
 51
270.0000612732
  0
LINE
  5
4EA
330
1F
100
AcDbEntity
  8
0
  6
Continuous
 62
     7
370
    25
100
AcDbLine
 10
360.6804615964
 20
79.7402609334
 30
0.0
 11
358.0636500527
 21
79.7402609334
 31
0.0
  0
LINE
  5
4EB
330
1F
100
AcDbEntity
  8
0
  6
Continuous
 62
     7
370
    25
100
AcDbLine
 10
360.6804615964
 20
76.7327148661
 30
0.0
 11
360.6804615964
 21
79.7402609334
 31
0.0
  0
LINE
  5
4EC
330
1F
100
AcDbEntity
  8
0
  6
Continuous
 62
     7
370
    25
100
AcDbLine
 10
319.6457277198
 20
76.7327148661
 30
0.0
 11
360.6804615964
 21
76.7327148661
 31
0.0
  0
ARC
  5
4ED
330
1F
100
AcDbEntity
  8
0
  6
Continuous
 62
     7
370
    25
100
AcDbCircle
 10
319.6457312962
 20
77.2327185246
 30
0.0
 40
0.5000036584662988
100
AcDbArc
 50
180.0011568799
 51
269.9995901768
  0
ARC
  5
4EE
330
1F
100
AcDbEntity
  8
0
  6
Continuous
 62
     7
370
    25
100
AcDbCircle
 10
271.6479962413
 20
92.2339292946
 30
0.0
 40
0.5000068383675652
100
AcDbArc
 50
180.0015212549
 51
269.9993325233
  0
LINE
  5
4EF
330
1F
100
AcDbEntity
  8
0
  6
Continuous
 62
     7
370
    25
100
AcDbLine
 10
271.1479894031
 20
98.733921741
 30
0.0
 11
273.6479907442
 21
98.733921741
 31
0.0
  0
LINE
  5
4F0
330
1F
100
AcDbEntity
  8
0
  6
Continuous
 62
     7
370
    25
100
AcDbLine
 10
282.3479890038
 20
94.7339136348
 30
0.0
 11
282.3479890038
 21
94.2339200721
 31
0.0
  0
LINE
  5
4F1
330
1F
100
AcDbEntity
  8
0
  6
Continuous
 62
     7
370
    25
100
AcDbLine
 10
282.3479890038
 20
94.2339200721
 30
0.0
 11
279.847991388
 21
91.7339224563
 31
0.0
  0
LINE
  5
4F2
330
1F
100
AcDbEntity
  8
0
  6
Continuous
 62
     7
370
    25
100
AcDbLine
 10
279.847991388
 20
91.7339224563
 30
0.0
 11
271.6479904164
 21
91.7339224563
 31
0.0
  0
LINE
  5
4F3
330
1F
100
AcDbEntity
  8
0
  6
Continuous
 62
     7
370
    25
100
AcDbLine
 10
273.6479907442
 20
94.7339136348
 30
0.0
 11
282.3479890038
 21
94.7339136348
 31
0.0
  0
LINE
  5
4F4
330
1F
100
AcDbEntity
  8
0
  6
Continuous
 62
     7
370
    25
100
AcDbLine
 10
273.6479907442
 20
98.733921741
 30
0.0
 11
273.6479907442
 21
94.7339136348
 31
0.0
  0
LINE
  5
4F5
330
1F
100
AcDbEntity
  8
0
  6
Continuous
 62
     7
370
    25
100
AcDbLine
 10
271.1479894031
 20
92.233916019
 30
0.0
 11
271.1479894031
 21
98.733921741
 31
0.0
  0
LINE
  5
4F6
330
1F
100
AcDbEntity
  8
0
  6
Continuous
 62
     7
370
    25
100
AcDbLine
 10
282.3479890038
 20
94.2339200721
 30
0.0
 11
288.947988968
 21
94.2339200721
 31
0.0
  0
LINE
  5
4F7
330
1F
100
AcDbEntity
  8
0
  6
Continuous
 62
     7
370
    25
100
AcDbLine
 10
279.847991388
 20
91.7339224563
 30
0.0
 11
291.4479903091
 21
91.7339224563
 31
0.0
  0
LINE
  5
4F8
330
1F
100
AcDbEntity
  8
0
  6
Continuous
 62
     7
370
    25
100
AcDbLine
 10
288.947988968
 20
94.7339136348
 30
0.0
 11
282.3479890038
 21
94.7339136348
 31
0.0
  0
LINE
  5
4F9
330
1F
100
AcDbEntity
  8
0
  6
Continuous
 62
     7
370
    25
100
AcDbLine
 10
273.6479907442
 20
98.733921741
 30
0.0
 11
273.6479907442
 21
108.7339122043
 31
0.0
  0
LINE
  5
4FA
330
1F
100
AcDbEntity
  8
0
  6
Continuous
 62
     7
370
    25
100
AcDbLine
 10
271.1479894031
 20
98.733921741
 30
0.0
 11
271.1479894031
 21
108.7339122043
 31
0.0
  0
INSERT
  5
52A
330
1F
100
AcDbEntity
  8
0
  6
Continuous
 62
     7
370
    18
100
AcDbBlockReference
  2
SW_HATCH_0
 10
271.6020985652
 20
98.733921741
 30
0.0
  0
DIMENSION
  5
52B
330
1F
100
AcDbEntity
  8
FORMAT
100
AcDbDimension
  2
_D_21
 10
262.679689126
 20
94.733919476
 30
0.0
 11
262.679689126
 21
96.733919476
 31
0.0
 70
   160
  1
<>
 71
     2
 42
-1.0
  3
SLDDIMSTYLE3
100
AcDbAlignedDimension
 13
271.1479898953
 23
98.733919476
 33
0.0
 14
273.6479898953
 24
94.733919476
 34
0.0
 50
90.0
100
AcDbRotatedDimension
  0
DIMENSION
  5
538
330
1F
100
AcDbEntity
  8
FORMAT
100
AcDbDimension
  2
_D_22
 10
285.6479898953
 20
110.1336845875
 30
0.0
 11
279.6479898953
 21
110.1336845875
 31
0.0
 70
   160
  1
<>
 71
     2
 42
-1.0
  3
SLDDIMSTYLE4
100
AcDbAlignedDimension
 13
273.6479898953
 23
116.283919476
 33
0.0
 14
285.6479898953
 24
96.733919476
 34
0.0
100
AcDbRotatedDimension
  0
DIMENSION
  5
542
330
1F
100
AcDbEntity
  8
FORMAT
100
AcDbDimension
  2
_D_23
 10
288.9479898953
 20
102.018011745
 30
0.0
 11
297.0612888311
 21
102.018011745
 31
0.0
 70
   160
  1
%%c<>
 71
     2
 42
-1.0
  3
SLDDIMSTYLE1
100
AcDbAlignedDimension
 13
282.3479898953
 23
94.233919476
 33
0.0
 14
288.9479898953
 24
94.233919476
 34
0.0
 50
0.0
100
AcDbRotatedDimension
  0
DIMENSION
  5
54F
330
1F
100
AcDbEntity
  8
FORMAT
100
AcDbDimension
  2
_D_24
 10
279.8479898953
 20
91.733919476
 30
0.0
 11
285.6479898953
 21
82.4437926816
 31
0.0
 70
   162
  1
<>
 71
     1
 42
-1.0
  3
SLDDIMSTYLE5
100
AcDb2LineAngularDimension
 13
291.4479898953
 23
91.733919476
 33
0.0
 14
288.9479898953
 24
94.233919476
 34
0.0
 15
282.3479898953
 25
94.233919476
 35
0.0
 16
285.6479898953
 26
82.4437926816
 36
0.0
  0
LINE
  5
55A
330
1F
100
AcDbEntity
  8
FORMAT
  6
CENTERX2
370
    18
100
AcDbLine
 10
275.6479910721
 20
103.7339169726
 30
0.0
 11
269.1479890753
 21
103.7339169726
 31
0.0
  0
ENDSEC
  0
SECTION
  2
OBJECTS
  0
DICTIONARY
  5
C
330
0
100
AcDbDictionary
281
     1
  3
ACAD_GROUP
350
D
  3
ACAD_LAYOUT
350
1A
  3
ACAD_MLINESTYLE
350
17
  3
ACAD_PLOTSETTINGS
350
19
  3
ACAD_PLOTSTYLENAME
350
E
  3
ACAD_SCALELIST
350
47
  3
DWGPROPS
350
55B
  0
DICTIONARY
  5
D
102
{ACAD_REACTORS
330
C
102
}
330
C
100
AcDbDictionary
281
     1
  0
DICTIONARY
  5
1A
102
{ACAD_REACTORS
330
C
102
}
330
C
100
AcDbDictionary
281
     1
  3
Layout1
350
1E
  3
Layout2
350
26
  3
Model
350
22
  0
DICTIONARY
  5
17
102
{ACAD_REACTORS
330
C
102
}
330
C
100
AcDbDictionary
281
     1
  3
Standard
350
18
  0
DICTIONARY
  5
19
102
{ACAD_REACTORS
330
C
102
}
330
C
100
AcDbDictionary
281
     1
  0
ACDBDICTIONARYWDFLT
  5
E
102
{ACAD_REACTORS
330
C
102
}
330
C
100
AcDbDictionary
281
     1
  3
Normal
350
F
100
AcDbDictionaryWithDefault
340
F
  0
DICTIONARY
  5
47
102
{ACAD_REACTORS
330
C
102
}
330
C
100
AcDbDictionary
281
     1
  3
A0
350
48
  3
A1
350
49
  3
A2
350
4A
  3
A3
350
4B
  3
A4
350
4C
  3
A5
350
4D
  3
A6
350
4E
  3
A7
350
4F
  3
A8
350
50
  3
A9
350
51
  3
B0
350
52
  3
B1
350
53
  3
B2
350
54
  3
B3
350
55
  3
B4
350
56
  3
B5
350
57
  3
B6
350
58
  3
B7
350
59
  3
B8
350
5A
  3
B9
350
5B
  3
C0
350
5C
  3
C1
350
5D
  3
C2
350
5E
  3
C3
350
5F
  3
C4
350
60
  3
C5
350
61
  3
C6
350
62
  3
C7
350
63
  3
C8
350
64
  3
C9
350
65
  3
D0
350
66
  3
D1
350
67
  3
D2
350
68
  0
XRECORD
  5
55B
102
{ACAD_REACTORS
330
C
102
}
330
C
100
AcDbXrecord
280
     1
  1
DWGPROPS COOKIE
  2

  3

  4

  6

  7

  8
pieper
  9

300
=
301
=
302
=
303
=
304
=
305
=
306
=
307
=
308
=
309
=
 40
0.0
 41
2459563.306039445
 42
2459563.306043298
  1

 90
        0
  0
LAYOUT
  5
1E
102
{ACAD_REACTORS
330
1A
102
}
330
1A
100
AcDbPlotSettings
  1

  2
none_device
  4

  6

 40
0.0
 41
0.0
 42
0.0
 43
0.0
 44
0.0
 45
0.0
 46
0.0
 47
0.0
 48
0.0
 49
0.0
140
0.0
141
0.0
142
1.0
143
1.0
 70
   688
 72
     1
 73
     0
 74
     5
  7

 75
    16
147
1.0
148
0.0
149
0.0
100
AcDbLayout
  1
Layout1
 70
     1
 71
     1
 10
0.0
 20
0.0
 11
420.0
 21
297.0
 12
0.0
 22
0.0
 32
0.0
 14
1.0000000000E+20
 24
1.0000000000E+20
 34
1.0000000000E+20
 15
-1.0000000000E+20
 25
-1.0000000000E+20
 35
-1.0000000000E+20
146
0.0
 13
0.0
 23
0.0
 33
0.0
 16
1.0
 26
0.0
 36
0.0
 17
0.0
 27
1.0
 37
0.0
 76
     0
330
1B
  0
LAYOUT
  5
26
102
{ACAD_REACTORS
330
1A
102
}
330
1A
100
AcDbPlotSettings
  1

  2
none_device
  4

  6

 40
0.0
 41
0.0
 42
0.0
 43
0.0
 44
0.0
 45
0.0
 46
0.0
 47
0.0
 48
0.0
 49
0.0
140
0.0
141
0.0
142
1.0
143
1.0
 70
   688
 72
     1
 73
     0
 74
     5
  7

 75
    16
147
1.0
148
0.0
149
0.0
100
AcDbLayout
  1
Layout2
 70
     1
 71
     2
 10
0.0
 20
0.0
 11
0.0
 21
0.0
 12
0.0
 22
0.0
 32
0.0
 14
0.0
 24
0.0
 34
0.0
 15
0.0
 25
0.0
 35
0.0
146
0.0
 13
0.0
 23
0.0
 33
0.0
 16
1.0
 26
0.0
 36
0.0
 17
0.0
 27
1.0
 37
0.0
 76
     0
330
23
  0
LAYOUT
  5
22
102
{ACAD_REACTORS
330
1A
102
}
330
1A
100
AcDbPlotSettings
  1

  2
none_device
  4
Letter_(8.50_x_11.00_Inches)
  6

 40
6.35
 41
6.35
 42
6.35000508
 43
6.35000508
 44
215.9
 45
279.4
 46
0.0
 47
0.0
 48
0.0
 49
0.0
140
0.0
141
0.0
142
1.0
143
1.0
 70
  1712
 72
     1
 73
     0
 74
     0
  7

 75
     0
147
1.0
148
0.0
149
0.0
100
AcDbLayout
  1
Model
 70
     1
 71
     0
 10
0.0
 20
0.0
 11
594.0
 21
420.0
 12
0.0
 22
0.0
 32
0.0
 14
0.0
 24
0.0
 34
0.0
 15
594.0
 25
420.0
 35
0.0
146
0.0
 13
0.0
 23
0.0
 33
0.0
 16
1.0
 26
0.0
 36
0.0
 17
0.0
 27
1.0
 37
0.0
 76
     0
330
1F
331
29
  0
MLINESTYLE
  5
18
102
{ACAD_REACTORS
330
17
102
}
330
17
100
AcDbMlineStyle
  2
Standard
 70
     0
  3

 62
   256
 51
90.0
 52
90.0
 71
     2
 49
0.5
 62
   256
  6
BYLAYER
 49
-0.5
 62
   256
  6
BYLAYER
  0
ACDBPLACEHOLDER
  5
F
102
{ACAD_REACTORS
330
E
102
}
330
E
  0
SCALE
  5
48
102
{ACAD_REACTORS
330
47
102
}
330
47
100
AcDbScale
 70
     0
300
1:1
140
1.0
141
1.0
290
     1
  0
SCALE
  5
49
102
{ACAD_REACTORS
330
47
102
}
330
47
100
AcDbScale
 70
     0
300
1:2
140
1.0
141
2.0
290
     0
  0
SCALE
  5
4A
102
{ACAD_REACTORS
330
47
102
}
330
47
100
AcDbScale
 70
     0
300
1:4
140
1.0
141
4.0
290
     0
  0
SCALE
  5
4B
102
{ACAD_REACTORS
330
47
102
}
330
47
100
AcDbScale
 70
     0
300
1:5
140
1.0
141
5.0
290
     0
  0
SCALE
  5
4C
102
{ACAD_REACTORS
330
47
102
}
330
47
100
AcDbScale
 70
     0
300
1:8
140
1.0
141
8.0
290
     0
  0
SCALE
  5
4D
102
{ACAD_REACTORS
330
47
102
}
330
47
100
AcDbScale
 70
     0
300
1:10
140
1.0
141
10.0
290
     0
  0
SCALE
  5
4E
102
{ACAD_REACTORS
330
47
102
}
330
47
100
AcDbScale
 70
     0
300
1:16
140
1.0
141
16.0
290
     0
  0
SCALE
  5
4F
102
{ACAD_REACTORS
330
47
102
}
330
47
100
AcDbScale
 70
     0
300
1:20
140
1.0
141
20.0
290
     0
  0
SCALE
  5
50
102
{ACAD_REACTORS
330
47
102
}
330
47
100
AcDbScale
 70
     0
300
1:30
140
1.0
141
30.0
290
     0
  0
SCALE
  5
51
102
{ACAD_REACTORS
330
47
102
}
330
47
100
AcDbScale
 70
     0
300
1:40
140
1.0
141
40.0
290
     0
  0
SCALE
  5
52
102
{ACAD_REACTORS
330
47
102
}
330
47
100
AcDbScale
 70
     0
300
1:50
140
1.0
141
50.0
290
     0
  0
SCALE
  5
53
102
{ACAD_REACTORS
330
47
102
}
330
47
100
AcDbScale
 70
     0
300
1:100
140
1.0
141
100.0
290
     0
  0
SCALE
  5
54
102
{ACAD_REACTORS
330
47
102
}
330
47
100
AcDbScale
 70
     0
300
2:1
140
2.0
141
1.0
290
     0
  0
SCALE
  5
55
102
{ACAD_REACTORS
330
47
102
}
330
47
100
AcDbScale
 70
     0
300
4:1
140
4.0
141
1.0
290
     0
  0
SCALE
  5
56
102
{ACAD_REACTORS
330
47
102
}
330
47
100
AcDbScale
 70
     0
300
8:1
140
8.0
141
1.0
290
     0
  0
SCALE
  5
57
102
{ACAD_REACTORS
330
47
102
}
330
47
100
AcDbScale
 70
     0
300
10:1
140
10.0
141
1.0
290
     0
  0
SCALE
  5
58
102
{ACAD_REACTORS
330
47
102
}
330
47
100
AcDbScale
 70
     0
300
100:1
140
100.0
141
1.0
290
     0
  0
SCALE
  5
59
102
{ACAD_REACTORS
330
47
102
}
330
47
100
AcDbScale
 70
     0
300
1/128" = 1'-0"
140
0.0078125
141
12.0
290
     0
  0
SCALE
  5
5A
102
{ACAD_REACTORS
330
47
102
}
330
47
100
AcDbScale
 70
     0
300
1/64" = 1'-0"
140
0.015625
141
12.0
290
     0
  0
SCALE
  5
5B
102
{ACAD_REACTORS
330
47
102
}
330
47
100
AcDbScale
 70
     0
300
1/32" = 1'-0"
140
0.03125
141
12.0
290
     0
  0
SCALE
  5
5C
102
{ACAD_REACTORS
330
47
102
}
330
47
100
AcDbScale
 70
     0
300
1/16" = 1'-0"
140
0.0625
141
12.0
290
     0
  0
SCALE
  5
5D
102
{ACAD_REACTORS
330
47
102
}
330
47
100
AcDbScale
 70
     0
300
3/32" = 1'-0"
140
0.09375
141
12.0
290
     0
  0
SCALE
  5
5E
102
{ACAD_REACTORS
330
47
102
}
330
47
100
AcDbScale
 70
     0
300
1/8" = 1'-0"
140
0.125
141
12.0
290
     0
  0
SCALE
  5
5F
102
{ACAD_REACTORS
330
47
102
}
330
47
100
AcDbScale
 70
     0
300
3/16" = 1'-0"
140
0.1875
141
12.0
290
     0
  0
SCALE
  5
60
102
{ACAD_REACTORS
330
47
102
}
330
47
100
AcDbScale
 70
     0
300
1/4" = 1'-0"
140
0.25
141
12.0
290
     0
  0
SCALE
  5
61
102
{ACAD_REACTORS
330
47
102
}
330
47
100
AcDbScale
 70
     0
300
3/8" = 1'-0"
140
0.375
141
12.0
290
     0
  0
SCALE
  5
62
102
{ACAD_REACTORS
330
47
102
}
330
47
100
AcDbScale
 70
     0
300
1/2" = 1'-0"
140
0.5
141
12.0
290
     0
  0
SCALE
  5
63
102
{ACAD_REACTORS
330
47
102
}
330
47
100
AcDbScale
 70
     0
300
3/4" = 1'-0"
140
0.75
141
12.0
290
     0
  0
SCALE
  5
64
102
{ACAD_REACTORS
330
47
102
}
330
47
100
AcDbScale
 70
     0
300
1" = 1'-0"
140
1.0
141
12.0
290
     0
  0
SCALE
  5
65
102
{ACAD_REACTORS
330
47
102
}
330
47
100
AcDbScale
 70
     0
300
1-1/2" = 1'-0"
140
1.5
141
12.0
290
     0
  0
SCALE
  5
66
102
{ACAD_REACTORS
330
47
102
}
330
47
100
AcDbScale
 70
     0
300
3" = 1'-0"
140
3.0
141
12.0
290
     0
  0
SCALE
  5
67
102
{ACAD_REACTORS
330
47
102
}
330
47
100
AcDbScale
 70
     0
300
6" = 1'-0"
140
6.0
141
12.0
290
     0
  0
SCALE
  5
68
102
{ACAD_REACTORS
330
47
102
}
330
47
100
AcDbScale
 70
     0
300
1'-0" = 1'-0"
140
12.0
141
12.0
290
     0
  0
ENDSEC
  0
EOF
