  0
SECTION
  2
HEADER
  9
$ACADVER
  1
AC1015
  9
$ACADMAINTVER
 70
     6
  9
$DWGCODEPAGE
  3
ANSI_1252
  9
$INSBASE
 10
0.0
 20
0.0
 30
0.0
  9
$EXTMIN
 10
0.0
 20
0.0
 30
0.0
  9
$EXTMAX
 10
2940.0
 20
2079.0
 30
0.0
  9
$LIMMIN
 10
0.0
 20
0.0
  9
$LIMMAX
 10
2940.0
 20
2079.0
  9
$ORTHOMODE
 70
     0
  9
$REGENMODE
 70
     1
  9
$FILLMODE
 70
     1
  9
$QTEXTMODE
 70
     0
  9
$MIRRTEXT
 70
     1
  9
$LTSCALE
 40
7.0
  9
$ATTMODE
 70
     1
  9
$TEXTSIZE
 40
24.5
  9
$TRACEWID
 40
1.0
  9
$TEXTSTYLE
  7
STANDARD
  9
$CLAYER
  8
0
  9
$CELTYPE
  6
ByLayer
  9
$CECOLOR
 62
   256
  9
$CELTSCALE
 40
1.0
  9
$DISPSILH
 70
     0
  9
$DIMSCALE
 40
1.0
  9
$DIMASZ
 40
23.114
  9
$DIMEXO
 40
7.0
  9
$DIMDLI
 40
3.75
  9
$DIMRND
 40
0.0
  9
$DIMDLE
 40
0.0
  9
$DIMEXE
 40
7.0
  9
$DIMTP
 40
0.0
  9
$DIMTM
 40
0.0
  9
$DIMTXT
 40
24.5
  9
$DIMCEN
 40
2.5
  9
$DIMTSZ
 40
0.0
  9
$DIMTOL
 70
     0
  9
$DIMLIM
 70
     0
  9
$DIMTIH
 70
     1
  9
$DIMTOH
 70
     1
  9
$DIMSE1
 70
     0
  9
$DIMSE2
 70
     0
  9
$DIMTAD
 70
     1
  9
$DIMZIN
 70
     0
  9
$DIMBLK
  1

  9
$DIMASO
 70
     1
  9
$DIMSHO
 70
     1
  9
$DIMPOST
  1

  9
$DIMAPOST
  1

  9
$DIMALT
 70
     0
  9
$DIMALTD
 70
     3
  9
$DIMALTF
 40
0.0393700787
  9
$DIMLFAC
 40
1.0
  9
$DIMTOFL
 70
     1
  9
$DIMTVP
 40
0.0
  9
$DIMTIX
 70
     0
  9
$DIMSOXD
 70
     0
  9
$DIMSAH
 70
     0
  9
$DIMBLK1
  1

  9
$DIMBLK2
  1

  9
$DIMSTYLE
  2
ISO-25
  9
$DIMCLRD
 70
     0
  9
$DIMCLRE
 70
     0
  9
$DIMCLRT
 70
     0
  9
$DIMTFAC
 40
1.0
  9
$DIMGAP
 40
21.0
  9
$DIMJUST
 70
     0
  9
$DIMSD1
 70
     0
  9
$DIMSD2
 70
     0
  9
$DIMTOLJ
 70
     0
  9
$DIMTZIN
 70
     0
  9
$DIMALTZ
 70
     0
  9
$DIMALTTZ
 70
     0
  9
$DIMUPT
 70
     0
  9
$DIMDEC
 70
     2
  9
$DIMTDEC
 70
     2
  9
$DIMALTU
 70
     2
  9
$DIMALTTD
 70
     3
  9
$DIMTXSTY
  7
STANDARD
  9
$DIMAUNIT
 70
     0
  9
$DIMADEC
 70
     2
  9
$DIMALTRND
 40
0.0
  9
$DIMAZIN
 70
     0
  9
$DIMDSEP
 70
    44
  9
$DIMATFIT
 70
     3
  9
$DIMFRAC
 70
     0
  9
$DIMLDRBLK
  1

  9
$DIMLUNIT
 70
     2
  9
$DIMLWD
 70
    -2
  9
$DIMLWE
 70
    -2
  9
$DIMTMOVE
 70
     0
  9
$LUNITS
 70
     2
  9
$LUPREC
 70
     2
  9
$SKETCHINC
 40
1.0
  9
$FILLETRAD
 40
10.0
  9
$AUNITS
 70
     0
  9
$AUPREC
 70
     2
  9
$MENU
  1
.
  9
$ELEVATION
 40
0.0
  9
$PELEVATION
 40
0.0
  9
$THICKNESS
 40
0.0
  9
$LIMCHECK
 70
     0
  9
$CHAMFERA
 40
0.0
  9
$CHAMFERB
 40
0.0
  9
$CHAMFERC
 40
0.0
  9
$CHAMFERD
 40
0.0
  9
$SKPOLY
 70
     0
  9
$TDCREATE
 40
2460077.454387951
  9
$TDUCREATE
 40
2460077.371054618
  9
$TDUPDATE
 40
2460077.454392986
  9
$TDUUPDATE
 40
2460077.371059653
  9
$TDINDWG
 40
0.0000000116
  9
$TDUSRTIMER
 40
0.0000000116
  9
$USRTIMER
 70
     1
  9
$ANGBASE
 50
0.0
  9
$ANGDIR
 70
     0
  9
$PDMODE
 70
     0
  9
$PDSIZE
 40
-1.0
  9
$PLINEWID
 40
0.0
  9
$SPLFRAME
 70
     0
  9
$SPLINETYPE
 70
     6
  9
$SPLINESEGS
 70
     8
  9
$HANDSEED
  5
629
  9
$SURFTAB1
 70
     6
  9
$SURFTAB2
 70
     6
  9
$SURFTYPE
 70
     6
  9
$SURFU
 70
     6
  9
$SURFV
 70
     6
  9
$UCSBASE
  2

  9
$UCSNAME
  2

  9
$UCSORG
 10
0.0
 20
0.0
 30
0.0
  9
$UCSXDIR
 10
1.0
 20
0.0
 30
0.0
  9
$UCSYDIR
 10
0.0
 20
1.0
 30
0.0
  9
$UCSORTHOREF
  2

  9
$UCSORTHOVIEW
 70
     0
  9
$UCSORGTOP
 10
0.0
 20
0.0
 30
0.0
  9
$UCSORGBOTTOM
 10
0.0
 20
0.0
 30
0.0
  9
$UCSORGLEFT
 10
0.0
 20
0.0
 30
0.0
  9
$UCSORGRIGHT
 10
0.0
 20
0.0
 30
0.0
  9
$UCSORGFRONT
 10
0.0
 20
0.0
 30
0.0
  9
$UCSORGBACK
 10
0.0
 20
0.0
 30
0.0
  9
$PUCSBASE
  2

  9
$PUCSNAME
  2

  9
$PUCSORG
 10
0.0
 20
0.0
 30
0.0
  9
$PUCSXDIR
 10
1.0
 20
0.0
 30
0.0
  9
$PUCSYDIR
 10
0.0
 20
1.0
 30
0.0
  9
$PUCSORTHOREF
  2

  9
$PUCSORTHOVIEW
 70
     0
  9
$PUCSORGTOP
 10
0.0
 20
0.0
 30
0.0
  9
$PUCSORGBOTTOM
 10
0.0
 20
0.0
 30
0.0
  9
$PUCSORGLEFT
 10
0.0
 20
0.0
 30
0.0
  9
$PUCSORGRIGHT
 10
0.0
 20
0.0
 30
0.0
  9
$PUCSORGFRONT
 10
0.0
 20
0.0
 30
0.0
  9
$PUCSORGBACK
 10
0.0
 20
0.0
 30
0.0
  9
$USERI1
 70
     0
  9
$USERI2
 70
     0
  9
$USERI3
 70
     0
  9
$USERI4
 70
     0
  9
$USERI5
 70
     0
  9
$USERR1
 40
0.0
  9
$USERR2
 40
0.0
  9
$USERR3
 40
0.0
  9
$USERR4
 40
0.0
  9
$USERR5
 40
0.0
  9
$WORLDVIEW
 70
     1
  9
$SHADEDGE
 70
     3
  9
$SHADEDIF
 70
    70
  9
$TILEMODE
 70
     1
  9
$MAXACTVP
 70
    64
  9
$PINSBASE
 10
0.0
 20
0.0
 30
0.0
  9
$PLIMCHECK
 70
     0
  9
$PEXTMIN
 10
1.0000000000E+20
 20
1.0000000000E+20
 30
1.0000000000E+20
  9
$PEXTMAX
 10
-1.0000000000E+20
 20
-1.0000000000E+20
 30
-1.0000000000E+20
  9
$PLIMMIN
 10
0.0
 20
0.0
  9
$PLIMMAX
 10
420.0
 20
297.0
  9
$UNITMODE
 70
     0
  9
$VISRETAIN
 70
     1
  9
$PLINEGEN
 70
     0
  9
$PSLTSCALE
 70
     1
  9
$TREEDEPTH
 70
  3020
  9
$CMLSTYLE
  2
Standard
  9
$CMLJUST
 70
     0
  9
$CMLSCALE
 40
20.0
  9
$PROXYGRAPHICS
 70
     1
  9
$MEASUREMENT
 70
     1
  9
$CELWEIGHT
370
    -1
  9
$ENDCAPS
280
     0
  9
$JOINSTYLE
280
     0
  9
$LWDISPLAY
290
     1
  9
$INSUNITS
 70
     4
  9
$HYPERLINKBASE
  1

  9
$STYLESHEET
  1

  9
$XEDIT
290
     1
  9
$CEPSNTYPE
380
     0
  9
$PSTYLEMODE
290
     1
  9
$FINGERPRINTGUID
  2
{983448cc-84ae-487a-97c0-742bd016fb41}
  9
$VERSIONGUID
  2
{FAEB1C32-E019-11D5-929B-00C0DF256EC4}
  9
$EXTNAMES
290
     1
  9
$PSVPSCALE
 40
0.0
  9
$OLESTARTUP
290
     0
  0
ENDSEC
  0
SECTION
  2
CLASSES
  0
CLASS
  1
ACDBDICTIONARYWDFLT
  2
AcDbDictionaryWithDefault
  3
ObjectDBX Classes
 90
        0
280
     0
281
     0
  0
CLASS
  1
VISUALSTYLE
  2
AcDbVisualStyle
  3
ObjectDBX Classes
 90
     4095
280
     0
281
     0
  0
CLASS
  1
MATERIAL
  2
AcDbMaterial
  3
ObjectDBX Classes
 90
     1153
280
     0
281
     0
  0
CLASS
  1
SCALE
  2
AcDbScale
  3
ObjectDBX Classes
 90
     1153
280
     0
281
     0
  0
CLASS
  1
TABLESTYLE
  2
AcDbTableStyle
  3
ObjectDBX Classes
 90
     4095
280
     0
281
     0
  0
CLASS
  1
MLEADERSTYLE
  2
AcDbMLeaderStyle
  3
ACDB_MLEADERSTYLE_CLASS
 90
     4095
280
     0
281
     0
  0
CLASS
  1
SUN
  2
AcDbSun
  3
SCENEOE
 90
     1153
280
     0
281
     0
  0
CLASS
  1
ACDBPLACEHOLDER
  2
AcDbPlaceHolder
  3
ObjectDBX Classes
 90
        0
280
     0
281
     0
  0
CLASS
  1
LAYOUT
  2
AcDbLayout
  3
ObjectDBX Classes
 90
        0
280
     0
281
     0
  0
ENDSEC
  0
SECTION
  2
TABLES
  0
TABLE
  2
VPORT
  5
8
330
0
100
AcDbSymbolTable
 70
     1
  0
VPORT
  5
29
330
8
100
AcDbSymbolTableRecord
100
AcDbViewportTableRecord
  2
*Active
 70
     0
 10
0.0
 20
0.0
 11
1.0
 21
1.0
 12
1470.0
 22
1039.5
 13
0.0
 23
0.0
 14
10.0
 24
10.0
 15
10.0
 25
10.0
 16
0.0
 26
0.0
 36
1.0
 17
0.0
 27
0.0
 37
0.0
 40
2079.0
 41
1.4141414141
 42
50.0
 43
0.0
 44
0.0
 50
0.0
 51
0.0
 71
     0
 72
  2000
 73
     1
 74
     3
 75
     0
 76
     0
 77
     0
 78
     0
281
     0
 65
     1
110
0.0
120
0.0
130
0.0
111
1.0
121
0.0
131
0.0
112
0.0
122
1.0
132
0.0
 79
     0
146
0.0
  0
ENDTAB
  0
TABLE
  2
LTYPE
  5
5
330
0
100
AcDbSymbolTable
 70
     6
  0
LTYPE
  5
14
330
5
100
AcDbSymbolTableRecord
100
AcDbLinetypeTableRecord
  2
ByBlock
 70
     0
  3

 72
    65
 73
     0
 40
0.0
  0
LTYPE
  5
15
330
5
100
AcDbSymbolTableRecord
100
AcDbLinetypeTableRecord
  2
ByLayer
 70
     0
  3

 72
    65
 73
     0
 40
0.0
  0
LTYPE
  5
16
330
5
100
AcDbSymbolTableRecord
100
AcDbLinetypeTableRecord
  2
Continuous
 70
     0
  3
Solid line
 72
    65
 73
     0
 40
0.0
  0
LTYPE
  5
6E
330
5
100
AcDbSymbolTableRecord
100
AcDbLinetypeTableRecord
  2
HIDDEN
 70
     0
  3
Hidden __ __ __ __ __ __ __ __ __ __ __ __ __ __
 72
    65
 73
     2
 40
1.905
 49
1.27
 74
     0
 49
-0.635
 74
     0
  0
LTYPE
  5
6F
330
5
100
AcDbSymbolTableRecord
100
AcDbLinetypeTableRecord
  2
PHANTOM
 70
     0
  3
Phantom ______  __  __  ______  __  __  ______
 72
    65
 73
     6
 40
12.7
 49
6.35
 74
     0
 49
-1.27
 74
     0
 49
1.27
 74
     0
 49
-1.27
 74
     0
 49
1.27
 74
     0
 49
-1.27
 74
     0
  0
LTYPE
  5
70
330
5
100
AcDbSymbolTableRecord
100
AcDbLinetypeTableRecord
  2
CENTER
 70
     0
  3
Center ____ _ ____ _ ____ _ ____ _ ____ _ ____
 72
    65
 73
     4
 40
10.16
 49
6.35
 74
     0
 49
-1.27
 74
     0
 49
1.27
 74
     0
 49
-1.27
 74
     0
  0
LTYPE
  5
71
330
5
100
AcDbSymbolTableRecord
100
AcDbLinetypeTableRecord
  2
CENTERX2
 70
     0
  3
Center (2x) ________  __  ________  __  _____
 72
    65
 73
     4
 40
20.32
 49
12.7
 74
     0
 49
-2.54
 74
     0
 49
2.54
 74
     0
 49
-2.54
 74
     0
  0
LTYPE
  5
72
330
5
100
AcDbSymbolTableRecord
100
AcDbLinetypeTableRecord
  2
DOT2
 70
     0
  3
Dot (.5x) ........................................
 72
    65
 73
     2
 40
0.635
 49
0.0
 74
     0
 49
-0.635
 74
     0
  0
ENDTAB
  0
TABLE
  2
LAYER
  5
2
330
0
100
AcDbSymbolTable
 70
     8
  0
LAYER
  5
10
330
2
100
AcDbSymbolTableRecord
100
AcDbLayerTableRecord
  2
0
 70
     0
 62
     7
  6
Continuous
370
    -3
390
F
  0
LAYER
  5
73
330
2
100
AcDbSymbolTableRecord
100
AcDbLayerTableRecord
  2
FORMAT
 70
     0
 62
     7
  6
Continuous
370
    -3
390
F
  0
LAYER
  5
74
330
2
100
AcDbSymbolTableRecord
100
AcDbLayerTableRecord
  2
VORLAGE
 70
     0
 62
     7
  6
Continuous
370
    -3
390
F
  0
LAYER
  5
75
330
2
100
AcDbSymbolTableRecord
100
AcDbLayerTableRecord
  2
1
 70
     0
 62
   179
  6
Continuous
370
    -3
390
F
  0
LAYER
  5
76
330
2
100
AcDbSymbolTableRecord
100
AcDbLayerTableRecord
  2
LAYER0
 70
     0
 62
     7
  6
Continuous
370
    -3
390
F
  0
LAYER
  5
77
330
2
100
AcDbSymbolTableRecord
100
AcDbLayerTableRecord
  2
BEMASSUNG
 70
     0
 62
     1
  6
Continuous
370
    -3
390
F
  0
LAYER
  5
78
330
2
100
AcDbSymbolTableRecord
100
AcDbLayerTableRecord
  2
ÄNDERUNG
 70
     0
 62
     1
  6
Continuous
370
    -3
390
F
  0
LAYER
  5
79
330
2
100
AcDbSymbolTableRecord
100
AcDbLayerTableRecord
  2
KENNZEICHNUNG
 70
     0
 62
     7
  6
Continuous
370
    -3
390
F
  0
ENDTAB
  0
TABLE
  2
STYLE
  5
3
330
0
100
AcDbSymbolTable
 70
     5
  0
STYLE
  5
11
330
3
100
AcDbSymbolTableRecord
100
AcDbTextStyleTableRecord
  2
STANDARD
 70
     0
 40
0.0
 41
1.0
 50
0.0
 71
     0
 42
24.5
  3
ARIAL.TTF
  4

1001
ACAD
1000
ARIAL
1071
       34
  0
STYLE
  5
8B
330
3
100
AcDbSymbolTableRecord
100
AcDbTextStyleTableRecord
  2
SLDTEXTSTYLE0
 70
     0
 40
0.0
 41
0.948
 50
0.0
 71
     0
 42
24.5
  3
ARIAL.TTF
  4

1001
ACAD
1000
Arial
1071
      290
  0
STYLE
  5
B2
330
3
100
AcDbSymbolTableRecord
100
AcDbTextStyleTableRecord
  2
SLDTEXTSTYLE1
 70
     0
 40
0.0
 41
1.0
 50
0.0
 71
     0
 42
24.5
  3
ARIALUNI.TTF
  4

1001
ACAD
1000
Arial Unicode MS
1071
 33554722
  0
STYLE
  5
B8
330
3
100
AcDbSymbolTableRecord
100
AcDbTextStyleTableRecord
  2
SLDTEXTSTYLE2
 70
     0
 40
0.0
 41
0.87
 50
0.0
 71
     0
 42
24.5
  3
ARIALN.TTF
  4

1001
ACAD
1000
Arial Narrow
1071
      290
  0
STYLE
  5
E9
330
3
100
AcDbSymbolTableRecord
100
AcDbTextStyleTableRecord
  2
SLDTEXTSTYLE3
 70
     0
 40
0.0
 41
0.948
 50
0.0
 71
     0
 42
24.5
  3
ARIALBD.TTF
  4

1001
ACAD
1000
Arial
1071
 33554722
  0
ENDTAB
  0
TABLE
  2
VIEW
  5
6
330
0
100
AcDbSymbolTable
 70
     0
  0
ENDTAB
  0
TABLE
  2
UCS
  5
7
330
0
100
AcDbSymbolTable
 70
     0
  0
ENDTAB
  0
TABLE
  2
APPID
  5
9
330
0
100
AcDbSymbolTable
 70
     1
  0
APPID
  5
12
330
9
100
AcDbSymbolTableRecord
100
AcDbRegAppTableRecord
  2
ACAD
 70
     0
  0
ENDTAB
  0
TABLE
  2
DIMSTYLE
  5
A
330
0
100
AcDbSymbolTable
 70
    12
100
AcDbDimStyleTable
  0
DIMSTYLE
105
27
330
A
100
AcDbSymbolTableRecord
100
AcDbDimStyleTableRecord
  2
ISO-25
 70
     0
 41
2.5
 42
0.625
 43
3.75
 44
1.25
 73
     0
 74
     0
 77
     1
 78
     8
140
2.5
141
2.5
143
0.0393700787
147
0.625
171
     3
172
     1
178
     0
271
     2
272
     2
274
     3
278
    44
283
     0
284
     8
340
11
  0
DIMSTYLE
105
1E1
102
{ACAD_REACTORS
330
1E0
330
1F8
330
202
330
20C
330
2E0
330
2EA
330
2F3
330
350
330
35A
330
364
330
36E
330
378
330
4BA
330
4C4
330
4D9
102
}
330
A
100
AcDbSymbolTableRecord
100
AcDbDimStyleTableRecord
  2
SLDDIMSTYLE0
 70
     0
 41
23.114
 44
0.0
 45
0.000000001
 73
     0
 74
     0
 77
     1
 78
    12
 79
     3
140
24.5
147
6.125
173
     1
178
     0
271
     2
272
     2
276
     2
284
    12
340
8B
  0
DIMSTYLE
105
1EC
102
{ACAD_REACTORS
330
1EB
330
309
330
32C
330
338
330
344
330
4CE
102
}
330
A
100
AcDbSymbolTableRecord
100
AcDbDimStyleTableRecord
  2
SLDDIMSTYLE1
 70
     0
 41
23.114
 44
0.0
 45
0.000000001
 73
     0
 74
     0
 77
     1
 78
    12
 79
     3
140
24.5
147
6.125
172
     1
173
     1
178
     0
271
     2
272
     2
276
     2
284
    12
289
     0
340
8B
  0
DIMSTYLE
105
2FE
102
{ACAD_REACTORS
330
2FD
330
314
330
320
102
}
330
A
100
AcDbSymbolTableRecord
100
AcDbDimStyleTableRecord
  2
SLDDIMSTYLE2
 70
     0
 41
23.114
 44
0.0
 45
0.000000001
 73
     0
 74
     0
 77
     1
 78
    12
 79
     3
140
24.5
147
6.125
172
     1
173
     1
178
     0
271
     0
272
     2
276
     2
284
    12
289
     0
340
8B
  0
DIMSTYLE
105
383
330
A
100
AcDbSymbolTableRecord
100
AcDbDimStyleTableRecord
  2
SLDDIMSTYLE3
 70
     0
 41
23.114
 44
0.0
 45
0.000000001
146
23.114
147
0.0
173
     1
178
     0
271
     0
272
     0
276
     2
340
11
  0
DIMSTYLE
105
49F
102
{ACAD_REACTORS
330
49E
330
4AF
102
}
330
A
100
AcDbSymbolTableRecord
100
AcDbDimStyleTableRecord
  2
SLDDIMSTYLE4
 70
     0
 41
7.112
 44
0.0
 45
0.000000001
 73
     0
 74
     0
 77
     1
 78
    12
 79
     3
140
17.9782307943
147
4.4945576986
173
     1
178
     0
271
     2
272
     2
276
     2
284
    12
340
8B
341
4A0
343
4A0
  0
DIMSTYLE
105
579
102
{ACAD_REACTORS
330
578
330
587
330
5A3
330
5CB
330
5F8
102
}
330
A
100
AcDbSymbolTableRecord
100
AcDbDimStyleTableRecord
  2
SLDDIMSTYLE5
 70
     0
 41
23.114
 44
0.0
 45
0.000000001
 73
     0
 74
     0
 77
     1
 78
    12
 79
     3
140
24.5
144
0.7142857143
147
6.125
172
     1
173
     1
178
     0
271
     2
272
     2
276
     2
284
    12
289
     0
340
8B
  0
DIMSTYLE
105
596
102
{ACAD_REACTORS
330
595
102
}
330
A
100
AcDbSymbolTableRecord
100
AcDbDimStyleTableRecord
  2
SLDDIMSTYLE6
 70
     0
 41
23.114
 44
0.0
 45
0.000000001
 73
     0
 74
     0
 77
     1
 78
    12
 79
     3
140
24.5
144
0.7142857143
147
6.125
172
     1
173
     1
178
     0
271
     2
272
     2
276
     2
284
    12
289
     0
340
E9
  0
DIMSTYLE
105
5B2
102
{ACAD_REACTORS
330
5B1
102
}
330
A
100
AcDbSymbolTableRecord
100
AcDbDimStyleTableRecord
  2
SLDDIMSTYLE7
 70
     0
 41
23.114
 44
0.0
 45
0.000000001
 73
     0
 74
     0
 77
     1
 78
    12
 79
     3
140
24.5
144
0.7142857143
147
6.125
172
     1
173
     1
178
     0
271
     2
272
     2
276
     2
284
    12
289
     0
340
8B
344
4A0
  0
DIMSTYLE
105
5BF
102
{ACAD_REACTORS
330
5BE
102
}
330
A
100
AcDbSymbolTableRecord
100
AcDbDimStyleTableRecord
  2
SLDDIMSTYLE8
 70
     0
 41
7.112
 44
0.0
 45
0.000000001
 73
     0
 74
     0
 77
     1
 78
    12
 79
     3
140
24.5
144
0.7142857143
147
6.125
172
     1
173
     1
178
     0
271
     2
272
     2
276
     2
284
    12
289
     0
340
8B
341
4A0
343
4A0
  0
DIMSTYLE
105
5D9
330
A
100
AcDbSymbolTableRecord
100
AcDbDimStyleTableRecord
  2
SLDDIMSTYLE9
 70
     0
 41
7.112
 44
0.0
 45
0.000000001
146
7.112
147
0.0
173
     1
178
     0
271
     0
272
     0
276
     2
340
11
341
4A0
343
4A0
344
4A0
  0
DIMSTYLE
105
605
102
{ACAD_REACTORS
330
604
102
}
330
A
100
AcDbSymbolTableRecord
100
AcDbDimStyleTableRecord
  2
SLDDIMSTYLE10
 70
     0
 41
23.114
 44
0.0
 45
0.000000001
 73
     0
 74
     0
 77
     1
 78
    12
 79
     3
140
24.5
144
0.7142857143
147
6.125
173
     1
178
     0
271
     2
272
     2
276
     2
284
    12
340
8B
  0
ENDTAB
  0
TABLE
  2
BLOCK_RECORD
  5
1
330
0
100
AcDbSymbolTable
 70
    61
  0
BLOCK_RECORD
  5
1F
330
1
100
AcDbSymbolTableRecord
100
AcDbBlockTableRecord
  2
*Model_Space
340
22
  0
BLOCK_RECORD
  5
1B
330
1
100
AcDbSymbolTableRecord
100
AcDbBlockTableRecord
  2
*Paper_Space
340
1E
  0
BLOCK_RECORD
  5
23
330
1
100
AcDbSymbolTableRecord
100
AcDbBlockTableRecord
  2
*Paper_Space0
340
26
  0
BLOCK_RECORD
  5
7A
330
1
100
AcDbSymbolTableRecord
100
AcDbBlockTableRecord
  2
Block1_3_1
340
0
102
{BLKREFS
331
D9
102
}
  0
BLOCK_RECORD
  5
88
330
1
100
AcDbSymbolTableRecord
100
AcDbBlockTableRecord
  2
SW_NOTE_0
340
0
102
{BLKREFS
331
8E
102
}
  0
BLOCK_RECORD
  5
8F
330
1
100
AcDbSymbolTableRecord
100
AcDbBlockTableRecord
  2
Block2_3_1
340
0
102
{BLKREFS
331
D8
102
}
  0
BLOCK_RECORD
  5
AF
330
1
100
AcDbSymbolTableRecord
100
AcDbBlockTableRecord
  2
SW_NOTE_0_1
340
0
102
{BLKREFS
331
B4
102
}
  0
BLOCK_RECORD
  5
B5
330
1
100
AcDbSymbolTableRecord
100
AcDbBlockTableRecord
  2
SW_NOTE_0_2
340
0
102
{BLKREFS
331
BC
102
}
  0
BLOCK_RECORD
  5
BD
330
1
100
AcDbSymbolTableRecord
100
AcDbBlockTableRecord
  2
rechtlicher_Hinweis_Katalogzeichnungen_1
340
0
102
{BLKREFS
331
DA
102
}
  0
BLOCK_RECORD
  5
C0
330
1
100
AcDbSymbolTableRecord
100
AcDbBlockTableRecord
  2
SW_NOTE_0_3
340
0
102
{BLKREFS
331
C9
102
}
  0
BLOCK_RECORD
  5
DD
330
1
100
AcDbSymbolTableRecord
100
AcDbBlockTableRecord
  2
SW_NOTE_0_4
340
0
102
{BLKREFS
331
E3
102
}
  0
BLOCK_RECORD
  5
F5
330
1
100
AcDbSymbolTableRecord
100
AcDbBlockTableRecord
  2
SW_TABLEANNOTATION_0
340
0
102
{BLKREFS
331
11D
102
}
  0
BLOCK_RECORD
  5
1E2
330
1
100
AcDbSymbolTableRecord
100
AcDbBlockTableRecord
  2
_D
340
0
  0
BLOCK_RECORD
  5
1ED
330
1
100
AcDbSymbolTableRecord
100
AcDbBlockTableRecord
  2
_D_1
340
0
  0
BLOCK_RECORD
  5
1F9
330
1
100
AcDbSymbolTableRecord
100
AcDbBlockTableRecord
  2
_D_2
340
0
  0
BLOCK_RECORD
  5
203
330
1
100
AcDbSymbolTableRecord
100
AcDbBlockTableRecord
  2
_D_3
340
0
  0
BLOCK_RECORD
  5
20D
330
1
100
AcDbSymbolTableRecord
100
AcDbBlockTableRecord
  2
_D_4
340
0
  0
BLOCK_RECORD
  5
2E1
330
1
100
AcDbSymbolTableRecord
100
AcDbBlockTableRecord
  2
_D_5
340
0
  0
BLOCK_RECORD
  5
2EB
330
1
100
AcDbSymbolTableRecord
100
AcDbBlockTableRecord
  2
_D_6
340
0
  0
BLOCK_RECORD
  5
2F4
330
1
100
AcDbSymbolTableRecord
100
AcDbBlockTableRecord
  2
_D_7
340
0
  0
BLOCK_RECORD
  5
2FF
330
1
100
AcDbSymbolTableRecord
100
AcDbBlockTableRecord
  2
_D_8
340
0
  0
BLOCK_RECORD
  5
30A
330
1
100
AcDbSymbolTableRecord
100
AcDbBlockTableRecord
  2
_D_9
340
0
  0
BLOCK_RECORD
  5
315
330
1
100
AcDbSymbolTableRecord
100
AcDbBlockTableRecord
  2
_D_10
340
0
  0
BLOCK_RECORD
  5
321
330
1
100
AcDbSymbolTableRecord
100
AcDbBlockTableRecord
  2
_D_11
340
0
  0
BLOCK_RECORD
  5
32D
330
1
100
AcDbSymbolTableRecord
100
AcDbBlockTableRecord
  2
_D_12
340
0
  0
BLOCK_RECORD
  5
339
330
1
100
AcDbSymbolTableRecord
100
AcDbBlockTableRecord
  2
_D_13
340
0
  0
BLOCK_RECORD
  5
345
330
1
100
AcDbSymbolTableRecord
100
AcDbBlockTableRecord
  2
_D_14
340
0
  0
BLOCK_RECORD
  5
351
330
1
100
AcDbSymbolTableRecord
100
AcDbBlockTableRecord
  2
_D_15
340
0
  0
BLOCK_RECORD
  5
35B
330
1
100
AcDbSymbolTableRecord
100
AcDbBlockTableRecord
  2
_D_16
340
0
  0
BLOCK_RECORD
  5
365
330
1
100
AcDbSymbolTableRecord
100
AcDbBlockTableRecord
  2
_D_17
340
0
  0
BLOCK_RECORD
  5
36F
330
1
100
AcDbSymbolTableRecord
100
AcDbBlockTableRecord
  2
_D_18
340
0
  0
BLOCK_RECORD
  5
379
330
1
100
AcDbSymbolTableRecord
100
AcDbBlockTableRecord
  2
_D_19
340
0
  0
BLOCK_RECORD
  5
387
330
1
100
AcDbSymbolTableRecord
100
AcDbBlockTableRecord
  2
SW_NOTE_0_5
340
0
102
{BLKREFS
331
38C
102
}
  0
BLOCK_RECORD
  5
38E
330
1
100
AcDbSymbolTableRecord
100
AcDbBlockTableRecord
  2
SW_CENTERMARKSYMBOL_0
340
0
102
{BLKREFS
331
399
102
}
  0
BLOCK_RECORD
  5
39A
330
1
100
AcDbSymbolTableRecord
100
AcDbBlockTableRecord
  2
SW_CENTERMARKSYMBOL_1
340
0
102
{BLKREFS
331
3A5
102
}
  0
BLOCK_RECORD
  5
3A6
330
1
100
AcDbSymbolTableRecord
100
AcDbBlockTableRecord
  2
SW_CENTERMARKSYMBOL_2
340
0
102
{BLKREFS
331
3B1
102
}
  0
BLOCK_RECORD
  5
3B2
330
1
100
AcDbSymbolTableRecord
100
AcDbBlockTableRecord
  2
SW_CENTERMARKSYMBOL_3
340
0
102
{BLKREFS
331
3BD
102
}
  0
BLOCK_RECORD
  5
3BE
330
1
100
AcDbSymbolTableRecord
100
AcDbBlockTableRecord
  2
SW_CENTERMARKSYMBOL_4
340
0
102
{BLKREFS
331
3C9
102
}
  0
BLOCK_RECORD
  5
3CA
330
1
100
AcDbSymbolTableRecord
100
AcDbBlockTableRecord
  2
SW_CENTERMARKSYMBOL_5
340
0
102
{BLKREFS
331
3D5
102
}
  0
BLOCK_RECORD
  5
3D6
330
1
100
AcDbSymbolTableRecord
100
AcDbBlockTableRecord
  2
SW_CENTERMARKSYMBOL_6
340
0
102
{BLKREFS
331
3E1
102
}
  0
BLOCK_RECORD
  5
3E2
330
1
100
AcDbSymbolTableRecord
100
AcDbBlockTableRecord
  2
SW_CENTERMARKSYMBOL_7
340
0
102
{BLKREFS
331
3ED
102
}
  0
BLOCK_RECORD
  5
3EE
330
1
100
AcDbSymbolTableRecord
100
AcDbBlockTableRecord
  2
SW_CENTERMARKSYMBOL_8
340
0
102
{BLKREFS
331
3F9
102
}
  0
BLOCK_RECORD
  5
3FA
330
1
100
AcDbSymbolTableRecord
100
AcDbBlockTableRecord
  2
SW_CENTERMARKSYMBOL_9
340
0
102
{BLKREFS
331
405
102
}
  0
BLOCK_RECORD
  5
406
330
1
100
AcDbSymbolTableRecord
100
AcDbBlockTableRecord
  2
SW_CENTERMARKSYMBOL_10
340
0
102
{BLKREFS
331
411
102
}
  0
BLOCK_RECORD
  5
412
330
1
100
AcDbSymbolTableRecord
100
AcDbBlockTableRecord
  2
SW_CENTERMARKSYMBOL_11
340
0
102
{BLKREFS
331
41D
102
}
  0
BLOCK_RECORD
  5
4A0
330
1
100
AcDbSymbolTableRecord
100
AcDbBlockTableRecord
  2
_Dot
340
0
102
{BLKREFS
331
4A8
331
4B3
331
5B7
331
5C3
102
}
  0
BLOCK_RECORD
  5
4A5
330
1
100
AcDbSymbolTableRecord
100
AcDbBlockTableRecord
  2
_D_20
340
0
  0
BLOCK_RECORD
  5
4B0
330
1
100
AcDbSymbolTableRecord
100
AcDbBlockTableRecord
  2
_D_21
340
0
  0
BLOCK_RECORD
  5
4BB
330
1
100
AcDbSymbolTableRecord
100
AcDbBlockTableRecord
  2
_D_22
340
0
  0
BLOCK_RECORD
  5
4C5
330
1
100
AcDbSymbolTableRecord
100
AcDbBlockTableRecord
  2
_D_23
340
0
  0
BLOCK_RECORD
  5
4CF
330
1
100
AcDbSymbolTableRecord
100
AcDbBlockTableRecord
  2
_D_24
340
0
  0
BLOCK_RECORD
  5
4DA
330
1
100
AcDbSymbolTableRecord
100
AcDbBlockTableRecord
  2
_D_25
340
0
  0
BLOCK_RECORD
  5
57A
330
1
100
AcDbSymbolTableRecord
100
AcDbBlockTableRecord
  2
_D_26
340
0
  0
BLOCK_RECORD
  5
588
330
1
100
AcDbSymbolTableRecord
100
AcDbBlockTableRecord
  2
_D_27
340
0
  0
BLOCK_RECORD
  5
597
330
1
100
AcDbSymbolTableRecord
100
AcDbBlockTableRecord
  2
_D_28
340
0
  0
BLOCK_RECORD
  5
5A4
330
1
100
AcDbSymbolTableRecord
100
AcDbBlockTableRecord
  2
_D_29
340
0
  0
BLOCK_RECORD
  5
5B3
330
1
100
AcDbSymbolTableRecord
100
AcDbBlockTableRecord
  2
_D_30
340
0
  0
BLOCK_RECORD
  5
5C0
330
1
100
AcDbSymbolTableRecord
100
AcDbBlockTableRecord
  2
_D_31
340
0
  0
BLOCK_RECORD
  5
5CC
330
1
100
AcDbSymbolTableRecord
100
AcDbBlockTableRecord
  2
_D_32
340
0
  0
BLOCK_RECORD
  5
5F9
330
1
100
AcDbSymbolTableRecord
100
AcDbBlockTableRecord
  2
_D_33
340
0
  0
BLOCK_RECORD
  5
606
330
1
100
AcDbSymbolTableRecord
100
AcDbBlockTableRecord
  2
_D_34
340
0
  0
BLOCK_RECORD
  5
610
330
1
100
AcDbSymbolTableRecord
100
AcDbBlockTableRecord
  2
SW_CENTERMARKSYMBOL_12
340
0
102
{BLKREFS
331
61B
102
}
  0
BLOCK_RECORD
  5
61C
330
1
100
AcDbSymbolTableRecord
100
AcDbBlockTableRecord
  2
SW_CENTERMARKSYMBOL_13
340
0
102
{BLKREFS
331
627
102
}
  0
ENDTAB
  0
ENDSEC
  0
SECTION
  2
BLOCKS
  0
BLOCK
  5
20
330
1F
100
AcDbEntity
  8
0
100
AcDbBlockBegin
  2
*Model_Space
 70
     0
 10
0.0
 20
0.0
 30
0.0
  3
*Model_Space
  1

  0
ENDBLK
  5
21
330
1F
100
AcDbEntity
  8
0
100
AcDbBlockEnd
  0
BLOCK
  5
1C
330
1B
100
AcDbEntity
 67
     1
  8
0
100
AcDbBlockBegin
  2
*Paper_Space
 70
     0
 10
0.0
 20
0.0
 30
0.0
  3
*Paper_Space
  1

  0
ENDBLK
  5
1D
330
1B
100
AcDbEntity
 67
     1
  8
0
100
AcDbBlockEnd
  0
BLOCK
  5
24
330
23
100
AcDbEntity
  8
0
100
AcDbBlockBegin
  2
*Paper_Space0
 70
     0
 10
0.0
 20
0.0
 30
0.0
  3
*Paper_Space0
  1

  0
ENDBLK
  5
25
330
23
100
AcDbEntity
  8
0
100
AcDbBlockEnd
  0
BLOCK
  5
7B
330
7A
100
AcDbEntity
  8
0
100
AcDbBlockBegin
  2
Block1_3_1
 70
     0
 10
0.0
 20
0.0
 30
0.0
  3
Block1_3_1
  1

  0
CIRCLE
  5
7D
330
7A
100
AcDbEntity
  8
0
  6
Continuous
 62
     7
370
    18
100
AcDbCircle
 10
81.2962813747
 20
63.6276108944
 30
0.0
 40
8.79136307741128
  0
CIRCLE
  5
7E
330
7A
100
AcDbEntity
  8
0
  6
Continuous
 62
     7
370
    18
100
AcDbCircle
 10
81.2962813747
 20
63.6276108944
 30
0.0
 40
15.51210404558959
  0
LINE
  5
7F
330
7A
100
AcDbEntity
  8
0
  6
CENTERX2
 62
     7
370
    18
100
AcDbLine
 10
81.2962813747
 20
63.6276108944
 30
0.0
 11
55.2841773291
 21
63.6276108944
 31
0.0
  0
LINE
  5
80
330
7A
100
AcDbEntity
  8
0
  6
Continuous
 62
     7
370
    18
100
AcDbLine
 10
57.1602751158
 20
48.1155068489
 30
0.0
 11
57.1602751158
 21
79.150109214
 31
0.0
  0
LINE
  5
81
330
7A
100
AcDbEntity
  8
0
  6
Continuous
 62
     7
370
    18
100
AcDbLine
 10
18.7580035265
 20
72.4189739719
 30
0.0
 11
18.7580035265
 21
54.836247817
 31
0.0
  0
LINE
  5
82
330
7A
100
AcDbEntity
  8
0
  6
Continuous
 62
     7
370
    18
100
AcDbLine
 10
18.7580035265
 20
54.836247817
 30
0.0
 11
57.1602751158
 21
48.1155068489
 31
0.0
  0
LINE
  5
83
330
7A
100
AcDbEntity
  8
0
  6
CENTERX2
 62
     7
370
    18
100
AcDbLine
 10
67.6602751158
 20
63.6276108944
 30
0.0
 11
8.2580035265
 21
63.6276108944
 31
0.0
  0
LINE
  5
84
330
7A
100
AcDbEntity
  8
0
  6
Continuous
 62
     7
370
    18
100
AcDbLine
 10
57.1602751158
 20
79.150109214
 30
0.0
 11
18.7580035265
 21
72.4189739719
 31
0.0
  0
LINE
  5
85
330
7A
100
AcDbEntity
  8
0
  6
CENTERX2
 62
     7
370
    18
100
AcDbLine
 10
81.2962813747
 20
63.6276108944
 30
0.0
 11
81.2962813747
 21
37.6155068489
 31
0.0
  0
LINE
  5
86
330
7A
100
AcDbEntity
  8
0
  6
CENTERX2
 62
     7
370
    18
100
AcDbLine
 10
81.2962813747
 20
63.6276108944
 30
0.0
 11
81.2962813747
 21
89.63971494
 31
0.0
  0
LINE
  5
87
330
7A
100
AcDbEntity
  8
0
  6
CENTERX2
 62
     7
370
    18
100
AcDbLine
 10
81.2962813747
 20
63.6276108944
 30
0.0
 11
107.3083854203
 21
63.6276108944
 31
0.0
  0
INSERT
  5
8E
330
7A
100
AcDbEntity
  8
0
  6
Continuous
 62
     7
370
     0
100
AcDbBlockReference
  2
SW_NOTE_0
 10
14.7222830224
 20
16.6281309378
 30
0.0
  0
ENDBLK
  5
7C
330
7A
100
AcDbEntity
  8
0
100
AcDbBlockEnd
  0
BLOCK
  5
89
330
88
100
AcDbEntity
  8
0
100
AcDbBlockBegin
  2
SW_NOTE_0
 70
     0
 10
0.0
 20
0.0
 30
0.0
  3
SW_NOTE_0
  1

  0
MTEXT
  5
8C
330
88
100
AcDbEntity
  8
0
  6
Continuous
 62
     0
370
     0
100
AcDbMText
 10
46.134375
 20
17.144600939
 30
0.0
 40
13.3
 41
0.0
 71
     2
 72
     1
  1
DIN 6  T1 - 
  7
SLDTEXTSTYLE0
 73
     1
 44
1.0
  0
MTEXT
  5
8D
330
88
100
AcDbEntity
  8
0
  6
Continuous
 62
     0
370
     0
100
AcDbMText
 10
46.5984838367
 20
0.0023782104
 30
0.0
 40
13.3
 41
0.0
 71
     2
 72
     1
  1
Proj.methode 1
  7
SLDTEXTSTYLE0
 73
     1
 44
1.0
  0
ENDBLK
  5
8A
330
88
100
AcDbEntity
  8
0
100
AcDbBlockEnd
  0
BLOCK
  5
90
330
8F
100
AcDbEntity
  8
0
100
AcDbBlockBegin
  2
Block2_3_1
 70
     0
 10
0.0
 20
0.0
 30
0.0
  3
Block2_3_1
  1

  0
ARC
  5
92
330
8F
100
AcDbEntity
  8
FORMAT
100
AcDbCircle
 10
1657.2474557671
 20
399.6934206979
 30
0.0
 40
26.25000000000006
100
AcDbArc
 50
93.8225537293
 51
266.1774462707
  0
ARC
  5
93
330
8F
100
AcDbEntity
  8
FORMAT
100
AcDbCircle
 10
1657.2474557671
 20
399.6934206979
 30
0.0
 40
21.0000000000001
100
AcDbArc
 50
94.7801918472
 51
265.2198081528
  0
ARC
  5
94
330
8F
100
AcDbEntity
  8
FORMAT
100
AcDbCircle
 10
1657.2474557671
 20
399.6934206979
 30
0.0
 40
26.25000000000006
100
AcDbArc
 50
273.8225537293
 51
86.1774462707
  0
ARC
  5
95
330
8F
100
AcDbEntity
  8
FORMAT
100
AcDbCircle
 10
1657.2474557671
 20
399.6934206979
 30
0.0
 40
21.0000000000001
100
AcDbArc
 50
274.7801918472
 51
85.2198081528
  0
ARC
  5
96
330
8F
100
AcDbEntity
  8
FORMAT
100
AcDbCircle
 10
1657.2474557671
 20
407.6242915053
 30
0.0
 40
6.022819479648172
100
AcDbArc
 50
304.8395134495
 51
73.1084194601
  0
ARC
  5
97
330
8F
100
AcDbEntity
  8
FORMAT
100
AcDbCircle
 10
1657.2474557671
 20
407.6242915053
 30
0.0
 40
9.81620102162464
100
AcDbArc
 50
313.8988153445
 51
79.7306010333
  0
ARC
  5
98
330
8F
100
AcDbEntity
  8
FORMAT
100
AcDbCircle
 10
1657.2474557671
 20
388.4857005791
 30
0.0
 40
3.440714680707612
100
AcDbArc
 50
300.5716370086
 51
0.0
  0
ARC
  5
99
330
8F
100
AcDbEntity
  8
FORMAT
100
AcDbCircle
 10
1657.2474557671
 20
407.6242915053
 30
0.0
 40
9.81620102162464
100
AcDbArc
 50
100.2693989667
 51
226.1011846555
  0
ARC
  5
9A
330
8F
100
AcDbEntity
  8
FORMAT
100
AcDbCircle
 10
1657.2474557671
 20
388.4857005791
 30
0.0
 40
6.806425489791309
100
AcDbArc
 50
180.0
 51
255.1013518888
  0
ARC
  5
9B
330
8F
100
AcDbEntity
  8
FORMAT
100
AcDbCircle
 10
1657.2474557671
 20
388.4857005791
 30
0.0
 40
6.806425489791309
100
AcDbArc
 50
284.8986481112
 51
0.0
  0
ARC
  5
9C
330
8F
100
AcDbEntity
  8
FORMAT
100
AcDbCircle
 10
1657.2474557671
 20
388.4857005791
 30
0.0
 40
3.440714680707612
100
AcDbArc
 50
180.0
 51
239.4283629914
  0
ARC
  5
9D
330
8F
100
AcDbEntity
  8
FORMAT
100
AcDbCircle
 10
1657.2474557671
 20
407.6242915053
 30
0.0
 40
6.022819479648172
100
AcDbArc
 50
106.8915805399
 51
235.1604865505
  0
LINE
  5
9E
330
8F
100
AcDbEntity
  8
FORMAT
100
AcDbLine
 10
1627.7186808898
 20
370.1646458206
 30
0.0
 11
1686.7762306444
 21
370.1646458206
 31
0.0
  0
LINE
  5
9F
330
8F
100
AcDbEntity
  8
FORMAT
100
AcDbLine
 10
1627.7186808898
 20
429.2221955752
 30
0.0
 11
1686.7762306444
 21
429.2221955752
 31
0.0
  0
LINE
  5
A0
330
8F
100
AcDbEntity
  8
FORMAT
100
AcDbLine
 10
1627.7186808898
 20
429.2221955752
 30
0.0
 11
1627.7186808898
 21
370.1646458206
 31
0.0
  0
LINE
  5
A1
330
8F
100
AcDbEntity
  8
FORMAT
100
AcDbLine
 10
1686.7762306444
 20
429.2221955752
 30
0.0
 11
1686.7762306444
 21
370.1646458206
 31
0.0
  0
LINE
  5
A2
330
8F
100
AcDbEntity
  8
FORMAT
100
AcDbLine
 10
1655.4974557671
 20
425.8850224053
 30
0.0
 11
1655.4974557671
 21
420.6203769983
 31
0.0
  0
LINE
  5
A3
330
8F
100
AcDbEntity
  8
FORMAT
100
AcDbLine
 10
1658.9974557671
 20
425.8850224053
 30
0.0
 11
1658.9974557671
 21
420.6203769983
 31
0.0
  0
LINE
  5
A4
330
8F
100
AcDbEntity
  8
FORMAT
100
AcDbLine
 10
1655.4974557671
 20
378.7664643974
 30
0.0
 11
1655.4974557671
 21
373.5018189904
 31
0.0
  0
LINE
  5
A5
330
8F
100
AcDbEntity
  8
FORMAT
100
AcDbLine
 10
1658.9974557671
 20
378.7664643974
 30
0.0
 11
1658.9974557671
 21
373.5018189904
 31
0.0
  0
LINE
  5
A6
330
8F
100
AcDbEntity
  8
FORMAT
100
AcDbLine
 10
1658.9974557671
 20
417.2832408527
 30
0.0
 11
1658.9974557671
 21
413.3872642177
 31
0.0
  0
LINE
  5
A7
330
8F
100
AcDbEntity
  8
FORMAT
100
AcDbLine
 10
1655.4974557671
 20
417.2832408527
 30
0.0
 11
1655.4974557671
 21
413.3872642177
 31
0.0
  0
LINE
  5
A8
330
8F
100
AcDbEntity
  8
FORMAT
100
AcDbLine
 10
1650.4410302773
 20
388.4857005791
 30
0.0
 11
1650.4410302773
 21
400.5510762146
 31
0.0
  0
LINE
  5
A9
330
8F
100
AcDbEntity
  8
FORMAT
100
AcDbLine
 10
1664.0538812569
 20
388.4857005791
 30
0.0
 11
1664.0538812569
 21
400.5510762146
 31
0.0
  0
LINE
  5
AA
330
8F
100
AcDbEntity
  8
FORMAT
100
AcDbLine
 10
1660.6881704478
 20
388.4857005791
 30
0.0
 11
1660.6881704478
 21
402.6810297309
 31
0.0
  0
LINE
  5
AB
330
8F
100
AcDbEntity
  8
FORMAT
100
AcDbLine
 10
1653.8067410864
 20
388.4857005791
 30
0.0
 11
1653.8067410864
 21
402.6810297309
 31
0.0
  0
LINE
  5
AC
330
8F
100
AcDbEntity
  8
FORMAT
100
AcDbLine
 10
1655.4974557671
 20
385.5232661892
 30
0.0
 11
1655.4974557671
 21
381.9080925071
 31
0.0
  0
LINE
  5
AD
330
8F
100
AcDbEntity
  8
FORMAT
100
AcDbLine
 10
1658.9974557671
 20
385.5232661892
 30
0.0
 11
1658.9974557671
 21
381.9080925071
 31
0.0
  0
HATCH
  5
AE
330
8F
100
AcDbEntity
  8
FORMAT
100
AcDbHatch
 10
0.0
 20
0.0
 30
0.0
210
0.0
220
0.0
230
1.0
  2
SOLID
 70
     1
 71
     0
 91
        5
 92
        0
 93
        4
 72
     1
 10
1686.776230644441
 20
429.2221955751519
 11
1686.776230644441
 21
370.1646458205502
 72
     1
 10
1686.776230644441
 20
370.1646458205502
 11
1627.718680889839
 21
370.1646458205502
 72
     1
 10
1627.718680889839
 20
370.1646458205502
 11
1627.718680889839
 21
429.2221955751519
 72
     1
 10
1627.718680889839
 20
429.2221955751519
 11
1686.776230644441
 21
429.2221955751519
 97
        0
 92
        0
 93
        4
 72
     2
 10
1657.24745576714
 20
399.693420697851
 40
21.00000000000007
 50
94.78019184719915
 51
265.2198081528017
 73
     0
 72
     1
 10
1655.49745576714
 20
420.6203769982786
 11
1655.49745576714
 21
425.8850224052687
 72
     2
 10
1657.24745576714
 20
399.693420697851
 40
26.25000000000005
 50
93.82255372927435
 51
266.1774462707265
 73
     1
 72
     1
 10
1655.49745576714
 20
373.5018189904334
 11
1655.49745576714
 21
378.7664643974235
 97
        0
 92
        0
 93
        8
 72
     1
 10
1664.053881256931
 20
388.4857005790521
 11
1664.053881256931
 21
400.5510762145541
 72
     2
 10
1657.24745576714
 20
407.6242915052733
 40
9.816201021624591
 50
313.8988153445118
 51
439.730601033339
 73
     1
 72
     1
 10
1658.99745576714
 20
417.2832408527408
 11
1658.99745576714
 21
413.3872642177221
 72
     2
 10
1657.24745576714
 20
407.6242915052733
 40
6.022819479648148
 50
286.8915805399267
 51
415.1604865505418
 73
     0
 72
     1
 10
1660.688170447847
 20
402.6810297308583
 11
1660.688170447847
 21
388.4857005790521
 72
     2
 10
1657.24745576714
 20
388.4857005790521
 40
3.440714680707529
 50
0.0
 51
59.42836299135161
 73
     0
 72
     1
 10
1658.99745576714
 20
385.523266189224
 11
1658.99745576714
 21
381.9080925071099
 72
     2
 10
1657.24745576714
 20
388.4857005790521
 40
6.806425489791268
 50
284.8986481111874
 51
360.0000000000008
 73
     1
 97
        0
 92
        0
 93
        8
 72
     2
 10
1657.24745576714
 20
388.4857005790521
 40
3.440714680707529
 50
120.5716370086479
 51
180.0
 73
     0
 72
     1
 10
1653.806741086432
 20
388.4857005790521
 11
1653.806741086432
 21
402.6810297308583
 72
     2
 10
1657.24745576714
 20
407.6242915052733
 40
6.022819479648148
 50
124.839513449459
 51
253.1084194600749
 73
     0
 72
     1
 10
1655.49745576714
 20
413.3872642177221
 11
1655.49745576714
 21
417.2832408527408
 72
     2
 10
1657.24745576714
 20
407.6242915052733
 40
9.816201021624591
 50
100.2693989666618
 51
226.1011846554899
 73
     1
 72
     1
 10
1650.441030277349
 20
400.5510762145541
 11
1650.441030277349
 21
388.4857005790521
 72
     2
 10
1657.24745576714
 20
388.4857005790521
 40
6.806425489791268
 50
180.0
 51
255.1013518888142
 73
     1
 72
     1
 10
1655.49745576714
 20
381.9080925071099
 11
1655.49745576714
 21
385.5232661892239
 97
        0
 92
        0
 93
        4
 72
     2
 10
1657.24745576714
 20
399.693420697851
 40
21.00000000000007
 50
274.7801918471999
 51
445.2198081528016
 73
     0
 72
     1
 10
1658.99745576714
 20
378.7664643974235
 11
1658.99745576714
 21
373.5018189904334
 72
     2
 10
1657.24745576714
 20
399.693420697851
 40
26.25000000000005
 50
273.8225537292751
 51
446.1774462707265
 73
     1
 72
     1
 10
1658.99745576714
 20
425.8850224052687
 11
1658.99745576714
 21
420.6203769982786
 97
        0
 75
     0
 76
     1
 98
        1
 10
0.0
 20
0.0
  0
INSERT
  5
B4
330
8F
100
AcDbEntity
  8
FORMAT
 62
     7
100
AcDbBlockReference
  2
SW_NOTE_0_1
 10
1625.7602656139
 20
334.0630571774
 30
0.0
  0
INSERT
  5
BC
330
8F
100
AcDbEntity
  8
0
  6
Continuous
 62
     7
370
     0
100
AcDbBlockReference
  2
SW_NOTE_0_2
 10
1708.506124485
 20
399.8232127904
 30
0.0
  0
ENDBLK
  5
91
330
8F
100
AcDbEntity
  8
0
100
AcDbBlockEnd
  0
BLOCK
  5
B0
330
AF
100
AcDbEntity
  8
0
100
AcDbBlockBegin
  2
SW_NOTE_0_1
 70
     0
 10
0.0
 20
0.0
 30
0.0
  3
SW_NOTE_0_1
  1

  0
MTEXT
  5
B3
330
AF
100
AcDbEntity
  8
FORMAT
 62
     0
100
AcDbMText
 10
0.0
 20
27.0563380282
 30
0.0
 40
21.0
 41
0.0
 71
     1
 72
     1
  1
ECO
  7
SLDTEXTSTYLE1
 73
     1
 44
1.0
  0
ENDBLK
  5
B1
330
AF
100
AcDbEntity
  8
0
100
AcDbBlockEnd
  0
BLOCK
  5
B6
330
B5
100
AcDbEntity
  8
0
100
AcDbBlockBegin
  2
SW_NOTE_0_2
 70
     0
 10
0.0
 20
0.0
 30
0.0
  3
SW_NOTE_0_2
  1

  0
MTEXT
  5
B9
330
B5
100
AcDbEntity
  8
0
  6
Continuous
 62
     0
370
     0
100
AcDbMText
 10
0.0
 20
22.558685446
 30
0.0
 40
17.5
 41
0.0
 71
     1
 72
     1
  1
ECO Schulte GmbH & Co. KG
  7
SLDTEXTSTYLE2
 73
     1
 44
1.0
  0
MTEXT
  5
BA
330
B5
100
AcDbEntity
  8
0
  6
Continuous
 62
     0
370
     0
100
AcDbMText
 10
0.0
 20
-1.9413153102
 30
0.0
 40
17.5
 41
0.0
 71
     1
 72
     1
  1
Postfach 206
  7
SLDTEXTSTYLE2
 73
     1
 44
1.0
  0
MTEXT
  5
BB
330
B5
100
AcDbEntity
  8
0
  6
Continuous
 62
     0
370
     0
100
AcDbMText
 10
0.0
 20
-26.4413160665
 30
0.0
 40
17.5
 41
0.0
 71
     1
 72
     1
  1
58682 Menden
  7
SLDTEXTSTYLE2
 73
     1
 44
1.0
  0
ENDBLK
  5
B7
330
B5
100
AcDbEntity
  8
0
100
AcDbBlockEnd
  0
BLOCK
  5
BE
330
BD
100
AcDbEntity
  8
0
100
AcDbBlockBegin
  2
rechtlicher_Hinweis_Katalogzeichnungen_1
 70
     0
 10
0.0
 20
0.0
 30
0.0
  3
rechtlicher_Hinweis_Katalogzeichnungen_1
  1

  0
INSERT
  5
C9
330
BD
100
AcDbEntity
  8
0
  6
Continuous
 62
     7
370
     0
100
AcDbBlockReference
  2
SW_NOTE_0_3
 10
2.1768074632
 20
401.5030406501
 30
0.0
  0
ENDBLK
  5
BF
330
BD
100
AcDbEntity
  8
0
100
AcDbBlockEnd
  0
BLOCK
  5
C1
330
C0
100
AcDbEntity
  8
0
100
AcDbBlockBegin
  2
SW_NOTE_0_3
 70
     0
 10
0.0
 20
0.0
 30
0.0
  3
SW_NOTE_0_3
  1

  0
MTEXT
  5
C3
330
C0
100
AcDbEntity
  8
0
  6
Continuous
 62
     0
370
     0
100
AcDbMText
 10
0.0
 20
45.117370892
 30
0.0
 40
35.0
 41
0.0
 71
     1
 72
     1
  1
Technische Änderungen und Irrtümer vorbehalten. Aus dem Gebrauch der Zeichnung können keinerlei Ansprüche (inkl. 
  7
SLDTEXTSTYLE0
 73
     1
 44
1.0
  0
MTEXT
  5
C4
330
C0
100
AcDbEntity
  8
0
  6
Continuous
 62
     0
370
     0
100
AcDbMText
 10
0.0
 20
-3.8826306204
 30
0.0
 40
35.0
 41
0.0
 71
     1
 72
     1
  1
Schadenersatzansprüche) erhoben und gegen ECO Schulte geltend gemacht werden. Die Zeichnung bleibt unser 
  7
SLDTEXTSTYLE0
 73
     1
 44
1.0
  0
MTEXT
  5
C5
330
C0
100
AcDbEntity
  8
0
  6
Continuous
 62
     0
370
     0
100
AcDbMText
 10
0.0
 20
-52.8826321329
 30
0.0
 40
35.0
 41
0.0
 71
     1
 72
     1
  1
Eigentum. Sämtliche sich aus der Zeichnung ergebenden Ansprüche stehen ausschließlich ECO Schulte zu.
  7
SLDTEXTSTYLE0
 73
     1
 44
1.0
  0
MTEXT
  5
C6
330
C0
100
AcDbEntity
  8
0
  6
Continuous
 62
     0
370
     0
100
AcDbMText
 10
0.0
 20
-150.8826351579
 30
0.0
 40
35.0
 41
0.0
 71
     1
 72
     1
  1
Technical changes and errors excepted. No claims (including compensation claims) may be raised against ECO Schulte by 
  7
SLDTEXTSTYLE0
 73
     1
 44
1.0
  0
MTEXT
  5
C7
330
C0
100
AcDbEntity
  8
0
  6
Continuous
 62
     0
370
     0
100
AcDbMText
 10
0.0
 20
-199.8826366703
 30
0.0
 40
35.0
 41
0.0
 71
     1
 72
     1
  1
using of this drawing. The drawing remains the property of ECO Schulte. All claims resulting from this drawing are solely 
  7
SLDTEXTSTYLE0
 73
     1
 44
1.0
  0
MTEXT
  5
C8
330
C0
100
AcDbEntity
  8
0
  6
Continuous
 62
     0
370
     0
100
AcDbMText
 10
0.0
 20
-248.8826381828
 30
0.0
 40
35.0
 41
0.0
 71
     1
 72
     1
  1
entitled to ECO Schulte.
  7
SLDTEXTSTYLE0
 73
     1
 44
1.0
  0
ENDBLK
  5
C2
330
C0
100
AcDbEntity
  8
0
100
AcDbBlockEnd
  0
BLOCK
  5
DE
330
DD
100
AcDbEntity
  8
0
100
AcDbBlockBegin
  2
SW_NOTE_0_4
 70
     0
 10
0.0
 20
0.0
 30
0.0
  3
SW_NOTE_0_4
  1

  0
MTEXT
  5
E0
330
DD
100
AcDbEntity
  8
FORMAT
 62
     0
100
AcDbMText
 10
0.0
 20
23.8746087637
 30
0.0
 40
18.5208333333
 41
0.0
 71
     1
 72
     1
  1
\LBefestigungsmittel:
  7
SLDTEXTSTYLE0
 73
     1
 44
1.0
  0
MTEXT
  5
E1
330
DD
100
AcDbEntity
  8
FORMAT
 62
     0
100
AcDbMText
 10
0.0
 20
-9.7180977825
 30
0.0
 40
18.5208333333
 41
0.0
 71
     1
 72
     1
  1
1. Montageplatte: Stahl/Alu-Tür: 6x M6 (Einnietmutter M6) ; Holztür: 6x Senkschraube ø6x60
  7
SLDTEXTSTYLE0
 73
     1
 44
1.0
  0
MTEXT
  5
E2
330
DD
100
AcDbEntity
  8
FORMAT
 62
     0
100
AcDbMText
 10
0.0
 20
-41.4125430759
 30
0.0
 40
18.5208333333
 41
0.0
 71
     1
 72
     1
  1
2. Gleitschiene: Stahl/Alu-Tür: 2x M6 (Einnietmutter M6) ; Holztür: 2x Senkschraube ø4x30
  7
SLDTEXTSTYLE0
 73
     1
 44
1.0
  0
ENDBLK
  5
DF
330
DD
100
AcDbEntity
  8
0
100
AcDbBlockEnd
  0
BLOCK
  5
F6
330
F5
100
AcDbEntity
  8
0
100
AcDbBlockBegin
  2
SW_TABLEANNOTATION_0
 70
     0
 10
0.0
 20
0.0
 30
0.0
  3
SW_TABLEANNOTATION_0
  1

  0
LINE
  5
F8
330
F5
100
AcDbEntity
  8
FORMAT
 62
     0
100
AcDbLine
 10
0.0
 20
0.0
 30
0.0
 11
0.0
 21
-70.2916688919
 31
0.0
  0
LINE
  5
F9
330
F5
100
AcDbEntity
  8
FORMAT
 62
     0
100
AcDbLine
 10
257.574646746
 20
0.0
 30
0.0
 11
257.574646746
 21
-70.2916688919
 31
0.0
  0
LINE
  5
FA
330
F5
100
AcDbEntity
  8
FORMAT
 62
     0
100
AcDbLine
 10
0.0
 20
-70.2916688919
 30
0.0
 11
0.0
 21
-108.9375033379
 31
0.0
  0
LINE
  5
FB
330
F5
100
AcDbEntity
  8
FORMAT
 62
     0
100
AcDbLine
 10
257.574646746
 20
-70.2916688919
 30
0.0
 11
257.574646746
 21
-108.9375033379
 31
0.0
  0
LINE
  5
FC
330
F5
100
AcDbEntity
  8
FORMAT
 62
     0
100
AcDbLine
 10
0.0
 20
-108.9375033379
 30
0.0
 11
0.0
 21
-147.5833377838
 31
0.0
  0
LINE
  5
FD
330
F5
100
AcDbEntity
  8
FORMAT
 62
     0
100
AcDbLine
 10
257.574646746
 20
-108.9375033379
 30
0.0
 11
257.574646746
 21
-147.5833377838
 31
0.0
  0
LINE
  5
FE
330
F5
100
AcDbEntity
  8
FORMAT
 62
     0
100
AcDbLine
 10
0.0
 20
-147.5833377838
 30
0.0
 11
0.0
 21
-186.2291722298
 31
0.0
  0
LINE
  5
FF
330
F5
100
AcDbEntity
  8
FORMAT
 62
     0
100
AcDbLine
 10
257.574646746
 20
-147.5833377838
 30
0.0
 11
257.574646746
 21
-186.2291722298
 31
0.0
  0
LINE
  5
100
330
F5
100
AcDbEntity
  8
FORMAT
 62
     0
100
AcDbLine
 10
0.0
 20
-186.2291722298
 30
0.0
 11
0.0
 21
-224.8750066757
 31
0.0
  0
LINE
  5
101
330
F5
100
AcDbEntity
  8
FORMAT
 62
     0
100
AcDbLine
 10
257.574646746
 20
-186.2291722298
 30
0.0
 11
257.574646746
 21
-224.8750066757
 31
0.0
  0
LINE
  5
102
330
F5
100
AcDbEntity
  8
FORMAT
 62
     0
100
AcDbLine
 10
404.8852084438
 20
0.0
 30
0.0
 11
404.8852084438
 21
-70.2916688919
 31
0.0
  0
LINE
  5
103
330
F5
100
AcDbEntity
  8
FORMAT
 62
     0
100
AcDbLine
 10
404.8852084438
 20
-70.2916688919
 30
0.0
 11
404.8852084438
 21
-108.9375033379
 31
0.0
  0
LINE
  5
104
330
F5
100
AcDbEntity
  8
FORMAT
 62
     0
100
AcDbLine
 10
404.8852084438
 20
-108.9375033379
 30
0.0
 11
404.8852084438
 21
-147.5833377838
 31
0.0
  0
LINE
  5
105
330
F5
100
AcDbEntity
  8
FORMAT
 62
     0
100
AcDbLine
 10
404.8852084438
 20
-147.5833377838
 30
0.0
 11
404.8852084438
 21
-186.2291722298
 31
0.0
  0
LINE
  5
106
330
F5
100
AcDbEntity
  8
FORMAT
 62
     0
100
AcDbLine
 10
404.8852084438
 20
-186.2291722298
 30
0.0
 11
404.8852084438
 21
-224.8750066757
 31
0.0
  0
LINE
  5
107
330
F5
100
AcDbEntity
  8
FORMAT
 62
     0
100
AcDbLine
 10
0.0
 20
0.0
 30
0.0
 11
257.574646746
 21
0.0
 31
0.0
  0
LINE
  5
108
330
F5
100
AcDbEntity
  8
FORMAT
 62
     0
100
AcDbLine
 10
0.0
 20
-70.2916688919
 30
0.0
 11
257.574646746
 21
-70.2916688919
 31
0.0
  0
LINE
  5
109
330
F5
100
AcDbEntity
  8
FORMAT
 62
     0
100
AcDbLine
 10
257.574646746
 20
0.0
 30
0.0
 11
404.8852084438
 21
0.0
 31
0.0
  0
LINE
  5
10A
330
F5
100
AcDbEntity
  8
FORMAT
 62
     0
100
AcDbLine
 10
257.574646746
 20
-70.2916688919
 30
0.0
 11
404.8852084438
 21
-70.2916688919
 31
0.0
  0
LINE
  5
10B
330
F5
100
AcDbEntity
  8
FORMAT
 62
     0
100
AcDbLine
 10
0.0
 20
-108.9375033379
 30
0.0
 11
257.574646746
 21
-108.9375033379
 31
0.0
  0
LINE
  5
10C
330
F5
100
AcDbEntity
  8
FORMAT
 62
     0
100
AcDbLine
 10
257.574646746
 20
-108.9375033379
 30
0.0
 11
404.8852084438
 21
-108.9375033379
 31
0.0
  0
LINE
  5
10D
330
F5
100
AcDbEntity
  8
FORMAT
 62
     0
100
AcDbLine
 10
0.0
 20
-147.5833377838
 30
0.0
 11
257.574646746
 21
-147.5833377838
 31
0.0
  0
LINE
  5
10E
330
F5
100
AcDbEntity
  8
FORMAT
 62
     0
100
AcDbLine
 10
257.574646746
 20
-147.5833377838
 30
0.0
 11
404.8852084438
 21
-147.5833377838
 31
0.0
  0
LINE
  5
10F
330
F5
100
AcDbEntity
  8
FORMAT
 62
     0
100
AcDbLine
 10
0.0
 20
-186.2291722298
 30
0.0
 11
257.574646746
 21
-186.2291722298
 31
0.0
  0
LINE
  5
110
330
F5
100
AcDbEntity
  8
FORMAT
 62
     0
100
AcDbLine
 10
257.574646746
 20
-186.2291722298
 30
0.0
 11
404.8852084438
 21
-186.2291722298
 31
0.0
  0
LINE
  5
111
330
F5
100
AcDbEntity
  8
FORMAT
 62
     0
100
AcDbLine
 10
0.0
 20
-224.8750066757
 30
0.0
 11
257.574646746
 21
-224.8750066757
 31
0.0
  0
LINE
  5
112
330
F5
100
AcDbEntity
  8
FORMAT
 62
     0
100
AcDbLine
 10
257.574646746
 20
-224.8750066757
 30
0.0
 11
404.8852084438
 21
-224.8750066757
 31
0.0
  0
MTEXT
  5
113
330
F5
100
AcDbEntity
  8
FORMAT
 62
     0
100
AcDbMText
 10
6.3383686418
 20
-22.5233900328
 30
0.0
 40
24.5
 41
0.0
 71
     1
 72
     1
  1
Sturztiefe (mm)
  7
SLDTEXTSTYLE0
 73
     1
 44
1.0
  0
MTEXT
  5
114
330
F5
100
AcDbEntity
  8
FORMAT
 62
     0
100
AcDbMText
 10
273.2976298958
 20
-22.5233900328
 30
0.0
 40
24.5
 41
0.0
 71
     1
 72
     1
  1
D (mm)
  7
SLDTEXTSTYLE0
 73
     1
 44
1.0
  0
MTEXT
  5
115
330
F5
100
AcDbEntity
  8
FORMAT
 62
     0
100
AcDbMText
 10
52.5310733417
 20
-76.9921417017
 30
0.0
 40
24.5
 41
0.0
 71
     1
 72
     1
  1
-30 ... +30
  7
SLDTEXTSTYLE0
 73
     1
 44
1.0
  0
MTEXT
  5
116
330
F5
100
AcDbEntity
  8
FORMAT
 62
     0
100
AcDbMText
 10
312.5146502807
 20
-76.9921417017
 30
0.0
 40
24.5
 41
0.0
 71
     1
 72
     1
  1
89
  7
SLDTEXTSTYLE0
 73
     1
 44
1.0
  0
MTEXT
  5
117
330
F5
100
AcDbEntity
  8
FORMAT
 62
     0
100
AcDbMText
 10
48.2946182663
 20
-115.6379761477
 30
0.0
 40
24.5
 41
0.0
 71
     1
 72
     1
  1
+31 ... +80
  7
SLDTEXTSTYLE0
 73
     1
 44
1.0
  0
MTEXT
  5
118
330
F5
100
AcDbEntity
  8
FORMAT
 62
     0
100
AcDbMText
 10
312.5146502807
 20
-115.6379761477
 30
0.0
 40
24.5
 41
0.0
 71
     1
 72
     1
  1
99
  7
SLDTEXTSTYLE0
 73
     1
 44
1.0
  0
MTEXT
  5
119
330
F5
100
AcDbEntity
  8
FORMAT
 62
     0
100
AcDbMText
 10
38.9369796092
 20
-154.2838105936
 30
0.0
 40
24.5
 41
0.0
 71
     1
 72
     1
  1
+81 ... +100
  7
SLDTEXTSTYLE0
 73
     1
 44
1.0
  0
MTEXT
  5
11A
330
F5
100
AcDbEntity
  8
FORMAT
 62
     0
100
AcDbMText
 10
303.1570116236
 20
-154.2838105936
 30
0.0
 40
24.5
 41
0.0
 71
     1
 72
     1
  1
109
  7
SLDTEXTSTYLE0
 73
     1
 44
1.0
  0
MTEXT
  5
11B
330
F5
100
AcDbEntity
  8
FORMAT
 62
     0
100
AcDbMText
 10
29.5793409521
 20
-192.9296450396
 30
0.0
 40
24.5
 41
0.0
 71
     1
 72
     1
  1
+101 ... +120
  7
SLDTEXTSTYLE0
 73
     1
 44
1.0
  0
MTEXT
  5
11C
330
F5
100
AcDbEntity
  8
FORMAT
 62
     0
100
AcDbMText
 10
303.1570116236
 20
-192.9296450396
 30
0.0
 40
24.5
 41
0.0
 71
     1
 72
     1
  1
119
  7
SLDTEXTSTYLE0
 73
     1
 44
1.0
  0
ENDBLK
  5
F7
330
F5
100
AcDbEntity
  8
0
100
AcDbBlockEnd
  0
BLOCK
  5
1E3
330
1E2
100
AcDbEntity
  8
0
100
AcDbBlockBegin
  2
_D
 70
     0
 10
0.0
 20
0.0
 30
0.0
  3
_D
  1

  0
SOLID
  5
1E5
330
1E2
100
AcDbEntity
  8
FORMAT
100
AcDbTrace
 10
562.6629862278
 20
1458.0235171948
 30
0.0
 11
585.7769862278
 21
1454.4675171948
 31
0.0
 12
585.7769862278
 22
1461.5795171948
 32
0.0
 13
585.7769862278
 23
1461.5795171948
 33
0.0
  0
SOLID
  5
1E6
330
1E2
100
AcDbEntity
  8
FORMAT
100
AcDbTrace
 10
1215.6629862278
 20
1458.0235171949
 30
0.0
 11
1192.5489862278
 21
1461.5795171949
 31
0.0
 12
1192.5489862278
 22
1454.4675171949
 32
0.0
 13
1192.5489862278
 23
1454.4675171949
 33
0.0
  0
LINE
  5
1E7
330
1E2
100
AcDbEntity
  8
FORMAT
100
AcDbLine
 10
562.6629862278
 20
1573.701844892
 30
0.0
 11
562.6629862278
 21
1451.0235171948
 31
0.0
  0
LINE
  5
1E8
330
1E2
100
AcDbEntity
  8
FORMAT
100
AcDbLine
 10
1215.6629862278
 20
1573.701844892
 30
0.0
 11
1215.6629862278
 21
1451.0235171949
 31
0.0
  0
LINE
  5
1E9
330
1E2
100
AcDbEntity
  8
FORMAT
100
AcDbLine
 10
562.6629862278
 20
1458.0235171948
 30
0.0
 11
1215.6629862278
 21
1458.0235171949
 31
0.0
  0
MTEXT
  5
1EA
330
1E2
100
AcDbEntity
  8
FORMAT
100
AcDbMText
 10
861.0900702565
 20
1489.6056784491
 30
0.0
 40
24.5
 41
0.0
 71
     1
 72
     1
  1
653
  7
SLDTEXTSTYLE0
 73
     1
 44
1.0
  0
ENDBLK
  5
1E4
330
1E2
100
AcDbEntity
  8
0
100
AcDbBlockEnd
  0
BLOCK
  5
1EE
330
1ED
100
AcDbEntity
  8
0
100
AcDbBlockBegin
  2
_D_1
 70
     0
 10
0.0
 20
0.0
 30
0.0
  3
_D_1
  1

  0
SOLID
  5
1F0
330
1ED
100
AcDbEntity
  8
FORMAT
100
AcDbTrace
 10
1259.0338294581
 20
1580.201844892
 30
0.0
 11
1255.4778294581
 21
1557.087844892
 31
0.0
 12
1262.5898294581
 22
1557.087844892
 32
0.0
 13
1262.5898294581
 23
1557.087844892
 33
0.0
  0
SOLID
  5
1F1
330
1ED
100
AcDbEntity
  8
FORMAT
100
AcDbTrace
 10
1259.0338294581
 20
1597.201844892
 30
0.0
 11
1262.5898294581
 21
1620.315844892
 31
0.0
 12
1255.4778294581
 22
1620.315844892
 32
0.0
 13
1255.4778294581
 23
1620.315844892
 33
0.0
  0
LINE
  5
1F2
330
1ED
100
AcDbEntity
  8
FORMAT
100
AcDbLine
 10
1222.1629862278
 20
1580.201844892
 30
0.0
 11
1266.0338294581
 21
1580.201844892
 31
0.0
  0
LINE
  5
1F3
330
1ED
100
AcDbEntity
  8
FORMAT
100
AcDbLine
 10
1222.1629862278
 20
1597.201844892
 30
0.0
 11
1266.0338294581
 21
1597.201844892
 31
0.0
  0
LINE
  5
1F4
330
1ED
100
AcDbEntity
  8
FORMAT
100
AcDbLine
 10
1259.0338294581
 20
1580.201844892
 30
0.0
 11
1259.0338294581
 21
1528.7876949858
 31
0.0
  0
LINE
  5
1F5
330
1ED
100
AcDbEntity
  8
FORMAT
100
AcDbLine
 10
1259.0338294581
 20
1580.201844892
 30
0.0
 11
1259.0338294581
 21
1597.201844892
 31
0.0
  0
LINE
  5
1F6
330
1ED
100
AcDbEntity
  8
FORMAT
100
AcDbLine
 10
1259.0338294581
 20
1597.201844892
 30
0.0
 11
1259.0338294581
 21
1641.651844892
 31
0.0
  0
MTEXT
  5
1F7
330
1ED
100
AcDbEntity
  8
FORMAT
100
AcDbMText
 10
1227.4516682038
 20
1528.7876949858
 30
0.0
 40
24.5
 41
0.0
 71
     1
 72
     1
  1
17
  7
SLDTEXTSTYLE0
 11
-7.932373437343760E-15
 21
1.0
 31
0.0
 73
     1
 44
1.0
  0
ENDBLK
  5
1EF
330
1ED
100
AcDbEntity
  8
0
100
AcDbBlockEnd
  0
BLOCK
  5
1FA
330
1F9
100
AcDbEntity
  8
0
100
AcDbBlockBegin
  2
_D_2
 70
     0
 10
0.0
 20
0.0
 30
0.0
  3
_D_2
  1

  0
SOLID
  5
1FC
330
1F9
100
AcDbEntity
  8
FORMAT
100
AcDbTrace
 10
453.1279637507
 20
1640.2018448858
 30
0.0
 11
456.6839637507
 21
1663.3158448858
 31
0.0
 12
449.5719637507
 22
1663.3158448858
 32
0.0
 13
449.5719637507
 23
1663.3158448858
 33
0.0
  0
SOLID
  5
1FD
330
1F9
100
AcDbEntity
  8
FORMAT
100
AcDbTrace
 10
453.1279637507
 20
1735.2018448858
 30
0.0
 11
449.5719637507
 21
1712.0878448858
 31
0.0
 12
456.6839637507
 22
1712.0878448858
 32
0.0
 13
456.6839637507
 23
1712.0878448858
 33
0.0
  0
LINE
  5
1FE
330
1F9
100
AcDbEntity
  8
FORMAT
100
AcDbLine
 10
486.6629862278
 20
1640.2018448858
 30
0.0
 11
446.1279637507
 21
1640.2018448858
 31
0.0
  0
LINE
  5
1FF
330
1F9
100
AcDbEntity
  8
FORMAT
100
AcDbLine
 10
486.6629862278
 20
1735.2018448858
 30
0.0
 11
446.1279637507
 21
1735.2018448858
 31
0.0
  0
LINE
  5
200
330
1F9
100
AcDbEntity
  8
FORMAT
100
AcDbLine
 10
453.1279637507
 20
1640.2018448858
 30
0.0
 11
453.1279637507
 21
1735.2018448858
 31
0.0
  0
MTEXT
  5
201
330
1F9
100
AcDbEntity
  8
FORMAT
100
AcDbMText
 10
421.5458024965
 20
1668.9865675716
 30
0.0
 40
24.5
 41
0.0
 71
     1
 72
     1
  1
95
  7
SLDTEXTSTYLE0
 11
-1.715124499442883E-15
 21
1.0
 31
0.0
 73
     1
 44
1.0
  0
ENDBLK
  5
1FB
330
1F9
100
AcDbEntity
  8
0
100
AcDbBlockEnd
  0
BLOCK
  5
204
330
203
100
AcDbEntity
  8
0
100
AcDbBlockBegin
  2
_D_3
 70
     0
 10
0.0
 20
0.0
 30
0.0
  3
_D_3
  1

  0
SOLID
  5
206
330
203
100
AcDbEntity
  8
FORMAT
100
AcDbTrace
 10
484.1629862278
 20
1763.2423393789
 30
0.0
 11
507.2769862278
 21
1759.6863393789
 31
0.0
 12
507.2769862278
 22
1766.7983393789
 32
0.0
 13
507.2769862278
 23
1766.7983393789
 33
0.0
  0
SOLID
  5
207
330
203
100
AcDbEntity
  8
FORMAT
100
AcDbTrace
 10
1173.1629862278
 20
1763.2423393789
 30
0.0
 11
1150.0489862278
 21
1766.7983393789
 31
0.0
 12
1150.0489862278
 22
1759.6863393789
 32
0.0
 13
1150.0489862278
 23
1759.6863393789
 33
0.0
  0
LINE
  5
208
330
203
100
AcDbEntity
  8
FORMAT
100
AcDbLine
 10
484.1629862278
 20
1737.2018448858
 30
0.0
 11
484.1629862278
 21
1770.2423393789
 31
0.0
  0
LINE
  5
209
330
203
100
AcDbEntity
  8
FORMAT
100
AcDbLine
 10
1173.1629862278
 20
1737.2018448858
 30
0.0
 11
1173.1629862278
 21
1770.2423393789
 31
0.0
  0
LINE
  5
20A
330
203
100
AcDbEntity
  8
FORMAT
100
AcDbLine
 10
484.1629862278
 20
1763.2423393789
 30
0.0
 11
1173.1629862278
 21
1763.2423393789
 31
0.0
  0
MTEXT
  5
20B
330
203
100
AcDbEntity
  8
FORMAT
100
AcDbMText
 10
800.5900702565
 20
1794.8245006331
 30
0.0
 40
24.5
 41
0.0
 71
     1
 72
     1
  1
689
  7
SLDTEXTSTYLE0
 73
     1
 44
1.0
  0
ENDBLK
  5
205
330
203
100
AcDbEntity
  8
0
100
AcDbBlockEnd
  0
BLOCK
  5
20E
330
20D
100
AcDbEntity
  8
0
100
AcDbBlockBegin
  2
_D_4
 70
     0
 10
0.0
 20
0.0
 30
0.0
  3
_D_4
  1

  0
SOLID
  5
210
330
20D
100
AcDbEntity
  8
FORMAT
100
AcDbTrace
 10
483.6618497702
 20
1414.7379532374
 30
0.0
 11
506.7758497702
 21
1411.1819532374
 31
0.0
 12
506.7758497702
 22
1418.2939532374
 32
0.0
 13
506.7758497702
 23
1418.2939532374
 33
0.0
  0
SOLID
  5
211
330
20D
100
AcDbEntity
  8
FORMAT
100
AcDbTrace
 10
763.6629862078
 20
1414.7379532374
 30
0.0
 11
740.5489862078
 21
1418.2939532374
 31
0.0
 12
740.5489862078
 22
1411.1819532374
 32
0.0
 13
740.5489862078
 23
1411.1819532374
 33
0.0
  0
LINE
  5
212
330
20D
100
AcDbEntity
  8
FORMAT
100
AcDbLine
 10
763.6629862078
 20
1612.2018448857
 30
0.0
 11
763.6629862078
 21
1407.7379532374
 31
0.0
  0
LINE
  5
213
330
20D
100
AcDbEntity
  8
FORMAT
100
AcDbLine
 10
483.6618497702
 20
1414.7379532374
 30
0.0
 11
763.6629862078
 21
1414.7379532374
 31
0.0
  0
MTEXT
  5
214
330
20D
100
AcDbEntity
  8
FORMAT
100
AcDbMText
 10
595.5895020177
 20
1446.3201144916
 30
0.0
 40
24.5
 41
0.0
 71
     1
 72
     1
  1
280
  7
SLDTEXTSTYLE0
 73
     1
 44
1.0
  0
ENDBLK
  5
20F
330
20D
100
AcDbEntity
  8
0
100
AcDbBlockEnd
  0
BLOCK
  5
2E2
330
2E1
100
AcDbEntity
  8
0
100
AcDbBlockBegin
  2
_D_5
 70
     0
 10
0.0
 20
0.0
 30
0.0
  3
_D_5
  1

  0
SOLID
  5
2E4
330
2E1
100
AcDbEntity
  8
FORMAT
100
AcDbTrace
 10
1201.1276155051
 20
780.4271837684
 30
0.0
 11
1204.6836155051
 21
803.5411837684
 31
0.0
 12
1197.5716155051
 22
803.5411837684
 32
0.0
 13
1197.5716155051
 23
803.5411837684
 33
0.0
  0
SOLID
  5
2E5
330
2E1
100
AcDbEntity
  8
FORMAT
100
AcDbTrace
 10
1201.1276155051
 20
871.4271837684
 30
0.0
 11
1197.5716155051
 21
848.3131837684
 31
0.0
 12
1204.6836155051
 22
848.3131837684
 32
0.0
 13
1204.6836155051
 23
848.3131837684
 33
0.0
  0
LINE
  5
2E6
330
2E1
100
AcDbEntity
  8
FORMAT
100
AcDbLine
 10
1170.6629862278
 20
780.4271837684
 30
0.0
 11
1208.1276155051
 21
780.4271837684
 31
0.0
  0
LINE
  5
2E7
330
2E1
100
AcDbEntity
  8
FORMAT
100
AcDbLine
 10
1170.6629862278
 20
871.4271837684
 30
0.0
 11
1208.1276155051
 21
871.4271837684
 31
0.0
  0
LINE
  5
2E8
330
2E1
100
AcDbEntity
  8
FORMAT
100
AcDbLine
 10
1201.1276155051
 20
780.4271837684
 30
0.0
 11
1201.1276155051
 21
871.4271837684
 31
0.0
  0
MTEXT
  5
2E9
330
2E1
100
AcDbEntity
  8
FORMAT
100
AcDbMText
 10
1169.5454542509
 20
807.2119064542
 30
0.0
 40
24.5
 41
0.0
 71
     1
 72
     1
  1
91
  7
SLDTEXTSTYLE0
 11
6.123233995736766E-17
 21
1.0
 31
0.0
 73
     1
 44
1.0
  0
ENDBLK
  5
2E3
330
2E1
100
AcDbEntity
  8
0
100
AcDbBlockEnd
  0
BLOCK
  5
2EC
330
2EB
100
AcDbEntity
  8
0
100
AcDbBlockBegin
  2
_D_6
 70
     0
 10
0.0
 20
0.0
 30
0.0
  3
_D_6
  1

  0
SOLID
  5
2EE
330
2EB
100
AcDbEntity
  8
FORMAT
100
AcDbTrace
 10
483.6618497702
 20
596.4393535487
 30
0.0
 11
506.7758497702
 21
592.8833535487
 31
0.0
 12
506.7758497702
 22
599.9953535487
 32
0.0
 13
506.7758497702
 23
599.9953535487
 33
0.0
  0
SOLID
  5
2EF
330
2EB
100
AcDbEntity
  8
FORMAT
100
AcDbTrace
 10
572.6629862278
 20
596.4393535487
 30
0.0
 11
549.5489862278
 21
599.9953535487
 31
0.0
 12
549.5489862278
 22
592.8833535487
 32
0.0
 13
549.5489862278
 23
592.8833535487
 33
0.0
  0
LINE
  5
2F0
330
2EB
100
AcDbEntity
  8
FORMAT
100
AcDbLine
 10
572.6629862278
 20
713.9271837688
 30
0.0
 11
572.6629862278
 21
589.4393535487
 31
0.0
  0
LINE
  5
2F1
330
2EB
100
AcDbEntity
  8
FORMAT
100
AcDbLine
 10
483.6618497702
 20
596.4393535487
 30
0.0
 11
572.6629862278
 21
596.4393535487
 31
0.0
  0
MTEXT
  5
2F2
330
2EB
100
AcDbEntity
  8
FORMAT
100
AcDbMText
 10
516.0145010524
 20
628.021514803
 30
0.0
 40
24.5
 41
0.0
 71
     1
 72
     1
  1
D
  7
SLDTEXTSTYLE0
 73
     1
 44
1.0
  0
ENDBLK
  5
2ED
330
2EB
100
AcDbEntity
  8
0
100
AcDbBlockEnd
  0
BLOCK
  5
2F5
330
2F4
100
AcDbEntity
  8
0
100
AcDbBlockBegin
  2
_D_7
 70
     0
 10
0.0
 20
0.0
 30
0.0
  3
_D_7
  1

  0
SOLID
  5
2F7
330
2F4
100
AcDbEntity
  8
FORMAT
100
AcDbTrace
 10
572.6629862278
 20
596.4393535487
 30
0.0
 11
595.7769862278
 21
592.8833535487
 31
0.0
 12
595.7769862278
 22
599.9953535487
 32
0.0
 13
595.7769862278
 23
599.9953535487
 33
0.0
  0
SOLID
  5
2F8
330
2F4
100
AcDbEntity
  8
FORMAT
100
AcDbTrace
 10
1205.6629862278
 20
596.4393535487
 30
0.0
 11
1182.5489862278
 21
599.9953535487
 31
0.0
 12
1182.5489862278
 22
592.8833535487
 32
0.0
 13
1182.5489862278
 23
592.8833535487
 33
0.0
  0
LINE
  5
2F9
330
2F4
100
AcDbEntity
  8
FORMAT
100
AcDbLine
 10
572.6629862278
 20
713.9271837688
 30
0.0
 11
572.6629862278
 21
589.4393535487
 31
0.0
  0
LINE
  5
2FA
330
2F4
100
AcDbEntity
  8
FORMAT
100
AcDbLine
 10
1205.6629862278
 20
713.9271837688
 30
0.0
 11
1205.6629862278
 21
589.4393535487
 31
0.0
  0
LINE
  5
2FB
330
2F4
100
AcDbEntity
  8
FORMAT
100
AcDbLine
 10
572.6629862278
 20
596.4393535487
 30
0.0
 11
1205.6629862278
 21
596.4393535487
 31
0.0
  0
MTEXT
  5
2FC
330
2F4
100
AcDbEntity
  8
FORMAT
100
AcDbMText
 10
861.0900702565
 20
628.021514803
 30
0.0
 40
24.5
 41
0.0
 71
     1
 72
     1
  1
633
  7
SLDTEXTSTYLE0
 73
     1
 44
1.0
  0
ENDBLK
  5
2F6
330
2F4
100
AcDbEntity
  8
0
100
AcDbBlockEnd
  0
BLOCK
  5
300
330
2FF
100
AcDbEntity
  8
0
100
AcDbBlockBegin
  2
_D_8
 70
     0
 10
0.0
 20
0.0
 30
0.0
  3
_D_8
  1

  0
SOLID
  5
302
330
2FF
100
AcDbEntity
  8
FORMAT
100
AcDbTrace
 10
1261.4696576346
 20
726.6771837688
 30
0.0
 11
1257.9136576346
 21
703.5631837688
 31
0.0
 12
1265.0256576346
 22
703.5631837688
 32
0.0
 13
1265.0256576346
 23
703.5631837688
 33
0.0
  0
SOLID
  5
303
330
2FF
100
AcDbEntity
  8
FORMAT
100
AcDbTrace
 10
1261.4696576346
 20
761.9271837688
 30
0.0
 11
1265.0256576346
 21
785.0411837688
 31
0.0
 12
1257.9136576346
 22
785.0411837688
 32
0.0
 13
1257.9136576346
 23
785.0411837688
 33
0.0
  0
LINE
  5
304
330
2FF
100
AcDbEntity
  8
FORMAT
100
AcDbLine
 10
1218.4129862278
 20
726.6771837688
 30
0.0
 11
1268.4696576346
 21
726.6771837688
 31
0.0
  0
LINE
  5
305
330
2FF
100
AcDbEntity
  8
FORMAT
100
AcDbLine
 10
1261.4696576346
 20
726.6771837688
 30
0.0
 11
1261.4696576346
 21
674.4512750717
 31
0.0
  0
LINE
  5
306
330
2FF
100
AcDbEntity
  8
FORMAT
100
AcDbLine
 10
1261.4696576346
 20
726.6771837688
 30
0.0
 11
1261.4696576346
 21
761.9271837688
 31
0.0
  0
LINE
  5
307
330
2FF
100
AcDbEntity
  8
FORMAT
100
AcDbLine
 10
1261.4696576346
 20
761.9271837688
 30
0.0
 11
1261.4696576346
 21
806.3771837688
 31
0.0
  0
MTEXT
  5
308
330
2FF
100
AcDbEntity
  8
FORMAT
100
AcDbMText
 10
1229.8874963804
 20
674.4512750717
 30
0.0
 40
24.5
 41
0.0
 71
     1
 72
     1
  1
35
  7
SLDTEXTSTYLE0
 11
6.123233995736766E-17
 21
1.0
 31
0.0
 73
     1
 44
1.0
  0
ENDBLK
  5
301
330
2FF
100
AcDbEntity
  8
0
100
AcDbBlockEnd
  0
BLOCK
  5
30B
330
30A
100
AcDbEntity
  8
0
100
AcDbBlockBegin
  2
_D_9
 70
     0
 10
0.0
 20
0.0
 30
0.0
  3
_D_9
  1

  0
SOLID
  5
30D
330
30A
100
AcDbEntity
  8
FORMAT
100
AcDbTrace
 10
687.5100889795
 20
761.9271837688
 30
0.0
 11
683.9540889795
 21
738.8131837688
 31
0.0
 12
691.0660889795
 22
738.8131837688
 32
0.0
 13
691.0660889795
 23
738.8131837688
 33
0.0
  0
SOLID
  5
30E
330
30A
100
AcDbEntity
  8
FORMAT
100
AcDbTrace
 10
687.5100889795
 20
787.9271837684
 30
0.0
 11
691.0660889795
 21
811.0411837684
 31
0.0
 12
683.9540889795
 22
811.0411837684
 32
0.0
 13
683.9540889795
 23
811.0411837684
 33
0.0
  0
LINE
  5
30F
330
30A
100
AcDbEntity
  8
FORMAT
100
AcDbLine
 10
693.6629862278
 20
787.9271837684
 30
0.0
 11
680.5100889795
 21
787.9271837684
 31
0.0
  0
LINE
  5
310
330
30A
100
AcDbEntity
  8
FORMAT
100
AcDbLine
 10
687.5100889795
 20
761.9271837688
 30
0.0
 11
687.5100889795
 21
708.8264443767
 31
0.0
  0
LINE
  5
311
330
30A
100
AcDbEntity
  8
FORMAT
100
AcDbLine
 10
687.5100889795
 20
761.9271837688
 30
0.0
 11
687.5100889795
 21
787.9271837684
 31
0.0
  0
LINE
  5
312
330
30A
100
AcDbEntity
  8
FORMAT
100
AcDbLine
 10
687.5100889795
 20
787.9271837684
 30
0.0
 11
687.5100889795
 21
832.3771837684
 31
0.0
  0
MTEXT
  5
313
330
30A
100
AcDbEntity
  8
FORMAT
100
AcDbMText
 10
655.9279277253
 20
708.8264443767
 30
0.0
 40
24.5
 41
0.0
 71
     1
 72
     1
  1
26
  7
SLDTEXTSTYLE0
 11
6.123233995736766E-17
 21
1.0
 31
0.0
 73
     1
 44
1.0
  0
ENDBLK
  5
30C
330
30A
100
AcDbEntity
  8
0
100
AcDbBlockEnd
  0
BLOCK
  5
316
330
315
100
AcDbEntity
  8
0
100
AcDbBlockBegin
  2
_D_10
 70
     0
 10
0.0
 20
0.0
 30
0.0
  3
_D_10
  1

  0
SOLID
  5
318
330
315
100
AcDbEntity
  8
FORMAT
100
AcDbTrace
 10
344.3628496701
 20
761.9271837688
 30
0.0
 11
340.8068496701
 21
738.8131837688
 31
0.0
 12
347.9188496701
 22
738.8131837688
 32
0.0
 13
347.9188496701
 23
738.8131837688
 33
0.0
  0
SOLID
  5
319
330
315
100
AcDbEntity
  8
FORMAT
100
AcDbTrace
 10
344.3628496701
 20
780.4271837684
 30
0.0
 11
347.9188496701
 21
803.5411837684
 31
0.0
 12
340.8068496701
 22
803.5411837684
 32
0.0
 13
340.8068496701
 23
803.5411837684
 33
0.0
  0
LINE
  5
31A
330
315
100
AcDbEntity
  8
FORMAT
100
AcDbLine
 10
481.6629862278
 20
761.9271837688
 30
0.0
 11
337.3628496701
 21
761.9271837688
 31
0.0
  0
LINE
  5
31B
330
315
100
AcDbEntity
  8
FORMAT
100
AcDbLine
 10
486.6629862278
 20
780.4271837684
 30
0.0
 11
337.3628496701
 21
780.4271837684
 31
0.0
  0
LINE
  5
31C
330
315
100
AcDbEntity
  8
FORMAT
100
AcDbLine
 10
344.3628496701
 20
761.9271837688
 30
0.0
 11
344.3628496701
 21
702.0809268031
 31
0.0
  0
LINE
  5
31D
330
315
100
AcDbEntity
  8
FORMAT
100
AcDbLine
 10
344.3628496701
 20
761.9271837688
 30
0.0
 11
344.3628496701
 21
780.4271837684
 31
0.0
  0
LINE
  5
31E
330
315
100
AcDbEntity
  8
FORMAT
100
AcDbLine
 10
344.3628496701
 20
780.4271837684
 30
0.0
 11
344.3628496701
 21
824.8771837684
 31
0.0
  0
MTEXT
  5
31F
330
315
100
AcDbEntity
  8
FORMAT
100
AcDbMText
 10
312.7806884158
 20
702.0809268031
 30
0.0
 40
24.5
 41
0.0
 71
     1
 72
     1
  1
19
  7
SLDTEXTSTYLE0
 11
6.123233995736766E-17
 21
1.0
 31
0.0
 73
     1
 44
1.0
  0
ENDBLK
  5
317
330
315
100
AcDbEntity
  8
0
100
AcDbBlockEnd
  0
BLOCK
  5
322
330
321
100
AcDbEntity
  8
0
100
AcDbBlockBegin
  2
_D_11
 70
     0
 10
0.0
 20
0.0
 30
0.0
  3
_D_11
  1

  0
SOLID
  5
324
330
321
100
AcDbEntity
  8
FORMAT
100
AcDbTrace
 10
298.9907311182
 20
780.4271837684
 30
0.0
 11
295.4347311182
 21
757.3131837684
 31
0.0
 12
302.5467311182
 22
757.3131837684
 32
0.0
 13
302.5467311182
 23
757.3131837684
 33
0.0
  0
SOLID
  5
325
330
321
100
AcDbEntity
  8
FORMAT
100
AcDbTrace
 10
298.9907311182
 20
814.9271837688
 30
0.0
 11
302.5467311182
 21
838.0411837688
 31
0.0
 12
295.4347311182
 22
838.0411837688
 32
0.0
 13
295.4347311182
 23
838.0411837688
 33
0.0
  0
LINE
  5
326
330
321
100
AcDbEntity
  8
FORMAT
100
AcDbLine
 10
486.6629862278
 20
780.4271837684
 30
0.0
 11
291.9907311182
 21
780.4271837684
 31
0.0
  0
LINE
  5
327
330
321
100
AcDbEntity
  8
FORMAT
100
AcDbLine
 10
500.6629862278
 20
814.9271837688
 30
0.0
 11
291.9907311182
 21
814.9271837688
 31
0.0
  0
LINE
  5
328
330
321
100
AcDbEntity
  8
FORMAT
100
AcDbLine
 10
298.9907311182
 20
780.4271837684
 30
0.0
 11
298.9907311182
 21
702.0809268031
 31
0.0
  0
LINE
  5
329
330
321
100
AcDbEntity
  8
FORMAT
100
AcDbLine
 10
298.9907311182
 20
780.4271837684
 30
0.0
 11
298.9907311182
 21
814.9271837688
 31
0.0
  0
LINE
  5
32A
330
321
100
AcDbEntity
  8
FORMAT
100
AcDbLine
 10
298.9907311182
 20
814.9271837688
 30
0.0
 11
298.9907311182
 21
859.3771837688
 31
0.0
  0
MTEXT
  5
32B
330
321
100
AcDbEntity
  8
FORMAT
100
AcDbMText
 10
267.408569864
 20
702.0809268031
 30
0.0
 40
24.5
 41
0.0
 71
     1
 72
     1
  1
35
  7
SLDTEXTSTYLE0
 11
2.832769448823990E-16
 21
1.0
 31
0.0
 73
     1
 44
1.0
  0
ENDBLK
  5
323
330
321
100
AcDbEntity
  8
0
100
AcDbBlockEnd
  0
BLOCK
  5
32E
330
32D
100
AcDbEntity
  8
0
100
AcDbBlockBegin
  2
_D_12
 70
     0
 10
0.0
 20
0.0
 30
0.0
  3
_D_12
  1

  0
SOLID
  5
330
330
32D
100
AcDbEntity
  8
FORMAT
100
AcDbTrace
 10
260.5314761977
 20
814.9271837688
 30
0.0
 11
256.9754761977
 21
791.8131837688
 31
0.0
 12
264.0874761977
 22
791.8131837688
 32
0.0
 13
264.0874761977
 23
791.8131837688
 33
0.0
  0
SOLID
  5
331
330
32D
100
AcDbEntity
  8
FORMAT
100
AcDbTrace
 10
260.5314761977
 20
837.9271837688
 30
0.0
 11
264.0874761977
 21
861.0411837688
 31
0.0
 12
256.9754761977
 22
861.0411837688
 32
0.0
 13
256.9754761977
 23
861.0411837688
 33
0.0
  0
LINE
  5
332
330
32D
100
AcDbEntity
  8
FORMAT
100
AcDbLine
 10
500.6629862278
 20
814.9271837688
 30
0.0
 11
253.5314761977
 21
814.9271837688
 31
0.0
  0
LINE
  5
333
330
32D
100
AcDbEntity
  8
FORMAT
100
AcDbLine
 10
500.6629862278
 20
837.9271837688
 30
0.0
 11
253.5314761977
 21
837.9271837688
 31
0.0
  0
LINE
  5
334
330
32D
100
AcDbEntity
  8
FORMAT
100
AcDbLine
 10
260.5314761977
 20
814.9271837688
 30
0.0
 11
260.5314761977
 21
758.1702102741
 31
0.0
  0
LINE
  5
335
330
32D
100
AcDbEntity
  8
FORMAT
100
AcDbLine
 10
260.5314761977
 20
814.9271837688
 30
0.0
 11
260.5314761977
 21
837.9271837688
 31
0.0
  0
LINE
  5
336
330
32D
100
AcDbEntity
  8
FORMAT
100
AcDbLine
 10
260.5314761977
 20
837.9271837688
 30
0.0
 11
260.5314761977
 21
882.3771837688
 31
0.0
  0
MTEXT
  5
337
330
32D
100
AcDbEntity
  8
FORMAT
100
AcDbMText
 10
228.9493149434
 20
758.1702102741
 30
0.0
 40
24.5
 41
0.0
 71
     1
 72
     1
  1
23
  7
SLDTEXTSTYLE0
 11
6.123233995736766E-17
 21
1.0
 31
0.0
 73
     1
 44
1.0
  0
ENDBLK
  5
32F
330
32D
100
AcDbEntity
  8
0
100
AcDbBlockEnd
  0
BLOCK
  5
33A
330
339
100
AcDbEntity
  8
0
100
AcDbBlockBegin
  2
_D_13
 70
     0
 10
0.0
 20
0.0
 30
0.0
  3
_D_13
  1

  0
SOLID
  5
33C
330
339
100
AcDbEntity
  8
FORMAT
100
AcDbTrace
 10
483.6618497702
 20
1004.805377877
 30
0.0
 11
460.5478497702
 21
1008.361377877
 31
0.0
 12
460.5478497702
 22
1001.249377877
 32
0.0
 13
460.5478497702
 23
1001.249377877
 33
0.0
  0
SOLID
  5
33D
330
339
100
AcDbEntity
  8
FORMAT
100
AcDbTrace
 10
507.6629862278
 20
1004.805377877
 30
0.0
 11
530.7769862278
 21
1001.249377877
 31
0.0
 12
530.7769862278
 22
1008.361377877
 32
0.0
 13
530.7769862278
 23
1008.361377877
 33
0.0
  0
LINE
  5
33E
330
339
100
AcDbEntity
  8
FORMAT
100
AcDbLine
 10
483.6618497702
 20
643.425749686
 30
0.0
 11
483.6618497702
 21
1011.805377877
 31
0.0
  0
LINE
  5
33F
330
339
100
AcDbEntity
  8
FORMAT
100
AcDbLine
 10
507.6629862278
 20
821.9271837688
 30
0.0
 11
507.6629862278
 21
1011.805377877
 31
0.0
  0
LINE
  5
340
330
339
100
AcDbEntity
  8
FORMAT
100
AcDbLine
 10
483.6618497702
 20
1004.805377877
 30
0.0
 11
411.4836021084
 21
1004.805377877
 31
0.0
  0
LINE
  5
341
330
339
100
AcDbEntity
  8
FORMAT
100
AcDbLine
 10
483.6618497702
 20
1004.805377877
 30
0.0
 11
507.6629862278
 21
1004.805377877
 31
0.0
  0
LINE
  5
342
330
339
100
AcDbEntity
  8
FORMAT
100
AcDbLine
 10
507.6629862278
 20
1004.805377877
 30
0.0
 11
552.1129862278
 21
1004.805377877
 31
0.0
  0
MTEXT
  5
343
330
339
100
AcDbEntity
  8
FORMAT
100
AcDbMText
 10
411.4836021084
 20
1036.3875391313
 30
0.0
 40
24.5
 41
0.0
 71
     1
 72
     1
  1
24
  7
SLDTEXTSTYLE0
 73
     1
 44
1.0
  0
ENDBLK
  5
33B
330
339
100
AcDbEntity
  8
0
100
AcDbBlockEnd
  0
BLOCK
  5
346
330
345
100
AcDbEntity
  8
0
100
AcDbBlockBegin
  2
_D_14
 70
     0
 10
0.0
 20
0.0
 30
0.0
  3
_D_14
  1

  0
SOLID
  5
348
330
345
100
AcDbEntity
  8
FORMAT
100
AcDbTrace
 10
483.6618497702
 20
970.6594887615
 30
0.0
 11
460.5478497702
 21
974.2154887615
 31
0.0
 12
460.5478497702
 22
967.1034887615
 32
0.0
 13
460.5478497702
 23
967.1034887615
 33
0.0
  0
SOLID
  5
349
330
345
100
AcDbEntity
  8
FORMAT
100
AcDbTrace
 10
493.6629862278
 20
970.6594887615
 30
0.0
 11
516.7769862278
 21
967.1034887615
 31
0.0
 12
516.7769862278
 22
974.2154887615
 32
0.0
 13
516.7769862278
 23
974.2154887615
 33
0.0
  0
LINE
  5
34A
330
345
100
AcDbEntity
  8
FORMAT
100
AcDbLine
 10
483.6618497702
 20
643.425749686
 30
0.0
 11
483.6618497702
 21
977.6594887615
 31
0.0
  0
LINE
  5
34B
330
345
100
AcDbEntity
  8
FORMAT
100
AcDbLine
 10
493.6629862278
 20
805.4271837684
 30
0.0
 11
493.6629862278
 21
977.6594887615
 31
0.0
  0
LINE
  5
34C
330
345
100
AcDbEntity
  8
FORMAT
100
AcDbLine
 10
483.6618497702
 20
970.6594887615
 30
0.0
 11
421.2676123706
 21
970.6594887615
 31
0.0
  0
LINE
  5
34D
330
345
100
AcDbEntity
  8
FORMAT
100
AcDbLine
 10
483.6618497702
 20
970.6594887615
 30
0.0
 11
493.6629862278
 21
970.6594887615
 31
0.0
  0
LINE
  5
34E
330
345
100
AcDbEntity
  8
FORMAT
100
AcDbLine
 10
493.6629862278
 20
970.6594887615
 30
0.0
 11
538.1129862278
 21
970.6594887615
 31
0.0
  0
MTEXT
  5
34F
330
345
100
AcDbEntity
  8
FORMAT
100
AcDbMText
 10
421.2676123706
 20
1002.2416500157
 30
0.0
 40
24.5
 41
0.0
 71
     1
 72
     1
  1
10
  7
SLDTEXTSTYLE0
 73
     1
 44
1.0
  0
ENDBLK
  5
347
330
345
100
AcDbEntity
  8
0
100
AcDbBlockEnd
  0
BLOCK
  5
352
330
351
100
AcDbEntity
  8
0
100
AcDbBlockBegin
  2
_D_15
 70
     0
 10
0.0
 20
0.0
 30
0.0
  3
_D_15
  1

  0
SOLID
  5
354
330
351
100
AcDbEntity
  8
FORMAT
100
AcDbTrace
 10
483.6618497702
 20
1032.2190400828
 30
0.0
 11
506.7758497702
 21
1028.6630400828
 31
0.0
 12
506.7758497702
 22
1035.7750400828
 32
0.0
 13
506.7758497702
 23
1035.7750400828
 33
0.0
  0
SOLID
  5
355
330
351
100
AcDbEntity
  8
FORMAT
100
AcDbTrace
 10
700.6629862278
 20
1032.2190400828
 30
0.0
 11
677.5489862278
 21
1035.7750400828
 31
0.0
 12
677.5489862278
 22
1028.6630400828
 32
0.0
 13
677.5489862278
 23
1028.6630400828
 33
0.0
  0
LINE
  5
356
330
351
100
AcDbEntity
  8
FORMAT
100
AcDbLine
 10
483.6618497702
 20
643.425749686
 30
0.0
 11
483.6618497702
 21
1039.2190400828
 31
0.0
  0
LINE
  5
357
330
351
100
AcDbEntity
  8
FORMAT
100
AcDbLine
 10
700.6629862278
 20
876.6771837684
 30
0.0
 11
700.6629862278
 21
1039.2190400828
 31
0.0
  0
LINE
  5
358
330
351
100
AcDbEntity
  8
FORMAT
100
AcDbLine
 10
483.6618497702
 20
1032.2190400828
 30
0.0
 11
700.6629862278
 21
1032.2190400828
 31
0.0
  0
MTEXT
  5
359
330
351
100
AcDbEntity
  8
FORMAT
100
AcDbMText
 10
564.0895020277
 20
1063.8012013371
 30
0.0
 40
24.5
 41
0.0
 71
     1
 72
     1
  1
217
  7
SLDTEXTSTYLE0
 73
     1
 44
1.0
  0
ENDBLK
  5
353
330
351
100
AcDbEntity
  8
0
100
AcDbBlockEnd
  0
BLOCK
  5
35C
330
35B
100
AcDbEntity
  8
0
100
AcDbBlockBegin
  2
_D_16
 70
     0
 10
0.0
 20
0.0
 30
0.0
  3
_D_16
  1

  0
SOLID
  5
35E
330
35B
100
AcDbEntity
  8
FORMAT
100
AcDbTrace
 10
700.6629862278
 20
1032.2190400828
 30
0.0
 11
723.7769862278
 21
1028.6630400828
 31
0.0
 12
723.7769862278
 22
1035.7750400828
 32
0.0
 13
723.7769862278
 23
1035.7750400828
 33
0.0
  0
SOLID
  5
35F
330
35B
100
AcDbEntity
  8
FORMAT
100
AcDbTrace
 10
907.6629862278
 20
1032.2190400828
 30
0.0
 11
884.5489862278
 21
1035.7750400828
 31
0.0
 12
884.5489862278
 22
1028.6630400828
 32
0.0
 13
884.5489862278
 23
1028.6630400828
 33
0.0
  0
LINE
  5
360
330
35B
100
AcDbEntity
  8
FORMAT
100
AcDbLine
 10
700.6629862278
 20
876.6771837684
 30
0.0
 11
700.6629862278
 21
1039.2190400828
 31
0.0
  0
LINE
  5
361
330
35B
100
AcDbEntity
  8
FORMAT
100
AcDbLine
 10
907.6629862278
 20
876.6771837684
 30
0.0
 11
907.6629862278
 21
1039.2190400828
 31
0.0
  0
LINE
  5
362
330
35B
100
AcDbEntity
  8
FORMAT
100
AcDbLine
 10
700.6629862278
 20
1032.2190400828
 30
0.0
 11
907.6629862278
 21
1032.2190400828
 31
0.0
  0
MTEXT
  5
363
330
35B
100
AcDbEntity
  8
FORMAT
100
AcDbMText
 10
776.0900702565
 20
1063.8012013371
 30
0.0
 40
24.5
 41
0.0
 71
     1
 72
     1
  1
207
  7
SLDTEXTSTYLE0
 73
     1
 44
1.0
  0
ENDBLK
  5
35D
330
35B
100
AcDbEntity
  8
0
100
AcDbBlockEnd
  0
BLOCK
  5
366
330
365
100
AcDbEntity
  8
0
100
AcDbBlockBegin
  2
_D_17
 70
     0
 10
0.0
 20
0.0
 30
0.0
  3
_D_17
  1

  0
SOLID
  5
368
330
365
100
AcDbEntity
  8
FORMAT
100
AcDbTrace
 10
907.6629862278
 20
1032.2190400828
 30
0.0
 11
930.7769862278
 21
1028.6630400828
 31
0.0
 12
930.7769862278
 22
1035.7750400828
 32
0.0
 13
930.7769862278
 23
1035.7750400828
 33
0.0
  0
SOLID
  5
369
330
365
100
AcDbEntity
  8
FORMAT
100
AcDbTrace
 10
1133.6629862278
 20
1032.2190400828
 30
0.0
 11
1110.5489862278
 21
1035.7750400828
 31
0.0
 12
1110.5489862278
 22
1028.6630400828
 32
0.0
 13
1110.5489862278
 23
1028.6630400828
 33
0.0
  0
LINE
  5
36A
330
365
100
AcDbEntity
  8
FORMAT
100
AcDbLine
 10
907.6629862278
 20
876.6771837684
 30
0.0
 11
907.6629862278
 21
1039.2190400828
 31
0.0
  0
LINE
  5
36B
330
365
100
AcDbEntity
  8
FORMAT
100
AcDbLine
 10
1133.6629862278
 20
876.6771837684
 30
0.0
 11
1133.6629862278
 21
1039.2190400828
 31
0.0
  0
LINE
  5
36C
330
365
100
AcDbEntity
  8
FORMAT
100
AcDbLine
 10
907.6629862278
 20
1032.2190400828
 30
0.0
 11
1133.6629862278
 21
1032.2190400828
 31
0.0
  0
MTEXT
  5
36D
330
365
100
AcDbEntity
  8
FORMAT
100
AcDbMText
 10
992.5900702565
 20
1063.8012013371
 30
0.0
 40
24.5
 41
0.0
 71
     1
 72
     1
  1
226
  7
SLDTEXTSTYLE0
 73
     1
 44
1.0
  0
ENDBLK
  5
367
330
365
100
AcDbEntity
  8
0
100
AcDbBlockEnd
  0
BLOCK
  5
370
330
36F
100
AcDbEntity
  8
0
100
AcDbBlockBegin
  2
_D_18
 70
     0
 10
0.0
 20
0.0
 30
0.0
  3
_D_18
  1

  0
SOLID
  5
372
330
36F
100
AcDbEntity
  8
FORMAT
100
AcDbTrace
 10
483.6618497702
 20
1071.4131608348
 30
0.0
 11
506.7758497702
 21
1067.8571608348
 31
0.0
 12
506.7758497702
 22
1074.9691608348
 32
0.0
 13
506.7758497702
 23
1074.9691608348
 33
0.0
  0
SOLID
  5
373
330
36F
100
AcDbEntity
  8
FORMAT
100
AcDbTrace
 10
1149.6629862278
 20
1071.4131608348
 30
0.0
 11
1126.5489862278
 21
1074.9691608348
 31
0.0
 12
1126.5489862278
 22
1067.8571608348
 32
0.0
 13
1126.5489862278
 23
1067.8571608348
 33
0.0
  0
LINE
  5
374
330
36F
100
AcDbEntity
  8
FORMAT
100
AcDbLine
 10
483.6618497702
 20
643.425749686
 30
0.0
 11
483.6618497702
 21
1078.4131608348
 31
0.0
  0
LINE
  5
375
330
36F
100
AcDbEntity
  8
FORMAT
100
AcDbLine
 10
1149.6629862278
 20
844.9271837688
 30
0.0
 11
1149.6629862278
 21
1078.4131608348
 31
0.0
  0
LINE
  5
376
330
36F
100
AcDbEntity
  8
FORMAT
100
AcDbLine
 10
483.6618497702
 20
1071.4131608348
 30
0.0
 11
1149.6629862278
 21
1071.4131608348
 31
0.0
  0
MTEXT
  5
377
330
36F
100
AcDbEntity
  8
FORMAT
100
AcDbMText
 10
788.5895020277
 20
1102.995322089
 30
0.0
 40
24.5
 41
0.0
 71
     1
 72
     1
  1
666
  7
SLDTEXTSTYLE0
 73
     1
 44
1.0
  0
ENDBLK
  5
371
330
36F
100
AcDbEntity
  8
0
100
AcDbBlockEnd
  0
BLOCK
  5
37A
330
379
100
AcDbEntity
  8
0
100
AcDbBlockBegin
  2
_D_19
 70
     0
 10
0.0
 20
0.0
 30
0.0
  3
_D_19
  1

  0
SOLID
  5
37C
330
379
100
AcDbEntity
  8
FORMAT
100
AcDbTrace
 10
483.6618497702
 20
1111.9271837688
 30
0.0
 11
506.7758497702
 21
1108.3711837688
 31
0.0
 12
506.7758497702
 22
1115.4831837688
 32
0.0
 13
506.7758497702
 23
1115.4831837688
 33
0.0
  0
SOLID
  5
37D
330
379
100
AcDbEntity
  8
FORMAT
100
AcDbTrace
 10
1163.6629862278
 20
1111.9271837688
 30
0.0
 11
1140.5489862278
 21
1115.4831837688
 31
0.0
 12
1140.5489862278
 22
1108.3711837688
 32
0.0
 13
1140.5489862278
 23
1108.3711837688
 33
0.0
  0
LINE
  5
37E
330
379
100
AcDbEntity
  8
FORMAT
100
AcDbLine
 10
483.6618497702
 20
643.425749686
 30
0.0
 11
483.6618497702
 21
1118.9271837688
 31
0.0
  0
LINE
  5
37F
330
379
100
AcDbEntity
  8
FORMAT
100
AcDbLine
 10
1163.6629862278
 20
870.9271837684
 30
0.0
 11
1163.6629862278
 21
1118.9271837688
 31
0.0
  0
LINE
  5
380
330
379
100
AcDbEntity
  8
FORMAT
100
AcDbLine
 10
483.6618497702
 20
1111.9271837688
 30
0.0
 11
1163.6629862278
 21
1111.9271837688
 31
0.0
  0
MTEXT
  5
381
330
379
100
AcDbEntity
  8
FORMAT
100
AcDbMText
 10
795.5895020277
 20
1143.509345023
 30
0.0
 40
24.5
 41
0.0
 71
     1
 72
     1
  1
680
  7
SLDTEXTSTYLE0
 73
     1
 44
1.0
  0
ENDBLK
  5
37B
330
379
100
AcDbEntity
  8
0
100
AcDbBlockEnd
  0
BLOCK
  5
388
330
387
100
AcDbEntity
  8
0
100
AcDbBlockBegin
  2
SW_NOTE_0_5
 70
     0
 10
0.0
 20
0.0
 30
0.0
  3
SW_NOTE_0_5
  1

  0
MTEXT
  5
38A
330
387
100
AcDbEntity
  8
FORMAT
 62
     0
100
AcDbMText
 10
-306.2458717736
 20
37.6191605324
 30
0.0
 40
18.5208333333
 41
0.0
 71
     1
 72
     1
  1
ø20
  7
SLDTEXTSTYLE0
 73
     1
 44
1.0
  0
MTEXT
  5
38B
330
387
100
AcDbEntity
  8
FORMAT
 62
     0
100
AcDbMText
 10
-306.2458717736
 20
5.924715239
 30
0.0
 40
18.5208333333
 41
0.0
 71
     1
 72
     1
  1
(verdeckte Kabelzuführung)
  7
SLDTEXTSTYLE0
 73
     1
 44
1.0
  0
ENDBLK
  5
389
330
387
100
AcDbEntity
  8
0
100
AcDbBlockEnd
  0
BLOCK
  5
38F
330
38E
100
AcDbEntity
  8
0
100
AcDbBlockBegin
  2
SW_CENTERMARKSYMBOL_0
 70
     0
 10
0.0
 20
0.0
 30
0.0
  3
SW_CENTERMARKSYMBOL_0
  1

  0
LINE
  5
391
330
38E
100
AcDbEntity
  8
FORMAT
 62
     0
100
AcDbLine
 10
0.0
 20
0.0
 30
0.0
 11
0.0
 21
2.5
 31
0.0
  0
LINE
  5
392
330
38E
100
AcDbEntity
  8
FORMAT
 62
     0
100
AcDbLine
 10
0.0
 20
0.0
 30
0.0
 11
-2.5
 21
0.0
 31
0.0
  0
LINE
  5
393
330
38E
100
AcDbEntity
  8
FORMAT
 62
     0
100
AcDbLine
 10
0.0
 20
0.0
 30
0.0
 11
0.0
 21
-2.5
 31
0.0
  0
LINE
  5
394
330
38E
100
AcDbEntity
  8
FORMAT
 62
     0
100
AcDbLine
 10
0.0
 20
0.0
 30
0.0
 11
2.5
 21
0.0
 31
0.0
  0
LINE
  5
395
330
38E
100
AcDbEntity
  8
FORMAT
 62
     0
100
AcDbLine
 10
0.0
 20
5.0
 30
0.0
 11
0.0
 21
5.75
 31
0.0
  0
LINE
  5
396
330
38E
100
AcDbEntity
  8
FORMAT
 62
     0
100
AcDbLine
 10
-5.0
 20
0.0
 30
0.0
 11
-5.75
 21
0.0
 31
0.0
  0
LINE
  5
397
330
38E
100
AcDbEntity
  8
FORMAT
 62
     0
100
AcDbLine
 10
0.0
 20
-5.0
 30
0.0
 11
0.0
 21
-5.75
 31
0.0
  0
LINE
  5
398
330
38E
100
AcDbEntity
  8
FORMAT
 62
     0
100
AcDbLine
 10
5.0
 20
0.0
 30
0.0
 11
5.75
 21
0.0
 31
0.0
  0
ENDBLK
  5
390
330
38E
100
AcDbEntity
  8
0
100
AcDbBlockEnd
  0
BLOCK
  5
39B
330
39A
100
AcDbEntity
  8
0
100
AcDbBlockBegin
  2
SW_CENTERMARKSYMBOL_1
 70
     0
 10
0.0
 20
0.0
 30
0.0
  3
SW_CENTERMARKSYMBOL_1
  1

  0
LINE
  5
39D
330
39A
100
AcDbEntity
  8
FORMAT
 62
     0
100
AcDbLine
 10
0.0
 20
0.0
 30
0.0
 11
0.0
 21
2.5
 31
0.0
  0
LINE
  5
39E
330
39A
100
AcDbEntity
  8
FORMAT
 62
     0
100
AcDbLine
 10
0.0
 20
0.0
 30
0.0
 11
-2.5
 21
0.0
 31
0.0
  0
LINE
  5
39F
330
39A
100
AcDbEntity
  8
FORMAT
 62
     0
100
AcDbLine
 10
0.0
 20
0.0
 30
0.0
 11
0.0
 21
-2.5
 31
0.0
  0
LINE
  5
3A0
330
39A
100
AcDbEntity
  8
FORMAT
 62
     0
100
AcDbLine
 10
0.0
 20
0.0
 30
0.0
 11
2.5
 21
0.0
 31
0.0
  0
LINE
  5
3A1
330
39A
100
AcDbEntity
  8
FORMAT
 62
     0
100
AcDbLine
 10
0.0
 20
5.0
 30
0.0
 11
0.0
 21
5.75
 31
0.0
  0
LINE
  5
3A2
330
39A
100
AcDbEntity
  8
FORMAT
 62
     0
100
AcDbLine
 10
-5.0
 20
0.0
 30
0.0
 11
-5.75
 21
0.0
 31
0.0
  0
LINE
  5
3A3
330
39A
100
AcDbEntity
  8
FORMAT
 62
     0
100
AcDbLine
 10
0.0
 20
-5.0
 30
0.0
 11
0.0
 21
-5.75
 31
0.0
  0
LINE
  5
3A4
330
39A
100
AcDbEntity
  8
FORMAT
 62
     0
100
AcDbLine
 10
5.0
 20
0.0
 30
0.0
 11
5.75
 21
0.0
 31
0.0
  0
ENDBLK
  5
39C
330
39A
100
AcDbEntity
  8
0
100
AcDbBlockEnd
  0
BLOCK
  5
3A7
330
3A6
100
AcDbEntity
  8
0
100
AcDbBlockBegin
  2
SW_CENTERMARKSYMBOL_2
 70
     0
 10
0.0
 20
0.0
 30
0.0
  3
SW_CENTERMARKSYMBOL_2
  1

  0
LINE
  5
3A9
330
3A6
100
AcDbEntity
  8
FORMAT
 62
     0
100
AcDbLine
 10
0.0
 20
0.0
 30
0.0
 11
0.0
 21
2.5
 31
0.0
  0
LINE
  5
3AA
330
3A6
100
AcDbEntity
  8
FORMAT
 62
     0
100
AcDbLine
 10
0.0
 20
0.0
 30
0.0
 11
-2.5
 21
0.0
 31
0.0
  0
LINE
  5
3AB
330
3A6
100
AcDbEntity
  8
FORMAT
 62
     0
100
AcDbLine
 10
0.0
 20
0.0
 30
0.0
 11
0.0
 21
-2.5
 31
0.0
  0
LINE
  5
3AC
330
3A6
100
AcDbEntity
  8
FORMAT
 62
     0
100
AcDbLine
 10
0.0
 20
0.0
 30
0.0
 11
2.5
 21
0.0
 31
0.0
  0
LINE
  5
3AD
330
3A6
100
AcDbEntity
  8
FORMAT
 62
     0
100
AcDbLine
 10
0.0
 20
5.0
 30
0.0
 11
0.0
 21
5.75
 31
0.0
  0
LINE
  5
3AE
330
3A6
100
AcDbEntity
  8
FORMAT
 62
     0
100
AcDbLine
 10
-5.0
 20
0.0
 30
0.0
 11
-5.75
 21
0.0
 31
0.0
  0
LINE
  5
3AF
330
3A6
100
AcDbEntity
  8
FORMAT
 62
     0
100
AcDbLine
 10
0.0
 20
-5.0
 30
0.0
 11
0.0
 21
-5.75
 31
0.0
  0
LINE
  5
3B0
330
3A6
100
AcDbEntity
  8
FORMAT
 62
     0
100
AcDbLine
 10
5.0
 20
0.0
 30
0.0
 11
5.75
 21
0.0
 31
0.0
  0
ENDBLK
  5
3A8
330
3A6
100
AcDbEntity
  8
0
100
AcDbBlockEnd
  0
BLOCK
  5
3B3
330
3B2
100
AcDbEntity
  8
0
100
AcDbBlockBegin
  2
SW_CENTERMARKSYMBOL_3
 70
     0
 10
0.0
 20
0.0
 30
0.0
  3
SW_CENTERMARKSYMBOL_3
  1

  0
LINE
  5
3B5
330
3B2
100
AcDbEntity
  8
FORMAT
 62
     0
100
AcDbLine
 10
0.0
 20
0.0
 30
0.0
 11
0.0
 21
2.5
 31
0.0
  0
LINE
  5
3B6
330
3B2
100
AcDbEntity
  8
FORMAT
 62
     0
100
AcDbLine
 10
0.0
 20
0.0
 30
0.0
 11
-2.5
 21
0.0
 31
0.0
  0
LINE
  5
3B7
330
3B2
100
AcDbEntity
  8
FORMAT
 62
     0
100
AcDbLine
 10
0.0
 20
0.0
 30
0.0
 11
0.0
 21
-2.5
 31
0.0
  0
LINE
  5
3B8
330
3B2
100
AcDbEntity
  8
FORMAT
 62
     0
100
AcDbLine
 10
0.0
 20
0.0
 30
0.0
 11
2.5
 21
0.0
 31
0.0
  0
LINE
  5
3B9
330
3B2
100
AcDbEntity
  8
FORMAT
 62
     0
100
AcDbLine
 10
0.0
 20
5.0
 30
0.0
 11
0.0
 21
5.75
 31
0.0
  0
LINE
  5
3BA
330
3B2
100
AcDbEntity
  8
FORMAT
 62
     0
100
AcDbLine
 10
-5.0
 20
0.0
 30
0.0
 11
-5.75
 21
0.0
 31
0.0
  0
LINE
  5
3BB
330
3B2
100
AcDbEntity
  8
FORMAT
 62
     0
100
AcDbLine
 10
0.0
 20
-5.0
 30
0.0
 11
0.0
 21
-5.75
 31
0.0
  0
LINE
  5
3BC
330
3B2
100
AcDbEntity
  8
FORMAT
 62
     0
100
AcDbLine
 10
5.0
 20
0.0
 30
0.0
 11
5.75
 21
0.0
 31
0.0
  0
ENDBLK
  5
3B4
330
3B2
100
AcDbEntity
  8
0
100
AcDbBlockEnd
  0
BLOCK
  5
3BF
330
3BE
100
AcDbEntity
  8
0
100
AcDbBlockBegin
  2
SW_CENTERMARKSYMBOL_4
 70
     0
 10
0.0
 20
0.0
 30
0.0
  3
SW_CENTERMARKSYMBOL_4
  1

  0
LINE
  5
3C1
330
3BE
100
AcDbEntity
  8
FORMAT
 62
     0
100
AcDbLine
 10
0.0
 20
0.0
 30
0.0
 11
0.0
 21
2.5
 31
0.0
  0
LINE
  5
3C2
330
3BE
100
AcDbEntity
  8
FORMAT
 62
     0
100
AcDbLine
 10
0.0
 20
0.0
 30
0.0
 11
-2.5
 21
0.0
 31
0.0
  0
LINE
  5
3C3
330
3BE
100
AcDbEntity
  8
FORMAT
 62
     0
100
AcDbLine
 10
0.0
 20
0.0
 30
0.0
 11
0.0
 21
-2.5
 31
0.0
  0
LINE
  5
3C4
330
3BE
100
AcDbEntity
  8
FORMAT
 62
     0
100
AcDbLine
 10
0.0
 20
0.0
 30
0.0
 11
2.5
 21
0.0
 31
0.0
  0
LINE
  5
3C5
330
3BE
100
AcDbEntity
  8
FORMAT
 62
     0
100
AcDbLine
 10
0.0
 20
5.0
 30
0.0
 11
0.0
 21
5.75
 31
0.0
  0
LINE
  5
3C6
330
3BE
100
AcDbEntity
  8
FORMAT
 62
     0
100
AcDbLine
 10
-5.0
 20
0.0
 30
0.0
 11
-5.75
 21
0.0
 31
0.0
  0
LINE
  5
3C7
330
3BE
100
AcDbEntity
  8
FORMAT
 62
     0
100
AcDbLine
 10
0.0
 20
-5.0
 30
0.0
 11
0.0
 21
-5.75
 31
0.0
  0
LINE
  5
3C8
330
3BE
100
AcDbEntity
  8
FORMAT
 62
     0
100
AcDbLine
 10
5.0
 20
0.0
 30
0.0
 11
5.75
 21
0.0
 31
0.0
  0
ENDBLK
  5
3C0
330
3BE
100
AcDbEntity
  8
0
100
AcDbBlockEnd
  0
BLOCK
  5
3CB
330
3CA
100
AcDbEntity
  8
0
100
AcDbBlockBegin
  2
SW_CENTERMARKSYMBOL_5
 70
     0
 10
0.0
 20
0.0
 30
0.0
  3
SW_CENTERMARKSYMBOL_5
  1

  0
LINE
  5
3CD
330
3CA
100
AcDbEntity
  8
FORMAT
 62
     0
100
AcDbLine
 10
0.0
 20
0.0
 30
0.0
 11
0.0
 21
2.5
 31
0.0
  0
LINE
  5
3CE
330
3CA
100
AcDbEntity
  8
FORMAT
 62
     0
100
AcDbLine
 10
0.0
 20
0.0
 30
0.0
 11
-2.5
 21
0.0
 31
0.0
  0
LINE
  5
3CF
330
3CA
100
AcDbEntity
  8
FORMAT
 62
     0
100
AcDbLine
 10
0.0
 20
0.0
 30
0.0
 11
0.0
 21
-2.5
 31
0.0
  0
LINE
  5
3D0
330
3CA
100
AcDbEntity
  8
FORMAT
 62
     0
100
AcDbLine
 10
0.0
 20
0.0
 30
0.0
 11
2.5
 21
0.0
 31
0.0
  0
LINE
  5
3D1
330
3CA
100
AcDbEntity
  8
FORMAT
 62
     0
100
AcDbLine
 10
0.0
 20
5.0
 30
0.0
 11
0.0
 21
5.75
 31
0.0
  0
LINE
  5
3D2
330
3CA
100
AcDbEntity
  8
FORMAT
 62
     0
100
AcDbLine
 10
-5.0
 20
0.0
 30
0.0
 11
-5.75
 21
0.0
 31
0.0
  0
LINE
  5
3D3
330
3CA
100
AcDbEntity
  8
FORMAT
 62
     0
100
AcDbLine
 10
0.0
 20
-5.0
 30
0.0
 11
0.0
 21
-5.75
 31
0.0
  0
LINE
  5
3D4
330
3CA
100
AcDbEntity
  8
FORMAT
 62
     0
100
AcDbLine
 10
5.0
 20
0.0
 30
0.0
 11
5.75
 21
0.0
 31
0.0
  0
ENDBLK
  5
3CC
330
3CA
100
AcDbEntity
  8
0
100
AcDbBlockEnd
  0
BLOCK
  5
3D7
330
3D6
100
AcDbEntity
  8
0
100
AcDbBlockBegin
  2
SW_CENTERMARKSYMBOL_6
 70
     0
 10
0.0
 20
0.0
 30
0.0
  3
SW_CENTERMARKSYMBOL_6
  1

  0
LINE
  5
3D9
330
3D6
100
AcDbEntity
  8
FORMAT
 62
     0
100
AcDbLine
 10
0.0
 20
0.0
 30
0.0
 11
0.0
 21
2.5
 31
0.0
  0
LINE
  5
3DA
330
3D6
100
AcDbEntity
  8
FORMAT
 62
     0
100
AcDbLine
 10
0.0
 20
0.0
 30
0.0
 11
-2.5
 21
0.0
 31
0.0
  0
LINE
  5
3DB
330
3D6
100
AcDbEntity
  8
FORMAT
 62
     0
100
AcDbLine
 10
0.0
 20
0.0
 30
0.0
 11
0.0
 21
-2.5
 31
0.0
  0
LINE
  5
3DC
330
3D6
100
AcDbEntity
  8
FORMAT
 62
     0
100
AcDbLine
 10
0.0
 20
0.0
 30
0.0
 11
2.5
 21
0.0
 31
0.0
  0
LINE
  5
3DD
330
3D6
100
AcDbEntity
  8
FORMAT
 62
     0
100
AcDbLine
 10
0.0
 20
5.0
 30
0.0
 11
0.0
 21
5.75
 31
0.0
  0
LINE
  5
3DE
330
3D6
100
AcDbEntity
  8
FORMAT
 62
     0
100
AcDbLine
 10
-5.0
 20
0.0
 30
0.0
 11
-5.75
 21
0.0
 31
0.0
  0
LINE
  5
3DF
330
3D6
100
AcDbEntity
  8
FORMAT
 62
     0
100
AcDbLine
 10
0.0
 20
-5.0
 30
0.0
 11
0.0
 21
-5.75
 31
0.0
  0
LINE
  5
3E0
330
3D6
100
AcDbEntity
  8
FORMAT
 62
     0
100
AcDbLine
 10
5.0
 20
0.0
 30
0.0
 11
5.75
 21
0.0
 31
0.0
  0
ENDBLK
  5
3D8
330
3D6
100
AcDbEntity
  8
0
100
AcDbBlockEnd
  0
BLOCK
  5
3E3
330
3E2
100
AcDbEntity
  8
0
100
AcDbBlockBegin
  2
SW_CENTERMARKSYMBOL_7
 70
     0
 10
0.0
 20
0.0
 30
0.0
  3
SW_CENTERMARKSYMBOL_7
  1

  0
LINE
  5
3E5
330
3E2
100
AcDbEntity
  8
FORMAT
 62
     0
100
AcDbLine
 10
0.0
 20
0.0
 30
0.0
 11
0.0
 21
2.5
 31
0.0
  0
LINE
  5
3E6
330
3E2
100
AcDbEntity
  8
FORMAT
 62
     0
100
AcDbLine
 10
0.0
 20
0.0
 30
0.0
 11
-2.5
 21
0.0
 31
0.0
  0
LINE
  5
3E7
330
3E2
100
AcDbEntity
  8
FORMAT
 62
     0
100
AcDbLine
 10
0.0
 20
0.0
 30
0.0
 11
0.0
 21
-2.5
 31
0.0
  0
LINE
  5
3E8
330
3E2
100
AcDbEntity
  8
FORMAT
 62
     0
100
AcDbLine
 10
0.0
 20
0.0
 30
0.0
 11
2.5
 21
0.0
 31
0.0
  0
LINE
  5
3E9
330
3E2
100
AcDbEntity
  8
FORMAT
 62
     0
100
AcDbLine
 10
0.0
 20
5.0
 30
0.0
 11
0.0
 21
5.75
 31
0.0
  0
LINE
  5
3EA
330
3E2
100
AcDbEntity
  8
FORMAT
 62
     0
100
AcDbLine
 10
-5.0
 20
0.0
 30
0.0
 11
-5.75
 21
0.0
 31
0.0
  0
LINE
  5
3EB
330
3E2
100
AcDbEntity
  8
FORMAT
 62
     0
100
AcDbLine
 10
0.0
 20
-5.0
 30
0.0
 11
0.0
 21
-5.75
 31
0.0
  0
LINE
  5
3EC
330
3E2
100
AcDbEntity
  8
FORMAT
 62
     0
100
AcDbLine
 10
5.0
 20
0.0
 30
0.0
 11
5.75
 21
0.0
 31
0.0
  0
ENDBLK
  5
3E4
330
3E2
100
AcDbEntity
  8
0
100
AcDbBlockEnd
  0
BLOCK
  5
3EF
330
3EE
100
AcDbEntity
  8
0
100
AcDbBlockBegin
  2
SW_CENTERMARKSYMBOL_8
 70
     0
 10
0.0
 20
0.0
 30
0.0
  3
SW_CENTERMARKSYMBOL_8
  1

  0
LINE
  5
3F1
330
3EE
100
AcDbEntity
  8
FORMAT
 62
     0
100
AcDbLine
 10
0.0
 20
0.0
 30
0.0
 11
0.0
 21
2.5
 31
0.0
  0
LINE
  5
3F2
330
3EE
100
AcDbEntity
  8
FORMAT
 62
     0
100
AcDbLine
 10
0.0
 20
0.0
 30
0.0
 11
-2.5
 21
0.0
 31
0.0
  0
LINE
  5
3F3
330
3EE
100
AcDbEntity
  8
FORMAT
 62
     0
100
AcDbLine
 10
0.0
 20
0.0
 30
0.0
 11
0.0
 21
-2.5
 31
0.0
  0
LINE
  5
3F4
330
3EE
100
AcDbEntity
  8
FORMAT
 62
     0
100
AcDbLine
 10
0.0
 20
0.0
 30
0.0
 11
2.5
 21
0.0
 31
0.0
  0
LINE
  5
3F5
330
3EE
100
AcDbEntity
  8
FORMAT
 62
     0
100
AcDbLine
 10
0.0
 20
5.0
 30
0.0
 11
0.0
 21
12.5
 31
0.0
  0
LINE
  5
3F6
330
3EE
100
AcDbEntity
  8
FORMAT
 62
     0
100
AcDbLine
 10
-5.0
 20
0.0
 30
0.0
 11
-12.5
 21
0.0
 31
0.0
  0
LINE
  5
3F7
330
3EE
100
AcDbEntity
  8
FORMAT
 62
     0
100
AcDbLine
 10
0.0
 20
-5.0
 30
0.0
 11
0.0
 21
-12.5
 31
0.0
  0
LINE
  5
3F8
330
3EE
100
AcDbEntity
  8
FORMAT
 62
     0
100
AcDbLine
 10
5.0
 20
0.0
 30
0.0
 11
12.5
 21
0.0
 31
0.0
  0
ENDBLK
  5
3F0
330
3EE
100
AcDbEntity
  8
0
100
AcDbBlockEnd
  0
BLOCK
  5
3FB
330
3FA
100
AcDbEntity
  8
0
100
AcDbBlockBegin
  2
SW_CENTERMARKSYMBOL_9
 70
     0
 10
0.0
 20
0.0
 30
0.0
  3
SW_CENTERMARKSYMBOL_9
  1

  0
LINE
  5
3FD
330
3FA
100
AcDbEntity
  8
FORMAT
 62
     0
100
AcDbLine
 10
0.0
 20
0.0
 30
0.0
 11
0.0
 21
2.5
 31
0.0
  0
LINE
  5
3FE
330
3FA
100
AcDbEntity
  8
FORMAT
 62
     0
100
AcDbLine
 10
0.0
 20
0.0
 30
0.0
 11
-2.5
 21
0.0
 31
0.0
  0
LINE
  5
3FF
330
3FA
100
AcDbEntity
  8
FORMAT
 62
     0
100
AcDbLine
 10
0.0
 20
0.0
 30
0.0
 11
0.0
 21
-2.5
 31
0.0
  0
LINE
  5
400
330
3FA
100
AcDbEntity
  8
FORMAT
 62
     0
100
AcDbLine
 10
0.0
 20
0.0
 30
0.0
 11
2.5
 21
0.0
 31
0.0
  0
LINE
  5
401
330
3FA
100
AcDbEntity
  8
FORMAT
 62
     0
100
AcDbLine
 10
0.0
 20
5.0
 30
0.0
 11
0.0
 21
12.5
 31
0.0
  0
LINE
  5
402
330
3FA
100
AcDbEntity
  8
FORMAT
 62
     0
100
AcDbLine
 10
-5.0
 20
0.0
 30
0.0
 11
-12.5
 21
0.0
 31
0.0
  0
LINE
  5
403
330
3FA
100
AcDbEntity
  8
FORMAT
 62
     0
100
AcDbLine
 10
0.0
 20
-5.0
 30
0.0
 11
0.0
 21
-12.5
 31
0.0
  0
LINE
  5
404
330
3FA
100
AcDbEntity
  8
FORMAT
 62
     0
100
AcDbLine
 10
5.0
 20
0.0
 30
0.0
 11
12.5
 21
0.0
 31
0.0
  0
ENDBLK
  5
3FC
330
3FA
100
AcDbEntity
  8
0
100
AcDbBlockEnd
  0
BLOCK
  5
407
330
406
100
AcDbEntity
  8
0
100
AcDbBlockBegin
  2
SW_CENTERMARKSYMBOL_10
 70
     0
 10
0.0
 20
0.0
 30
0.0
  3
SW_CENTERMARKSYMBOL_10
  1

  0
LINE
  5
409
330
406
100
AcDbEntity
  8
FORMAT
 62
     0
100
AcDbLine
 10
0.0
 20
0.0
 30
0.0
 11
0.0
 21
2.5
 31
0.0
  0
LINE
  5
40A
330
406
100
AcDbEntity
  8
FORMAT
 62
     0
100
AcDbLine
 10
0.0
 20
0.0
 30
0.0
 11
-2.5
 21
0.0
 31
0.0
  0
LINE
  5
40B
330
406
100
AcDbEntity
  8
FORMAT
 62
     0
100
AcDbLine
 10
0.0
 20
0.0
 30
0.0
 11
0.0
 21
-2.5
 31
0.0
  0
LINE
  5
40C
330
406
100
AcDbEntity
  8
FORMAT
 62
     0
100
AcDbLine
 10
0.0
 20
0.0
 30
0.0
 11
2.5
 21
0.0
 31
0.0
  0
LINE
  5
40D
330
406
100
AcDbEntity
  8
FORMAT
 62
     0
100
AcDbLine
 10
0.0
 20
5.0
 30
0.0
 11
0.0
 21
12.5
 31
0.0
  0
LINE
  5
40E
330
406
100
AcDbEntity
  8
FORMAT
 62
     0
100
AcDbLine
 10
-5.0
 20
0.0
 30
0.0
 11
-12.5
 21
0.0
 31
0.0
  0
LINE
  5
40F
330
406
100
AcDbEntity
  8
FORMAT
 62
     0
100
AcDbLine
 10
0.0
 20
-5.0
 30
0.0
 11
0.0
 21
-12.5
 31
0.0
  0
LINE
  5
410
330
406
100
AcDbEntity
  8
FORMAT
 62
     0
100
AcDbLine
 10
5.0
 20
0.0
 30
0.0
 11
12.5
 21
0.0
 31
0.0
  0
ENDBLK
  5
408
330
406
100
AcDbEntity
  8
0
100
AcDbBlockEnd
  0
BLOCK
  5
413
330
412
100
AcDbEntity
  8
0
100
AcDbBlockBegin
  2
SW_CENTERMARKSYMBOL_11
 70
     0
 10
0.0
 20
0.0
 30
0.0
  3
SW_CENTERMARKSYMBOL_11
  1

  0
LINE
  5
415
330
412
100
AcDbEntity
  8
FORMAT
 62
     0
100
AcDbLine
 10
0.0
 20
0.0
 30
0.0
 11
0.0
 21
2.5
 31
0.0
  0
LINE
  5
416
330
412
100
AcDbEntity
  8
FORMAT
 62
     0
100
AcDbLine
 10
0.0
 20
0.0
 30
0.0
 11
-2.5
 21
0.0
 31
0.0
  0
LINE
  5
417
330
412
100
AcDbEntity
  8
FORMAT
 62
     0
100
AcDbLine
 10
0.0
 20
0.0
 30
0.0
 11
0.0
 21
-2.5
 31
0.0
  0
LINE
  5
418
330
412
100
AcDbEntity
  8
FORMAT
 62
     0
100
AcDbLine
 10
0.0
 20
0.0
 30
0.0
 11
2.5
 21
0.0
 31
0.0
  0
LINE
  5
419
330
412
100
AcDbEntity
  8
FORMAT
 62
     0
100
AcDbLine
 10
0.0
 20
5.0
 30
0.0
 11
0.0
 21
12.5
 31
0.0
  0
LINE
  5
41A
330
412
100
AcDbEntity
  8
FORMAT
 62
     0
100
AcDbLine
 10
-5.0
 20
0.0
 30
0.0
 11
-12.5
 21
0.0
 31
0.0
  0
LINE
  5
41B
330
412
100
AcDbEntity
  8
FORMAT
 62
     0
100
AcDbLine
 10
0.0
 20
-5.0
 30
0.0
 11
0.0
 21
-12.5
 31
0.0
  0
LINE
  5
41C
330
412
100
AcDbEntity
  8
FORMAT
 62
     0
100
AcDbLine
 10
5.0
 20
0.0
 30
0.0
 11
12.5
 21
0.0
 31
0.0
  0
ENDBLK
  5
414
330
412
100
AcDbEntity
  8
0
100
AcDbBlockEnd
  0
BLOCK
  5
4A1
330
4A0
100
AcDbEntity
  8
0
100
AcDbBlockBegin
  2
_Dot
 70
     0
 10
0.0
 20
0.0
 30
0.0
  3
_Dot
  1

  0
LWPOLYLINE
  5
4A3
330
4A0
100
AcDbEntity
  8
0
  6
ByBlock
 62
     0
100
AcDbPolyline
 90
        2
 70
     1
 43
0.5
 10
-0.25
 20
0.0
 42
1.0
 10
0.25
 20
0.0
 42
1.0
  0
LINE
  5
4A4
330
4A0
100
AcDbEntity
  8
0
  6
ByBlock
 62
     0
370
    -2
100
AcDbLine
 10
-0.5
 20
0.0
 30
0.0
 11
-1.0
 21
0.0
 31
0.0
  0
ENDBLK
  5
4A2
330
4A0
100
AcDbEntity
  8
0
100
AcDbBlockEnd
  0
BLOCK
  5
4A6
330
4A5
100
AcDbEntity
  8
0
100
AcDbBlockBegin
  2
_D_20
 70
     0
 10
0.0
 20
0.0
 30
0.0
  3
_D_20
  1

  0
INSERT
  5
4A8
330
4A5
100
AcDbEntity
  8
FORMAT
100
AcDbBlockReference
  2
_Dot
 10
2386.7911252119
 20
1873.7018448858
 30
0.0
 41
7.112
 42
7.112
 50
180.0
  0
SOLID
  5
4A9
330
4A5
100
AcDbEntity
  8
FORMAT
100
AcDbTrace
 10
2506.7911252119
 20
1873.7018448858
 30
0.0
 11
2483.6771252119
 21
1877.2578448858
 31
0.0
 12
2483.6771252119
 22
1870.1458448858
 32
0.0
 13
2483.6771252119
 23
1870.1458448858
 33
0.0
  0
LINE
  5
4AA
330
4A5
100
AcDbEntity
  8
FORMAT
100
AcDbLine
 10
2386.7911252119
 20
1810.7018448858
 30
0.0
 11
2386.7911252119
 21
1880.7018448858
 31
0.0
  0
LINE
  5
4AB
330
4A5
100
AcDbEntity
  8
FORMAT
100
AcDbLine
 10
2386.7911252119
 20
1873.7018448858
 30
0.0
 11
2506.7911252119
 21
1873.7018448858
 31
0.0
  0
LINE
  5
4AC
330
4A5
100
AcDbEntity
  8
FORMAT
100
AcDbLine
 10
2506.7911252119
 20
1873.7018448858
 30
0.0
 11
2644.8569629966
 21
1873.7018448858
 31
0.0
  0
MTEXT
  5
4AD
330
4A5
100
AcDbEntity
  8
FORMAT
100
AcDbMText
 10
2528.9302521079
 20
1897.5764548719
 30
0.0
 40
18.5208333333
 41
0.0
 71
     1
 72
     1
  1
max. +
  7
SLDTEXTSTYLE0
 73
     1
 44
1.0
  0
MTEXT
  5
4AE
330
4A5
100
AcDbEntity
  8
FORMAT
100
AcDbMText
 10
2603.6995441346
 20
1897.5764548719
 30
0.0
 40
18.5208333333
 41
0.0
 71
     1
 72
     1
  1
120
  7
SLDTEXTSTYLE0
 73
     1
 44
1.0
  0
ENDBLK
  5
4A7
330
4A5
100
AcDbEntity
  8
0
100
AcDbBlockEnd
  0
BLOCK
  5
4B1
330
4B0
100
AcDbEntity
  8
0
100
AcDbBlockBegin
  2
_D_21
 70
     0
 10
0.0
 20
0.0
 30
0.0
  3
_D_21
  1

  0
INSERT
  5
4B3
330
4B0
100
AcDbEntity
  8
FORMAT
100
AcDbBlockReference
  2
_Dot
 10
2386.7911252119
 20
1873.7018448858
 30
0.0
 41
7.112
 42
7.112
 50
0.0
  0
SOLID
  5
4B4
330
4B0
100
AcDbEntity
  8
FORMAT
100
AcDbTrace
 10
2356.7911252119
 20
1873.7018448858
 30
0.0
 11
2379.9051252119
 21
1870.1458448858
 31
0.0
 12
2379.9051252119
 22
1877.2578448858
 32
0.0
 13
2379.9051252119
 23
1877.2578448858
 33
0.0
  0
LINE
  5
4B5
330
4B0
100
AcDbEntity
  8
FORMAT
100
AcDbLine
 10
2386.7911252119
 20
1810.7018448858
 30
0.0
 11
2386.7911252119
 21
1880.7018448858
 31
0.0
  0
LINE
  5
4B6
330
4B0
100
AcDbEntity
  8
FORMAT
100
AcDbLine
 10
2386.7911252119
 20
1873.7018448858
 30
0.0
 11
2356.7911252119
 21
1873.7018448858
 31
0.0
  0
LINE
  5
4B7
330
4B0
100
AcDbEntity
  8
FORMAT
100
AcDbLine
 10
2356.7911252119
 20
1873.7018448858
 30
0.0
 11
2238.2361362219
 21
1873.7018448858
 31
0.0
  0
MTEXT
  5
4B8
330
4B0
100
AcDbEntity
  8
FORMAT
100
AcDbMText
 10
2238.2361362219
 20
1897.5764548719
 30
0.0
 40
18.5208333333
 41
0.0
 71
     1
 72
     1
  1
max. -
  7
SLDTEXTSTYLE0
 73
     1
 44
1.0
  0
MTEXT
  5
4B9
330
4B0
100
AcDbEntity
  8
FORMAT
100
AcDbMText
 10
2306.8318147674
 20
1897.5764548719
 30
0.0
 40
18.5208333333
 41
0.0
 71
     1
 72
     1
  1
30
  7
SLDTEXTSTYLE0
 73
     1
 44
1.0
  0
ENDBLK
  5
4B2
330
4B0
100
AcDbEntity
  8
0
100
AcDbBlockEnd
  0
BLOCK
  5
4BC
330
4BB
100
AcDbEntity
  8
0
100
AcDbBlockBegin
  2
_D_22
 70
     0
 10
0.0
 20
0.0
 30
0.0
  3
_D_22
  1

  0
SOLID
  5
4BE
330
4BB
100
AcDbEntity
  8
FORMAT
100
AcDbTrace
 10
2586.0569619135
 20
1580.201844892
 30
0.0
 11
2589.6129619135
 21
1603.315844892
 31
0.0
 12
2582.5009619135
 22
1603.315844892
 32
0.0
 13
2582.5009619135
 23
1603.315844892
 33
0.0
  0
SOLID
  5
4BF
330
4BB
100
AcDbEntity
  8
FORMAT
100
AcDbTrace
 10
2586.0569619135
 20
1735.2018448858
 30
0.0
 11
2582.5009619135
 21
1712.0878448858
 31
0.0
 12
2589.6129619135
 22
1712.0878448858
 32
0.0
 13
2589.6129619135
 23
1712.0878448858
 33
0.0
  0
LINE
  5
4C0
330
4BB
100
AcDbEntity
  8
FORMAT
100
AcDbLine
 10
2421.2911252096
 20
1580.201844892
 30
0.0
 11
2593.0569619135
 21
1580.201844892
 31
0.0
  0
LINE
  5
4C1
330
4BB
100
AcDbEntity
  8
FORMAT
100
AcDbLine
 10
2508.7911252115
 20
1735.2018448858
 30
0.0
 11
2593.0569619135
 21
1735.2018448858
 31
0.0
  0
LINE
  5
4C2
330
4BB
100
AcDbEntity
  8
FORMAT
100
AcDbLine
 10
2586.0569619135
 20
1580.201844892
 30
0.0
 11
2586.0569619135
 21
1735.2018448858
 31
0.0
  0
MTEXT
  5
4C3
330
4BB
100
AcDbEntity
  8
FORMAT
100
AcDbMText
 10
2554.4748006593
 20
1629.6289289177
 30
0.0
 40
24.5
 41
0.0
 71
     1
 72
     1
  1
155
  7
SLDTEXTSTYLE0
 11
1.738071152410981E-14
 21
1.0
 31
0.0
 73
     1
 44
1.0
  0
ENDBLK
  5
4BD
330
4BB
100
AcDbEntity
  8
0
100
AcDbBlockEnd
  0
BLOCK
  5
4C6
330
4C5
100
AcDbEntity
  8
0
100
AcDbBlockBegin
  2
_D_23
 70
     0
 10
0.0
 20
0.0
 30
0.0
  3
_D_23
  1

  0
SOLID
  5
4C8
330
4C5
100
AcDbEntity
  8
FORMAT
100
AcDbTrace
 10
2273.8113802856
 20
1628.7018448858
 30
0.0
 11
2277.3673802856
 21
1651.8158448858
 31
0.0
 12
2270.2553802856
 22
1651.8158448858
 32
0.0
 13
2270.2553802856
 23
1651.8158448858
 33
0.0
  0
SOLID
  5
4C9
330
4C5
100
AcDbEntity
  8
FORMAT
100
AcDbTrace
 10
2273.8113802856
 20
1736.2018448858
 30
0.0
 11
2270.2553802856
 21
1713.0878448858
 31
0.0
 12
2277.3673802856
 22
1713.0878448858
 32
0.0
 13
2277.3673802856
 23
1713.0878448858
 33
0.0
  0
LINE
  5
4CA
330
4C5
100
AcDbEntity
  8
FORMAT
100
AcDbLine
 10
2339.7911252119
 20
1628.7018448858
 30
0.0
 11
2266.8113802856
 21
1628.7018448858
 31
0.0
  0
LINE
  5
4CB
330
4C5
100
AcDbEntity
  8
FORMAT
100
AcDbLine
 10
2380.7911252115
 20
1736.2018448858
 30
0.0
 11
2266.8113802856
 21
1736.2018448858
 31
0.0
  0
LINE
  5
4CC
330
4C5
100
AcDbEntity
  8
FORMAT
100
AcDbLine
 10
2273.8113802856
 20
1628.7018448858
 30
0.0
 11
2273.8113802856
 21
1736.2018448858
 31
0.0
  0
MTEXT
  5
4CD
330
4C5
100
AcDbEntity
  8
FORMAT
100
AcDbMText
 10
2242.2292190313
 20
1640.3424709289
 30
0.0
 40
24.5
 41
0.0
 71
     1
 72
     1
  1
107,5
  7
SLDTEXTSTYLE0
 11
-5.489882783168415E-15
 21
1.0
 31
0.0
 73
     1
 44
1.0
  0
ENDBLK
  5
4C7
330
4C5
100
AcDbEntity
  8
0
100
AcDbBlockEnd
  0
BLOCK
  5
4D0
330
4CF
100
AcDbEntity
  8
0
100
AcDbBlockBegin
  2
_D_24
 70
     0
 10
0.0
 20
0.0
 30
0.0
  3
_D_24
  1

  0
SOLID
  5
4D2
330
4CF
100
AcDbEntity
  8
FORMAT
100
AcDbTrace
 10
2386.7911252119
 20
1514.6754747393
 30
0.0
 11
2363.6771252119
 21
1518.2314747393
 31
0.0
 12
2363.6771252119
 22
1511.1194747393
 32
0.0
 13
2363.6771252119
 23
1511.1194747393
 33
0.0
  0
SOLID
  5
4D3
330
4CF
100
AcDbEntity
  8
FORMAT
100
AcDbTrace
 10
2414.7911252096
 20
1514.6754747393
 30
0.0
 11
2437.9051252096
 21
1511.1194747393
 31
0.0
 12
2437.9051252096
 22
1518.2314747393
 32
0.0
 13
2437.9051252096
 23
1518.2314747393
 33
0.0
  0
LINE
  5
4D4
330
4CF
100
AcDbEntity
  8
FORMAT
100
AcDbLine
 10
2414.7911252096
 20
1573.701844892
 30
0.0
 11
2414.7911252096
 21
1507.6754747393
 31
0.0
  0
LINE
  5
4D5
330
4CF
100
AcDbEntity
  8
FORMAT
100
AcDbLine
 10
2386.7911252119
 20
1514.6754747393
 30
0.0
 11
2342.3411252119
 21
1514.6754747393
 31
0.0
  0
LINE
  5
4D6
330
4CF
100
AcDbEntity
  8
FORMAT
100
AcDbLine
 10
2386.7911252119
 20
1514.6754747393
 30
0.0
 11
2414.7911252096
 21
1514.6754747393
 31
0.0
  0
LINE
  5
4D7
330
4CF
100
AcDbEntity
  8
FORMAT
100
AcDbLine
 10
2414.7911252096
 20
1514.6754747393
 30
0.0
 11
2487.4140524536
 21
1514.6754747393
 31
0.0
  0
MTEXT
  5
4D8
330
4CF
100
AcDbEntity
  8
FORMAT
100
AcDbMText
 10
2449.9834978252
 20
1546.2576359936
 30
0.0
 40
24.5
 41
0.0
 71
     1
 72
     1
  1
28
  7
SLDTEXTSTYLE0
 73
     1
 44
1.0
  0
ENDBLK
  5
4D1
330
4CF
100
AcDbEntity
  8
0
100
AcDbBlockEnd
  0
BLOCK
  5
4DB
330
4DA
100
AcDbEntity
  8
0
100
AcDbBlockBegin
  2
_D_25
 70
     0
 10
0.0
 20
0.0
 30
0.0
  3
_D_25
  1

  0
SOLID
  5
4DD
330
4DA
100
AcDbEntity
  8
FORMAT
100
AcDbTrace
 10
2386.7911252115
 20
1460.0857955061
 30
0.0
 11
2409.9051252115
 21
1456.5297955061
 31
0.0
 12
2409.9051252115
 22
1463.6417955061
 32
0.0
 13
2409.9051252115
 23
1463.6417955061
 33
0.0
  0
SOLID
  5
4DE
330
4DA
100
AcDbEntity
  8
FORMAT
100
AcDbTrace
 10
2506.7911252116
 20
1460.0857955061
 30
0.0
 11
2483.6771252116
 21
1463.6417955061
 31
0.0
 12
2483.6771252116
 22
1456.5297955061
 32
0.0
 13
2483.6771252116
 23
1456.5297955061
 33
0.0
  0
LINE
  5
4DF
330
4DA
100
AcDbEntity
  8
FORMAT
100
AcDbLine
 10
2386.7911252115
 20
1635.2018448858
 30
0.0
 11
2386.7911252115
 21
1453.0857955061
 31
0.0
  0
LINE
  5
4E0
330
4DA
100
AcDbEntity
  8
FORMAT
100
AcDbLine
 10
2506.7911252116
 20
1638.2018448858
 30
0.0
 11
2506.7911252116
 21
1453.0857955061
 31
0.0
  0
LINE
  5
4E1
330
4DA
100
AcDbEntity
  8
FORMAT
100
AcDbLine
 10
2386.7911252115
 20
1460.0857955061
 30
0.0
 11
2506.7911252116
 21
1460.0857955061
 31
0.0
  0
MTEXT
  5
4E2
330
4DA
100
AcDbEntity
  8
FORMAT
100
AcDbMText
 10
2418.7182092403
 20
1491.6679567603
 30
0.0
 40
24.5
 41
0.0
 71
     1
 72
     1
  1
120
  7
SLDTEXTSTYLE0
 73
     1
 44
1.0
  0
ENDBLK
  5
4DC
330
4DA
100
AcDbEntity
  8
0
100
AcDbBlockEnd
  0
BLOCK
  5
57B
330
57A
100
AcDbEntity
  8
0
100
AcDbBlockBegin
  2
_D_26
 70
     0
 10
0.0
 20
0.0
 30
0.0
  3
_D_26
  1

  0
ARC
  5
57D
330
57A
100
AcDbEntity
  8
FORMAT
100
AcDbCircle
 10
2404.731911713
 20
594.1402052739
 30
0.0
 40
42.03885414329039
100
AcDbArc
 50
153.4349488229
 51
206.5650511771
  0
ARC
  5
57E
330
57A
100
AcDbEntity
  8
FORMAT
100
AcDbCircle
 10
2366.9610778929
 20
594.1402052739
 30
0.0
 40
42.03885414329039
100
AcDbArc
 50
333.4349488229
 51
26.5650511771
  0
SOLID
  5
57F
330
57A
100
AcDbEntity
  8
FORMAT
100
AcDbTrace
 10
2288.472560699
 20
575.3398581618
 30
0.0
 11
2265.358560699
 21
578.8958581618
 31
0.0
 12
2265.358560699
 22
571.7838581618
 32
0.0
 13
2265.358560699
 23
571.7838581618
 33
0.0
  0
SOLID
  5
580
330
57A
100
AcDbEntity
  8
FORMAT
100
AcDbTrace
 10
2327.6725606958
 20
575.3398581618
 30
0.0
 11
2350.7865606958
 21
571.7838581618
 31
0.0
 12
2350.7865606958
 22
578.8958581618
 32
0.0
 13
2350.7865606958
 23
578.8958581618
 33
0.0
  0
LINE
  5
581
330
57A
100
AcDbEntity
  8
FORMAT
100
AcDbLine
 10
2288.472560699
 20
642.9187094746
 30
0.0
 11
2288.472560699
 21
568.3398581618
 31
0.0
  0
LINE
  5
582
330
57A
100
AcDbEntity
  8
FORMAT
100
AcDbLine
 10
2327.6725606958
 20
720.5239742543
 30
0.0
 11
2327.6725606958
 21
568.3398581618
 31
0.0
  0
LINE
  5
583
330
57A
100
AcDbEntity
  8
FORMAT
100
AcDbLine
 10
2288.472560699
 20
575.3398581618
 30
0.0
 11
2244.022560699
 21
575.3398581618
 31
0.0
  0
LINE
  5
584
330
57A
100
AcDbEntity
  8
FORMAT
100
AcDbLine
 10
2288.472560699
 20
575.3398581618
 30
0.0
 11
2327.6725606958
 21
575.3398581618
 31
0.0
  0
LINE
  5
585
330
57A
100
AcDbEntity
  8
FORMAT
100
AcDbLine
 10
2327.6725606958
 20
575.3398581618
 30
0.0
 11
2408.9999305911
 21
575.3398581618
 31
0.0
  0
MTEXT
  5
586
330
57A
100
AcDbEntity
  8
FORMAT
100
AcDbMText
 10
2367.1312174888
 20
606.922019416
 30
0.0
 40
24.5
 41
0.0
 71
     1
 72
     1
  1
28
  7
SLDTEXTSTYLE0
 73
     1
 44
1.0
  0
ENDBLK
  5
57C
330
57A
100
AcDbEntity
  8
0
100
AcDbBlockEnd
  0
BLOCK
  5
589
330
588
100
AcDbEntity
  8
0
100
AcDbBlockBegin
  2
_D_27
 70
     0
 10
0.0
 20
0.0
 30
0.0
  3
_D_27
  1

  0
ARC
  5
58B
330
588
100
AcDbEntity
  8
FORMAT
100
AcDbCircle
 10
2372.0780928946
 20
696.0924093747
 30
0.0
 40
42.03885414329059
100
AcDbArc
 50
243.4349488229
 51
296.5650511771
  0
ARC
  5
58C
330
588
100
AcDbEntity
  8
FORMAT
100
AcDbCircle
 10
2372.0780928946
 20
658.3215755545
 30
0.0
 40
42.03885414329069
100
AcDbArc
 50
63.4349488229
 51
116.5650511771
  0
SOLID
  5
58D
330
588
100
AcDbEntity
  8
FORMAT
100
AcDbTrace
 10
2390.8784400067
 20
726.8239742543
 30
0.0
 11
2387.3224400068
 21
703.7099742543
 31
0.0
 12
2394.4344400068
 22
703.7099742543
 32
0.0
 13
2394.4344400068
 23
703.7099742543
 33
0.0
  0
SOLID
  5
58E
330
588
100
AcDbEntity
  8
FORMAT
100
AcDbTrace
 10
2390.8784400067
 20
750.6239742543
 30
0.0
 11
2394.4344400067
 21
773.7379742543
 31
0.0
 12
2387.3224400067
 22
773.7379742543
 32
0.0
 13
2387.3224400067
 23
773.7379742543
 33
0.0
  0
LINE
  5
58F
330
588
100
AcDbEntity
  8
FORMAT
100
AcDbLine
 10
2333.9725606958
 20
726.8239742543
 30
0.0
 11
2397.8784400067
 21
726.8239742543
 31
0.0
  0
LINE
  5
590
330
588
100
AcDbEntity
  8
FORMAT
100
AcDbLine
 10
2333.9725606958
 20
750.6239742543
 30
0.0
 11
2397.8784400067
 21
750.6239742543
 31
0.0
  0
LINE
  5
591
330
588
100
AcDbEntity
  8
FORMAT
100
AcDbLine
 10
2390.8784400067
 20
726.8239742543
 30
0.0
 11
2390.8784400068
 21
654.0535550467
 31
0.0
  0
LINE
  5
592
330
588
100
AcDbEntity
  8
FORMAT
100
AcDbLine
 10
2390.8784400067
 20
726.8239742543
 30
0.0
 11
2390.8784400067
 21
750.6239742543
 31
0.0
  0
LINE
  5
593
330
588
100
AcDbEntity
  8
FORMAT
100
AcDbLine
 10
2390.8784400067
 20
750.6239742543
 30
0.0
 11
2390.8784400067
 21
795.0739742543
 31
0.0
  0
MTEXT
  5
594
330
588
100
AcDbEntity
  8
FORMAT
100
AcDbMText
 10
2359.2962787525
 20
658.4917151504
 30
0.0
 40
24.5
 41
0.0
 71
     1
 72
     1
  1
17
  7
SLDTEXTSTYLE0
 11
-1.191767205047844E-13
 21
1.0
 31
0.0
 73
     1
 44
1.0
  0
ENDBLK
  5
58A
330
588
100
AcDbEntity
  8
0
100
AcDbBlockEnd
  0
BLOCK
  5
598
330
597
100
AcDbEntity
  8
0
100
AcDbBlockBegin
  2
_D_28
 70
     0
 10
0.0
 20
0.0
 30
0.0
  3
_D_28
  1

  0
SOLID
  5
59A
330
597
100
AcDbEntity
  8
FORMAT
100
AcDbTrace
 10
2496.8799879366
 20
787.7239742456
 30
0.0
 11
2493.3239879366
 21
764.6099742456
 31
0.0
 12
2500.4359879366
 22
764.6099742456
 32
0.0
 13
2500.4359879366
 23
764.6099742456
 33
0.0
  0
SOLID
  5
59B
330
597
100
AcDbEntity
  8
FORMAT
100
AcDbTrace
 10
2496.8799879366
 20
793.3239742454
 30
0.0
 11
2500.4359879366
 21
816.4379742454
 31
0.0
 12
2493.3239879366
 22
816.4379742454
 32
0.0
 13
2493.3239879366
 23
816.4379742454
 33
0.0
  0
LINE
  5
59C
330
597
100
AcDbEntity
  8
FORMAT
100
AcDbLine
 10
2295.472560699
 20
787.7239742456
 30
0.0
 11
2503.8799879366
 21
787.7239742456
 31
0.0
  0
LINE
  5
59D
330
597
100
AcDbEntity
  8
FORMAT
100
AcDbLine
 10
2360.0068866945
 20
793.3239742454
 30
0.0
 11
2503.8799879366
 21
793.3239742454
 31
0.0
  0
LINE
  5
59E
330
597
100
AcDbEntity
  8
FORMAT
100
AcDbLine
 10
2496.8799879366
 20
787.7239742456
 30
0.0
 11
2496.8799879366
 21
718.7319157428
 31
0.0
  0
LINE
  5
59F
330
597
100
AcDbEntity
  8
FORMAT
100
AcDbLine
 10
2496.8799879366
 20
787.7239742456
 30
0.0
 11
2496.8799879366
 21
793.3239742454
 31
0.0
  0
LINE
  5
5A0
330
597
100
AcDbEntity
  8
FORMAT
100
AcDbLine
 10
2496.8799879366
 20
793.3239742454
 30
0.0
 11
2496.8799879366
 21
837.7739742454
 31
0.0
  0
MTEXT
  5
5A1
330
597
100
AcDbEntity
  8
FORMAT
100
AcDbMText
 10
2465.2978266824
 20
718.7319157428
 30
0.0
 40
24.5
 41
0.0
 71
     1
 72
     1
  1
4
  7
SLDTEXTSTYLE0
 11
6.123233995736766E-17
 21
1.0
 31
0.0
 73
     1
 44
1.0
  0
MTEXT
  5
5A2
330
597
100
AcDbEntity
  8
FORMAT
100
AcDbMText
 10
2465.2978266824
 20
737.447193057
 30
0.0
 40
24.5
 41
0.0
 71
     1
 72
     1
  1
*
  7
SLDTEXTSTYLE0
 11
6.123233995736766E-17
 21
1.0
 31
0.0
 73
     1
 44
1.0
  0
ENDBLK
  5
599
330
597
100
AcDbEntity
  8
0
100
AcDbBlockEnd
  0
BLOCK
  5
5A5
330
5A4
100
AcDbEntity
  8
0
100
AcDbBlockBegin
  2
_D_29
 70
     0
 10
0.0
 20
0.0
 30
0.0
  3
_D_29
  1

  0
SOLID
  5
5A7
330
5A4
100
AcDbEntity
  8
FORMAT
100
AcDbTrace
 10
2551.7475653903
 20
793.3239742454
 30
0.0
 11
2548.1915653903
 21
770.2099742454
 31
0.0
 12
2555.3035653903
 22
770.2099742454
 32
0.0
 13
2555.3035653903
 23
770.2099742454
 33
0.0
  0
SOLID
  5
5A8
330
5A4
100
AcDbEntity
  8
FORMAT
100
AcDbTrace
 10
2551.7475653903
 20
810.8239742456
 30
0.0
 11
2555.3035653903
 21
833.9379742456
 31
0.0
 12
2548.1915653903
 22
833.9379742456
 32
0.0
 13
2548.1915653903
 23
833.9379742456
 33
0.0
  0
LINE
  5
5A9
330
5A4
100
AcDbEntity
  8
FORMAT
100
AcDbLine
 10
2360.0068866945
 20
793.3239742454
 30
0.0
 11
2380.3784400067
 21
793.3239742454
 31
0.0
  0
LINE
  5
5AA
330
5A4
100
AcDbEntity
  8
FORMAT
100
AcDbLine
 10
2401.3784400067
 20
793.3239742454
 30
0.0
 11
2558.7475653903
 21
793.3239742454
 31
0.0
  0
LINE
  5
5AB
330
5A4
100
AcDbEntity
  8
FORMAT
100
AcDbLine
 10
2456.4725606985
 20
810.8239742456
 30
0.0
 11
2486.3799879366
 21
810.8239742456
 31
0.0
  0
LINE
  5
5AC
330
5A4
100
AcDbEntity
  8
FORMAT
100
AcDbLine
 10
2507.3799879366
 20
810.8239742456
 30
0.0
 11
2558.7475653903
 21
810.8239742456
 31
0.0
  0
LINE
  5
5AD
330
5A4
100
AcDbEntity
  8
FORMAT
100
AcDbLine
 10
2551.7475653903
 20
793.3239742454
 30
0.0
 11
2551.7475653903
 21
748.8739742454
 31
0.0
  0
LINE
  5
5AE
330
5A4
100
AcDbEntity
  8
FORMAT
100
AcDbLine
 10
2551.7475653903
 20
793.3239742454
 30
0.0
 11
2551.7475653903
 21
810.8239742456
 31
0.0
  0
LINE
  5
5AF
330
5A4
100
AcDbEntity
  8
FORMAT
100
AcDbLine
 10
2551.7475653903
 20
810.8239742456
 30
0.0
 11
2551.7475653903
 21
899.7400029783
 31
0.0
  0
MTEXT
  5
5B0
330
5A4
100
AcDbEntity
  8
FORMAT
100
AcDbMText
 10
2520.1654041361
 20
834.2365323787
 30
0.0
 40
24.5
 41
0.0
 71
     1
 72
     1
  1
12,5
  7
SLDTEXTSTYLE0
 11
6.123233995736766E-17
 21
1.0
 31
0.0
 73
     1
 44
1.0
  0
ENDBLK
  5
5A6
330
5A4
100
AcDbEntity
  8
0
100
AcDbBlockEnd
  0
BLOCK
  5
5B4
330
5B3
100
AcDbEntity
  8
0
100
AcDbBlockBegin
  2
_D_30
 70
     0
 10
0.0
 20
0.0
 30
0.0
  3
_D_30
  1

  0
SOLID
  5
5B6
330
5B3
100
AcDbEntity
  8
FORMAT
100
AcDbTrace
 10
2096.7701329295
 20
750.6239742542
 30
0.0
 11
2093.2141329295
 21
727.5099742542
 31
0.0
 12
2100.3261329295
 22
727.5099742542
 32
0.0
 13
2100.3261329295
 23
727.5099742542
 33
0.0
  0
INSERT
  5
5B7
330
5B3
100
AcDbEntity
  8
FORMAT
100
AcDbBlockReference
  2
_Dot
 10
2096.7701329295
 20
787.7239742456
 30
1002.7187017112
 41
7.112
 42
7.112
 50
270.0
  0
LINE
  5
5B8
330
5B3
100
AcDbEntity
  8
FORMAT
100
AcDbLine
 10
2282.1725606958
 20
750.6239742542
 30
0.0
 11
2089.7701329295
 21
750.6239742542
 31
0.0
  0
LINE
  5
5B9
330
5B3
100
AcDbEntity
  8
FORMAT
100
AcDbLine
 10
2225.472560699
 20
787.7239742456
 30
0.0
 11
2089.7701329295
 21
787.7239742456
 31
0.0
  0
LINE
  5
5BA
330
5B3
100
AcDbEntity
  8
FORMAT
100
AcDbLine
 10
2096.7701329295
 20
750.6239742542
 30
0.0
 11
2096.7701329295
 21
644.4552563617
 31
0.0
  0
LINE
  5
5BB
330
5B3
100
AcDbEntity
  8
FORMAT
100
AcDbLine
 10
2096.7701329295
 20
750.6239742542
 30
0.0
 11
2096.7701329295
 21
787.7239742456
 31
0.0
  0
LINE
  5
5BC
330
5B3
100
AcDbEntity
  8
FORMAT
100
AcDbLine
 10
2096.7701329295
 20
787.7239742456
 30
0.0
 11
2096.7701329295
 21
832.1739742456
 31
0.0
  0
MTEXT
  5
5BD
330
5B3
100
AcDbEntity
  8
FORMAT
100
AcDbMText
 10
2065.1879716753
 20
644.4552563617
 30
0.0
 40
24.5
 41
0.0
 71
     1
 72
     1
  1
26,5
  7
SLDTEXTSTYLE0
 11
6.123233995736766E-17
 21
1.0
 31
0.0
 73
     1
 44
1.0
  0
ENDBLK
  5
5B5
330
5B3
100
AcDbEntity
  8
0
100
AcDbBlockEnd
  0
BLOCK
  5
5C1
330
5C0
100
AcDbEntity
  8
0
100
AcDbBlockBegin
  2
_D_31
 70
     0
 10
0.0
 20
0.0
 30
0.0
  3
_D_31
  1

  0
INSERT
  5
5C3
330
5C0
100
AcDbEntity
  8
FORMAT
100
AcDbBlockReference
  2
_Dot
 10
2096.7701329295
 20
787.7239742456
 30
1002.7187017112
 41
7.112
 42
7.112
 50
90.0
  0
SOLID
  5
5C4
330
5C0
100
AcDbEntity
  8
FORMAT
100
AcDbTrace
 10
2096.7701329295
 20
810.8239742456
 30
0.0
 11
2100.3261329295
 21
833.9379742456
 31
0.0
 12
2093.2141329295
 22
833.9379742456
 32
0.0
 13
2093.2141329295
 23
833.9379742456
 33
0.0
  0
LINE
  5
5C5
330
5C0
100
AcDbEntity
  8
FORMAT
100
AcDbLine
 10
2225.472560699
 20
787.7239742456
 30
0.0
 11
2089.7701329295
 21
787.7239742456
 31
0.0
  0
LINE
  5
5C6
330
5C0
100
AcDbEntity
  8
FORMAT
100
AcDbLine
 10
2281.4725606985
 20
810.8239742456
 30
0.0
 11
2089.7701329295
 21
810.8239742456
 31
0.0
  0
LINE
  5
5C7
330
5C0
100
AcDbEntity
  8
FORMAT
100
AcDbLine
 10
2096.7701329295
 20
787.7239742456
 30
0.0
 11
2096.7701329295
 21
743.2739742456
 31
0.0
  0
LINE
  5
5C8
330
5C0
100
AcDbEntity
  8
FORMAT
100
AcDbLine
 10
2096.7701329295
 20
787.7239742456
 30
0.0
 11
2096.7701329295
 21
810.8239742456
 31
0.0
  0
LINE
  5
5C9
330
5C0
100
AcDbEntity
  8
FORMAT
100
AcDbLine
 10
2096.7701329295
 20
810.8239742456
 30
0.0
 11
2096.7701329295
 21
899.740003011
 31
0.0
  0
MTEXT
  5
5CA
330
5C0
100
AcDbEntity
  8
FORMAT
100
AcDbMText
 10
2065.1879716753
 20
834.2365324113
 30
0.0
 40
24.5
 41
0.0
 71
     1
 72
     1
  1
16,5
  7
SLDTEXTSTYLE0
 11
6.123233995736766E-17
 21
1.0
 31
0.0
 73
     1
 44
1.0
  0
ENDBLK
  5
5C2
330
5C0
100
AcDbEntity
  8
0
100
AcDbBlockEnd
  0
BLOCK
  5
5CD
330
5CC
100
AcDbEntity
  8
0
100
AcDbBlockBegin
  2
_D_32
 70
     0
 10
0.0
 20
0.0
 30
0.0
  3
_D_32
  1

  0
SOLID
  5
5CF
330
5CC
100
AcDbEntity
  8
FORMAT
100
AcDbTrace
 10
2151.4795471526
 20
803.1239742454
 30
0.0
 11
2147.9235471526
 21
780.0099742454
 31
0.0
 12
2155.0355471526
 22
780.0099742454
 32
0.0
 13
2155.0355471526
 23
780.0099742454
 33
0.0
  0
SOLID
  5
5D0
330
5CC
100
AcDbEntity
  8
FORMAT
100
AcDbTrace
 10
2151.4795471526
 20
810.8239742456
 30
0.0
 11
2155.0355471526
 21
833.9379742456
 31
0.0
 12
2147.9235471526
 22
833.9379742456
 32
0.0
 13
2147.9235471526
 23
833.9379742456
 33
0.0
  0
LINE
  5
5D1
330
5CC
100
AcDbEntity
  8
FORMAT
100
AcDbLine
 10
2311.5685228454
 20
803.1239742454
 30
0.0
 11
2144.4795471526
 21
803.1239742454
 31
0.0
  0
LINE
  5
5D2
330
5CC
100
AcDbEntity
  8
FORMAT
100
AcDbLine
 10
2281.4725606985
 20
810.8239742456
 30
0.0
 11
2144.4795471526
 21
810.8239742456
 31
0.0
  0
LINE
  5
5D3
330
5CC
100
AcDbEntity
  8
FORMAT
100
AcDbLine
 10
2151.4795471526
 20
803.1239742454
 30
0.0
 11
2151.4795471526
 21
758.6739742454
 31
0.0
  0
LINE
  5
5D4
330
5CC
100
AcDbEntity
  8
FORMAT
100
AcDbLine
 10
2151.4795471526
 20
803.1239742454
 30
0.0
 11
2151.4795471526
 21
810.8239742456
 31
0.0
  0
LINE
  5
5D5
330
5CC
100
AcDbEntity
  8
FORMAT
100
AcDbLine
 10
2151.4795471526
 20
810.8239742456
 30
0.0
 11
2151.4795471526
 21
887.7373044191
 31
0.0
  0
MTEXT
  5
5D6
330
5CC
100
AcDbEntity
  8
FORMAT
100
AcDbMText
 10
2119.8973858984
 20
840.9491111337
 30
0.0
 40
24.5
 41
0.0
 71
     1
 72
     1
  1
5,5
  7
SLDTEXTSTYLE0
 11
6.123233995736766E-17
 21
1.0
 31
0.0
 73
     1
 44
1.0
  0
ENDBLK
  5
5CE
330
5CC
100
AcDbEntity
  8
0
100
AcDbBlockEnd
  0
BLOCK
  5
5FA
330
5F9
100
AcDbEntity
  8
0
100
AcDbBlockBegin
  2
_D_33
 70
     0
 10
0.0
 20
0.0
 30
0.0
  3
_D_33
  1

  0
SOLID
  5
5FC
330
5F9
100
AcDbEntity
  8
FORMAT
100
AcDbTrace
 10
1754.5096040063
 20
251.6105546961
 30
0.0
 11
1750.9536040063
 21
228.4965546961
 31
0.0
 12
1758.0656040063
 22
228.4965546961
 32
0.0
 13
1758.0656040063
 23
228.4965546961
 33
0.0
  0
SOLID
  5
5FD
330
5F9
100
AcDbEntity
  8
FORMAT
100
AcDbTrace
 10
1754.5096040063
 20
262.1105546961
 30
0.0
 11
1758.0656040063
 21
285.2245546961
 31
0.0
 12
1750.9536040063
 22
285.2245546961
 32
0.0
 13
1750.9536040063
 23
285.2245546961
 33
0.0
  0
LINE
  5
5FE
330
5F9
100
AcDbEntity
  8
FORMAT
100
AcDbLine
 10
1785.8650327579
 20
251.6105546961
 30
0.0
 11
1747.5096040063
 21
251.6105546961
 31
0.0
  0
LINE
  5
5FF
330
5F9
100
AcDbEntity
  8
FORMAT
100
AcDbLine
 10
1837.7226842777
 20
262.1105546961
 30
0.0
 11
1747.5096040063
 21
262.1105546961
 31
0.0
  0
LINE
  5
600
330
5F9
100
AcDbEntity
  8
FORMAT
100
AcDbLine
 10
1754.5096040063
 20
251.6105546961
 30
0.0
 11
1754.5096040063
 21
177.9743376822
 31
0.0
  0
LINE
  5
601
330
5F9
100
AcDbEntity
  8
FORMAT
100
AcDbLine
 10
1754.5096040063
 20
251.6105546961
 30
0.0
 11
1754.5096040063
 21
262.1105546961
 31
0.0
  0
LINE
  5
602
330
5F9
100
AcDbEntity
  8
FORMAT
100
AcDbLine
 10
1754.5096040063
 20
262.1105546961
 30
0.0
 11
1754.5096040063
 21
306.5605546961
 31
0.0
  0
MTEXT
  5
603
330
5F9
100
AcDbEntity
  8
FORMAT
100
AcDbMText
 10
1722.9274427521
 20
177.9743376822
 30
0.0
 40
24.5
 41
0.0
 71
     1
 72
     1
  1
7,5
  7
SLDTEXTSTYLE0
 11
2.832769448823990E-16
 21
1.0
 31
0.0
 73
     1
 44
1.0
  0
ENDBLK
  5
5FB
330
5F9
100
AcDbEntity
  8
0
100
AcDbBlockEnd
  0
BLOCK
  5
607
330
606
100
AcDbEntity
  8
0
100
AcDbBlockBegin
  2
_D_34
 70
     0
 10
0.0
 20
0.0
 30
0.0
  3
_D_34
  1

  0
SOLID
  5
609
330
606
100
AcDbEntity
  8
FORMAT
100
AcDbTrace
 10
1692.3292351776
 20
262.1105546961
 30
0.0
 11
1695.8852351776
 21
285.2245546961
 31
0.0
 12
1688.7732351776
 22
285.2245546961
 32
0.0
 13
1688.7732351776
 23
285.2245546961
 33
0.0
  0
SOLID
  5
60A
330
606
100
AcDbEntity
  8
FORMAT
100
AcDbTrace
 10
1692.3292351776
 20
368.5105546961
 30
0.0
 11
1688.7732351776
 21
345.3965546961
 31
0.0
 12
1695.8852351776
 22
345.3965546961
 32
0.0
 13
1695.8852351776
 23
345.3965546961
 33
0.0
  0
LINE
  5
60B
330
606
100
AcDbEntity
  8
FORMAT
100
AcDbLine
 10
1829.6726842777
 20
262.1105546961
 30
0.0
 11
1685.3292351776
 21
262.1105546961
 31
0.0
  0
LINE
  5
60C
330
606
100
AcDbEntity
  8
FORMAT
100
AcDbLine
 10
1829.6726842777
 20
368.5105546961
 30
0.0
 11
1685.3292351776
 21
368.5105546961
 31
0.0
  0
LINE
  5
60D
330
606
100
AcDbEntity
  8
FORMAT
100
AcDbLine
 10
1692.3292351776
 20
262.1105546961
 30
0.0
 11
1692.3292351776
 21
368.5105546961
 31
0.0
  0
MTEXT
  5
60E
330
606
100
AcDbEntity
  8
FORMAT
100
AcDbMText
 10
1660.7470739234
 20
296.595277382
 30
0.0
 40
24.5
 41
0.0
 71
     1
 72
     1
  1
76
  7
SLDTEXTSTYLE0
 11
6.123233995736766E-17
 21
1.0
 31
0.0
 73
     1
 44
1.0
  0
ENDBLK
  5
608
330
606
100
AcDbEntity
  8
0
100
AcDbBlockEnd
  0
BLOCK
  5
611
330
610
100
AcDbEntity
  8
0
100
AcDbBlockBegin
  2
SW_CENTERMARKSYMBOL_12
 70
     0
 10
0.0
 20
0.0
 30
0.0
  3
SW_CENTERMARKSYMBOL_12
  1

  0
LINE
  5
613
330
610
100
AcDbEntity
  8
FORMAT
 62
     0
100
AcDbLine
 10
0.0
 20
0.0
 30
0.0
 11
0.0
 21
3.4999966621
 31
0.0
  0
LINE
  5
614
330
610
100
AcDbEntity
  8
FORMAT
 62
     0
100
AcDbLine
 10
0.0
 20
0.0
 30
0.0
 11
-3.4999966621
 21
0.0
 31
0.0
  0
LINE
  5
615
330
610
100
AcDbEntity
  8
FORMAT
 62
     0
100
AcDbLine
 10
0.0
 20
0.0
 30
0.0
 11
0.0
 21
-3.5000175238
 31
0.0
  0
LINE
  5
616
330
610
100
AcDbEntity
  8
FORMAT
 62
     0
100
AcDbLine
 10
0.0
 20
0.0
 30
0.0
 11
3.4999966621
 21
0.0
 31
0.0
  0
LINE
  5
617
330
610
100
AcDbEntity
  8
FORMAT
 62
     0
100
AcDbLine
 10
0.0
 20
6.9999933243
 30
0.0
 11
0.0
 21
8.0500006676
 31
0.0
  0
LINE
  5
618
330
610
100
AcDbEntity
  8
FORMAT
 62
     0
100
AcDbLine
 10
-6.9999933243
 20
0.0
 30
0.0
 11
-8.0500006676
 21
0.0
 31
0.0
  0
LINE
  5
619
330
610
100
AcDbEntity
  8
FORMAT
 62
     0
100
AcDbLine
 10
0.0
 20
-7.0000141859
 30
0.0
 11
0.0
 21
-8.0500006676
 31
0.0
  0
LINE
  5
61A
330
610
100
AcDbEntity
  8
FORMAT
 62
     0
100
AcDbLine
 10
6.9999933243
 20
0.0
 30
0.0
 11
8.0500006676
 21
0.0
 31
0.0
  0
ENDBLK
  5
612
330
610
100
AcDbEntity
  8
0
100
AcDbBlockEnd
  0
BLOCK
  5
61D
330
61C
100
AcDbEntity
  8
0
100
AcDbBlockBegin
  2
SW_CENTERMARKSYMBOL_13
 70
     0
 10
0.0
 20
0.0
 30
0.0
  3
SW_CENTERMARKSYMBOL_13
  1

  0
LINE
  5
61F
330
61C
100
AcDbEntity
  8
FORMAT
 62
     0
100
AcDbLine
 10
0.0
 20
0.0
 30
0.0
 11
0.0
 21
3.4999966621
 31
0.0
  0
LINE
  5
620
330
61C
100
AcDbEntity
  8
FORMAT
 62
     0
100
AcDbLine
 10
0.0
 20
0.0
 30
0.0
 11
-3.4999966621
 21
0.0
 31
0.0
  0
LINE
  5
621
330
61C
100
AcDbEntity
  8
FORMAT
 62
     0
100
AcDbLine
 10
0.0
 20
0.0
 30
0.0
 11
0.0
 21
-3.4999966621
 31
0.0
  0
LINE
  5
622
330
61C
100
AcDbEntity
  8
FORMAT
 62
     0
100
AcDbLine
 10
0.0
 20
0.0
 30
0.0
 11
3.4999966621
 21
0.0
 31
0.0
  0
LINE
  5
623
330
61C
100
AcDbEntity
  8
FORMAT
 62
     0
100
AcDbLine
 10
0.0
 20
7.0000037551
 30
0.0
 11
0.0
 21
8.0500006676
 31
0.0
  0
LINE
  5
624
330
61C
100
AcDbEntity
  8
FORMAT
 62
     0
100
AcDbLine
 10
-6.9999933243
 20
0.0
 30
0.0
 11
-8.0500006676
 21
0.0
 31
0.0
  0
LINE
  5
625
330
61C
100
AcDbEntity
  8
FORMAT
 62
     0
100
AcDbLine
 10
0.0
 20
-7.0000037551
 30
0.0
 11
0.0
 21
-8.0500006676
 31
0.0
  0
LINE
  5
626
330
61C
100
AcDbEntity
  8
FORMAT
 62
     0
100
AcDbLine
 10
6.9999933243
 20
0.0
 30
0.0
 11
8.0500006676
 21
0.0
 31
0.0
  0
ENDBLK
  5
61E
330
61C
100
AcDbEntity
  8
0
100
AcDbBlockEnd
  0
ENDSEC
  0
SECTION
  2
ENTITIES
  0
LINE
  5
CA
330
1F
100
AcDbEntity
  8
FORMAT
  6
Continuous
 62
     7
370
    18
100
AcDbLine
 10
2648.7467156628
 20
249.0548071362
 30
0.0
 11
2121.8704816337
 21
249.0548071362
 31
0.0
  0
LINE
  5
CB
330
1F
100
AcDbEntity
  8
FORMAT
  6
Continuous
 62
     7
370
    18
100
AcDbLine
 10
2648.7467156628
 20
341.1944719343
 30
0.0
 11
2869.6070185003
 21
341.1944719343
 31
0.0
  0
LINE
  5
CC
330
1F
100
AcDbEntity
  8
0
  6
Continuous
 62
     7
370
    18
100
AcDbLine
 10
2552.9704263625
 20
249.0548071362
 30
0.0
 11
2552.9704263625
 21
181.3583509723
 31
0.0
  0
LINE
  5
CD
330
1F
100
AcDbEntity
  8
FORMAT
100
AcDbLine
 10
2869.6070185003
 20
2009.0
 30
0.0
 11
69.6070185003
 21
2009.0
 31
0.0
  0
LINE
  5
CE
330
1F
100
AcDbEntity
  8
FORMAT
100
AcDbLine
 10
69.6070185003
 20
2009.0
 30
0.0
 11
69.6070185003
 21
70.0
 31
0.0
  0
LINE
  5
CF
330
1F
100
AcDbEntity
  8
BEMASSUNG
  6
Continuous
 62
     7
370
    18
100
AcDbLine
 10
2648.7467156628
 20
283.9466531596
 30
0.0
 11
2869.6070185003
 21
283.9466531596
 31
0.0
  0
LINE
  5
D0
330
1F
100
AcDbEntity
  8
FORMAT
100
AcDbLine
 10
69.6070185003
 20
70.0
 30
0.0
 11
2869.6070185003
 21
70.0
 31
0.0
  0
LINE
  5
D1
330
1F
100
AcDbEntity
  8
FORMAT
100
AcDbLine
 10
2869.6070185003
 20
70.0
 30
0.0
 11
2869.6070185003
 21
2009.0
 31
0.0
  0
LINE
  5
D2
330
1F
100
AcDbEntity
  8
0
  6
Continuous
 62
     7
370
    18
100
AcDbLine
 10
2121.8704816337
 20
368.7467824209
 30
0.0
 11
2121.8704816337
 21
70.0000160588
 31
0.0
  0
LINE
  5
D3
330
1F
100
AcDbEntity
  8
0
  6
Continuous
 62
     7
370
    18
100
AcDbLine
 10
2766.39523512
 20
70.0
 30
0.0
 11
2766.39523512
 21
135.4292810523
 31
0.0
  0
LINE
  5
D4
330
1F
100
AcDbEntity
  8
0
  6
Continuous
 62
     7
370
    18
100
AcDbLine
 10
2121.8704816337
 20
181.3583509723
 30
0.0
 11
2869.6070185003
 21
181.3583509723
 31
0.0
  0
LINE
  5
D5
330
1F
100
AcDbEntity
  8
0
  6
Continuous
 62
     7
370
    18
100
AcDbLine
 10
2648.7467156628
 20
135.4292810523
 30
0.0
 11
2869.6070185003
 21
135.4292810523
 31
0.0
  0
LINE
  5
D6
330
1F
100
AcDbEntity
  8
0
  6
Continuous
 62
     7
370
    18
100
AcDbLine
 10
2121.8704816337
 20
368.7467824209
 30
0.0
 11
2869.7006917056
 21
368.7467824209
 31
0.0
  0
LINE
  5
D7
330
1F
100
AcDbEntity
  8
0
  6
Continuous
 62
     7
370
    18
100
AcDbLine
 10
2648.7467156628
 20
70.0
 30
0.0
 11
2648.7467156628
 21
368.7467824209
 31
0.0
  0
INSERT
  5
D8
330
1F
100
AcDbEntity
  8
0
  6
Continuous
 62
     7
100
AcDbBlockReference
  2
Block2_3_1
 10
509.1807851128
 20
-261.5944962483
 30
0.0
  0
INSERT
  5
D9
330
1F
100
AcDbEntity
  8
0
  6
Continuous
 62
     7
100
AcDbBlockReference
  2
Block1_3_1
 10
2700.6135347481
 20
189.6696797211
 30
0.0
  0
INSERT
  5
DA
330
1F
100
AcDbEntity
  8
FORMAT
100
AcDbBlockReference
  2
rechtlicher_Hinweis_Katalogzeichnungen_1
 10
86.2294908427
 20
31.5549972483
 30
0.0
 41
0.5
 42
0.5
 43
0.5
  0
MTEXT
  5
DB
330
1F
100
AcDbEntity
  8
FORMAT
100
AcDbMText
 10
2377.9643675558
 20
1903.2825585963
 30
0.0
 40
18.5208333333
 41
0.0
 71
     1
 72
     1
  1
**
  7
SLDTEXTSTYLE0
 73
     1
 44
1.0
  0
MTEXT
  5
DC
330
1F
100
AcDbEntity
  8
FORMAT
100
AcDbMText
 10
2177.1688554197
 20
540.4681084099
 30
0.0
 40
18.5208333333
 41
0.0
 71
     1
 72
     1
  1
* Abstand Unterkante Hebel zu Oberkante Türflügel
  7
SLDTEXTSTYLE0
 73
     1
 44
1.0
  0
INSERT
  5
E3
330
1F
100
AcDbEntity
  8
FORMAT
100
AcDbBlockReference
  2
SW_NOTE_0_4
 10
105.6480293624
 20
353.9383854232
 30
0.0
  0
MTEXT
  5
E4
330
1F
100
AcDbEntity
  8
0
  6
Continuous
 62
     7
370
     0
100
AcDbMText
 10
2655.2495495755
 20
165.0094332157
 30
0.0
 40
14.0
 41
0.0
 71
     1
 72
     1
  1
Maßstab:
  7
SLDTEXTSTYLE0
 73
     1
 44
1.0
  0
MTEXT
  5
E5
330
1F
100
AcDbEntity
  8
0
  6
Continuous
 62
     7
370
     0
100
AcDbMText
 10
2785.9502817651
 20
125.2286542559
 30
0.0
 40
14.0
 41
0.0
 71
     1
 72
     1
  1
Format
  7
SLDTEXTSTYLE0
 73
     1
 44
1.0
  0
MTEXT
  5
E6
330
1F
100
AcDbEntity
  8
0
  6
Continuous
 62
     7
370
     0
100
AcDbMText
 10
2135.8123898948
 20
356.9818853041
 30
0.0
 40
14.0
 41
0.0
 71
     1
 72
     1
  1
Benennung:
  7
SLDTEXTSTYLE0
 73
     1
 44
1.0
  0
MTEXT
  5
E7
330
1F
100
AcDbEntity
  8
0
  6
Continuous
 62
     7
370
     0
100
AcDbMText
 10
2664.5005395913
 20
125.2286542559
 30
0.0
 40
14.0
 41
0.0
 71
     1
 72
     1
  1
Blatt / von
  7
SLDTEXTSTYLE0
 73
     1
 44
1.0
  0
MTEXT
  5
E8
330
1F
100
AcDbEntity
  8
0
  6
Continuous
 62
     7
370
     0
100
AcDbMText
 10
2706.4725907482
 20
100.6974422258
 30
0.0
 40
17.5
 41
0.0
 71
     2
 72
     1
  1
/
  7
SLDTEXTSTYLE0
 73
     1
 44
1.0
  0
MTEXT
  5
EA
330
1F
100
AcDbEntity
  8
0
  6
Continuous
 62
     7
370
     0
100
AcDbMText
 10
2134.2541581219
 20
214.7882486886
 30
0.0
 40
22.225
 41
0.0
 71
     1
 72
     1
  1
D052-49460
  7
SLDTEXTSTYLE3
 73
     1
 44
1.0
  0
MTEXT
  5
EB
330
1F
100
AcDbEntity
  8
0
  6
Continuous
 62
     7
370
     0
100
AcDbMText
 10
2752.495267605
 20
165.9085614452
 30
0.0
 40
14.8166666667
 41
0.0
 71
     1
 72
     1
  1
1:7
  7
SLDTEXTSTYLE0
 73
     1
 44
1.0
  0
MTEXT
  5
EC
330
1F
100
AcDbEntity
  8
0
  6
Continuous
 62
     7
370
     0
100
AcDbMText
 10
2803.7489693293
 20
99.2074950551
 30
0.0
 40
14.8166666667
 41
0.0
 71
     1
 72
     1
  1
A3
  7
SLDTEXTSTYLE0
 73
     1
 44
1.0
  0
MTEXT
  5
ED
330
1F
100
AcDbEntity
  8
0
  6
Continuous
 62
     7
370
     0
100
AcDbMText
 10
2680.0334055091
 20
99.9642475618
 30
0.0
 40
14.8166666667
 41
0.0
 71
     1
 72
     1
  1
1
  7
SLDTEXTSTYLE0
 73
     1
 44
1.0
  0
MTEXT
  5
EE
330
1F
100
AcDbEntity
  8
0
  6
Continuous
 62
     7
370
     0
100
AcDbMText
 10
2722.5410575592
 20
99.9642475618
 30
0.0
 40
14.8166666667
 41
0.0
 71
     1
 72
     1
  1
1
  7
SLDTEXTSTYLE0
 73
     1
 44
1.0
  0
MTEXT
  5
EF
330
1F
100
AcDbEntity
  8
FORMAT
100
AcDbMText
 10
2137.971220638
 20
240.9301481691
 30
0.0
 40
14.0
 41
0.0
 71
     1
 72
     1
  1
Zeichnungsnummer:
  7
SLDTEXTSTYLE0
 73
     1
 44
1.0
  0
MTEXT
  5
F0
330
1F
100
AcDbEntity
  8
FORMAT
100
AcDbMText
 10
2666.6233339517
 20
361.2067203863
 30
0.0
 40
12.6
 41
0.0
 71
     1
 72
     1
  1
KATALOGZEICHNUNG
  7
SLDTEXTSTYLE3
 73
     1
 44
1.0
  0
MTEXT
  5
F1
330
1F
100
AcDbEntity
  8
FORMAT
100
AcDbMText
 10
2573.4610565193
 20
241.0417881835
 30
0.0
 40
14.0
 41
0.0
 71
     1
 72
     1
  1
Index:
  7
SLDTEXTSTYLE0
 73
     1
 44
1.0
  0
MTEXT
  5
F2
330
1F
100
AcDbEntity
  8
BEMASSUNG
 62
     7
100
AcDbMText
 10
2654.3752871088
 20
335.5547520888
 30
0.0
 40
14.0
 41
0.0
 71
     1
 72
     1
  1
Ausführung:
  7
SLDTEXTSTYLE0
 73
     1
 44
1.0
  0
MTEXT
  5
F3
330
1F
100
AcDbEntity
  8
FORMAT
100
AcDbMText
 10
2134.4508235056
 20
277.1473496808
 30
0.0
 40
17.5
 41
0.0
 71
     1
 72
     1
  1
Bandseite DIN Links
  7
SLDTEXTSTYLE3
 73
     1
 44
1.0
  0
MTEXT
  5
F4
330
1F
100
AcDbEntity
  8
FORMAT
100
AcDbMText
 10
2134.4508235056
 20
333.2914097385
 30
0.0
 40
24.5
 41
0.0
 71
     1
 72
     1
  1
ETS 73 (GSZ - GB 46 - AV 0)
  7
SLDTEXTSTYLE3
 73
     1
 44
1.0
  0
INSERT
  5
11D
330
1F
100
AcDbEntity
  8
FORMAT
100
AcDbBlockReference
  2
SW_TABLEANNOTATION_0
 10
1685.7743087498
 20
1681.062151304
 30
0.0
  0
LINE
  5
11E
330
1F
100
AcDbEntity
  8
0
  6
Continuous
 62
     7
370
    25
100
AcDbLine
 10
1153.9216393531
 20
1627.2018448858
 30
0.0
 11
1153.9216393531
 21
1597.2018448901
 31
0.0
  0
LINE
  5
11F
330
1F
100
AcDbEntity
  8
0
  6
Continuous
 62
     7
370
    25
100
AcDbLine
 10
1167.9216393531
 20
1597.2018448901
 30
0.0
 11
1167.9216393531
 21
1627.2018448858
 31
0.0
  0
LINE
  5
120
330
1F
100
AcDbEntity
  8
0
  6
Continuous
 62
     7
370
    25
100
AcDbLine
 10
1165.9216393531
 20
1627.2018448858
 30
0.0
 11
1165.9216393531
 21
1627.7018448857
 31
0.0
  0
LINE
  5
121
330
1F
100
AcDbEntity
  8
0
  6
Continuous
 62
     7
370
    25
100
AcDbLine
 10
1155.9216393531
 20
1627.7018448857
 30
0.0
 11
1155.9216393531
 21
1627.2018448858
 31
0.0
  0
ARC
  5
122
330
1F
100
AcDbEntity
  8
0
  6
Continuous
 62
     7
370
    25
100
AcDbCircle
 10
781.6629862077
 20
1637.7018448857
 30
0.0
 40
3.0
100
AcDbArc
 50
179.9999999999
 51
270.0
  0
LINE
  5
123
330
1F
100
AcDbEntity
  8
0
  6
Continuous
 62
     7
370
    25
100
AcDbLine
 10
748.6629862078
 20
1640.2018448858
 30
0.0
 11
748.6629862078
 21
1628.7018448857
 31
0.0
  0
LINE
  5
124
330
1F
100
AcDbEntity
  8
0
  6
Continuous
 62
     7
370
    25
100
AcDbLine
 10
778.6629862077
 20
1637.7018448857
 30
0.0
 11
778.6629862077
 21
1640.2018448858
 31
0.0
  0
LINE
  5
125
330
1F
100
AcDbEntity
  8
0
  6
Continuous
 62
     7
370
    25
100
AcDbLine
 10
748.6629862078
 20
1628.7018448857
 30
0.0
 11
749.6629862078
 21
1627.7018448857
 31
0.0
  0
LINE
  5
126
330
1F
100
AcDbEntity
  8
0
  6
Continuous
 62
     7
370
    25
100
AcDbLine
 10
1170.9216393528
 20
1627.7018448857
 30
0.0
 11
1171.9216393528
 21
1628.7018448857
 31
0.0
  0
LINE
  5
127
330
1F
100
AcDbEntity
  8
0
  6
Continuous
 62
     7
370
    25
100
AcDbLine
 10
1171.9216393528
 20
1633.7018448857
 30
0.0
 11
1170.9216393528
 21
1634.7018448857
 31
0.0
  0
LINE
  5
128
330
1F
100
AcDbEntity
  8
0
  6
Continuous
 62
     7
370
    25
100
AcDbLine
 10
1171.9216393528
 20
1628.7018448857
 30
0.0
 11
1171.9216393528
 21
1633.7018448857
 31
0.0
  0
LINE
  5
129
330
1F
100
AcDbEntity
  8
0
  6
Continuous
 62
     7
370
    25
100
AcDbLine
 10
471.6629862278
 20
1443.7018448858
 30
0.0
 11
471.6629862278
 21
1403.7018448858
 31
0.0
  0
LINE
  5
12A
330
1F
100
AcDbEntity
  8
0
  6
Continuous
 62
     7
370
    25
100
AcDbLine
 10
495.6929862278
 20
1443.7018448858
 30
0.0
 11
495.6929862278
 21
1473.7018448858
 31
0.0
  0
LINE
  5
12B
330
1F
100
AcDbEntity
  8
0
  6
Continuous
 62
     7
370
    25
100
AcDbLine
 10
495.6929862278
 20
1373.7018448858
 30
0.0
 11
495.6929862278
 21
1403.7018448858
 31
0.0
  0
LINE
  5
12C
330
1F
100
AcDbEntity
  8
0
  6
Continuous
 62
     7
370
    25
100
AcDbLine
 10
1167.9216393531
 20
1627.2018448858
 30
0.0
 11
1153.9216393531
 21
1627.2018448858
 31
0.0
  0
LWPOLYLINE
  5
12D
330
1F
100
AcDbEntity
  8
0
  6
Continuous
 62
     7
370
    25
100
AcDbPolyline
 90
       16
 70
   128
 43
0.0
 10
776.5354077088
 20
1634.7018448857
 10
774.7294071579
 20
1634.8381026868
 10
772.8782518511
 20
1635.1974611056
 10
770.9784285871
 20
1635.7231592311
 10
769.6708239003
 20
1636.1474770316
 10
768.20266881
 20
1636.66411234
 10
767.8648949578
 20
1636.7871372496
 10
767.5205167961
 20
1636.9137809232
 10
767.1693914575
 20
1637.0438715302
 10
766.8113491497
 20
1637.1772128068
 10
765.7816727
 20
1637.5647463912
 10
765.5159510337
 20
1637.664904077
 10
765.4452884599
 20
1637.6912818833
 10
765.4255134075
 20
1637.698540336
 10
765.4195156369
 20
1637.700686851
 10
765.4161112078
 20
1637.7018448857
  0
LINE
  5
12E
330
1F
100
AcDbEntity
  8
0
  6
Continuous
 62
     7
370
    25
100
AcDbLine
 10
776.6522827088
 20
1633.7018448857
 30
0.0
 11
776.5354077088
 21
1634.7018448857
 31
0.0
  0
LWPOLYLINE
  5
12F
330
1F
100
AcDbEntity
  8
0
  6
Continuous
 62
     7
370
    25
100
AcDbPolyline
 90
       16
 70
   128
 43
0.0
 10
776.6522827088
 20
1633.7018448857
 10
774.6675427288
 20
1633.8811129818
 10
772.6944123667
 20
1634.3599822752
 10
770.7460757952
 20
1635.0636049235
 10
769.9065293437
 20
1635.4242746165
 10
769.0041855898
 20
1635.8424733164
 10
768.0390445335
 20
1636.3182010233
 10
766.7222011547
 20
1637.0023341632
 10
766.4834728837
 20
1637.1290107163
 10
766.2655927615
 20
1637.2453914582
 10
766.0685607883
 20
1637.3514763886
 10
765.5932034537
 20
1637.60796316
 10
765.4673741947
 20
1637.6752296535
 10
765.4324219172
 20
1637.6936186773
 10
765.4219363665
 20
1637.6990021334
 10
765.4161112078
 20
1637.7018448857
  0
LINE
  5
130
330
1F
100
AcDbEntity
  8
0
  6
Continuous
 62
     7
370
    25
100
AcDbLine
 10
765.4161112078
 20
1628.7018448857
 30
0.0
 11
765.4161112078
 21
1637.7018448857
 31
0.0
  0
LINE
  5
131
330
1F
100
AcDbEntity
  8
0
  6
Continuous
 62
     7
370
    25
100
AcDbLine
 10
765.4161112078
 20
1628.7018448857
 30
0.0
 11
748.6629862078
 21
1628.7018448857
 31
0.0
  0
LINE
  5
132
330
1F
100
AcDbEntity
  8
0
  6
Continuous
 62
     7
370
    25
100
AcDbLine
 10
765.2992362078
 20
1627.7018448857
 30
0.0
 11
765.4161112078
 21
1628.7018448857
 31
0.0
  0
LINE
  5
133
330
1F
100
AcDbEntity
  8
0
  6
Continuous
 62
     7
370
    25
100
AcDbLine
 10
765.2992362078
 20
1627.7018448857
 30
0.0
 11
749.6629862078
 21
1627.7018448857
 31
0.0
  0
LINE
  5
134
330
1F
100
AcDbEntity
  8
0
  6
Continuous
 62
     7
370
    25
100
AcDbLine
 10
974.4449582507
 20
1628.7018448857
 30
0.0
 11
974.4449582507
 21
1633.7018448857
 31
0.0
  0
LINE
  5
135
330
1F
100
AcDbEntity
  8
0
  6
Continuous
 62
     7
370
    25
100
AcDbLine
 10
974.4449582507
 20
1628.7018448857
 30
0.0
 11
765.4161112078
 21
1628.7018448857
 31
0.0
  0
LINE
  5
136
330
1F
100
AcDbEntity
  8
0
  6
Continuous
 62
     7
370
    25
100
AcDbLine
 10
974.4449582507
 20
1633.7018448857
 30
0.0
 11
776.6522827088
 21
1633.7018448857
 31
0.0
  0
LINE
  5
137
330
1F
100
AcDbEntity
  8
0
  6
Continuous
 62
     7
370
    25
100
AcDbLine
 10
974.4449582507
 20
1628.7018448857
 30
0.0
 11
974.3280832507
 21
1627.7018448857
 31
0.0
  0
LINE
  5
138
330
1F
100
AcDbEntity
  8
0
  6
Continuous
 62
     7
370
    25
100
AcDbLine
 10
974.3280832507
 20
1627.7018448857
 30
0.0
 11
765.2992362078
 21
1627.7018448857
 31
0.0
  0
LINE
  5
139
330
1F
100
AcDbEntity
  8
0
  6
Continuous
 62
     7
370
    25
100
AcDbLine
 10
776.5354077088
 20
1634.7018448857
 30
0.0
 11
974.3280832507
 21
1634.7018448857
 31
0.0
  0
LINE
  5
13A
330
1F
100
AcDbEntity
  8
0
  6
Continuous
 62
     7
370
    25
100
AcDbLine
 10
974.4449582507
 20
1633.7018448857
 30
0.0
 11
974.3280832507
 21
1634.7018448857
 31
0.0
  0
LINE
  5
13B
330
1F
100
AcDbEntity
  8
0
  6
Continuous
 62
     7
370
    25
100
AcDbLine
 10
975.3558688952
 20
1627.7018448857
 30
0.0
 11
975.4937191124
 21
1628.7018448857
 31
0.0
  0
LINE
  5
13C
330
1F
100
AcDbEntity
  8
0
  6
Continuous
 62
     7
370
    25
100
AcDbLine
 10
974.4449582507
 20
1628.7018448857
 30
0.0
 11
975.4937191124
 21
1628.7018448857
 31
0.0
  0
LINE
  5
13D
330
1F
100
AcDbEntity
  8
0
  6
Continuous
 62
     7
370
    25
100
AcDbLine
 10
975.3558688952
 20
1627.7018448857
 30
0.0
 11
974.3280832507
 21
1627.7018448857
 31
0.0
  0
LINE
  5
13E
330
1F
100
AcDbEntity
  8
0
  6
Continuous
 62
     7
370
    25
100
AcDbLine
 10
975.4937191124
 20
1633.7018448857
 30
0.0
 11
974.4449582507
 21
1633.7018448857
 31
0.0
  0
LINE
  5
13F
330
1F
100
AcDbEntity
  8
0
  6
Continuous
 62
     7
370
    25
100
AcDbLine
 10
975.4937191124
 20
1633.7018448857
 30
0.0
 11
975.4937191124
 21
1628.7018448857
 31
0.0
  0
LINE
  5
140
330
1F
100
AcDbEntity
  8
0
  6
Continuous
 62
     7
370
    25
100
AcDbLine
 10
975.3558688952
 20
1634.7018448857
 30
0.0
 11
975.4937191124
 21
1633.7018448857
 31
0.0
  0
LINE
  5
141
330
1F
100
AcDbEntity
  8
0
  6
Continuous
 62
     7
370
    25
100
AcDbLine
 10
974.3280832507
 20
1634.7018448857
 30
0.0
 11
975.3558688952
 21
1634.7018448857
 31
0.0
  0
LINE
  5
142
330
1F
100
AcDbEntity
  8
0
  6
Continuous
 62
     7
370
    25
100
AcDbLine
 10
1162.3001415252
 20
1627.7018448857
 30
0.0
 11
1162.4379917425
 21
1628.7018448857
 31
0.0
  0
LINE
  5
143
330
1F
100
AcDbEntity
  8
0
  6
Continuous
 62
     7
370
    25
100
AcDbLine
 10
1162.4379917425
 20
1628.7018448857
 30
0.0
 11
975.4937191124
 21
1628.7018448857
 31
0.0
  0
LINE
  5
144
330
1F
100
AcDbEntity
  8
0
  6
Continuous
 62
     7
370
    25
100
AcDbLine
 10
1162.3001415252
 20
1627.7018448857
 30
0.0
 11
975.3558688952
 21
1627.7018448857
 31
0.0
  0
LINE
  5
145
330
1F
100
AcDbEntity
  8
0
  6
Continuous
 62
     7
370
    25
100
AcDbLine
 10
1162.4379917425
 20
1633.7018448857
 30
0.0
 11
1162.3001415252
 21
1634.7018448857
 31
0.0
  0
LINE
  5
146
330
1F
100
AcDbEntity
  8
0
  6
Continuous
 62
     7
370
    25
100
AcDbLine
 10
1162.4379917425
 20
1633.7018448857
 30
0.0
 11
975.4937191124
 21
1633.7018448857
 31
0.0
  0
LINE
  5
147
330
1F
100
AcDbEntity
  8
0
  6
Continuous
 62
     7
370
    25
100
AcDbLine
 10
975.3558688952
 20
1634.7018448857
 30
0.0
 11
1162.3001415252
 21
1634.7018448857
 31
0.0
  0
LINE
  5
148
330
1F
100
AcDbEntity
  8
0
  6
Continuous
 62
     7
370
    25
100
AcDbLine
 10
1162.4379917425
 20
1628.7018448857
 30
0.0
 11
1162.4379917425
 21
1633.7018448857
 31
0.0
  0
LINE
  5
149
330
1F
100
AcDbEntity
  8
0
  6
Continuous
 62
     7
370
    25
100
AcDbLine
 10
1171.9216393528
 20
1628.7018448857
 30
0.0
 11
1162.4379917425
 21
1628.7018448857
 31
0.0
  0
LINE
  5
14A
330
1F
100
AcDbEntity
  8
0
  6
Continuous
 62
     7
370
    25
100
AcDbLine
 10
1170.9216393528
 20
1627.7018448857
 30
0.0
 11
1162.3001415252
 21
1627.7018448857
 31
0.0
  0
LINE
  5
14B
330
1F
100
AcDbEntity
  8
0
  6
Continuous
 62
     7
370
    25
100
AcDbLine
 10
1171.9216393528
 20
1633.7018448857
 30
0.0
 11
1162.4379917425
 21
1633.7018448857
 31
0.0
  0
LINE
  5
14C
330
1F
100
AcDbEntity
  8
0
  6
Continuous
 62
     7
370
    25
100
AcDbLine
 10
1162.3001415252
 20
1634.7018448857
 30
0.0
 11
1170.9216393528
 21
1634.7018448857
 31
0.0
  0
LINE
  5
14D
330
1F
100
AcDbEntity
  8
0
  6
Continuous
 62
     7
370
    25
100
AcDbLine
 10
1215.6629862278
 20
1596.701844892
 30
0.0
 11
1215.6629862278
 21
1580.701844892
 31
0.0
  0
LINE
  5
14E
330
1F
100
AcDbEntity
  8
0
  6
Continuous
 62
     7
370
    25
100
AcDbLine
 10
1215.1629862278
 20
1580.701844892
 30
0.0
 11
1215.6629862278
 21
1580.701844892
 31
0.0
  0
LINE
  5
14F
330
1F
100
AcDbEntity
  8
0
  6
Continuous
 62
     7
370
    25
100
AcDbLine
 10
1215.1629862278
 20
1596.701844892
 30
0.0
 11
1215.1629862278
 21
1580.701844892
 31
0.0
  0
LINE
  5
150
330
1F
100
AcDbEntity
  8
0
  6
Continuous
 62
     7
370
    25
100
AcDbLine
 10
1215.6629862278
 20
1596.701844892
 30
0.0
 11
1215.1629862278
 21
1596.701844892
 31
0.0
  0
LINE
  5
151
330
1F
100
AcDbEntity
  8
0
  6
Continuous
 62
     7
370
    25
100
AcDbLine
 10
1197.6629862282
 20
1580.701844892
 30
0.0
 11
1215.1629862278
 21
1580.701844892
 31
0.0
  0
LINE
  5
152
330
1F
100
AcDbEntity
  8
0
  6
Continuous
 62
     7
370
    25
100
AcDbLine
 10
1197.6629862284
 20
1596.701844892
 30
0.0
 11
1197.6629862282
 21
1580.701844892
 31
0.0
  0
LINE
  5
153
330
1F
100
AcDbEntity
  8
0
  6
Continuous
 62
     7
370
    25
100
AcDbLine
 10
1215.1629862278
 20
1596.701844892
 30
0.0
 11
1197.6629862284
 21
1596.701844892
 31
0.0
  0
LINE
  5
154
330
1F
100
AcDbEntity
  8
0
  6
Continuous
 62
     7
370
    25
100
AcDbLine
 10
1197.6629862284
 20
1597.201844892
 30
0.0
 11
1197.6629862284
 21
1596.701844892
 31
0.0
  0
LINE
  5
155
330
1F
100
AcDbEntity
  8
0
  6
Continuous
 62
     7
370
    25
100
AcDbLine
 10
1197.6629862284
 20
1597.201844892
 30
0.0
 11
1215.1629862278
 21
1597.201844892
 31
0.0
  0
LINE
  5
156
330
1F
100
AcDbEntity
  8
0
  6
Continuous
 62
     7
370
    25
100
AcDbLine
 10
1215.1629862278
 20
1597.201844892
 30
0.0
 11
1215.1629862278
 21
1596.701844892
 31
0.0
  0
ARC
  5
157
330
1F
100
AcDbEntity
  8
0
  6
Continuous
 62
     7
370
    25
100
AcDbCircle
 10
1215.1629862278
 20
1596.701844892
 30
0.0
 40
0.5
100
AcDbArc
 50
0.0000000002
 51
90.0
  0
ARC
  5
158
330
1F
100
AcDbEntity
  8
0
  6
Continuous
 62
     7
370
    25
100
AcDbCircle
 10
1215.1629862278
 20
1580.701844892
 30
0.0
 40
0.5
100
AcDbArc
 50
270.0
 51
0.0
  0
LINE
  5
159
330
1F
100
AcDbEntity
  8
0
  6
Continuous
 62
     7
370
    25
100
AcDbLine
 10
1215.1629862278
 20
1580.701844892
 30
0.0
 11
1215.1629862278
 21
1580.201844892
 31
0.0
  0
LINE
  5
15A
330
1F
100
AcDbEntity
  8
0
  6
Continuous
 62
     7
370
    25
100
AcDbLine
 10
1215.1629862278
 20
1580.201844892
 30
0.0
 11
1197.6629862281
 21
1580.201844892
 31
0.0
  0
LINE
  5
15B
330
1F
100
AcDbEntity
  8
0
  6
Continuous
 62
     7
370
    25
100
AcDbLine
 10
1197.6629862282
 20
1580.701844892
 30
0.0
 11
1197.6629862281
 21
1580.201844892
 31
0.0
  0
LINE
  5
15C
330
1F
100
AcDbEntity
  8
0
  6
Continuous
 62
     7
370
    25
100
AcDbLine
 10
1197.1629862281
 20
1580.7018448921
 30
0.0
 11
1197.6629862282
 21
1580.701844892
 31
0.0
  0
LINE
  5
15D
330
1F
100
AcDbEntity
  8
0
  6
Continuous
 62
     7
370
    25
100
AcDbLine
 10
1197.1629862284
 20
1596.7018448921
 30
0.0
 11
1197.1629862281
 21
1580.7018448921
 31
0.0
  0
LINE
  5
15E
330
1F
100
AcDbEntity
  8
0
  6
Continuous
 62
     7
370
    25
100
AcDbLine
 10
1197.6629862284
 20
1596.701844892
 30
0.0
 11
1197.1629862284
 21
1596.7018448921
 31
0.0
  0
ARC
  5
15F
330
1F
100
AcDbEntity
  8
0
  6
Continuous
 62
     7
370
    25
100
AcDbCircle
 10
1197.6629862284
 20
1596.701844892
 30
0.0
 40
0.5
100
AcDbArc
 50
90.0
 51
179.9999999989
  0
ARC
  5
160
330
1F
100
AcDbEntity
  8
0
  6
Continuous
 62
     7
370
    25
100
AcDbCircle
 10
1197.6629862281
 20
1580.701844892
 30
0.0
 40
0.5000000000002274
100
AcDbArc
 50
179.9999999989
 51
270.0
  0
LINE
  5
161
330
1F
100
AcDbEntity
  8
0
  6
Continuous
 62
     7
370
    25
100
AcDbLine
 10
581.1629862271
 20
1596.7018448921
 30
0.0
 11
580.6629862272
 21
1596.701844892
 31
0.0
  0
LINE
  5
162
330
1F
100
AcDbEntity
  8
0
  6
Continuous
 62
     7
370
    25
100
AcDbLine
 10
581.1629862274
 20
1580.7018448921
 30
0.0
 11
581.1629862271
 21
1596.7018448921
 31
0.0
  0
LINE
  5
163
330
1F
100
AcDbEntity
  8
0
  6
Continuous
 62
     7
370
    25
100
AcDbLine
 10
580.6629862274
 20
1580.701844892
 30
0.0
 11
581.1629862274
 21
1580.7018448921
 31
0.0
  0
LINE
  5
164
330
1F
100
AcDbEntity
  8
0
  6
Continuous
 62
     7
370
    25
100
AcDbLine
 10
580.6629862274
 20
1580.701844892
 30
0.0
 11
580.6629862272
 21
1596.701844892
 31
0.0
  0
LINE
  5
165
330
1F
100
AcDbEntity
  8
0
  6
Continuous
 62
     7
370
    25
100
AcDbLine
 10
563.1629862278
 20
1580.701844892
 30
0.0
 11
563.1629862278
 21
1596.701844892
 31
0.0
  0
LINE
  5
166
330
1F
100
AcDbEntity
  8
0
  6
Continuous
 62
     7
370
    25
100
AcDbLine
 10
580.6629862272
 20
1596.701844892
 30
0.0
 11
563.1629862278
 21
1596.701844892
 31
0.0
  0
LINE
  5
167
330
1F
100
AcDbEntity
  8
0
  6
Continuous
 62
     7
370
    25
100
AcDbLine
 10
563.1629862278
 20
1580.701844892
 30
0.0
 11
580.6629862274
 21
1580.701844892
 31
0.0
  0
LINE
  5
168
330
1F
100
AcDbEntity
  8
0
  6
Continuous
 62
     7
370
    25
100
AcDbLine
 10
563.1629862278
 20
1580.701844892
 30
0.0
 11
563.1629862278
 21
1580.201844892
 31
0.0
  0
LINE
  5
169
330
1F
100
AcDbEntity
  8
0
  6
Continuous
 62
     7
370
    25
100
AcDbLine
 10
580.6629862274
 20
1580.201844892
 30
0.0
 11
580.6629862274
 21
1580.701844892
 31
0.0
  0
LINE
  5
16A
330
1F
100
AcDbEntity
  8
0
  6
Continuous
 62
     7
370
    25
100
AcDbLine
 10
580.6629862274
 20
1580.201844892
 30
0.0
 11
563.1629862278
 21
1580.201844892
 31
0.0
  0
ARC
  5
16B
330
1F
100
AcDbEntity
  8
0
  6
Continuous
 62
     7
370
    25
100
AcDbCircle
 10
580.6629862271
 20
1596.701844892
 30
0.0
 40
0.5000000000002274
100
AcDbArc
 50
0.000000003
 51
90.0
  0
LINE
  5
16C
330
1F
100
AcDbEntity
  8
0
  6
Continuous
 62
     7
370
    25
100
AcDbLine
 10
580.6629862272
 20
1596.701844892
 30
0.0
 11
580.6629862271
 21
1597.201844892
 31
0.0
  0
LINE
  5
16D
330
1F
100
AcDbEntity
  8
0
  6
Continuous
 62
     7
370
    25
100
AcDbLine
 10
563.1629862278
 20
1596.701844892
 30
0.0
 11
563.1629862278
 21
1597.201844892
 31
0.0
  0
LINE
  5
16E
330
1F
100
AcDbEntity
  8
0
  6
Continuous
 62
     7
370
    25
100
AcDbLine
 10
563.1629862278
 20
1597.201844892
 30
0.0
 11
580.6629862271
 21
1597.201844892
 31
0.0
  0
ARC
  5
16F
330
1F
100
AcDbEntity
  8
0
  6
Continuous
 62
     7
370
    25
100
AcDbCircle
 10
580.6629862274
 20
1580.701844892
 30
0.0
 40
0.5000000000004547
100
AcDbArc
 50
270.0
 51
0.0000000011
  0
LINE
  5
170
330
1F
100
AcDbEntity
  8
0
  6
Continuous
 62
     7
370
    25
100
AcDbLine
 10
563.1629862278
 20
1596.701844892
 30
0.0
 11
562.6629862278
 21
1596.701844892
 31
0.0
  0
ARC
  5
171
330
1F
100
AcDbEntity
  8
0
  6
Continuous
 62
     7
370
    25
100
AcDbCircle
 10
563.1629862278
 20
1596.701844892
 30
0.0
 40
0.5000000000001137
100
AcDbArc
 50
89.999999994
 51
180.0
  0
LINE
  5
172
330
1F
100
AcDbEntity
  8
0
  6
Continuous
 62
     7
370
    25
100
AcDbLine
 10
562.6629862278
 20
1580.701844892
 30
0.0
 11
563.1629862278
 21
1580.701844892
 31
0.0
  0
LINE
  5
173
330
1F
100
AcDbEntity
  8
0
  6
Continuous
 62
     7
370
    25
100
AcDbLine
 10
562.6629862278
 20
1580.701844892
 30
0.0
 11
562.6629862278
 21
1596.701844892
 31
0.0
  0
ARC
  5
174
330
1F
100
AcDbEntity
  8
0
  6
Continuous
 62
     7
370
    25
100
AcDbCircle
 10
563.1629862278
 20
1580.701844892
 30
0.0
 40
0.5000000000001137
100
AcDbArc
 50
180.0
 51
270.0
  0
LINE
  5
175
330
1F
100
AcDbEntity
  8
0
  6
Continuous
 62
     7
370
    25
100
AcDbLine
 10
580.6629862271
 20
1597.2018448901
 30
0.0
 11
1197.6629862284
 21
1597.2018448901
 31
0.0
  0
LINE
  5
176
330
1F
100
AcDbEntity
  8
0
  6
Continuous
 62
     7
370
    25
100
AcDbLine
 10
1197.6629862281
 20
1580.201844892
 30
0.0
 11
580.6629862274
 21
1580.201844892
 31
0.0
  0
LINE
  5
177
330
1F
100
AcDbEntity
  8
0
  6
Continuous
 62
     7
370
    25
100
AcDbLine
 10
740.6629862278
 20
1736.2018448858
 30
0.0
 11
740.6629862278
 21
1735.2018448858
 31
0.0
  0
LINE
  5
178
330
1F
100
AcDbEntity
  8
0
  6
Continuous
 62
     7
370
    25
100
AcDbLine
 10
786.6629862278
 20
1736.2018448858
 30
0.0
 11
786.6629862278
 21
1735.2018448858
 31
0.0
  0
LINE
  5
179
330
1F
100
AcDbEntity
  8
0
  6
Continuous
 62
     7
370
    25
100
AcDbLine
 10
740.6629862278
 20
1736.2018448858
 30
0.0
 11
786.6629862278
 21
1736.2018448858
 31
0.0
  0
LINE
  5
17A
330
1F
100
AcDbEntity
  8
0
  6
Continuous
 62
     7
370
    25
100
AcDbLine
 10
786.6629862278
 20
1639.2018448858
 30
0.0
 11
783.436706161
 21
1639.2018448858
 31
0.0
  0
LINE
  5
17B
330
1F
100
AcDbEntity
  8
0
  6
Continuous
 62
     7
370
    25
100
AcDbLine
 10
783.436706161
 20
1640.2018448858
 30
0.0
 11
783.436706161
 21
1639.2018448858
 31
0.0
  0
LINE
  5
17C
330
1F
100
AcDbEntity
  8
0
  6
Continuous
 62
     7
370
    25
100
AcDbLine
 10
786.6629862278
 20
1639.2018448858
 30
0.0
 11
786.6629862278
 21
1640.2018448858
 31
0.0
  0
LINE
  5
17D
330
1F
100
AcDbEntity
  8
0
  6
Continuous
 62
     7
370
    25
100
AcDbLine
 10
740.6629862278
 20
1640.2018448858
 30
0.0
 11
740.6629862278
 21
1639.2018448858
 31
0.0
  0
LINE
  5
17E
330
1F
100
AcDbEntity
  8
0
  6
Continuous
 62
     7
370
    25
100
AcDbLine
 10
743.8892662945
 20
1639.2018448858
 30
0.0
 11
743.8892662945
 21
1640.2018448858
 31
0.0
  0
LINE
  5
17F
330
1F
100
AcDbEntity
  8
0
  6
Continuous
 62
     7
370
    25
100
AcDbLine
 10
743.8892662945
 20
1639.2018448858
 30
0.0
 11
740.6629862278
 21
1639.2018448858
 31
0.0
  0
LINE
  5
180
330
1F
100
AcDbEntity
  8
0
  6
Continuous
 62
     7
370
    25
100
AcDbLine
 10
783.436706161
 20
1639.2018448858
 30
0.0
 11
778.6629862077
 21
1639.2018448858
 31
0.0
  0
LINE
  5
181
330
1F
100
AcDbEntity
  8
0
  6
Continuous
 62
     7
370
    25
100
AcDbLine
 10
748.6629862078
 20
1639.2018448858
 30
0.0
 11
743.8892662945
 21
1639.2018448858
 31
0.0
  0
LINE
  5
182
330
1F
100
AcDbEntity
  8
0
  6
Continuous
 62
     7
370
    25
100
AcDbLine
 10
493.6629862278
 20
1735.2018448858
 30
0.0
 11
491.6629862278
 21
1735.2018448858
 31
0.0
  0
LINE
  5
183
330
1F
100
AcDbEntity
  8
0
  6
Continuous
 62
     7
370
    25
100
AcDbLine
 10
493.6629862278
 20
1730.2018448858
 30
0.0
 11
491.6629862278
 21
1730.2018448858
 31
0.0
  0
LINE
  5
184
330
1F
100
AcDbEntity
  8
0
  6
Continuous
 62
     7
370
    25
100
AcDbLine
 10
493.6629862278
 20
1735.2018448858
 30
0.0
 11
493.6629862278
 21
1730.2018448858
 31
0.0
  0
LINE
  5
185
330
1F
100
AcDbEntity
  8
0
  6
Continuous
 62
     7
370
    25
100
AcDbLine
 10
491.6629862278
 20
1735.2018448858
 30
0.0
 11
491.6629862278
 21
1730.2018448858
 31
0.0
  0
LINE
  5
186
330
1F
100
AcDbEntity
  8
0
  6
Continuous
 62
     7
370
    25
100
AcDbLine
 10
493.6629862278
 20
1645.2018448858
 30
0.0
 11
491.6629862278
 21
1645.2018448858
 31
0.0
  0
LINE
  5
187
330
1F
100
AcDbEntity
  8
0
  6
Continuous
 62
     7
370
    25
100
AcDbLine
 10
493.6629862278
 20
1730.2018448858
 30
0.0
 11
493.6629862278
 21
1645.2018448858
 31
0.0
  0
LINE
  5
188
330
1F
100
AcDbEntity
  8
0
  6
Continuous
 62
     7
370
    25
100
AcDbLine
 10
491.6629862278
 20
1730.2018448858
 30
0.0
 11
491.6629862278
 21
1645.2018448858
 31
0.0
  0
LINE
  5
189
330
1F
100
AcDbEntity
  8
0
  6
Continuous
 62
     7
370
    25
100
AcDbLine
 10
493.6629862278
 20
1640.2018448858
 30
0.0
 11
491.6629862278
 21
1640.2018448858
 31
0.0
  0
LINE
  5
18A
330
1F
100
AcDbEntity
  8
0
  6
Continuous
 62
     7
370
    25
100
AcDbLine
 10
493.6629862278
 20
1645.2018448858
 30
0.0
 11
493.6629862278
 21
1640.2018448858
 31
0.0
  0
LINE
  5
18B
330
1F
100
AcDbEntity
  8
0
  6
Continuous
 62
     7
370
    25
100
AcDbLine
 10
491.6629862278
 20
1645.2018448858
 30
0.0
 11
491.6629862278
 21
1640.2018448858
 31
0.0
  0
LINE
  5
18C
330
1F
100
AcDbEntity
  8
0
  6
Continuous
 62
     7
370
    25
100
AcDbLine
 10
487.1629862278
 20
1645.2018448858
 30
0.0
 11
487.1629862278
 21
1730.2018448906
 31
0.0
  0
LINE
  5
18D
330
1F
100
AcDbEntity
  8
0
  6
Continuous
 62
     7
370
    25
100
AcDbLine
 10
484.1629862278
 20
1645.2018448858
 30
0.0
 11
487.1629862278
 21
1645.2018448858
 31
0.0
  0
LINE
  5
18E
330
1F
100
AcDbEntity
  8
0
  6
Continuous
 62
     7
370
    25
100
AcDbLine
 10
484.1629862278
 20
1645.2018448858
 30
0.0
 11
484.1629862278
 21
1730.2018448858
 31
0.0
  0
LINE
  5
18F
330
1F
100
AcDbEntity
  8
0
  6
Continuous
 62
     7
370
    25
100
AcDbLine
 10
487.1629862278
 20
1730.2018448858
 30
0.0
 11
484.1629862278
 21
1730.2018448858
 31
0.0
  0
LINE
  5
190
330
1F
100
AcDbEntity
  8
0
  6
Continuous
 62
     7
370
    25
100
AcDbLine
 10
491.6629862278
 20
1730.2018448858
 30
0.0
 11
487.1629862278
 21
1730.2018448858
 31
0.0
  0
LINE
  5
191
330
1F
100
AcDbEntity
  8
0
  6
Continuous
 62
     7
370
    25
100
AcDbLine
 10
487.1629862278
 20
1645.2018448858
 30
0.0
 11
491.6629862278
 21
1645.2018448858
 31
0.0
  0
LINE
  5
192
330
1F
100
AcDbEntity
  8
0
  6
Continuous
 62
     7
370
    25
100
AcDbLine
 10
487.1629862278
 20
1730.2018448953
 30
0.0
 11
487.1629862278
 21
1733.2018448858
 31
0.0
  0
LINE
  5
193
330
1F
100
AcDbEntity
  8
0
  6
Continuous
 62
     7
370
    25
100
AcDbLine
 10
487.1629862278
 20
1733.2018448858
 30
0.0
 11
491.6629862278
 21
1733.2018448858
 31
0.0
  0
LINE
  5
194
330
1F
100
AcDbEntity
  8
0
  6
Continuous
 62
     7
370
    25
100
AcDbLine
 10
491.6629862278
 20
1642.2018448858
 30
0.0
 11
487.1629862278
 21
1642.2018448858
 31
0.0
  0
LINE
  5
195
330
1F
100
AcDbEntity
  8
0
  6
Continuous
 62
     7
370
    25
100
AcDbLine
 10
487.1629862278
 20
1642.2018448858
 30
0.0
 11
487.1629862278
 21
1645.2018448858
 31
0.0
  0
ARC
  5
196
330
1F
100
AcDbEntity
  8
0
  6
Continuous
 62
     7
370
    25
100
AcDbCircle
 10
487.1629862278
 20
1645.2018448858
 30
0.0
 40
3.0
100
AcDbArc
 50
180.0
 51
270.0
  0
ARC
  5
197
330
1F
100
AcDbEntity
  8
0
  6
Continuous
 62
     7
370
    25
100
AcDbCircle
 10
487.1629862278
 20
1730.2018448858
 30
0.0
 40
3.0
100
AcDbArc
 50
90.0
 51
180.0
  0
LINE
  5
198
330
1F
100
AcDbEntity
  8
0
  6
Continuous
 62
     7
370
    25
100
AcDbLine
 10
1165.6629862278
 20
1640.2018448858
 30
0.0
 11
1165.6629862278
 21
1645.2018448858
 31
0.0
  0
LINE
  5
199
330
1F
100
AcDbEntity
  8
0
  6
Continuous
 62
     7
370
    25
100
AcDbLine
 10
1163.6629862278
 20
1640.2018448858
 30
0.0
 11
1165.6629862278
 21
1640.2018448858
 31
0.0
  0
LINE
  5
19A
330
1F
100
AcDbEntity
  8
0
  6
Continuous
 62
     7
370
    25
100
AcDbLine
 10
1163.6629862278
 20
1640.2018448858
 30
0.0
 11
1163.6629862278
 21
1645.2018448858
 31
0.0
  0
LINE
  5
19B
330
1F
100
AcDbEntity
  8
0
  6
Continuous
 62
     7
370
    25
100
AcDbLine
 10
1163.6629862278
 20
1645.2018448858
 30
0.0
 11
1165.6629862278
 21
1645.2018448858
 31
0.0
  0
LINE
  5
19C
330
1F
100
AcDbEntity
  8
0
  6
Continuous
 62
     7
370
    25
100
AcDbLine
 10
1163.6629862278
 20
1730.2018448858
 30
0.0
 11
1165.6629862278
 21
1730.2018448858
 31
0.0
  0
LINE
  5
19D
330
1F
100
AcDbEntity
  8
0
  6
Continuous
 62
     7
370
    25
100
AcDbLine
 10
1163.6629862278
 20
1730.2018448858
 30
0.0
 11
1163.6629862278
 21
1735.2018448858
 31
0.0
  0
LINE
  5
19E
330
1F
100
AcDbEntity
  8
0
  6
Continuous
 62
     7
370
    25
100
AcDbLine
 10
1163.6629862278
 20
1735.2018448858
 30
0.0
 11
1165.6629862278
 21
1735.2018448858
 31
0.0
  0
LINE
  5
19F
330
1F
100
AcDbEntity
  8
0
  6
Continuous
 62
     7
370
    25
100
AcDbLine
 10
1165.6629862278
 20
1730.2018448858
 30
0.0
 11
1165.6629862278
 21
1735.2018448858
 31
0.0
  0
LINE
  5
1A0
330
1F
100
AcDbEntity
  8
0
  6
Continuous
 62
     7
370
    25
100
AcDbLine
 10
1163.6629862278
 20
1645.2018448858
 30
0.0
 11
1163.6629862278
 21
1730.2018448858
 31
0.0
  0
LINE
  5
1A1
330
1F
100
AcDbEntity
  8
0
  6
Continuous
 62
     7
370
    25
100
AcDbLine
 10
1165.6629862278
 20
1645.2018448858
 30
0.0
 11
1165.6629862278
 21
1730.2018448858
 31
0.0
  0
LINE
  5
1A2
330
1F
100
AcDbEntity
  8
0
  6
Continuous
 62
     7
370
    25
100
AcDbLine
 10
1170.1629862278
 20
1730.2018448858
 30
0.0
 11
1170.1629862278
 21
1645.2018448811
 31
0.0
  0
LINE
  5
1A3
330
1F
100
AcDbEntity
  8
0
  6
Continuous
 62
     7
370
    25
100
AcDbLine
 10
1173.1629862278
 20
1730.2018448858
 30
0.0
 11
1170.1629862278
 21
1730.2018448858
 31
0.0
  0
LINE
  5
1A4
330
1F
100
AcDbEntity
  8
0
  6
Continuous
 62
     7
370
    25
100
AcDbLine
 10
1173.1629862278
 20
1730.2018448858
 30
0.0
 11
1173.1629862278
 21
1645.2018448858
 31
0.0
  0
LINE
  5
1A5
330
1F
100
AcDbEntity
  8
0
  6
Continuous
 62
     7
370
    25
100
AcDbLine
 10
1170.1629862278
 20
1645.2018448858
 30
0.0
 11
1173.1629862278
 21
1645.2018448858
 31
0.0
  0
LINE
  5
1A6
330
1F
100
AcDbEntity
  8
0
  6
Continuous
 62
     7
370
    25
100
AcDbLine
 10
1165.6629862278
 20
1645.2018448858
 30
0.0
 11
1170.1629862278
 21
1645.2018448858
 31
0.0
  0
LINE
  5
1A7
330
1F
100
AcDbEntity
  8
0
  6
Continuous
 62
     7
370
    25
100
AcDbLine
 10
1170.1629862278
 20
1730.2018448858
 30
0.0
 11
1165.6629862278
 21
1730.2018448858
 31
0.0
  0
LINE
  5
1A8
330
1F
100
AcDbEntity
  8
0
  6
Continuous
 62
     7
370
    25
100
AcDbLine
 10
1170.1629862278
 20
1645.2018448764
 30
0.0
 11
1170.1629862278
 21
1642.2018448858
 31
0.0
  0
LINE
  5
1A9
330
1F
100
AcDbEntity
  8
0
  6
Continuous
 62
     7
370
    25
100
AcDbLine
 10
1170.1629862278
 20
1642.2018448858
 30
0.0
 11
1165.6629862278
 21
1642.2018448858
 31
0.0
  0
LINE
  5
1AA
330
1F
100
AcDbEntity
  8
0
  6
Continuous
 62
     7
370
    25
100
AcDbLine
 10
1165.6629862278
 20
1733.2018448858
 30
0.0
 11
1170.1629862278
 21
1733.2018448858
 31
0.0
  0
LINE
  5
1AB
330
1F
100
AcDbEntity
  8
0
  6
Continuous
 62
     7
370
    25
100
AcDbLine
 10
1170.1629862278
 20
1733.2018448858
 30
0.0
 11
1170.1629862278
 21
1730.2018448858
 31
0.0
  0
ARC
  5
1AC
330
1F
100
AcDbEntity
  8
0
  6
Continuous
 62
     7
370
    25
100
AcDbCircle
 10
1170.1629862278
 20
1730.2018448858
 30
0.0
 40
3.000000000000227
100
AcDbArc
 50
0.0
 51
90.0
  0
ARC
  5
1AD
330
1F
100
AcDbEntity
  8
0
  6
Continuous
 62
     7
370
    25
100
AcDbCircle
 10
1170.1629862278
 20
1645.2018448858
 30
0.0
 40
2.999999999999773
100
AcDbArc
 50
270.0
 51
0.0
  0
LINE
  5
1AE
330
1F
100
AcDbEntity
  8
0
  6
Continuous
 62
     7
370
    25
100
AcDbLine
 10
493.6629862278
 20
1730.2018448858
 30
0.0
 11
1163.6629862278
 21
1730.2018448858
 31
0.0
  0
LINE
  5
1AF
330
1F
100
AcDbEntity
  8
0
  6
Continuous
 62
     7
370
    25
100
AcDbLine
 10
493.6629862278
 20
1645.2018448858
 30
0.0
 11
1163.6629862278
 21
1645.2018448858
 31
0.0
  0
LINE
  5
1B0
330
1F
100
AcDbEntity
  8
0
  6
Continuous
 62
     7
370
    25
100
AcDbLine
 10
493.6629862278
 20
1640.2018448858
 30
0.0
 11
1163.6629862278
 21
1640.2018448858
 31
0.0
  0
LINE
  5
1B1
330
1F
100
AcDbEntity
  8
0
  6
Continuous
 62
     7
370
    25
100
AcDbLine
 10
493.6629862278
 20
1735.2018448858
 30
0.0
 11
1163.6629862278
 21
1735.2018448858
 31
0.0
  0
LINE
  5
1B2
330
1F
100
AcDbEntity
  8
0
  6
Continuous
 62
     7
370
    25
100
AcDbLine
 10
493.36726417
 20
1443.7018448858
 30
0.0
 11
493.36726417
 21
1403.7018448858
 31
0.0
  0
LINE
  5
1B3
330
1F
100
AcDbEntity
  8
0
  6
Continuous
 62
     7
370
    25
100
AcDbLine
 10
497.4107133126
 20
1443.7018448858
 30
0.0
 11
497.4107133126
 21
1403.7018448858
 31
0.0
  0
LINE
  5
1B4
330
1F
100
AcDbEntity
  8
0
  6
Continuous
 62
     7
370
    25
100
AcDbLine
 10
497.4107133126
 20
1443.7018448858
 30
0.0
 11
493.6549861224
 21
1443.7018448858
 31
0.0
  0
LINE
  5
1B5
330
1F
100
AcDbEntity
  8
0
  6
Continuous
 62
     7
370
    25
100
AcDbLine
 10
497.4107133126
 20
1403.7018448858
 30
0.0
 11
493.6549861224
 21
1403.7018448858
 31
0.0
  0
LINE
  5
1B6
330
1F
100
AcDbEntity
  8
0
  6
Continuous
 62
     7
370
    25
100
AcDbLine
 10
515.6629862278
 20
1443.7018448858
 30
0.0
 11
515.6629862278
 21
1403.7018448858
 31
0.0
  0
LINE
  5
1B7
330
1F
100
AcDbEntity
  8
0
  6
Continuous
 62
     7
370
    25
100
AcDbLine
 10
515.6629862278
 20
1443.7018448858
 30
0.0
 11
497.4107133126
 21
1443.7018448858
 31
0.0
  0
LINE
  5
1B8
330
1F
100
AcDbEntity
  8
0
  6
Continuous
 62
     7
370
    25
100
AcDbLine
 10
515.6629862278
 20
1403.7018448858
 30
0.0
 11
497.4107133126
 21
1403.7018448858
 31
0.0
  0
LINE
  5
1B9
330
1F
100
AcDbEntity
  8
0
  6
Continuous
 62
     7
370
    25
100
AcDbLine
 10
1478.6629862278
 20
1303.7018448858
 30
0.0
 11
488.6629862278
 21
1303.7018448858
 31
0.0
  0
LINE
  5
1BA
330
1F
100
AcDbEntity
  8
0
  6
Continuous
 62
     7
370
    25
100
AcDbLine
 10
488.6629862278
 20
1303.7018448858
 30
0.0
 11
488.6629862278
 21
1373.7018448858
 31
0.0
  0
LINE
  5
1BB
330
1F
100
AcDbEntity
  8
0
  6
Continuous
 62
     7
370
    25
100
AcDbLine
 10
488.6629862278
 20
1473.7018448858
 30
0.0
 11
488.6629862278
 21
1623.7018448858
 31
0.0
  0
LINE
  5
1BC
330
1F
100
AcDbEntity
  8
0
  6
Continuous
 62
     7
370
    25
100
AcDbLine
 10
488.6629862278
 20
1623.7018448858
 30
0.0
 11
1153.9216393531
 21
1623.7018448858
 31
0.0
  0
LINE
  5
1BD
330
1F
100
AcDbEntity
  8
0
  6
Continuous
 62
     7
370
    25
100
AcDbLine
 10
1167.9216393531
 20
1623.7018448858
 30
0.0
 11
1478.6629862278
 21
1623.7018448858
 31
0.0
  0
LINE
  5
1BE
330
1F
100
AcDbEntity
  8
0
  6
Continuous
 62
     7
370
    25
100
AcDbLine
 10
1478.6629862278
 20
1623.7018448858
 30
0.0
 11
1478.6629862278
 21
1303.7018448858
 31
0.0
  0
LINE
  5
1BF
330
1F
100
AcDbEntity
  8
0
  6
Continuous
 62
     7
370
    25
100
AcDbLine
 10
473.6784305521
 20
1473.7018448858
 30
0.0
 11
473.6784305521
 21
1443.7018448858
 31
0.0
  0
LINE
  5
1C0
330
1F
100
AcDbEntity
  8
0
  6
Continuous
 62
     7
370
    25
100
AcDbLine
 10
493.6549861224
 20
1443.7018448858
 30
0.0
 11
473.6784305521
 21
1443.7018448858
 31
0.0
  0
LINE
  5
1C1
330
1F
100
AcDbEntity
  8
0
  6
Continuous
 62
     7
370
    25
100
AcDbLine
 10
495.6929862278
 20
1473.7018448858
 30
0.0
 11
473.6784305521
 21
1473.7018448858
 31
0.0
  0
LINE
  5
1C2
330
1F
100
AcDbEntity
  8
0
  6
Continuous
 62
     7
370
    25
100
AcDbLine
 10
473.6784305521
 20
1403.7018448858
 30
0.0
 11
473.6784305521
 21
1373.7018448858
 31
0.0
  0
LINE
  5
1C3
330
1F
100
AcDbEntity
  8
0
  6
Continuous
 62
     7
370
    25
100
AcDbLine
 10
495.6929862278
 20
1373.7018448858
 30
0.0
 11
473.6784305521
 21
1373.7018448858
 31
0.0
  0
LINE
  5
1C4
330
1F
100
AcDbEntity
  8
0
  6
Continuous
 62
     7
370
    25
100
AcDbLine
 10
493.6549861224
 20
1403.7018448858
 30
0.0
 11
473.6784305521
 21
1403.7018448858
 31
0.0
  0
LINE
  5
1C5
330
1F
100
AcDbEntity
  8
0
  6
Continuous
 62
     7
370
    25
100
AcDbLine
 10
469.9129862278
 20
1473.7018448858
 30
0.0
 11
469.9129862278
 21
1443.7018448858
 31
0.0
  0
LINE
  5
1C6
330
1F
100
AcDbEntity
  8
0
  6
Continuous
 62
     7
370
    25
100
AcDbLine
 10
473.6784305521
 20
1443.7018448858
 30
0.0
 11
469.9129862278
 21
1443.7018448858
 31
0.0
  0
LINE
  5
1C7
330
1F
100
AcDbEntity
  8
0
  6
Continuous
 62
     7
370
    25
100
AcDbLine
 10
473.6784305521
 20
1473.7018448858
 30
0.0
 11
469.9129862278
 21
1473.7018448858
 31
0.0
  0
LINE
  5
1C8
330
1F
100
AcDbEntity
  8
0
  6
Continuous
 62
     7
370
    25
100
AcDbLine
 10
469.9129862278
 20
1403.7018448858
 30
0.0
 11
469.9129862278
 21
1373.7018448858
 31
0.0
  0
LINE
  5
1C9
330
1F
100
AcDbEntity
  8
0
  6
Continuous
 62
     7
370
    25
100
AcDbLine
 10
473.6784305521
 20
1373.7018448858
 30
0.0
 11
469.9129862278
 21
1373.7018448858
 31
0.0
  0
LINE
  5
1CA
330
1F
100
AcDbEntity
  8
0
  6
Continuous
 62
     7
370
    25
100
AcDbLine
 10
473.6784305521
 20
1403.7018448858
 30
0.0
 11
469.9129862278
 21
1403.7018448858
 31
0.0
  0
LINE
  5
1CB
330
1F
100
AcDbEntity
  8
0
  6
Continuous
 62
     7
370
    25
100
AcDbLine
 10
451.6629862278
 20
1473.7018448858
 30
0.0
 11
451.6629862278
 21
1443.7018448858
 31
0.0
  0
LINE
  5
1CC
330
1F
100
AcDbEntity
  8
0
  6
Continuous
 62
     7
370
    25
100
AcDbLine
 10
469.9129862278
 20
1443.7018448858
 30
0.0
 11
451.6629862278
 21
1443.7018448858
 31
0.0
  0
LINE
  5
1CD
330
1F
100
AcDbEntity
  8
0
  6
Continuous
 62
     7
370
    25
100
AcDbLine
 10
469.9129862278
 20
1473.7018448858
 30
0.0
 11
451.6629862278
 21
1473.7018448858
 31
0.0
  0
LINE
  5
1CE
330
1F
100
AcDbEntity
  8
0
  6
Continuous
 62
     7
370
    25
100
AcDbLine
 10
451.6629862278
 20
1403.7018448858
 30
0.0
 11
451.6629862278
 21
1373.7018448858
 31
0.0
  0
LINE
  5
1CF
330
1F
100
AcDbEntity
  8
0
  6
Continuous
 62
     7
370
    25
100
AcDbLine
 10
469.9129862278
 20
1373.7018448858
 30
0.0
 11
451.6629862278
 21
1373.7018448858
 31
0.0
  0
LINE
  5
1D0
330
1F
100
AcDbEntity
  8
0
  6
Continuous
 62
     7
370
    25
100
AcDbLine
 10
469.9129862278
 20
1403.7018448858
 30
0.0
 11
451.6629862278
 21
1403.7018448858
 31
0.0
  0
LINE
  5
1D1
330
1F
100
AcDbEntity
  8
0
  6
Continuous
 62
     7
370
    25
100
AcDbLine
 10
1583.6629862278
 20
1803.7018448858
 30
0.0
 11
383.6629862278
 21
1803.7018448858
 31
0.0
  0
LINE
  5
1D2
330
1F
100
AcDbEntity
  8
0
  6
Continuous
 62
     7
370
    25
100
AcDbLine
 10
1483.6629862278
 20
1303.7018448858
 30
0.0
 11
1483.6629862278
 21
1628.7018448858
 31
0.0
  0
LINE
  5
1D3
330
1F
100
AcDbEntity
  8
0
  6
Continuous
 62
     7
370
    25
100
AcDbLine
 10
383.6629862278
 20
1303.7018448858
 30
0.0
 11
483.6629862278
 21
1303.7018448858
 31
0.0
  0
LINE
  5
1D4
330
1F
100
AcDbEntity
  8
0
  6
Continuous
 62
     7
370
    25
100
AcDbLine
 10
1483.6629862278
 20
1628.7018448858
 30
0.0
 11
1171.9216393528
 21
1628.7018448858
 31
0.0
  0
LINE
  5
1D5
330
1F
100
AcDbEntity
  8
0
  6
Continuous
 62
     7
370
    25
100
AcDbLine
 10
748.6629862078
 20
1628.7018448858
 30
0.0
 11
483.6629862278
 21
1628.7018448858
 31
0.0
  0
LINE
  5
1D6
330
1F
100
AcDbEntity
  8
0
  6
Continuous
 62
     7
370
    25
100
AcDbLine
 10
383.6629862278
 20
1803.7018448858
 30
0.0
 11
383.6629862278
 21
1303.7018448858
 31
0.0
  0
LINE
  5
1D7
330
1F
100
AcDbEntity
  8
0
  6
Continuous
 62
     7
370
    25
100
AcDbLine
 10
1483.6629862278
 20
1303.7018448858
 30
0.0
 11
1583.6629862278
 21
1303.7018448858
 31
0.0
  0
LINE
  5
1D8
330
1F
100
AcDbEntity
  8
0
  6
Continuous
 62
     7
370
    25
100
AcDbLine
 10
483.6629862278
 20
1628.7018448858
 30
0.0
 11
483.6629862278
 21
1473.7018448858
 31
0.0
  0
LINE
  5
1D9
330
1F
100
AcDbEntity
  8
0
  6
Continuous
 62
     7
370
    25
100
AcDbLine
 10
483.6629862278
 20
1373.7018448858
 30
0.0
 11
483.6629862278
 21
1303.7018448858
 31
0.0
  0
LINE
  5
1DA
330
1F
100
AcDbEntity
  8
0
  6
Continuous
 62
     7
370
    25
100
AcDbLine
 10
1583.6629862278
 20
1303.7018448858
 30
0.0
 11
1583.6629862278
 21
1803.7018448858
 31
0.0
  0
LINE
  5
1DB
330
1F
100
AcDbEntity
  8
0
  6
Continuous
 62
     7
370
    25
100
AcDbLine
 10
483.6629862278
 20
1303.7018448858
 30
0.0
 11
488.6629862278
 21
1303.7018448858
 31
0.0
  0
LINE
  5
1DC
330
1F
100
AcDbEntity
  8
0
  6
Continuous
 62
     7
370
    25
100
AcDbLine
 10
1478.6629862278
 20
1303.7018448858
 30
0.0
 11
1483.6629862278
 21
1303.7018448858
 31
0.0
  0
LINE
  5
1DD
330
1F
100
AcDbEntity
  8
0
  6
Continuous
 62
     7
370
    25
100
AcDbLine
 10
765.4161112078
 20
1637.7018448857
 30
0.0
 11
778.6629862077
 21
1637.7018448857
 31
0.0
  0
LINE
  5
1DE
330
1F
100
AcDbEntity
  8
0
  6
Continuous
 62
     7
370
    25
100
AcDbLine
 10
1197.1629862284
 20
1596.7018448901
 30
0.0
 11
581.1629862271
 21
1596.7018448901
 31
0.0
  0
LINE
  5
1DF
330
1F
100
AcDbEntity
  8
0
  6
Continuous
 62
     7
370
    25
100
AcDbLine
 10
1197.1629862281
 20
1580.701844892
 30
0.0
 11
581.1629862274
 21
1580.701844892
 31
0.0
  0
DIMENSION
  5
1E0
330
1F
100
AcDbEntity
  8
FORMAT
100
AcDbDimension
  2
_D
 10
1215.6629862278
 20
1458.0235171949
 30
0.0
 11
889.1629862278
 21
1458.0235171948
 31
0.0
 70
   160
  1
<>
 71
     2
 42
-1.0
  3
SLDDIMSTYLE0
100
AcDbAlignedDimension
 13
562.6629862278
 23
1580.701844892
 33
0.0
 14
1215.6629862278
 24
1580.701844892
 34
0.0
 50
0.0
100
AcDbRotatedDimension
  0
DIMENSION
  5
1EB
330
1F
100
AcDbEntity
  8
FORMAT
100
AcDbDimension
  2
_D_1
 10
1259.0338294581
 20
1597.201844892
 30
0.0
 11
1259.0338294581
 21
1547.5029723
 31
0.0
 70
   160
  1
<>
 71
     2
 42
-1.0
  3
SLDDIMSTYLE1
100
AcDbAlignedDimension
 13
1215.1629862278
 23
1580.201844892
 33
0.0
 14
1215.1629862278
 24
1597.201844892
 34
0.0
 50
90.0
100
AcDbRotatedDimension
  0
DIMENSION
  5
1F8
330
1F
100
AcDbEntity
  8
FORMAT
100
AcDbDimension
  2
_D_2
 10
453.1279637507
 20
1735.2018448858
 30
0.0
 11
453.1279637507
 21
1687.7018448858
 31
0.0
 70
   160
  1
<>
 71
     2
 42
-1.0
  3
SLDDIMSTYLE0
100
AcDbAlignedDimension
 13
493.6629862278
 23
1640.2018448858
 33
0.0
 14
493.6629862278
 24
1735.2018448858
 34
0.0
 50
90.0
100
AcDbRotatedDimension
  0
DIMENSION
  5
202
330
1F
100
AcDbEntity
  8
FORMAT
100
AcDbDimension
  2
_D_3
 10
1173.1629862278
 20
1763.2423393789
 30
0.0
 11
828.6629862278
 21
1763.2423393789
 31
0.0
 70
   160
  1
<>
 71
     2
 42
-1.0
  3
SLDDIMSTYLE0
100
AcDbAlignedDimension
 13
484.1629862278
 23
1730.2018448858
 33
0.0
 14
1173.1629862278
 24
1730.2018448858
 34
0.0
 50
0.0
100
AcDbRotatedDimension
  0
DIMENSION
  5
20C
330
1F
100
AcDbEntity
  8
FORMAT
100
AcDbDimension
  2
_D_4
 10
763.6629862078
 20
1414.7379532374
 30
0.0
 11
623.662417989
 21
1414.7379532374
 31
0.0
 70
   160
  1
<>
 71
     2
 42
-1.0
  3
SLDDIMSTYLE0
100
AcDbAlignedDimension
 13
483.6618497702
 23
1365.4990119558
 33
0.0
 14
763.6629862078
 24
1619.2018448857
 34
0.0
100
AcDbRotatedDimension
  0
LINE
  5
215
330
1F
100
AcDbEntity
  8
0
  6
CENTER
 62
     7
370
    18
100
AcDbLine
 10
616.1182993867
 20
1863.7018448858
 30
0.0
 11
616.1182993867
 21
1243.7018448858
 31
0.0
  0
LINE
  5
216
330
1F
100
AcDbEntity
  8
0
  6
Continuous
 62
     7
370
    18
100
AcDbLine
 10
527.2182993866
 20
1849.7018448858
 30
0.0
 11
616.1182993866
 21
1849.7018448858
 31
0.0
  0
SOLID
  5
217
330
1F
100
AcDbEntity
  8
0
  6
Continuous
 62
     7
370
    18
100
AcDbTrace
 10
616.1182993866
 20
1849.7018448858
 30
0.0
 11
571.6682993866
 21
1856.8138448858
 31
0.0
 12
571.6682993866
 22
1842.5898448858
 32
0.0
 13
571.6682993866
 23
1842.5898448858
 33
0.0
  0
LINE
  5
218
330
1F
100
AcDbEntity
  8
0
  6
Continuous
 62
     7
370
    18
100
AcDbLine
 10
527.2182993866
 20
1257.7018448858
 30
0.0
 11
616.1182993866
 21
1257.7018448858
 31
0.0
  0
SOLID
  5
219
330
1F
100
AcDbEntity
  8
0
  6
Continuous
 62
     7
370
    18
100
AcDbTrace
 10
616.1182993866
 20
1257.7018448858
 30
0.0
 11
571.6682993866
 21
1264.8138448858
 31
0.0
 12
571.6682993866
 22
1250.5898448858
 32
0.0
 13
571.6682993866
 23
1250.5898448858
 33
0.0
  0
MTEXT
  5
21A
330
1F
100
AcDbEntity
  8
0
  6
Continuous
 62
     7
100
AcDbMText
 10
527.2182993866
 20
1903.3811116468
 30
0.0
 40
35.0
 41
0.0
 71
     1
 72
     1
  1
A
  7
SLDTEXTSTYLE0
 73
     1
 44
1.0
  0
MTEXT
  5
21B
330
1F
100
AcDbEntity
  8
0
  6
Continuous
 62
     7
100
AcDbMText
 10
527.2182993866
 20
1239.8266490544
 30
0.0
 40
35.0
 41
0.0
 71
     1
 72
     1
  1
A
  7
SLDTEXTSTYLE0
 73
     1
 44
1.0
  0
LINE
  5
21C
330
1F
100
AcDbEntity
  8
FORMAT
  6
CENTERX2
370
    18
100
AcDbLine
 10
763.6629862078
 20
1619.2018448857
 30
0.0
 11
763.6629862078
 21
1662.5018448857
 31
0.0
  0
LINE
  5
21D
330
1F
100
AcDbEntity
  8
FORMAT
  6
CENTERX2
370
    18
100
AcDbLine
 10
483.6618497702
 20
1486.6737070492
 30
0.0
 11
483.6618497702
 21
1365.4990119558
 31
0.0
  0
LINE
  5
21E
330
1F
100
AcDbEntity
  8
0
  6
Continuous
 62
     7
370
    25
100
AcDbLine
 10
471.6629862278
 20
581.9271837688
 30
0.0
 11
471.6629862278
 21
541.9271837688
 31
0.0
  0
LINE
  5
21F
330
1F
100
AcDbEntity
  8
0
  6
Continuous
 62
     7
370
    25
100
AcDbLine
 10
495.6929862278
 20
511.9271837688
 30
0.0
 11
495.6929862278
 21
541.9271837688
 31
0.0
  0
LINE
  5
220
330
1F
100
AcDbEntity
  8
0
  6
Continuous
 62
     7
370
    25
100
AcDbLine
 10
495.6929862278
 20
581.9271837688
 30
0.0
 11
495.6929862278
 21
611.9271837688
 31
0.0
  0
ARC
  5
221
330
1F
100
AcDbEntity
  8
0
  6
Continuous
 62
     7
370
    25
100
AcDbCircle
 10
1153.1629862278
 20
863.9271837684
 30
0.0
 40
2.000000000000114
100
AcDbArc
 50
14.4775121862
 51
165.5224878125
  0
ARC
  5
222
330
1F
100
AcDbEntity
  8
0
  6
Continuous
 62
     7
370
    25
100
AcDbCircle
 10
1133.6629862278
 20
863.9271837684
 30
0.0
 40
3.250000000000175
100
AcDbArc
 50
8.8498831004
 51
171.1501169005
  0
ARC
  5
223
330
1F
100
AcDbEntity
  8
0
  6
Continuous
 62
     7
370
    25
100
AcDbCircle
 10
907.6629862278
 20
863.9271837684
 30
0.0
 40
3.249999999996372
100
AcDbArc
 50
8.8498830993
 51
171.1501169007
  0
ARC
  5
224
330
1F
100
AcDbEntity
  8
0
  6
Continuous
 62
     7
370
    25
100
AcDbCircle
 10
840.6629862278
 20
863.9271837684
 30
0.0
 40
3.000000000000471
100
AcDbArc
 50
9.5940682278
 51
170.4059317722
  0
ARC
  5
225
330
1F
100
AcDbEntity
  8
0
  6
Continuous
 62
     7
370
    25
100
AcDbCircle
 10
716.6629862278
 20
863.9271837684
 30
0.0
 40
3.000000000000363
100
AcDbArc
 50
9.594068228
 51
170.4059317719
  0
ARC
  5
226
330
1F
100
AcDbEntity
  8
0
  6
Continuous
 62
     7
370
    25
100
AcDbCircle
 10
700.6629862278
 20
863.9271837684
 30
0.0
 40
3.249999999996314
100
AcDbArc
 50
8.8498830994
 51
171.1501169005
  0
ARC
  5
227
330
1F
100
AcDbEntity
  8
0
  6
Continuous
 62
     7
370
    25
100
AcDbCircle
 10
533.6629862278
 20
863.9271837684
 30
0.0
 40
2.000000000000682
100
AcDbArc
 50
14.4775121877
 51
165.5224878124
  0
ARC
  5
228
330
1F
100
AcDbEntity
  8
0
  6
Continuous
 62
     7
370
    25
100
AcDbCircle
 10
504.1629862278
 20
863.9271837684
 30
0.0
 40
2.000000000000625
100
AcDbArc
 50
14.4775121876
 51
165.5224878126
  0
LINE
  5
229
330
1F
100
AcDbEntity
  8
0
  6
Continuous
 62
     7
370
    25
100
AcDbLine
 10
1163.6629862278
 20
870.4271837684
 30
0.0
 11
1163.6629862278
 21
864.4271837684
 31
0.0
  0
LINE
  5
22A
330
1F
100
AcDbEntity
  8
0
  6
Continuous
 62
     7
370
    25
100
AcDbLine
 10
493.6629862278
 20
864.4271837684
 30
0.0
 11
493.6629862278
 21
870.4271837684
 31
0.0
  0
ARC
  5
22B
330
1F
100
AcDbEntity
  8
0
  6
Continuous
 62
     7
370
    25
100
AcDbCircle
 10
504.1629862278
 20
863.9271837684
 30
0.0
 40
2.000000000000711
100
AcDbArc
 50
165.5224878126
 51
180.0000000001
  0
LINE
  5
22C
330
1F
100
AcDbEntity
  8
0
  6
Continuous
 62
     7
370
    25
100
AcDbLine
 10
493.6629862278
 20
864.4271837684
 30
0.0
 11
493.6629862278
 21
863.9271837684
 31
0.0
  0
ARC
  5
22D
330
1F
100
AcDbEntity
  8
0
  6
Continuous
 62
     7
370
    25
100
AcDbCircle
 10
504.1629862278
 20
863.9271837684
 30
0.0
 40
2.0
100
AcDbArc
 50
180.0000000001
 51
194.4775121861
  0
LINE
  5
22E
330
1F
100
AcDbEntity
  8
0
  6
Continuous
 62
     7
370
    25
100
AcDbLine
 10
493.6629862278
 20
863.9271837684
 30
0.0
 11
493.6629862278
 21
863.4271837684
 31
0.0
  0
ARC
  5
22F
330
1F
100
AcDbEntity
  8
0
  6
Continuous
 62
     7
370
    25
100
AcDbCircle
 10
504.1629862278
 20
863.9271837684
 30
0.0
 40
1.999999999999993
100
AcDbArc
 50
194.4775121861
 51
345.5224878139
  0
ARC
  5
230
330
1F
100
AcDbEntity
  8
0
  6
Continuous
 62
     7
370
    25
100
AcDbCircle
 10
533.6629862278
 20
863.9271837684
 30
0.0
 40
2.000000000000091
100
AcDbArc
 50
194.4775121861
 51
345.5224878141
  0
ARC
  5
231
330
1F
100
AcDbEntity
  8
0
  6
Continuous
 62
     7
370
    25
100
AcDbCircle
 10
700.6629862278
 20
863.9271837684
 30
0.0
 40
3.249999999995996
100
AcDbArc
 50
188.8498830984
 51
351.1501169016
  0
ARC
  5
232
330
1F
100
AcDbEntity
  8
0
  6
Continuous
 62
     7
370
    25
100
AcDbCircle
 10
716.6629862278
 20
863.9271837684
 30
0.0
 40
3.000000000000107
100
AcDbArc
 50
189.5940682267
 51
350.4059317733
  0
ARC
  5
233
330
1F
100
AcDbEntity
  8
0
  6
Continuous
 62
     7
370
    25
100
AcDbCircle
 10
840.6629862278
 20
863.9271837684
 30
0.0
 40
3.000000000000111
100
AcDbArc
 50
189.5940682269
 51
350.4059317731
  0
ARC
  5
234
330
1F
100
AcDbEntity
  8
0
  6
Continuous
 62
     7
370
    25
100
AcDbCircle
 10
907.6629862278
 20
863.9271837684
 30
0.0
 40
3.249999999995996
100
AcDbArc
 50
188.8498830984
 51
351.1501169016
  0
ARC
  5
235
330
1F
100
AcDbEntity
  8
0
  6
Continuous
 62
     7
370
    25
100
AcDbCircle
 10
1133.6629862278
 20
863.9271837684
 30
0.0
 40
3.250000000000393
100
AcDbArc
 50
188.8498830983
 51
351.1501169018
  0
ARC
  5
236
330
1F
100
AcDbEntity
  8
0
  6
Continuous
 62
     7
370
    25
100
AcDbCircle
 10
1153.1629862278
 20
863.9271837684
 30
0.0
 40
2.000000000000204
100
AcDbArc
 50
194.4775121856
 51
345.5224878144
  0
LINE
  5
237
330
1F
100
AcDbEntity
  8
0
  6
Continuous
 62
     7
370
    25
100
AcDbLine
 10
1163.6629862278
 20
863.4271837684
 30
0.0
 11
1163.6629862278
 21
851.9271837684
 31
0.0
  0
LINE
  5
238
330
1F
100
AcDbEntity
  8
0
  6
Continuous
 62
     7
370
    25
100
AcDbLine
 10
493.6629862278
 20
851.9271837684
 30
0.0
 11
493.6629862278
 21
863.4271837684
 31
0.0
  0
ARC
  5
239
330
1F
100
AcDbEntity
  8
0
  6
Continuous
 62
     7
370
    25
100
AcDbCircle
 10
700.6629862278
 20
787.9271837684
 30
0.0
 40
3.249999999996427
100
AcDbArc
 50
8.8498830984
 51
171.1501169016
  0
ARC
  5
23A
330
1F
100
AcDbEntity
  8
0
  6
Continuous
 62
     7
370
    25
100
AcDbCircle
 10
533.6629862278
 20
787.9271837684
 30
0.0
 40
2.000000000000075
100
AcDbArc
 50
14.4775121861
 51
165.5224878138
  0
ARC
  5
23B
330
1F
100
AcDbEntity
  8
0
  6
Continuous
 62
     7
370
    25
100
AcDbCircle
 10
504.1629862278
 20
787.9271837684
 30
0.0
 40
2.000000000000002
100
AcDbArc
 50
14.4775121862
 51
165.5224878138
  0
LINE
  5
23C
330
1F
100
AcDbEntity
  8
0
  6
Continuous
 62
     7
370
    25
100
AcDbLine
 10
493.6629862278
 20
788.4271837684
 30
0.0
 11
493.6629862278
 21
798.1271837684
 31
0.0
  0
ARC
  5
23D
330
1F
100
AcDbEntity
  8
0
  6
Continuous
 62
     7
370
    25
100
AcDbCircle
 10
1153.1629862278
 20
787.9271837684
 30
0.0
 40
2.000000000000803
100
AcDbArc
 50
14.4775121862
 51
165.5224878136
  0
ARC
  5
23E
330
1F
100
AcDbEntity
  8
0
  6
Continuous
 62
     7
370
    25
100
AcDbCircle
 10
1133.6629862278
 20
787.9271837684
 30
0.0
 40
3.250000000000196
100
AcDbArc
 50
8.8498830987
 51
171.1501169013
  0
ARC
  5
23F
330
1F
100
AcDbEntity
  8
0
  6
Continuous
 62
     7
370
    25
100
AcDbCircle
 10
907.6629862278
 20
787.9271837684
 30
0.0
 40
3.249999999995944
100
AcDbArc
 50
8.8498830985
 51
171.1501169015
  0
ARC
  5
240
330
1F
100
AcDbEntity
  8
0
  6
Continuous
 62
     7
370
    25
100
AcDbCircle
 10
840.6629862278
 20
787.9271837684
 30
0.0
 40
3.000000000000036
100
AcDbArc
 50
9.5940682269
 51
170.4059317731
  0
ARC
  5
241
330
1F
100
AcDbEntity
  8
0
  6
Continuous
 62
     7
370
    25
100
AcDbCircle
 10
716.6629862278
 20
787.9271837684
 30
0.0
 40
3.000000000000302
100
AcDbArc
 50
9.5940682272
 51
170.4059317729
  0
LINE
  5
242
330
1F
100
AcDbEntity
  8
0
  6
Continuous
 62
     7
370
    25
100
AcDbLine
 10
1163.6629862278
 20
798.1271837684
 30
0.0
 11
1163.6629862278
 21
788.4271837684
 31
0.0
  0
ARC
  5
243
330
1F
100
AcDbEntity
  8
0
  6
Continuous
 62
     7
370
    25
100
AcDbCircle
 10
1153.1629862278
 20
787.9271837684
 30
0.0
 40
2.00000000000086
100
AcDbArc
 50
0.0000000001
 51
14.4775121862
  0
LINE
  5
244
330
1F
100
AcDbEntity
  8
0
  6
Continuous
 62
     7
370
    25
100
AcDbLine
 10
1163.6629862278
 20
787.9271837684
 30
0.0
 11
1163.6629862278
 21
788.4271837684
 31
0.0
  0
ARC
  5
245
330
1F
100
AcDbEntity
  8
0
  6
Continuous
 62
     7
370
    25
100
AcDbCircle
 10
1153.1629862278
 20
863.9271837684
 30
0.0
 40
2.000000000000227
100
AcDbArc
 50
345.5224878144
 51
0.0000000003
  0
LINE
  5
246
330
1F
100
AcDbEntity
  8
0
  6
Continuous
 62
     7
370
    25
100
AcDbLine
 10
1163.6629862278
 20
863.4271837684
 30
0.0
 11
1163.6629862278
 21
863.9271837684
 31
0.0
  0
ARC
  5
247
330
1F
100
AcDbEntity
  8
0
  6
Continuous
 62
     7
370
    25
100
AcDbCircle
 10
1153.1629862278
 20
863.9271837684
 30
0.0
 40
2.000000000000228
100
AcDbArc
 50
0.0000000003
 51
14.4775121862
  0
LINE
  5
248
330
1F
100
AcDbEntity
  8
0
  6
Continuous
 62
     7
370
    25
100
AcDbLine
 10
1163.6629862278
 20
863.9271837684
 30
0.0
 11
1163.6629862278
 21
864.4271837684
 31
0.0
  0
LINE
  5
249
330
1F
100
AcDbEntity
  8
0
  6
Continuous
 62
     7
370
    25
100
AcDbLine
 10
1163.6629862278
 20
851.9271837684
 30
0.0
 11
1163.6629862278
 21
851.4271837684
 31
0.0
  0
LINE
  5
24A
330
1F
100
AcDbEntity
  8
0
  6
Continuous
 62
     7
370
    25
100
AcDbLine
 10
493.6629862278
 20
851.4271837684
 30
0.0
 11
493.6629862278
 21
851.9271837684
 31
0.0
  0
ARC
  5
24B
330
1F
100
AcDbEntity
  8
0
  6
Continuous
 62
     7
370
    25
100
AcDbCircle
 10
504.1629862278
 20
787.9271837684
 30
0.0
 40
2.0
100
AcDbArc
 50
179.9999999998
 51
194.4775121859
  0
LINE
  5
24C
330
1F
100
AcDbEntity
  8
0
  6
Continuous
 62
     7
370
    25
100
AcDbLine
 10
493.6629862278
 20
787.9271837684
 30
0.0
 11
493.6629862278
 21
787.4271837684
 31
0.0
  0
ARC
  5
24D
330
1F
100
AcDbEntity
  8
0
  6
Continuous
 62
     7
370
    25
100
AcDbCircle
 10
907.6629862278
 20
787.9271837684
 30
0.0
 40
3.249999999995866
100
AcDbArc
 50
188.8498830984
 51
351.1501169016
  0
ARC
  5
24E
330
1F
100
AcDbEntity
  8
0
  6
Continuous
 62
     7
370
    25
100
AcDbCircle
 10
1133.6629862278
 20
787.9271837684
 30
0.0
 40
3.250000000000168
100
AcDbArc
 50
188.8498830983
 51
351.1501169018
  0
ARC
  5
24F
330
1F
100
AcDbEntity
  8
0
  6
Continuous
 62
     7
370
    25
100
AcDbCircle
 10
1153.1629862278
 20
787.9271837684
 30
0.0
 40
2.000000000000147
100
AcDbArc
 50
194.4775121873
 51
345.5224878127
  0
ARC
  5
250
330
1F
100
AcDbEntity
  8
0
  6
Continuous
 62
     7
370
    25
100
AcDbCircle
 10
504.1629862278
 20
787.9271837684
 30
0.0
 40
2.000000000000035
100
AcDbArc
 50
194.4775121859
 51
345.5224878142
  0
ARC
  5
251
330
1F
100
AcDbEntity
  8
0
  6
Continuous
 62
     7
370
    25
100
AcDbCircle
 10
533.6629862278
 20
787.9271837684
 30
0.0
 40
2.000000000000094
100
AcDbArc
 50
194.4775121858
 51
345.5224878144
  0
ARC
  5
252
330
1F
100
AcDbEntity
  8
0
  6
Continuous
 62
     7
370
    25
100
AcDbCircle
 10
700.6629862278
 20
787.9271837684
 30
0.0
 40
3.249999999995978
100
AcDbArc
 50
188.8498830984
 51
351.1501169015
  0
ARC
  5
253
330
1F
100
AcDbEntity
  8
0
  6
Continuous
 62
     7
370
    25
100
AcDbCircle
 10
716.6629862278
 20
787.9271837684
 30
0.0
 40
3.000000000000032
100
AcDbArc
 50
189.5940682268
 51
350.4059317733
  0
ARC
  5
254
330
1F
100
AcDbEntity
  8
0
  6
Continuous
 62
     7
370
    25
100
AcDbCircle
 10
840.6629862278
 20
787.9271837684
 30
0.0
 40
3.00000000000013
100
AcDbArc
 50
189.5940682269
 51
350.4059317731
  0
LINE
  5
255
330
1F
100
AcDbEntity
  8
0
  6
Continuous
 62
     7
370
    25
100
AcDbLine
 10
493.6629862278
 20
781.4271837684
 30
0.0
 11
493.6629862278
 21
787.4271837684
 31
0.0
  0
LINE
  5
256
330
1F
100
AcDbEntity
  8
0
  6
Continuous
 62
     7
370
    25
100
AcDbLine
 10
1163.6629862278
 20
787.4271837684
 30
0.0
 11
1163.6629862278
 21
781.4271837684
 31
0.0
  0
ARC
  5
257
330
1F
100
AcDbEntity
  8
0
  6
Continuous
 62
     7
370
    25
100
AcDbCircle
 10
504.1629862278
 20
787.9271837684
 30
0.0
 40
2.000000000000004
100
AcDbArc
 50
165.5224878138
 51
179.9999999998
  0
LINE
  5
258
330
1F
100
AcDbEntity
  8
0
  6
Continuous
 62
     7
370
    25
100
AcDbLine
 10
493.6629862278
 20
788.4271837684
 30
0.0
 11
493.6629862278
 21
787.9271837684
 31
0.0
  0
ARC
  5
259
330
1F
100
AcDbEntity
  8
0
  6
Continuous
 62
     7
370
    25
100
AcDbCircle
 10
1153.1629862278
 20
787.9271837684
 30
0.0
 40
2.000000000000227
100
AcDbArc
 50
345.5224878127
 51
0.0000000001
  0
LINE
  5
25A
330
1F
100
AcDbEntity
  8
0
  6
Continuous
 62
     7
370
    25
100
AcDbLine
 10
1163.6629862278
 20
787.4271837684
 30
0.0
 11
1163.6629862278
 21
787.9271837684
 31
0.0
  0
LINE
  5
25B
330
1F
100
AcDbEntity
  8
0
  6
Continuous
 62
     7
370
    25
100
AcDbLine
 10
1163.6629862278
 20
871.4271837684
 30
0.0
 11
493.6629862278
 21
871.4271837684
 31
0.0
  0
LINE
  5
25C
330
1F
100
AcDbEntity
  8
0
  6
Continuous
 62
     7
370
    25
100
AcDbLine
 10
1163.6629862278
 20
870.4271837684
 30
0.0
 11
1163.6629862278
 21
871.4271837684
 31
0.0
  0
LINE
  5
25D
330
1F
100
AcDbEntity
  8
0
  6
Continuous
 62
     7
370
    25
100
AcDbLine
 10
493.6629862278
 20
871.4271837684
 30
0.0
 11
493.6629862278
 21
870.4271837684
 31
0.0
  0
LINE
  5
25E
330
1F
100
AcDbEntity
  8
0
  6
Continuous
 62
     7
370
    25
100
AcDbLine
 10
493.6629862278
 20
780.4271837684
 30
0.0
 11
1163.6629862278
 21
780.4271837684
 31
0.0
  0
LINE
  5
25F
330
1F
100
AcDbEntity
  8
0
  6
Continuous
 62
     7
370
    25
100
AcDbLine
 10
493.6629862278
 20
781.4271837684
 30
0.0
 11
493.6629862278
 21
780.4271837684
 31
0.0
  0
LINE
  5
260
330
1F
100
AcDbEntity
  8
0
  6
Continuous
 62
     7
370
    25
100
AcDbLine
 10
1163.6629862278
 20
780.4271837684
 30
0.0
 11
1163.6629862278
 21
781.4271837684
 31
0.0
  0
ARC
  5
261
330
1F
100
AcDbEntity
  8
0
  6
Continuous
 62
     7
370
    25
100
AcDbCircle
 10
1153.1629862278
 20
863.9271837684
 30
0.0
 40
1.999999999999978
100
AcDbArc
 50
165.5224878124
 51
179.9999999991
  0
ARC
  5
262
330
1F
100
AcDbEntity
  8
0
  6
Continuous
 62
     7
370
    25
100
AcDbCircle
 10
1133.6629862278
 20
863.9271837684
 30
0.0
 40
3.25
100
AcDbArc
 50
0.0000000005
 51
8.8498831004
  0
ARC
  5
263
330
1F
100
AcDbEntity
  8
0
  6
Continuous
 62
     7
370
    25
100
AcDbCircle
 10
533.6629862278
 20
863.9271837684
 30
0.0
 40
2.000000000000767
100
AcDbArc
 50
0.0
 51
14.4775121877
  0
ARC
  5
264
330
1F
100
AcDbEntity
  8
0
  6
Continuous
 62
     7
370
    25
100
AcDbCircle
 10
700.6629862278
 20
863.9271837684
 30
0.0
 40
3.249999999996174
100
AcDbArc
 50
171.1501169005
 51
180.0
  0
ARC
  5
265
330
1F
100
AcDbEntity
  8
0
  6
Continuous
 62
     7
370
    25
100
AcDbCircle
 10
716.6629862278
 20
863.9271837684
 30
0.0
 40
3.000000000000439
100
AcDbArc
 50
0.0000000001
 51
9.594068228
  0
ARC
  5
266
330
1F
100
AcDbEntity
  8
0
  6
Continuous
 62
     7
370
    25
100
AcDbCircle
 10
840.6629862278
 20
863.9271837684
 30
0.0
 40
3.000000000000415
100
AcDbArc
 50
170.4059317722
 51
180.0000000001
  0
ARC
  5
267
330
1F
100
AcDbEntity
  8
0
  6
Continuous
 62
     7
370
    25
100
AcDbCircle
 10
840.6629862278
 20
863.9271837684
 30
0.0
 40
3.000000000000528
100
AcDbArc
 50
360.0
 51
9.5940682278
  0
ARC
  5
268
330
1F
100
AcDbEntity
  8
0
  6
Continuous
 62
     7
370
    25
100
AcDbCircle
 10
907.6629862278
 20
863.9271837684
 30
0.0
 40
3.249999999996232
100
AcDbArc
 50
171.1501169007
 51
180.0000000001
  0
ARC
  5
269
330
1F
100
AcDbEntity
  8
0
  6
Continuous
 62
     7
370
    25
100
AcDbCircle
 10
1133.6629862278
 20
863.9271837684
 30
0.0
 40
3.250000000000123
100
AcDbArc
 50
171.1501169005
 51
179.9999999999
  0
ARC
  5
26A
330
1F
100
AcDbEntity
  8
0
  6
Continuous
 62
     7
370
    25
100
AcDbCircle
 10
907.6629862278
 20
863.9271837684
 30
0.0
 40
3.24999999999612
100
AcDbArc
 50
359.9999999999
 51
8.8498830993
  0
ARC
  5
26B
330
1F
100
AcDbEntity
  8
0
  6
Continuous
 62
     7
370
    25
100
AcDbCircle
 10
716.6629862278
 20
863.9271837684
 30
0.0
 40
2.999999999999966
100
AcDbArc
 50
170.4059317719
 51
179.9999999999
  0
ARC
  5
26C
330
1F
100
AcDbEntity
  8
0
  6
Continuous
 62
     7
370
    25
100
AcDbCircle
 10
700.6629862278
 20
863.9271837684
 30
0.0
 40
3.249999999995907
100
AcDbArc
 50
359.9999999999
 51
8.8498830994
  0
ARC
  5
26D
330
1F
100
AcDbEntity
  8
0
  6
Continuous
 62
     7
370
    25
100
AcDbCircle
 10
504.1629862278
 20
863.9271837684
 30
0.0
 40
2.000000000000057
100
AcDbArc
 50
359.9999999999
 51
14.4775121876
  0
ARC
  5
26E
330
1F
100
AcDbEntity
  8
0
  6
Continuous
 62
     7
370
    25
100
AcDbCircle
 10
533.6629862278
 20
863.9271837684
 30
0.0
 40
1.999999999999982
100
AcDbArc
 50
165.5224878124
 51
180.0000000001
  0
ARC
  5
26F
330
1F
100
AcDbEntity
  8
0
  6
Continuous
 62
     7
370
    25
100
AcDbCircle
 10
1133.6629862278
 20
787.9271837684
 30
0.0
 40
3.250000000000238
100
AcDbArc
 50
351.1501169017
 51
0.0000000002
  0
ARC
  5
270
330
1F
100
AcDbEntity
  8
0
  6
Continuous
 62
     7
370
    25
100
AcDbCircle
 10
1153.1629862278
 20
787.9271837684
 30
0.0
 40
1.99999999999987
100
AcDbArc
 50
179.9999999997
 51
194.4775121873
  0
ARC
  5
271
330
1F
100
AcDbEntity
  8
0
  6
Continuous
 62
     7
370
    25
100
AcDbCircle
 10
840.6629862278
 20
787.9271837684
 30
0.0
 40
3.000000000000073
100
AcDbArc
 50
0.0
 51
9.5940682269
  0
ARC
  5
272
330
1F
100
AcDbEntity
  8
0
  6
Continuous
 62
     7
370
    25
100
AcDbCircle
 10
907.6629862278
 20
787.9271837684
 30
0.0
 40
3.249999999995907
100
AcDbArc
 50
171.1501169015
 51
180.0
  0
ARC
  5
273
330
1F
100
AcDbEntity
  8
0
  6
Continuous
 62
     7
370
    25
100
AcDbCircle
 10
533.6629862278
 20
787.9271837684
 30
0.0
 40
2.000000000000131
100
AcDbArc
 50
0.0000000001
 51
14.4775121861
  0
ARC
  5
274
330
1F
100
AcDbEntity
  8
0
  6
Continuous
 62
     7
370
    25
100
AcDbCircle
 10
700.6629862278
 20
787.9271837684
 30
0.0
 40
3.249999999996322
100
AcDbArc
 50
171.1501169016
 51
180.0000000001
  0
ARC
  5
275
330
1F
100
AcDbEntity
  8
0
  6
Continuous
 62
     7
370
    25
100
AcDbCircle
 10
1133.6629862278
 20
787.9271837684
 30
0.0
 40
3.25
100
AcDbArc
 50
171.1501169013
 51
179.9999999998
  0
ARC
  5
276
330
1F
100
AcDbEntity
  8
0
  6
Continuous
 62
     7
370
    25
100
AcDbCircle
 10
907.6629862278
 20
787.9271837684
 30
0.0
 40
3.249999999995839
100
AcDbArc
 50
360.0
 51
8.8498830985
  0
ARC
  5
277
330
1F
100
AcDbEntity
  8
0
  6
Continuous
 62
     7
370
    25
100
AcDbCircle
 10
700.6629862278
 20
787.9271837684
 30
0.0
 40
3.249999999996098
100
AcDbArc
 50
359.9999999999
 51
8.8498830984
  0
ARC
  5
278
330
1F
100
AcDbEntity
  8
0
  6
Continuous
 62
     7
370
    25
100
AcDbCircle
 10
716.6629862278
 20
787.9271837684
 30
0.0
 40
3.000000000000341
100
AcDbArc
 50
170.4059317729
 51
180.0
  0
ARC
  5
279
330
1F
100
AcDbEntity
  8
0
  6
Continuous
 62
     7
370
    25
100
AcDbCircle
 10
840.6629862278
 20
787.9271837684
 30
0.0
 40
2.999999999999961
100
AcDbArc
 50
170.4059317731
 51
180.0
  0
ARC
  5
27A
330
1F
100
AcDbEntity
  8
0
  6
Continuous
 62
     7
370
    25
100
AcDbCircle
 10
716.6629862278
 20
787.9271837684
 30
0.0
 40
3.000000000000165
100
AcDbArc
 50
0.0000000001
 51
9.5940682272
  0
ARC
  5
27B
330
1F
100
AcDbEntity
  8
0
  6
Continuous
 62
     7
370
    25
100
AcDbCircle
 10
1133.6629862278
 20
787.9271837684
 30
0.0
 40
3.250000000000127
100
AcDbArc
 50
0.0000000002
 51
8.8498830987
  0
ARC
  5
27C
330
1F
100
AcDbEntity
  8
0
  6
Continuous
 62
     7
370
    25
100
AcDbCircle
 10
1153.1629862278
 20
787.9271837684
 30
0.0
 40
1.999999999999909
100
AcDbArc
 50
165.5224878136
 51
179.9999999997
  0
LINE
  5
27D
330
1F
100
AcDbEntity
  8
0
  6
Continuous
 62
     7
370
    25
100
AcDbLine
 10
493.6629862278
 20
798.4271837684
 30
0.0
 11
493.6629862278
 21
798.1271837684
 31
0.0
  0
LINE
  5
27E
330
1F
100
AcDbEntity
  8
0
  6
Continuous
 62
     7
370
    25
100
AcDbLine
 10
1163.6629862278
 20
798.1271837684
 30
0.0
 11
1163.6629862278
 21
798.4271837684
 31
0.0
  0
ARC
  5
27F
330
1F
100
AcDbEntity
  8
0
  6
Continuous
 62
     7
370
    25
100
AcDbCircle
 10
840.6629862278
 20
863.9271837684
 30
0.0
 40
3.000000000000055
100
AcDbArc
 50
350.4059317731
 51
360.0
  0
ARC
  5
280
330
1F
100
AcDbEntity
  8
0
  6
Continuous
 62
     7
370
    25
100
AcDbCircle
 10
907.6629862278
 20
863.9271837684
 30
0.0
 40
3.249999999996023
100
AcDbArc
 50
180.0000000001
 51
188.8498830985
  0
ARC
  5
281
330
1F
100
AcDbEntity
  8
0
  6
Continuous
 62
     7
370
    25
100
AcDbCircle
 10
716.6629862278
 20
863.9271837684
 30
0.0
 40
3.000000000000031
100
AcDbArc
 50
179.9999999999
 51
189.5940682267
  0
ARC
  5
282
330
1F
100
AcDbEntity
  8
0
  6
Continuous
 62
     7
370
    25
100
AcDbCircle
 10
700.6629862278
 20
863.9271837684
 30
0.0
 40
3.249999999996136
100
AcDbArc
 50
351.1501169015
 51
359.9999999999
  0
ARC
  5
283
330
1F
100
AcDbEntity
  8
0
  6
Continuous
 62
     7
370
    25
100
AcDbCircle
 10
716.6629862278
 20
863.9271837684
 30
0.0
 40
3.000000000000114
100
AcDbArc
 50
350.4059317733
 51
0.0000000001
  0
ARC
  5
284
330
1F
100
AcDbEntity
  8
0
  6
Continuous
 62
     7
370
    25
100
AcDbCircle
 10
840.6629862278
 20
863.9271837684
 30
0.0
 40
3.000000000000055
100
AcDbArc
 50
180.0000000001
 51
189.5940682269
  0
ARC
  5
285
330
1F
100
AcDbEntity
  8
0
  6
Continuous
 62
     7
370
    25
100
AcDbCircle
 10
533.6629862278
 20
863.9271837684
 30
0.0
 40
2.000000000000006
100
AcDbArc
 50
345.5224878141
 51
0.0
  0
ARC
  5
286
330
1F
100
AcDbEntity
  8
0
  6
Continuous
 62
     7
370
    25
100
AcDbCircle
 10
700.6629862278
 20
863.9271837684
 30
0.0
 40
3.249999999996136
100
AcDbArc
 50
180.0
 51
188.8498830985
  0
ARC
  5
287
330
1F
100
AcDbEntity
  8
0
  6
Continuous
 62
     7
370
    25
100
AcDbCircle
 10
1133.6629862278
 20
863.9271837684
 30
0.0
 40
3.25
100
AcDbArc
 50
179.9999999999
 51
188.8498830983
  0
ARC
  5
288
330
1F
100
AcDbEntity
  8
0
  6
Continuous
 62
     7
370
    25
100
AcDbCircle
 10
907.6629862278
 20
863.9271837684
 30
0.0
 40
3.249999999996136
100
AcDbArc
 50
351.1501169015
 51
359.9999999999
  0
ARC
  5
289
330
1F
100
AcDbEntity
  8
0
  6
Continuous
 62
     7
370
    25
100
AcDbCircle
 10
1153.1629862278
 20
863.9271837684
 30
0.0
 40
1.99999999999987
100
AcDbArc
 50
179.9999999991
 51
194.4775121856
  0
ARC
  5
28A
330
1F
100
AcDbEntity
  8
0
  6
Continuous
 62
     7
370
    25
100
AcDbCircle
 10
1133.6629862278
 20
863.9271837684
 30
0.0
 40
3.250000000000445
100
AcDbArc
 50
351.1501169017
 51
0.0000000005
  0
ARC
  5
28B
330
1F
100
AcDbEntity
  8
0
  6
Continuous
 62
     7
370
    25
100
AcDbCircle
 10
504.1629862278
 20
863.9271837684
 30
0.0
 40
2.000000000000057
100
AcDbArc
 50
345.5224878139
 51
359.9999999999
  0
ARC
  5
28C
330
1F
100
AcDbEntity
  8
0
  6
Continuous
 62
     7
370
    25
100
AcDbCircle
 10
533.6629862278
 20
863.9271837684
 30
0.0
 40
1.999999999999886
100
AcDbArc
 50
180.0000000001
 51
194.4775121861
  0
ARC
  5
28D
330
1F
100
AcDbEntity
  8
0
  6
Continuous
 62
     7
370
    25
100
AcDbCircle
 10
533.6629862278
 20
787.9271837684
 30
0.0
 40
2.000000000000004
100
AcDbArc
 50
165.5224878138
 51
179.9999999998
  0
ARC
  5
28E
330
1F
100
AcDbEntity
  8
0
  6
Continuous
 62
     7
370
    25
100
AcDbCircle
 10
504.1629862278
 20
787.9271837684
 30
0.0
 40
2.000000000000059
100
AcDbArc
 50
0.0000000002
 51
14.4775121862
  0
ARC
  5
28F
330
1F
100
AcDbEntity
  8
0
  6
Continuous
 62
     7
370
    25
100
AcDbCircle
 10
533.6629862278
 20
787.9271837684
 30
0.0
 40
1.999999999999886
100
AcDbArc
 50
179.9999999998
 51
194.4775121858
  0
ARC
  5
290
330
1F
100
AcDbEntity
  8
0
  6
Continuous
 62
     7
370
    25
100
AcDbCircle
 10
504.1629862278
 20
787.9271837684
 30
0.0
 40
2.000000000000057
100
AcDbArc
 50
345.5224878142
 51
0.0000000002
  0
ARC
  5
291
330
1F
100
AcDbEntity
  8
0
  6
Continuous
 62
     7
370
    25
100
AcDbCircle
 10
533.6629862278
 20
787.9271837684
 30
0.0
 40
2.000000000000037
100
AcDbArc
 50
345.5224878144
 51
0.0000000001
  0
ARC
  5
292
330
1F
100
AcDbEntity
  8
0
  6
Continuous
 62
     7
370
    25
100
AcDbCircle
 10
700.6629862278
 20
787.9271837684
 30
0.0
 40
3.249999999996083
100
AcDbArc
 50
180.0000000001
 51
188.8498830985
  0
ARC
  5
293
330
1F
100
AcDbEntity
  8
0
  6
Continuous
 62
     7
370
    25
100
AcDbCircle
 10
840.6629862278
 20
787.9271837684
 30
0.0
 40
2.999999999999886
100
AcDbArc
 50
180.0
 51
189.5940682269
  0
ARC
  5
294
330
1F
100
AcDbEntity
  8
0
  6
Continuous
 62
     7
370
    25
100
AcDbCircle
 10
716.6629862278
 20
787.9271837684
 30
0.0
 40
3.000000000000114
100
AcDbArc
 50
350.4059317733
 51
0.0000000001
  0
ARC
  5
295
330
1F
100
AcDbEntity
  8
0
  6
Continuous
 62
     7
370
    25
100
AcDbCircle
 10
1133.6629862278
 20
787.9271837684
 30
0.0
 40
3.250000000000013
100
AcDbArc
 50
179.9999999998
 51
188.8498830983
  0
ARC
  5
296
330
1F
100
AcDbEntity
  8
0
  6
Continuous
 62
     7
370
    25
100
AcDbCircle
 10
907.6629862278
 20
787.9271837684
 30
0.0
 40
3.249999999995971
100
AcDbArc
 50
351.1501169015
 51
360.0
  0
ARC
  5
297
330
1F
100
AcDbEntity
  8
0
  6
Continuous
 62
     7
370
    25
100
AcDbCircle
 10
840.6629862278
 20
787.9271837684
 30
0.0
 40
3.000000000000092
100
AcDbArc
 50
350.4059317731
 51
0.0
  0
ARC
  5
298
330
1F
100
AcDbEntity
  8
0
  6
Continuous
 62
     7
370
    25
100
AcDbCircle
 10
907.6629862278
 20
787.9271837684
 30
0.0
 40
3.249999999995971
100
AcDbArc
 50
180.0
 51
188.8498830985
  0
ARC
  5
299
330
1F
100
AcDbEntity
  8
0
  6
Continuous
 62
     7
370
    25
100
AcDbCircle
 10
700.6629862278
 20
787.9271837684
 30
0.0
 40
3.249999999995954
100
AcDbArc
 50
351.1501169015
 51
359.9999999999
  0
ARC
  5
29A
330
1F
100
AcDbEntity
  8
0
  6
Continuous
 62
     7
370
    25
100
AcDbCircle
 10
716.6629862278
 20
787.9271837684
 30
0.0
 40
2.999999999999893
100
AcDbArc
 50
180.0
 51
189.5940682268
  0
ARC
  5
29B
330
1F
100
AcDbEntity
  8
0
  6
Continuous
 62
     7
370
    25
100
AcDbCircle
 10
516.6629862278
 20
844.4271837684
 30
0.0
 40
5.000000000004775
100
AcDbArc
 50
0.0000000002
 51
90.0
  0
LINE
  5
29C
330
1F
100
AcDbEntity
  8
0
  6
Continuous
 62
     7
370
    25
100
AcDbLine
 10
493.6629862278
 20
849.4271837684
 30
0.0
 11
516.6629862278
 21
849.4271837684
 31
0.0
  0
LINE
  5
29D
330
1F
100
AcDbEntity
  8
0
  6
Continuous
 62
     7
370
    25
100
AcDbLine
 10
1140.6629862278
 20
849.4271837684
 30
0.0
 11
1163.6629862278
 21
849.4271837684
 31
0.0
  0
ARC
  5
29E
330
1F
100
AcDbEntity
  8
0
  6
Continuous
 62
     7
370
    25
100
AcDbCircle
 10
1140.6629862278
 20
844.4271837684
 30
0.0
 40
5.000000000000227
100
AcDbArc
 50
90.0
 51
180.0000000001
  0
LINE
  5
29F
330
1F
100
AcDbEntity
  8
0
  6
Continuous
 62
     7
370
    25
100
AcDbLine
 10
1135.6629862278
 20
844.4271837684
 30
0.0
 11
1135.6629862278
 21
838.6233361911
 31
0.0
  0
LINE
  5
2A0
330
1F
100
AcDbEntity
  8
0
  6
Continuous
 62
     7
370
    25
100
AcDbLine
 10
521.6629862278
 20
838.6233361911
 30
0.0
 11
521.6629862278
 21
844.4271837684
 31
0.0
  0
LINE
  5
2A1
330
1F
100
AcDbEntity
  8
0
  6
Continuous
 62
     7
370
    25
100
AcDbLine
 10
1163.6629862278
 20
849.4271837684
 30
0.0
 11
1163.6629862278
 21
851.4271837684
 31
0.0
  0
LINE
  5
2A2
330
1F
100
AcDbEntity
  8
0
  6
Continuous
 62
     7
370
    25
100
AcDbLine
 10
493.6629862278
 20
851.4271837684
 30
0.0
 11
493.6629862278
 21
849.4271837684
 31
0.0
  0
LINE
  5
2A3
330
1F
100
AcDbEntity
  8
0
  6
Continuous
 62
     7
370
    25
100
AcDbLine
 10
521.6629862278
 20
834.2932091722
 30
0.0
 11
521.6629862278
 21
838.6233361911
 31
0.0
  0
LINE
  5
2A4
330
1F
100
AcDbEntity
  8
0
  6
Continuous
 62
     7
370
    25
100
AcDbLine
 10
1135.6629862278
 20
838.6233361911
 30
0.0
 11
1135.6629862278
 21
834.2932091722
 31
0.0
  0
LINE
  5
2A5
330
1F
100
AcDbEntity
  8
0
  6
Continuous
 62
     7
370
    25
100
AcDbLine
 10
521.6629862278
 20
831.8394705281
 30
0.0
 11
521.6629862278
 21
834.2932091722
 31
0.0
  0
LINE
  5
2A6
330
1F
100
AcDbEntity
  8
0
  6
Continuous
 62
     7
370
    25
100
AcDbLine
 10
1135.6629862278
 20
834.2932091722
 30
0.0
 11
1135.6629862278
 21
831.8394705281
 31
0.0
  0
LINE
  5
2A7
330
1F
100
AcDbEntity
  8
0
  6
Continuous
 62
     7
370
    25
100
AcDbLine
 10
521.6629862278
 20
830.5404324225
 30
0.0
 11
521.6629862278
 21
831.8394705281
 31
0.0
  0
LINE
  5
2A8
330
1F
100
AcDbEntity
  8
0
  6
Continuous
 62
     7
370
    25
100
AcDbLine
 10
1135.6629862278
 20
831.8394705281
 30
0.0
 11
1135.6629862278
 21
830.5404324225
 31
0.0
  0
LINE
  5
2A9
330
1F
100
AcDbEntity
  8
0
  6
Continuous
 62
     7
370
    25
100
AcDbLine
 10
493.6629862278
 20
802.4271837684
 30
0.0
 11
516.6629862278
 21
802.4271837684
 31
0.0
  0
ARC
  5
2AA
330
1F
100
AcDbEntity
  8
0
  6
Continuous
 62
     7
370
    25
100
AcDbCircle
 10
516.6629862278
 20
807.4271837684
 30
0.0
 40
5.0
100
AcDbArc
 50
270.0
 51
359.9999999999
  0
ARC
  5
2AB
330
1F
100
AcDbEntity
  8
0
  6
Continuous
 62
     7
370
    25
100
AcDbCircle
 10
1140.6629862278
 20
807.4271837684
 30
0.0
 40
5.000000000011028
100
AcDbArc
 50
180.0000000003
 51
270.0
  0
LINE
  5
2AC
330
1F
100
AcDbEntity
  8
0
  6
Continuous
 62
     7
370
    25
100
AcDbLine
 10
1140.6629862278
 20
802.4271837684
 30
0.0
 11
1163.6629862278
 21
802.4271837684
 31
0.0
  0
LINE
  5
2AD
330
1F
100
AcDbEntity
  8
0
  6
Continuous
 62
     7
370
    25
100
AcDbLine
 10
521.6629862278
 20
807.4271837684
 30
0.0
 11
521.6629862278
 21
830.5404324225
 31
0.0
  0
LINE
  5
2AE
330
1F
100
AcDbEntity
  8
0
  6
Continuous
 62
     7
370
    25
100
AcDbLine
 10
1135.6629862278
 20
830.5404324225
 30
0.0
 11
1135.6629862278
 21
807.4271837684
 31
0.0
  0
LINE
  5
2AF
330
1F
100
AcDbEntity
  8
0
  6
Continuous
 62
     7
370
    25
100
AcDbLine
 10
493.6629862278
 20
798.4271837684
 30
0.0
 11
493.6629862278
 21
802.4271837684
 31
0.0
  0
LINE
  5
2B0
330
1F
100
AcDbEntity
  8
0
  6
Continuous
 62
     7
370
    25
100
AcDbLine
 10
1163.6629862278
 20
802.4271837684
 30
0.0
 11
1163.6629862278
 21
798.4271837684
 31
0.0
  0
LINE
  5
2B1
330
1F
100
AcDbEntity
  8
0
  6
Continuous
 62
     7
370
    25
100
AcDbLine
 10
493.36726417
 20
581.9271837688
 30
0.0
 11
493.36726417
 21
541.9271837688
 31
0.0
  0
LINE
  5
2B2
330
1F
100
AcDbEntity
  8
0
  6
Continuous
 62
     7
370
    25
100
AcDbLine
 10
497.4107133126
 20
581.9271837688
 30
0.0
 11
497.4107133126
 21
541.9271837688
 31
0.0
  0
LINE
  5
2B3
330
1F
100
AcDbEntity
  8
0
  6
Continuous
 62
     7
370
    25
100
AcDbLine
 10
497.4107133126
 20
541.9271837688
 30
0.0
 11
493.6549861224
 21
541.9271837688
 31
0.0
  0
LINE
  5
2B4
330
1F
100
AcDbEntity
  8
0
  6
Continuous
 62
     7
370
    25
100
AcDbLine
 10
497.4107133126
 20
581.9271837688
 30
0.0
 11
493.6549861224
 21
581.9271837688
 31
0.0
  0
LINE
  5
2B5
330
1F
100
AcDbEntity
  8
0
  6
Continuous
 62
     7
370
    25
100
AcDbLine
 10
515.6629862278
 20
581.9271837688
 30
0.0
 11
515.6629862278
 21
541.9271837688
 31
0.0
  0
LINE
  5
2B6
330
1F
100
AcDbEntity
  8
0
  6
Continuous
 62
     7
370
    25
100
AcDbLine
 10
515.6629862278
 20
541.9271837688
 30
0.0
 11
497.4107133126
 21
541.9271837688
 31
0.0
  0
LINE
  5
2B7
330
1F
100
AcDbEntity
  8
0
  6
Continuous
 62
     7
370
    25
100
AcDbLine
 10
515.6629862278
 20
581.9271837688
 30
0.0
 11
497.4107133126
 21
581.9271837688
 31
0.0
  0
LINE
  5
2B8
330
1F
100
AcDbEntity
  8
0
  6
Continuous
 62
     7
370
    25
100
AcDbLine
 10
1478.6629862278
 20
441.9271837688
 30
0.0
 11
488.6629862278
 21
441.9271837688
 31
0.0
  0
LINE
  5
2B9
330
1F
100
AcDbEntity
  8
0
  6
Continuous
 62
     7
370
    25
100
AcDbLine
 10
488.6629862278
 20
441.9271837688
 30
0.0
 11
488.6629862278
 21
511.9271837688
 31
0.0
  0
LINE
  5
2BA
330
1F
100
AcDbEntity
  8
0
  6
Continuous
 62
     7
370
    25
100
AcDbLine
 10
488.6629862278
 20
611.9271837688
 30
0.0
 11
488.6629862278
 21
761.9271837688
 31
0.0
  0
LINE
  5
2BB
330
1F
100
AcDbEntity
  8
0
  6
Continuous
 62
     7
370
    25
100
AcDbLine
 10
488.6629862278
 20
761.9271837688
 30
0.0
 11
1478.6629862278
 21
761.9271837688
 31
0.0
  0
LINE
  5
2BC
330
1F
100
AcDbEntity
  8
0
  6
Continuous
 62
     7
370
    25
100
AcDbLine
 10
1478.6629862278
 20
761.9271837688
 30
0.0
 11
1478.6629862278
 21
441.9271837688
 31
0.0
  0
CIRCLE
  5
2BD
330
1F
100
AcDbEntity
  8
0
  6
Continuous
 62
     7
370
    25
100
AcDbCircle
 10
1205.6629862278
 20
726.6771837688
 30
0.0
 40
3.249999999999773
  0
CIRCLE
  5
2BE
330
1F
100
AcDbEntity
  8
0
  6
Continuous
 62
     7
370
    25
100
AcDbCircle
 10
572.6629862278
 20
726.6771837688
 30
0.0
 40
3.249999999999886
  0
LINE
  5
2BF
330
1F
100
AcDbEntity
  8
0
  6
Continuous
 62
     7
370
    25
100
AcDbLine
 10
473.6784305521
 20
541.9271837688
 30
0.0
 11
473.6784305521
 21
511.9271837688
 31
0.0
  0
LINE
  5
2C0
330
1F
100
AcDbEntity
  8
0
  6
Continuous
 62
     7
370
    25
100
AcDbLine
 10
493.6549861224
 20
541.9271837688
 30
0.0
 11
473.6784305521
 21
541.9271837688
 31
0.0
  0
LINE
  5
2C1
330
1F
100
AcDbEntity
  8
0
  6
Continuous
 62
     7
370
    25
100
AcDbLine
 10
495.6929862278
 20
511.9271837688
 30
0.0
 11
473.6784305521
 21
511.9271837688
 31
0.0
  0
LINE
  5
2C2
330
1F
100
AcDbEntity
  8
0
  6
Continuous
 62
     7
370
    25
100
AcDbLine
 10
473.6784305521
 20
611.9271837688
 30
0.0
 11
473.6784305521
 21
581.9271837688
 31
0.0
  0
LINE
  5
2C3
330
1F
100
AcDbEntity
  8
0
  6
Continuous
 62
     7
370
    25
100
AcDbLine
 10
493.6549861224
 20
581.9271837688
 30
0.0
 11
473.6784305521
 21
581.9271837688
 31
0.0
  0
LINE
  5
2C4
330
1F
100
AcDbEntity
  8
0
  6
Continuous
 62
     7
370
    25
100
AcDbLine
 10
495.6929862278
 20
611.9271837688
 30
0.0
 11
473.6784305521
 21
611.9271837688
 31
0.0
  0
LINE
  5
2C5
330
1F
100
AcDbEntity
  8
0
  6
Continuous
 62
     7
370
    25
100
AcDbLine
 10
469.9129862278
 20
541.9271837688
 30
0.0
 11
469.9129862278
 21
511.9271837688
 31
0.0
  0
LINE
  5
2C6
330
1F
100
AcDbEntity
  8
0
  6
Continuous
 62
     7
370
    25
100
AcDbLine
 10
473.6784305521
 20
511.9271837688
 30
0.0
 11
469.9129862278
 21
511.9271837688
 31
0.0
  0
LINE
  5
2C7
330
1F
100
AcDbEntity
  8
0
  6
Continuous
 62
     7
370
    25
100
AcDbLine
 10
473.6784305521
 20
541.9271837688
 30
0.0
 11
469.9129862278
 21
541.9271837688
 31
0.0
  0
LINE
  5
2C8
330
1F
100
AcDbEntity
  8
0
  6
Continuous
 62
     7
370
    25
100
AcDbLine
 10
469.9129862278
 20
611.9271837688
 30
0.0
 11
469.9129862278
 21
581.9271837688
 31
0.0
  0
LINE
  5
2C9
330
1F
100
AcDbEntity
  8
0
  6
Continuous
 62
     7
370
    25
100
AcDbLine
 10
473.6784305521
 20
581.9271837688
 30
0.0
 11
469.9129862278
 21
581.9271837688
 31
0.0
  0
LINE
  5
2CA
330
1F
100
AcDbEntity
  8
0
  6
Continuous
 62
     7
370
    25
100
AcDbLine
 10
473.6784305521
 20
611.9271837688
 30
0.0
 11
469.9129862278
 21
611.9271837688
 31
0.0
  0
LINE
  5
2CB
330
1F
100
AcDbEntity
  8
0
  6
Continuous
 62
     7
370
    25
100
AcDbLine
 10
451.6629862278
 20
541.9271837688
 30
0.0
 11
451.6629862278
 21
511.9271837688
 31
0.0
  0
LINE
  5
2CC
330
1F
100
AcDbEntity
  8
0
  6
Continuous
 62
     7
370
    25
100
AcDbLine
 10
469.9129862278
 20
511.9271837688
 30
0.0
 11
451.6629862278
 21
511.9271837688
 31
0.0
  0
LINE
  5
2CD
330
1F
100
AcDbEntity
  8
0
  6
Continuous
 62
     7
370
    25
100
AcDbLine
 10
469.9129862278
 20
541.9271837688
 30
0.0
 11
451.6629862278
 21
541.9271837688
 31
0.0
  0
LINE
  5
2CE
330
1F
100
AcDbEntity
  8
0
  6
Continuous
 62
     7
370
    25
100
AcDbLine
 10
451.6629862278
 20
611.9271837688
 30
0.0
 11
451.6629862278
 21
581.9271837688
 31
0.0
  0
LINE
  5
2CF
330
1F
100
AcDbEntity
  8
0
  6
Continuous
 62
     7
370
    25
100
AcDbLine
 10
469.9129862278
 20
581.9271837688
 30
0.0
 11
451.6629862278
 21
581.9271837688
 31
0.0
  0
LINE
  5
2D0
330
1F
100
AcDbEntity
  8
0
  6
Continuous
 62
     7
370
    25
100
AcDbLine
 10
469.9129862278
 20
611.9271837688
 30
0.0
 11
451.6629862278
 21
611.9271837688
 31
0.0
  0
LINE
  5
2D1
330
1F
100
AcDbEntity
  8
0
  6
Continuous
 62
     7
370
    25
100
AcDbLine
 10
1483.6629862278
 20
441.9271837688
 30
0.0
 11
1583.6629862278
 21
441.9271837688
 31
0.0
  0
LINE
  5
2D2
330
1F
100
AcDbEntity
  8
0
  6
Continuous
 62
     7
370
    25
100
AcDbLine
 10
483.6629862278
 20
766.9271837688
 30
0.0
 11
483.6629862278
 21
611.9271837688
 31
0.0
  0
LINE
  5
2D3
330
1F
100
AcDbEntity
  8
0
  6
Continuous
 62
     7
370
    25
100
AcDbLine
 10
483.6629862278
 20
511.9271837688
 30
0.0
 11
483.6629862278
 21
441.9271837688
 31
0.0
  0
LINE
  5
2D4
330
1F
100
AcDbEntity
  8
0
  6
Continuous
 62
     7
370
    25
100
AcDbLine
 10
1483.6629862278
 20
441.9271837688
 30
0.0
 11
1483.6629862278
 21
766.9271837688
 31
0.0
  0
LINE
  5
2D5
330
1F
100
AcDbEntity
  8
0
  6
Continuous
 62
     7
370
    25
100
AcDbLine
 10
1483.6629862278
 20
766.9271837688
 30
0.0
 11
483.6629862278
 21
766.9271837688
 31
0.0
  0
CIRCLE
  5
2D6
330
1F
100
AcDbEntity
  8
0
  6
Continuous
 62
     7
370
    25
100
AcDbCircle
 10
507.6629862278
 20
837.9271837688
 30
0.0
 40
10.0
  0
LINE
  5
2D7
330
1F
100
AcDbEntity
  8
0
  6
Continuous
 62
     7
370
    25
100
AcDbLine
 10
1583.6629862278
 20
441.9271837688
 30
0.0
 11
1583.6629862278
 21
941.9271837688
 31
0.0
  0
CIRCLE
  5
2D8
330
1F
100
AcDbEntity
  8
0
  6
Continuous
 62
     7
370
    25
100
AcDbCircle
 10
1149.6629862278
 20
814.9271837688
 30
0.0
 40
10.0
  0
LINE
  5
2D9
330
1F
100
AcDbEntity
  8
0
  6
Continuous
 62
     7
370
    25
100
AcDbLine
 10
383.6629862278
 20
941.9271837688
 30
0.0
 11
383.6629862278
 21
441.9271837688
 31
0.0
  0
LINE
  5
2DA
330
1F
100
AcDbEntity
  8
0
  6
Continuous
 62
     7
370
    25
100
AcDbLine
 10
383.6629862278
 20
441.9271837688
 30
0.0
 11
483.6629862278
 21
441.9271837688
 31
0.0
  0
LINE
  5
2DB
330
1F
100
AcDbEntity
  8
0
  6
Continuous
 62
     7
370
    25
100
AcDbLine
 10
1583.6629862278
 20
941.9271837688
 30
0.0
 11
383.6629862278
 21
941.9271837688
 31
0.0
  0
CIRCLE
  5
2DC
330
1F
100
AcDbEntity
  8
0
  6
Continuous
 62
     7
370
    25
100
AcDbCircle
 10
1149.6629862278
 20
837.9271837688
 30
0.0
 40
10.0
  0
CIRCLE
  5
2DD
330
1F
100
AcDbEntity
  8
0
  6
Continuous
 62
     7
370
    25
100
AcDbCircle
 10
507.6629862278
 20
814.9271837688
 30
0.0
 40
10.0
  0
LINE
  5
2DE
330
1F
100
AcDbEntity
  8
0
  6
Continuous
 62
     7
370
    25
100
AcDbLine
 10
1478.6629862278
 20
441.9271837688
 30
0.0
 11
1483.6629862278
 21
441.9271837688
 31
0.0
  0
LINE
  5
2DF
330
1F
100
AcDbEntity
  8
0
  6
Continuous
 62
     7
370
    25
100
AcDbLine
 10
483.6629862278
 20
441.9271837688
 30
0.0
 11
488.6629862278
 21
441.9271837688
 31
0.0
  0
DIMENSION
  5
2E0
330
1F
100
AcDbEntity
  8
FORMAT
100
AcDbDimension
  2
_D_5
 10
1201.1276155051
 20
871.4271837684
 30
0.0
 11
1201.1276155051
 21
825.9271837684
 31
0.0
 70
   160
  1
<>
 71
     2
 42
-1.0
  3
SLDDIMSTYLE0
100
AcDbAlignedDimension
 13
1163.6629862278
 23
780.4271837684
 33
0.0
 14
1163.6629862278
 24
871.4271837684
 34
0.0
 50
90.0
100
AcDbRotatedDimension
  0
DIMENSION
  5
2EA
330
1F
100
AcDbEntity
  8
FORMAT
100
AcDbDimension
  2
_D_6
 10
572.6629862278
 20
596.4393535487
 30
0.0
 11
528.162417999
 21
596.4393535487
 31
0.0
 70
   160
  1
<>
 71
     2
 42
-1.0
  3
SLDDIMSTYLE0
100
AcDbAlignedDimension
 13
483.6618497702
 23
636.425749686
 33
0.0
 14
572.6629862278
 24
720.9271837688
 34
0.0
100
AcDbRotatedDimension
  0
DIMENSION
  5
2F3
330
1F
100
AcDbEntity
  8
FORMAT
100
AcDbDimension
  2
_D_7
 10
1205.6629862278
 20
596.4393535487
 30
0.0
 11
889.1629862278
 21
596.4393535487
 31
0.0
 70
   160
  1
<>
 71
     2
 42
-1.0
  3
SLDDIMSTYLE0
100
AcDbAlignedDimension
 13
572.6629862278
 23
720.9271837688
 33
0.0
 14
1205.6629862278
 24
720.9271837688
 34
0.0
100
AcDbRotatedDimension
  0
DIMENSION
  5
2FD
330
1F
100
AcDbEntity
  8
FORMAT
100
AcDbDimension
  2
_D_8
 10
1261.4696576346
 20
761.9271837688
 30
0.0
 11
1261.4696576346
 21
693.1665523859
 31
0.0
 70
   160
  1
<>
 71
     2
 42
-1.0
  3
SLDDIMSTYLE2
100
AcDbAlignedDimension
 13
1211.4129862278
 23
726.6771837688
 33
0.0
 14
1478.6629862278
 24
761.9271837688
 34
0.0
 50
90.0
100
AcDbRotatedDimension
  0
DIMENSION
  5
309
330
1F
100
AcDbEntity
  8
FORMAT
100
AcDbDimension
  2
_D_9
 10
687.5100889795
 20
787.9271837684
 30
0.0
 11
687.5100889795
 21
727.5417216909
 31
0.0
 70
   160
  1
<>
 71
     2
 42
-1.0
  3
SLDDIMSTYLE1
100
AcDbAlignedDimension
 13
488.6629862278
 23
761.9271837688
 33
0.0
 14
700.6629862278
 24
787.9271837684
 34
0.0
 50
90.0
100
AcDbRotatedDimension
  0
DIMENSION
  5
314
330
1F
100
AcDbEntity
  8
FORMAT
100
AcDbDimension
  2
_D_10
 10
344.3628496701
 20
780.4271837684
 30
0.0
 11
344.3628496701
 21
720.7962041173
 31
0.0
 70
   160
  1
<>
 71
     2
 42
-1.0
  3
SLDDIMSTYLE2
100
AcDbAlignedDimension
 13
488.6629862278
 23
761.9271837688
 33
0.0
 14
493.6629862278
 24
780.4271837684
 34
0.0
 50
90.0
100
AcDbRotatedDimension
  0
DIMENSION
  5
320
330
1F
100
AcDbEntity
  8
FORMAT
100
AcDbDimension
  2
_D_11
 10
298.9907311182
 20
814.9271837688
 30
0.0
 11
298.9907311182
 21
720.7962041173
 31
0.0
 70
   160
  1
<>
 71
     2
 42
-1.0
  3
SLDDIMSTYLE2
100
AcDbAlignedDimension
 13
493.6629862278
 23
780.4271837684
 33
0.0
 14
507.6629862278
 24
814.9271837688
 34
0.0
 50
90.0
100
AcDbRotatedDimension
  0
DIMENSION
  5
32C
330
1F
100
AcDbEntity
  8
FORMAT
100
AcDbDimension
  2
_D_12
 10
260.5314761977
 20
837.9271837688
 30
0.0
 11
260.5314761977
 21
776.8854875883
 31
0.0
 70
   160
  1
<>
 71
     2
 42
-1.0
  3
SLDDIMSTYLE1
100
AcDbAlignedDimension
 13
507.6629862278
 23
814.9271837688
 33
0.0
 14
507.6629862278
 24
837.9271837688
 34
0.0
 50
90.0
100
AcDbRotatedDimension
  0
DIMENSION
  5
338
330
1F
100
AcDbEntity
  8
FORMAT
100
AcDbDimension
  2
_D_13
 10
507.6629862278
 20
1004.805377877
 30
0.0
 11
430.1988794226
 21
1004.805377877
 31
0.0
 70
   160
  1
<>
 71
     2
 42
-1.0
  3
SLDDIMSTYLE1
100
AcDbAlignedDimension
 13
483.6618497702
 23
636.425749686
 33
0.0
 14
507.6629862278
 24
814.9271837688
 34
0.0
100
AcDbRotatedDimension
  0
DIMENSION
  5
344
330
1F
100
AcDbEntity
  8
FORMAT
100
AcDbDimension
  2
_D_14
 10
493.6629862278
 20
970.6594887615
 30
0.0
 11
439.9828896848
 21
970.6594887615
 31
0.0
 70
   160
  1
<>
 71
     2
 42
-1.0
  3
SLDDIMSTYLE1
100
AcDbAlignedDimension
 13
483.6618497702
 23
636.425749686
 33
0.0
 14
493.6629862278
 24
798.4271837684
 34
0.0
100
AcDbRotatedDimension
  0
DIMENSION
  5
350
330
1F
100
AcDbEntity
  8
FORMAT
100
AcDbDimension
  2
_D_15
 10
700.6629862278
 20
1032.2190400828
 30
0.0
 11
592.162417999
 21
1032.2190400828
 31
0.0
 70
   160
  1
<>
 71
     2
 42
-1.0
  3
SLDDIMSTYLE0
100
AcDbAlignedDimension
 13
483.6618497702
 23
636.425749686
 33
0.0
 14
700.6629862278
 24
869.6771837684
 34
0.0
100
AcDbRotatedDimension
  0
DIMENSION
  5
35A
330
1F
100
AcDbEntity
  8
FORMAT
100
AcDbDimension
  2
_D_16
 10
907.6629862278
 20
1032.2190400828
 30
0.0
 11
804.1629862278
 21
1032.2190400828
 31
0.0
 70
   160
  1
<>
 71
     2
 42
-1.0
  3
SLDDIMSTYLE0
100
AcDbAlignedDimension
 13
700.6629862278
 23
869.6771837684
 33
0.0
 14
907.6629862278
 24
869.6771837684
 34
0.0
100
AcDbRotatedDimension
  0
DIMENSION
  5
364
330
1F
100
AcDbEntity
  8
FORMAT
100
AcDbDimension
  2
_D_17
 10
1133.6629862278
 20
1032.2190400828
 30
0.0
 11
1020.6629862278
 21
1032.2190400828
 31
0.0
 70
   160
  1
<>
 71
     2
 42
-1.0
  3
SLDDIMSTYLE0
100
AcDbAlignedDimension
 13
907.6629862278
 23
869.6771837684
 33
0.0
 14
1133.6629862278
 24
869.6771837684
 34
0.0
100
AcDbRotatedDimension
  0
DIMENSION
  5
36E
330
1F
100
AcDbEntity
  8
FORMAT
100
AcDbDimension
  2
_D_18
 10
1149.6629862278
 20
1071.4131608348
 30
0.0
 11
816.662417999
 21
1071.4131608348
 31
0.0
 70
   160
  1
<>
 71
     2
 42
-1.0
  3
SLDDIMSTYLE0
100
AcDbAlignedDimension
 13
483.6618497702
 23
636.425749686
 33
0.0
 14
1149.6629862278
 24
837.9271837688
 34
0.0
100
AcDbRotatedDimension
  0
DIMENSION
  5
378
330
1F
100
AcDbEntity
  8
FORMAT
100
AcDbDimension
  2
_D_19
 10
1163.6629862278
 20
1111.9271837688
 30
0.0
 11
823.662417999
 21
1111.9271837688
 31
0.0
 70
   160
  1
<>
 71
     2
 42
-1.0
  3
SLDDIMSTYLE0
100
AcDbAlignedDimension
 13
483.6618497702
 23
636.425749686
 33
0.0
 14
1163.6629862278
 24
863.9271837684
 34
0.0
100
AcDbRotatedDimension
  0
MTEXT
  5
382
330
1F
100
AcDbEntity
  8
FORMAT
100
AcDbMText
 10
1335.2421694211
 20
883.814957972
 30
0.0
 40
18.5208333333
 41
0.0
 71
     1
 72
     1
  1
Oberkante Türflügel
  7
SLDTEXTSTYLE0
 73
     1
 44
1.0
  0
LEADER
  5
384
330
1F
100
AcDbEntity
  8
FORMAT
100
AcDbLeader
  3
SLDDIMSTYLE3
 76
     3
 10
1286.5505395037
 20
761.9271837688
 30
0.0
 10
1287.2134534786
 20
874.5179707302
 30
0.0
 10
1331.6634534786
 20
874.5179707302
 30
0.0
  0
MTEXT
  5
385
330
1F
100
AcDbEntity
  8
FORMAT
100
AcDbMText
 10
1357.6637294382
 20
987.2426828542
 30
0.0
 40
18.5208333333
 41
0.0
 71
     1
 72
     1
  1
ø20 (optional)
  7
SLDTEXTSTYLE0
 73
     1
 44
1.0
  0
LEADER
  5
386
330
1F
100
AcDbEntity
  8
FORMAT
100
AcDbLeader
  3
SLDDIMSTYLE3
 76
     3
 10
1158.8451955093
 20
841.8878696576
 30
0.0
 10
1309.5101844091
 20
977.7870403027
 30
0.0
 10
1353.9601844091
 20
977.7870403027
 30
0.0
  0
INSERT
  5
38C
102
{ACAD_REACTORS
330
38D
102
}
330
1F
100
AcDbEntity
  8
FORMAT
100
AcDbBlockReference
  2
SW_NOTE_0_5
 10
387.9585706082
 20
964.3025701039
 30
0.0
  0
LEADER
  5
38D
330
1F
100
AcDbEntity
  8
FORMAT
100
AcDbLeader
  3
SLDDIMSTYLE3
 73
     2
 76
     3
 10
500.3452907145
 20
844.7427051997
 30
0.0
 10
432.4085706082
 20
964.3025701039
 30
0.0
 10
387.9585706082
 20
964.3025701039
 30
0.0
340
38C
  0
INSERT
  5
399
330
1F
100
AcDbEntity
  8
FORMAT
100
AcDbBlockReference
  2
SW_CENTERMARKSYMBOL_0
 10
700.6629862278
 20
863.9271837684
 30
0.0
  0
INSERT
  5
3A5
330
1F
100
AcDbEntity
  8
FORMAT
100
AcDbBlockReference
  2
SW_CENTERMARKSYMBOL_1
 10
700.6629862278
 20
787.9271837684
 30
0.0
  0
INSERT
  5
3B1
330
1F
100
AcDbEntity
  8
FORMAT
100
AcDbBlockReference
  2
SW_CENTERMARKSYMBOL_2
 10
907.6629862278
 20
787.9271837684
 30
0.0
  0
INSERT
  5
3BD
330
1F
100
AcDbEntity
  8
FORMAT
100
AcDbBlockReference
  2
SW_CENTERMARKSYMBOL_3
 10
907.6629862278
 20
863.9271837684
 30
0.0
  0
INSERT
  5
3C9
330
1F
100
AcDbEntity
  8
FORMAT
100
AcDbBlockReference
  2
SW_CENTERMARKSYMBOL_4
 10
1133.6629862278
 20
863.9271837684
 30
0.0
  0
INSERT
  5
3D5
330
1F
100
AcDbEntity
  8
FORMAT
100
AcDbBlockReference
  2
SW_CENTERMARKSYMBOL_5
 10
1133.6629862278
 20
787.9271837684
 30
0.0
  0
INSERT
  5
3E1
330
1F
100
AcDbEntity
  8
FORMAT
100
AcDbBlockReference
  2
SW_CENTERMARKSYMBOL_6
 10
1205.6629862278
 20
726.6771837688
 30
0.0
  0
INSERT
  5
3ED
330
1F
100
AcDbEntity
  8
FORMAT
100
AcDbBlockReference
  2
SW_CENTERMARKSYMBOL_7
 10
572.6629862278
 20
726.6771837688
 30
0.0
  0
INSERT
  5
3F9
330
1F
100
AcDbEntity
  8
FORMAT
100
AcDbBlockReference
  2
SW_CENTERMARKSYMBOL_8
 10
1149.6629862278
 20
814.9271837688
 30
0.0
  0
INSERT
  5
405
330
1F
100
AcDbEntity
  8
FORMAT
100
AcDbBlockReference
  2
SW_CENTERMARKSYMBOL_9
 10
1149.6629862278
 20
837.9271837688
 30
0.0
  0
INSERT
  5
411
330
1F
100
AcDbEntity
  8
FORMAT
100
AcDbBlockReference
  2
SW_CENTERMARKSYMBOL_10
 10
507.6629862278
 20
814.9271837688
 30
0.0
  0
INSERT
  5
41D
330
1F
100
AcDbEntity
  8
FORMAT
100
AcDbBlockReference
  2
SW_CENTERMARKSYMBOL_11
 10
507.6629862278
 20
837.9271837688
 30
0.0
  0
CIRCLE
  5
41E
330
1F
100
AcDbEntity
  8
0
  6
Continuous
 62
     7
370
    18
100
AcDbCircle
 10
700.3537900944
 20
824.9757836545
 30
0.0
 40
57.73920231389013
  0
MTEXT
  5
41F
330
1F
100
AcDbEntity
  8
0
  6
Continuous
 62
     7
370
    18
100
AcDbMText
 10
746.3744454014
 20
927.7172506956
 30
0.0
 40
35.0
 41
0.0
 71
     1
 72
     1
  1
C
  7
SLDTEXTSTYLE0
 73
     1
 44
1.0
  0
LINE
  5
420
330
1F
100
AcDbEntity
  8
FORMAT
  6
CENTERX2
370
    18
100
AcDbLine
 10
483.6618497702
 20
636.425749686
 30
0.0
 11
483.6618497702
 21
500.4392274182
 31
0.0
  0
LINE
  5
421
330
1F
100
AcDbEntity
  8
0
  6
Continuous
 62
     7
370
    25
100
AcDbLine
 10
2393.0411252107
 20
1627.2018448858
 30
0.0
 11
2393.0411252107
 21
1597.201844892
 31
0.0
  0
LINE
  5
422
330
1F
100
AcDbEntity
  8
0
  6
Continuous
 62
     7
370
    25
100
AcDbLine
 10
2407.0411252107
 20
1597.201844892
 30
0.0
 11
2407.0411252107
 21
1627.2018448858
 31
0.0
  0
LINE
  5
423
330
1F
100
AcDbEntity
  8
0
  6
Continuous
 62
     7
370
    25
100
AcDbLine
 10
2405.0411252107
 20
1627.2018448858
 30
0.0
 11
2405.0411252107
 21
1627.7018448857
 31
0.0
  0
LINE
  5
424
330
1F
100
AcDbEntity
  8
0
  6
Continuous
 62
     7
370
    25
100
AcDbLine
 10
2395.0411252107
 20
1627.7018448857
 30
0.0
 11
2395.0411252107
 21
1627.2018448858
 31
0.0
  0
LINE
  5
425
330
1F
100
AcDbEntity
  8
0
  6
Continuous
 62
     7
370
    25
100
AcDbLine
 10
2431.7911252117
 20
1639.2018448858
 30
0.0
 11
2431.7911252117
 21
1637.7018448857
 31
0.0
  0
LINE
  5
426
330
1F
100
AcDbEntity
  8
0
  6
Continuous
 62
     7
370
    25
100
AcDbLine
 10
2461.7911252116
 20
1628.7018448857
 30
0.0
 11
2461.7911252116
 21
1640.2018448858
 31
0.0
  0
LINE
  5
427
330
1F
100
AcDbEntity
  8
0
  6
Continuous
 62
     7
370
    25
100
AcDbLine
 10
2460.7911252116
 20
1627.7018448857
 30
0.0
 11
2461.7911252116
 21
1628.7018448857
 31
0.0
  0
LWPOLYLINE
  5
428
330
1F
100
AcDbEntity
  8
0
  6
Continuous
 62
     7
370
    25
100
AcDbPolyline
 90
        3
 70
   128
 43
0.0
 10
2431.6389404796
 20
1636.6443213012
 10
2431.5747541821
 20
1636.3007139083
 10
2431.4888662694
 20
1635.9123714303
  0
ARC
  5
429
330
1F
100
AcDbEntity
  8
0
  6
Continuous
 62
     7
370
    25
100
AcDbCircle
 10
2428.7911252117
 20
1637.7018448857
 30
0.0
 40
3.0
100
AcDbArc
 50
347.449168654
 51
0.0000000003
  0
LINE
  5
42A
330
1F
100
AcDbEntity
  8
0
  6
Continuous
 62
     7
370
    25
100
AcDbLine
 10
2390.0411252109
 20
1634.7018448857
 30
0.0
 11
2389.0411252109
 21
1633.7018448857
 31
0.0
  0
LINE
  5
42B
330
1F
100
AcDbEntity
  8
0
  6
Continuous
 62
     7
370
    25
100
AcDbLine
 10
2389.0411252109
 20
1628.7018448857
 30
0.0
 11
2390.0411252109
 21
1627.7018448857
 31
0.0
  0
LINE
  5
42C
330
1F
100
AcDbEntity
  8
0
  6
Continuous
 62
     7
370
    25
100
AcDbLine
 10
2389.0411252109
 20
1633.7018448857
 30
0.0
 11
2389.0411252109
 21
1628.7018448857
 31
0.0
  0
LINE
  5
42D
330
1F
100
AcDbEntity
  8
0
  6
Continuous
 62
     7
370
    25
100
AcDbLine
 10
2469.7911252116
 20
1735.2018448858
 30
0.0
 11
2469.7911252116
 21
1736.2018448858
 31
0.0
  0
LINE
  5
42E
330
1F
100
AcDbEntity
  8
0
  6
Continuous
 62
     7
370
    25
100
AcDbLine
 10
2386.7911252119
 20
1303.7018448858
 30
0.0
 11
2386.7911252119
 21
1580.701844892
 31
0.0
  0
LINE
  5
42F
330
1F
100
AcDbEntity
  8
0
  6
Continuous
 62
     7
370
    25
100
AcDbLine
 10
2386.7911252119
 20
1596.701844892
 30
0.0
 11
2386.7911252119
 21
1623.7018448858
 31
0.0
  0
LINE
  5
430
330
1F
100
AcDbEntity
  8
0
  6
Continuous
 62
     7
370
    25
100
AcDbLine
 10
2386.7911252119
 20
1303.7018448858
 30
0.0
 11
2316.7911252119
 21
1303.7018448858
 31
0.0
  0
LINE
  5
431
330
1F
100
AcDbEntity
  8
0
  6
Continuous
 62
     7
370
    25
100
AcDbLine
 10
2316.7911252119
 20
1303.7018448858
 30
0.0
 11
2316.7911252119
 21
1598.7018448858
 31
0.0
  0
LINE
  5
432
330
1F
100
AcDbEntity
  8
0
  6
Continuous
 62
     7
370
    25
100
AcDbLine
 10
2346.7911252119
 20
1598.7018448858
 30
0.0
 11
2346.7911252119
 21
1623.7018448858
 31
0.0
  0
LINE
  5
433
330
1F
100
AcDbEntity
  8
0
  6
Continuous
 62
     7
370
    25
100
AcDbLine
 10
2346.7911252119
 20
1623.7018448858
 30
0.0
 11
2386.7911252119
 21
1623.7018448858
 31
0.0
  0
LINE
  5
434
330
1F
100
AcDbEntity
  8
0
  6
Continuous
 62
     7
370
    25
100
AcDbLine
 10
2316.7911252119
 20
1598.7018448858
 30
0.0
 11
2346.7911252119
 21
1598.7018448858
 31
0.0
  0
LINE
  5
435
330
1F
100
AcDbEntity
  8
0
  6
Continuous
 62
     7
370
    25
100
AcDbLine
 10
2386.7911252119
 20
1803.7018448858
 30
0.0
 11
2386.7911252119
 21
1735.2018448858
 31
0.0
  0
LINE
  5
436
330
1F
100
AcDbEntity
  8
0
  6
Continuous
 62
     7
370
    25
100
AcDbLine
 10
2386.7911252119
 20
1640.2018448858
 30
0.0
 11
2386.7911252119
 21
1628.7018448858
 31
0.0
  0
LINE
  5
437
330
1F
100
AcDbEntity
  8
0
  6
Continuous
 62
     7
370
    25
100
AcDbLine
 10
2386.7911252119
 20
1628.7018448858
 30
0.0
 11
2346.7911252119
 21
1628.7018448858
 31
0.0
  0
LINE
  5
438
330
1F
100
AcDbEntity
  8
0
  6
Continuous
 62
     7
370
    25
100
AcDbLine
 10
2346.7911252119
 20
1628.7018448858
 30
0.0
 11
2346.7911252119
 21
1603.7018448858
 31
0.0
  0
LINE
  5
439
330
1F
100
AcDbEntity
  8
0
  6
Continuous
 62
     7
370
    25
100
AcDbLine
 10
2346.7911252119
 20
1603.7018448858
 30
0.0
 11
2316.7911252119
 21
1603.7018448858
 31
0.0
  0
LINE
  5
43A
330
1F
100
AcDbEntity
  8
0
  6
Continuous
 62
     7
370
    25
100
AcDbLine
 10
2316.7911252119
 20
1803.7018448858
 30
0.0
 11
2386.7911252119
 21
1803.7018448858
 31
0.0
  0
LINE
  5
43B
330
1F
100
AcDbEntity
  8
0
  6
Continuous
 62
     7
370
    25
100
AcDbLine
 10
2316.7911252119
 20
1803.7018448858
 30
0.0
 11
2316.7911252119
 21
1603.7018448858
 31
0.0
  0
LINE
  5
43C
330
1F
100
AcDbEntity
  8
0
  6
Continuous
 62
     7
370
    25
100
AcDbLine
 10
2316.7911252119
 20
1598.7018448858
 30
0.0
 11
2316.7911252119
 21
1603.7018448858
 31
0.0
  0
LINE
  5
43D
330
1F
100
AcDbEntity
  8
0
  6
Continuous
 62
     7
370
    25
100
AcDbLine
 10
2386.7911252119
 20
1623.7018448858
 30
0.0
 11
2386.7911252119
 21
1628.7018448858
 31
0.0
  0
LINE
  5
43E
330
1F
100
AcDbEntity
  8
0
  6
Continuous
 62
     7
370
    25
100
AcDbLine
 10
2407.0411252107
 20
1627.2018448858
 30
0.0
 11
2393.0411252107
 21
1627.2018448858
 31
0.0
  0
LINE
  5
43F
330
1F
100
AcDbEntity
  8
0
  6
Continuous
 62
     7
370
    25
100
AcDbLine
 10
2461.7911252116
 20
1628.7018448857
 30
0.0
 11
2431.8939257187
 21
1628.7018448857
 31
0.0
  0
LINE
  5
440
330
1F
100
AcDbEntity
  8
0
  6
Continuous
 62
     7
370
    25
100
AcDbLine
 10
2431.8939257187
 20
1628.7018448857
 30
0.0
 11
2431.8939257187
 21
1637.7018448857
 31
0.0
  0
LINE
  5
441
330
1F
100
AcDbEntity
  8
0
  6
Continuous
 62
     7
370
    25
100
AcDbLine
 10
2460.7911252116
 20
1627.7018448857
 30
0.0
 11
2432.8870723516
 21
1627.7018448857
 31
0.0
  0
LINE
  5
442
330
1F
100
AcDbEntity
  8
0
  6
Continuous
 62
     7
370
    25
100
AcDbLine
 10
2432.8870723516
 20
1627.7018448857
 30
0.0
 11
2431.8939257187
 21
1628.7018448857
 31
0.0
  0
ARC
  5
443
330
1F
100
AcDbEntity
  8
0
  6
Continuous
 62
     7
370
    25
100
AcDbCircle
 10
2438.3188993812
 20
1635.6256590137
 30
0.0
 40
6.752098513717524
100
AcDbArc
 50
162.0921195455
 51
171.7423680338
  0
LWPOLYLINE
  5
444
330
1F
100
AcDbEntity
  8
0
  6
Continuous
 62
     7
370
    25
100
AcDbPolyline
 90
       11
 70
   128
 43
0.0
 10
2431.8939257187
 20
1637.7018448857
 10
2431.8939024488
 20
1637.7017488239
 10
2431.8937228672
 20
1637.7009563532
 10
2431.893227291
 20
1637.6987230601
 10
2431.8913579652
 20
1637.6902221921
 10
2431.884106619
 20
1637.6570833287
 10
2431.6718964811
 20
1636.6968863092
 10
2431.4649122647
 20
1635.8149901991
 10
2431.266687119
 20
1635.0635986129
 10
2430.9298136874
 20
1634.1051968139
 10
2430.5716360379
 20
1633.7018448857
  0
LINE
  5
445
330
1F
100
AcDbEntity
  8
0
  6
Continuous
 62
     7
370
    25
100
AcDbLine
 10
2431.8939257187
 20
1628.7018448857
 30
0.0
 11
2407.295094398
 21
1628.7018448857
 31
0.0
  0
LINE
  5
446
330
1F
100
AcDbEntity
  8
0
  6
Continuous
 62
     7
370
    25
100
AcDbLine
 10
2407.295094398
 20
1633.7018448857
 30
0.0
 11
2407.295094398
 21
1628.7018448857
 31
0.0
  0
LINE
  5
447
330
1F
100
AcDbEntity
  8
0
  6
Continuous
 62
     7
370
    25
100
AcDbLine
 10
2430.5716360379
 20
1633.7018448857
 30
0.0
 11
2407.295094398
 21
1633.7018448857
 31
0.0
  0
LINE
  5
448
330
1F
100
AcDbEntity
  8
0
  6
Continuous
 62
     7
370
    25
100
AcDbLine
 10
2408.2882410308
 20
1627.7018448857
 30
0.0
 11
2407.295094398
 21
1628.7018448857
 31
0.0
  0
LINE
  5
449
330
1F
100
AcDbEntity
  8
0
  6
Continuous
 62
     7
370
    25
100
AcDbLine
 10
2432.8870723516
 20
1627.7018448857
 30
0.0
 11
2408.2882410308
 21
1627.7018448857
 31
0.0
  0
LINE
  5
44A
330
1F
100
AcDbEntity
  8
0
  6
Continuous
 62
     7
370
    25
100
AcDbLine
 10
2408.2882410308
 20
1634.7018448857
 30
0.0
 11
2407.295094398
 21
1633.7018448857
 31
0.0
  0
LINE
  5
44B
330
1F
100
AcDbEntity
  8
0
  6
Continuous
 62
     7
370
    25
100
AcDbLine
 10
2408.2882410308
 20
1634.7018448857
 30
0.0
 11
2431.1395324959
 21
1634.7018448857
 31
0.0
  0
LINE
  5
44C
330
1F
100
AcDbEntity
  8
0
  6
Continuous
 62
     7
370
    25
100
AcDbLine
 10
2407.1826246061
 20
1633.7018448857
 30
0.0
 11
2408.1780206348
 21
1634.7018448857
 31
0.0
  0
LINE
  5
44D
330
1F
100
AcDbEntity
  8
0
  6
Continuous
 62
     7
370
    25
100
AcDbLine
 10
2407.295094398
 20
1633.7018448857
 30
0.0
 11
2407.1826246061
 21
1633.7018448857
 31
0.0
  0
LINE
  5
44E
330
1F
100
AcDbEntity
  8
0
  6
Continuous
 62
     7
370
    25
100
AcDbLine
 10
2408.1780206348
 20
1634.7018448857
 30
0.0
 11
2408.2882410308
 21
1634.7018448857
 31
0.0
  0
LINE
  5
44F
330
1F
100
AcDbEntity
  8
0
  6
Continuous
 62
     7
370
    25
100
AcDbLine
 10
2407.1826246061
 20
1628.7018448857
 30
0.0
 11
2407.295094398
 21
1628.7018448857
 31
0.0
  0
LINE
  5
450
330
1F
100
AcDbEntity
  8
0
  6
Continuous
 62
     7
370
    25
100
AcDbLine
 10
2407.1826246061
 20
1628.7018448857
 30
0.0
 11
2407.1826246061
 21
1633.7018448857
 31
0.0
  0
LINE
  5
451
330
1F
100
AcDbEntity
  8
0
  6
Continuous
 62
     7
370
    25
100
AcDbLine
 10
2408.1780206348
 20
1627.7018448857
 30
0.0
 11
2407.1826246061
 21
1628.7018448857
 31
0.0
  0
LINE
  5
452
330
1F
100
AcDbEntity
  8
0
  6
Continuous
 62
     7
370
    25
100
AcDbLine
 10
2408.2882410308
 20
1627.7018448857
 30
0.0
 11
2408.1780206348
 21
1627.7018448857
 31
0.0
  0
LINE
  5
453
330
1F
100
AcDbEntity
  8
0
  6
Continuous
 62
     7
370
    25
100
AcDbLine
 10
2389.0917688951
 20
1633.7018448857
 30
0.0
 11
2390.0871649238
 21
1634.7018448857
 31
0.0
  0
LINE
  5
454
330
1F
100
AcDbEntity
  8
0
  6
Continuous
 62
     7
370
    25
100
AcDbLine
 10
2407.1826246061
 20
1633.7018448857
 30
0.0
 11
2389.0917688951
 21
1633.7018448857
 31
0.0
  0
LINE
  5
455
330
1F
100
AcDbEntity
  8
0
  6
Continuous
 62
     7
370
    25
100
AcDbLine
 10
2390.0871649238
 20
1634.7018448857
 30
0.0
 11
2408.1780206348
 21
1634.7018448857
 31
0.0
  0
LINE
  5
456
330
1F
100
AcDbEntity
  8
0
  6
Continuous
 62
     7
370
    25
100
AcDbLine
 10
2390.0871649238
 20
1627.7018448857
 30
0.0
 11
2389.0917688951
 21
1628.7018448857
 31
0.0
  0
LINE
  5
457
330
1F
100
AcDbEntity
  8
0
  6
Continuous
 62
     7
370
    25
100
AcDbLine
 10
2407.1826246061
 20
1628.7018448857
 30
0.0
 11
2389.0917688951
 21
1628.7018448857
 31
0.0
  0
LINE
  5
458
330
1F
100
AcDbEntity
  8
0
  6
Continuous
 62
     7
370
    25
100
AcDbLine
 10
2408.1780206348
 20
1627.7018448857
 30
0.0
 11
2390.0871649238
 21
1627.7018448857
 31
0.0
  0
LINE
  5
459
330
1F
100
AcDbEntity
  8
0
  6
Continuous
 62
     7
370
    25
100
AcDbLine
 10
2389.0917688951
 20
1628.7018448857
 30
0.0
 11
2389.0917688951
 21
1633.7018448857
 31
0.0
  0
LINE
  5
45A
330
1F
100
AcDbEntity
  8
0
  6
Continuous
 62
     7
370
    25
100
AcDbLine
 10
2389.0917688951
 20
1633.7018448857
 30
0.0
 11
2389.0411252109
 21
1633.7018448857
 31
0.0
  0
LINE
  5
45B
330
1F
100
AcDbEntity
  8
0
  6
Continuous
 62
     7
370
    25
100
AcDbLine
 10
2390.0411252109
 20
1634.7018448857
 30
0.0
 11
2390.0871649238
 21
1634.7018448857
 31
0.0
  0
LINE
  5
45C
330
1F
100
AcDbEntity
  8
0
  6
Continuous
 62
     7
370
    25
100
AcDbLine
 10
2389.0917688951
 20
1628.7018448857
 30
0.0
 11
2389.0411252109
 21
1628.7018448857
 31
0.0
  0
LINE
  5
45D
330
1F
100
AcDbEntity
  8
0
  6
Continuous
 62
     7
370
    25
100
AcDbLine
 10
2390.0871649238
 20
1627.7018448857
 30
0.0
 11
2390.0411252109
 21
1627.7018448857
 31
0.0
  0
LINE
  5
45E
330
1F
100
AcDbEntity
  8
0
  6
Continuous
 62
     7
370
    25
100
AcDbLine
 10
2414.7911252096
 20
1596.701844892
 30
0.0
 11
2414.2911252096
 21
1596.701844892
 31
0.0
  0
LINE
  5
45F
330
1F
100
AcDbEntity
  8
0
  6
Continuous
 62
     7
370
    25
100
AcDbLine
 10
2414.7911252096
 20
1580.701844892
 30
0.0
 11
2414.7911252096
 21
1596.701844892
 31
0.0
  0
LINE
  5
460
330
1F
100
AcDbEntity
  8
0
  6
Continuous
 62
     7
370
    25
100
AcDbLine
 10
2414.2911252096
 20
1580.701844892
 30
0.0
 11
2414.7911252096
 21
1580.701844892
 31
0.0
  0
LINE
  5
461
330
1F
100
AcDbEntity
  8
0
  6
Continuous
 62
     7
370
    25
100
AcDbLine
 10
2414.2911252096
 20
1580.701844892
 30
0.0
 11
2414.2911252096
 21
1596.701844892
 31
0.0
  0
LINE
  5
462
330
1F
100
AcDbEntity
  8
0
  6
Continuous
 62
     7
370
    25
100
AcDbLine
 10
2387.2911252096
 20
1580.701844892
 30
0.0
 11
2414.2911252096
 21
1580.701844892
 31
0.0
  0
LINE
  5
463
330
1F
100
AcDbEntity
  8
0
  6
Continuous
 62
     7
370
    25
100
AcDbLine
 10
2387.2911252096
 20
1596.701844892
 30
0.0
 11
2387.2911252096
 21
1580.701844892
 31
0.0
  0
LINE
  5
464
330
1F
100
AcDbEntity
  8
0
  6
Continuous
 62
     7
370
    25
100
AcDbLine
 10
2414.2911252096
 20
1596.701844892
 30
0.0
 11
2387.2911252096
 21
1596.701844892
 31
0.0
  0
LINE
  5
465
330
1F
100
AcDbEntity
  8
0
  6
Continuous
 62
     7
370
    25
100
AcDbLine
 10
2387.2911252096
 20
1580.701844892
 30
0.0
 11
2387.2911252096
 21
1580.201844892
 31
0.0
  0
LINE
  5
466
330
1F
100
AcDbEntity
  8
0
  6
Continuous
 62
     7
370
    25
100
AcDbLine
 10
2414.2911252096
 20
1580.201844892
 30
0.0
 11
2414.2911252096
 21
1580.701844892
 31
0.0
  0
LINE
  5
467
330
1F
100
AcDbEntity
  8
0
  6
Continuous
 62
     7
370
    25
100
AcDbLine
 10
2387.2911252096
 20
1580.201844892
 30
0.0
 11
2414.2911252096
 21
1580.201844892
 31
0.0
  0
LINE
  5
468
330
1F
100
AcDbEntity
  8
0
  6
Continuous
 62
     7
370
    25
100
AcDbLine
 10
2414.2911252096
 20
1596.701844892
 30
0.0
 11
2414.2911252096
 21
1597.201844892
 31
0.0
  0
LINE
  5
469
330
1F
100
AcDbEntity
  8
0
  6
Continuous
 62
     7
370
    25
100
AcDbLine
 10
2387.2911252096
 20
1597.201844892
 30
0.0
 11
2387.2911252096
 21
1596.701844892
 31
0.0
  0
LINE
  5
46A
330
1F
100
AcDbEntity
  8
0
  6
Continuous
 62
     7
370
    25
100
AcDbLine
 10
2414.2911252096
 20
1597.201844892
 30
0.0
 11
2387.2911252096
 21
1597.201844892
 31
0.0
  0
ARC
  5
46B
330
1F
100
AcDbEntity
  8
0
  6
Continuous
 62
     7
370
    25
100
AcDbCircle
 10
2414.2911252096
 20
1580.701844892
 30
0.0
 40
0.5000000000009095
100
AcDbArc
 50
270.0
 51
0.0000000003
  0
ARC
  5
46C
330
1F
100
AcDbEntity
  8
0
  6
Continuous
 62
     7
370
    25
100
AcDbCircle
 10
2414.2911252096
 20
1596.701844892
 30
0.0
 40
0.5000000000002274
100
AcDbArc
 50
0.0000000003
 51
90.0
  0
LINE
  5
46D
330
1F
100
AcDbEntity
  8
0
  6
Continuous
 62
     7
370
    25
100
AcDbLine
 10
2386.7911252096
 20
1580.701844892
 30
0.0
 11
2387.2911252096
 21
1580.701844892
 31
0.0
  0
ARC
  5
46E
330
1F
100
AcDbEntity
  8
0
  6
Continuous
 62
     7
370
    25
100
AcDbCircle
 10
2387.2911252096
 20
1580.701844892
 30
0.0
 40
0.5
100
AcDbArc
 50
179.9999999996
 51
270.0000000001
  0
LINE
  5
46F
330
1F
100
AcDbEntity
  8
0
  6
Continuous
 62
     7
370
    25
100
AcDbLine
 10
2387.2911252096
 20
1596.701844892
 30
0.0
 11
2386.7911252096
 21
1596.701844892
 31
0.0
  0
LINE
  5
470
330
1F
100
AcDbEntity
  8
0
  6
Continuous
 62
     7
370
    25
100
AcDbLine
 10
2386.7911252096
 20
1596.701844892
 30
0.0
 11
2386.7911252096
 21
1580.701844892
 31
0.0
  0
ARC
  5
471
330
1F
100
AcDbEntity
  8
0
  6
Continuous
 62
     7
370
    25
100
AcDbCircle
 10
2387.2911252096
 20
1596.701844892
 30
0.0
 40
0.5000000000002274
100
AcDbArc
 50
89.9999999999
 51
179.9999999996
  0
LINE
  5
472
330
1F
100
AcDbEntity
  8
0
  6
Continuous
 62
     7
370
    25
100
AcDbLine
 10
2387.7911252116
 20
1736.2018448858
 30
0.0
 11
2446.7911252116
 21
1736.2018448858
 31
0.0
  0
LINE
  5
473
330
1F
100
AcDbEntity
  8
0
  6
Continuous
 62
     7
370
    25
100
AcDbLine
 10
2446.7911252116
 20
1736.2018448858
 30
0.0
 11
2446.7911252116
 21
1735.2018448858
 31
0.0
  0
LINE
  5
474
330
1F
100
AcDbEntity
  8
0
  6
Continuous
 62
     7
370
    25
100
AcDbLine
 10
2387.7911252116
 20
1735.2018448858
 30
0.0
 11
2387.7911252116
 21
1736.2018448858
 31
0.0
  0
LINE
  5
475
330
1F
100
AcDbEntity
  8
0
  6
Continuous
 62
     7
370
    25
100
AcDbLine
 10
2446.7911252116
 20
1736.2018448858
 30
0.0
 11
2469.7911252116
 21
1736.2018448858
 31
0.0
  0
LINE
  5
476
330
1F
100
AcDbEntity
  8
0
  6
Continuous
 62
     7
370
    25
100
AcDbLine
 10
2443.7911252116
 20
1640.2018448858
 30
0.0
 11
2443.7911252116
 21
1639.2018448858
 31
0.0
  0
LINE
  5
477
330
1F
100
AcDbEntity
  8
0
  6
Continuous
 62
     7
370
    25
100
AcDbLine
 10
2387.7911252115
 20
1639.2018448858
 30
0.0
 11
2387.7911252115
 21
1640.2018448858
 31
0.0
  0
LINE
  5
478
330
1F
100
AcDbEntity
  8
0
  6
Continuous
 62
     7
370
    25
100
AcDbLine
 10
2443.7911252116
 20
1639.2018448858
 30
0.0
 11
2387.7911252115
 21
1639.2018448858
 31
0.0
  0
LINE
  5
479
330
1F
100
AcDbEntity
  8
0
  6
Continuous
 62
     7
370
    25
100
AcDbLine
 10
2501.7911252115
 20
1733.2018448858
 30
0.0
 11
2395.2911252115
 21
1733.2018448858
 31
0.0
  0
LINE
  5
47A
330
1F
100
AcDbEntity
  8
0
  6
Continuous
 62
     7
370
    25
100
AcDbLine
 10
2501.7911252115
 20
1730.2018448858
 30
0.0
 11
2501.7911252115
 21
1733.2018448858
 31
0.0
  0
LINE
  5
47B
330
1F
100
AcDbEntity
  8
0
  6
Continuous
 62
     7
370
    25
100
AcDbLine
 10
2501.7911252115
 20
1730.2018448858
 30
0.0
 11
2386.7911252115
 21
1730.2018448858
 31
0.0
  0
LINE
  5
47C
330
1F
100
AcDbEntity
  8
0
  6
Continuous
 62
     7
370
    25
100
AcDbLine
 10
2386.7911252115
 20
1730.2018448858
 30
0.0
 11
2386.7911252115
 21
1733.2018448858
 31
0.0
  0
LINE
  5
47D
330
1F
100
AcDbEntity
  8
0
  6
Continuous
 62
     7
370
    25
100
AcDbLine
 10
2390.2911252115
 20
1733.2018448858
 30
0.0
 11
2386.7911252115
 21
1733.2018448858
 31
0.0
  0
ARC
  5
47E
330
1F
100
AcDbEntity
  8
0
  6
Continuous
 62
     7
370
    25
100
AcDbCircle
 10
2392.7911252115
 20
1734.5351782192
 30
0.0
 40
2.83333333333319
100
AcDbArc
 50
208.0724869359
 51
331.9275130642
  0
LINE
  5
47F
330
1F
100
AcDbEntity
  8
0
  6
Continuous
 62
     7
370
    25
100
AcDbLine
 10
2501.7911252116
 20
1645.2018448858
 30
0.0
 11
2501.7911252115
 21
1730.2018448858
 31
0.0
  0
LINE
  5
480
330
1F
100
AcDbEntity
  8
0
  6
Continuous
 62
     7
370
    25
100
AcDbLine
 10
2386.7911252116
 20
1645.2018448858
 30
0.0
 11
2501.7911252116
 21
1645.2018448858
 31
0.0
  0
LINE
  5
481
330
1F
100
AcDbEntity
  8
0
  6
Continuous
 62
     7
370
    25
100
AcDbLine
 10
2386.7911252115
 20
1730.2018448858
 30
0.0
 11
2386.7911252116
 21
1645.2018448858
 31
0.0
  0
LINE
  5
482
330
1F
100
AcDbEntity
  8
0
  6
Continuous
 62
     7
370
    25
100
AcDbLine
 10
2398.7911252115
 20
1717.2018448858
 30
0.0
 11
2398.7911252116
 21
1658.2018448858
 31
0.0
  0
ARC
  5
483
330
1F
100
AcDbEntity
  8
0
  6
Continuous
 62
     7
370
    25
100
AcDbCircle
 10
2401.7911252116
 20
1658.2018448858
 30
0.0
 40
3.000000000000227
100
AcDbArc
 50
179.9999999999
 51
270.0
  0
LINE
  5
484
330
1F
100
AcDbEntity
  8
0
  6
Continuous
 62
     7
370
    25
100
AcDbLine
 10
2401.7911252116
 20
1655.2018448858
 30
0.0
 11
2487.7911252116
 21
1655.2018448858
 31
0.0
  0
ARC
  5
485
330
1F
100
AcDbEntity
  8
0
  6
Continuous
 62
     7
370
    25
100
AcDbCircle
 10
2487.7911252116
 20
1658.2018448858
 30
0.0
 40
3.0
100
AcDbArc
 50
270.0
 51
0.0
  0
LINE
  5
486
330
1F
100
AcDbEntity
  8
0
  6
Continuous
 62
     7
370
    25
100
AcDbLine
 10
2490.7911252116
 20
1658.2018448858
 30
0.0
 11
2490.7911252115
 21
1717.2018448858
 31
0.0
  0
ARC
  5
487
330
1F
100
AcDbEntity
  8
0
  6
Continuous
 62
     7
370
    25
100
AcDbCircle
 10
2487.7911252115
 20
1717.2018448858
 30
0.0
 40
3.0
100
AcDbArc
 50
0.0
 51
90.0
  0
LINE
  5
488
330
1F
100
AcDbEntity
  8
0
  6
Continuous
 62
     7
370
    25
100
AcDbLine
 10
2487.7911252115
 20
1720.2018448858
 30
0.0
 11
2401.7911252115
 21
1720.2018448858
 31
0.0
  0
ARC
  5
489
330
1F
100
AcDbEntity
  8
0
  6
Continuous
 62
     7
370
    25
100
AcDbCircle
 10
2401.7911252115
 20
1717.2018448858
 30
0.0
 40
3.0
100
AcDbArc
 50
90.0
 51
180.0
  0
LINE
  5
48A
330
1F
100
AcDbEntity
  8
0
  6
Continuous
 62
     7
370
    25
100
AcDbLine
 10
2386.7911252116
 20
1642.2018448858
 30
0.0
 11
2390.2911252116
 21
1642.2018448858
 31
0.0
  0
LINE
  5
48B
330
1F
100
AcDbEntity
  8
0
  6
Continuous
 62
     7
370
    25
100
AcDbLine
 10
2386.7911252116
 20
1642.2018448858
 30
0.0
 11
2386.7911252116
 21
1645.2018448858
 31
0.0
  0
LINE
  5
48C
330
1F
100
AcDbEntity
  8
0
  6
Continuous
 62
     7
370
    25
100
AcDbLine
 10
2501.7911252116
 20
1642.2018448858
 30
0.0
 11
2501.7911252116
 21
1645.2018448858
 31
0.0
  0
LINE
  5
48D
330
1F
100
AcDbEntity
  8
0
  6
Continuous
 62
     7
370
    25
100
AcDbLine
 10
2395.2911252116
 20
1642.2018448858
 30
0.0
 11
2501.7911252116
 21
1642.2018448858
 31
0.0
  0
ARC
  5
48E
330
1F
100
AcDbEntity
  8
0
  6
Continuous
 62
     7
370
    25
100
AcDbCircle
 10
2392.7911252116
 20
1640.8685115525
 30
0.0
 40
2.833333333334314
100
AcDbArc
 50
28.0724869359
 51
151.9275130641
  0
LINE
  5
48F
330
1F
100
AcDbEntity
  8
0
  6
Continuous
 62
     7
370
    25
100
AcDbLine
 10
2504.7911252116
 20
1645.2018448858
 30
0.0
 11
2504.7911252115
 21
1730.2018448906
 31
0.0
  0
LINE
  5
490
330
1F
100
AcDbEntity
  8
0
  6
Continuous
 62
     7
370
    25
100
AcDbLine
 10
2501.7911252116
 20
1645.2018448858
 30
0.0
 11
2504.7911252116
 21
1645.2018448858
 31
0.0
  0
LINE
  5
491
330
1F
100
AcDbEntity
  8
0
  6
Continuous
 62
     7
370
    25
100
AcDbLine
 10
2504.7911252115
 20
1730.2018448858
 30
0.0
 11
2501.7911252115
 21
1730.2018448858
 31
0.0
  0
ARC
  5
492
330
1F
100
AcDbEntity
  8
0
  6
Continuous
 62
     7
370
    25
100
AcDbCircle
 10
2501.7911252116
 20
1645.2018448858
 30
0.0
 40
3.000000000000227
100
AcDbArc
 50
269.9999996402
 51
0.0000000001
  0
ARC
  5
493
330
1F
100
AcDbEntity
  8
0
  6
Continuous
 62
     7
370
    25
100
AcDbCircle
 10
2501.7911252115
 20
1730.2018448858
 30
0.0
 40
3.000000000000455
100
AcDbArc
 50
0.0000001799
 51
90.0
  0
LINE
  5
494
330
1F
100
AcDbEntity
  8
0
  6
Continuous
 62
     7
370
    25
100
AcDbLine
 10
2386.7911252115
 20
1735.2018448858
 30
0.0
 11
2501.7911252115
 21
1735.2018448858
 31
0.0
  0
ARC
  5
495
330
1F
100
AcDbEntity
  8
0
  6
Continuous
 62
     7
370
    25
100
AcDbCircle
 10
2501.7911252115
 20
1730.2018448858
 30
0.0
 40
5.000000000000227
100
AcDbArc
 50
0.0
 51
90.0
  0
LINE
  5
496
330
1F
100
AcDbEntity
  8
0
  6
Continuous
 62
     7
370
    25
100
AcDbLine
 10
2506.7911252115
 20
1730.2018448858
 30
0.0
 11
2506.7911252116
 21
1645.2018448858
 31
0.0
  0
ARC
  5
497
330
1F
100
AcDbEntity
  8
0
  6
Continuous
 62
     7
370
    25
100
AcDbCircle
 10
2501.7911252116
 20
1645.2018448858
 30
0.0
 40
5.0
100
AcDbArc
 50
270.0
 51
0.0000000001
  0
LINE
  5
498
330
1F
100
AcDbEntity
  8
0
  6
Continuous
 62
     7
370
    25
100
AcDbLine
 10
2501.7911252116
 20
1640.2018448858
 30
0.0
 11
2386.7911252116
 21
1640.2018448858
 31
0.0
  0
LINE
  5
499
330
1F
100
AcDbEntity
  8
0
  6
Continuous
 62
     7
370
    25
100
AcDbLine
 10
2386.7911252115
 20
1733.2018448858
 30
0.0
 11
2386.7911252115
 21
1735.2018448858
 31
0.0
  0
LINE
  5
49A
330
1F
100
AcDbEntity
  8
0
  6
Continuous
 62
     7
370
    25
100
AcDbLine
 10
2386.7911252116
 20
1640.2018448858
 30
0.0
 11
2386.7911252116
 21
1642.2018448858
 31
0.0
  0
LINE
  5
49B
330
1F
100
AcDbEntity
  8
0
  6
Continuous
 62
     7
370
    25
100
AcDbLine
 10
2431.7911252117
 20
1637.7018448857
 30
0.0
 11
2431.8939257187
 21
1637.7018448857
 31
0.0
  0
LINE
  5
49C
330
1F
100
AcDbEntity
  8
FORMAT
370
    25
100
AcDbLine
 10
2506.7911252119
 20
1812.8006554207
 30
0.0
 11
2506.7911252119
 21
1901.2720538265
 31
0.0
  0
LINE
  5
49D
330
1F
100
AcDbEntity
  8
FORMAT
370
    25
100
AcDbLine
 10
2356.7911252119
 20
1812.8006554207
 30
0.0
 11
2356.7911252119
 21
1901.2720538265
 31
0.0
  0
DIMENSION
  5
49E
330
1F
100
AcDbEntity
  8
FORMAT
100
AcDbDimension
  2
_D_20
 10
2506.7911252119
 20
1873.7018448858
 30
0.0
 11
2586.8936075522
 21
1873.7018448858
 31
0.0
 70
   160
  1
max. +<>
 71
     2
 42
-1.0
  3
SLDDIMSTYLE4
100
AcDbAlignedDimension
 13
2386.7911252119
 23
1803.7018448858
 33
0.0
 14
2506.7911252119
 24
1901.2720538265
 34
0.0
 50
0.0
100
AcDbRotatedDimension
  0
DIMENSION
  5
4AF
330
1F
100
AcDbEntity
  8
FORMAT
100
AcDbDimension
  2
_D_21
 10
2356.7911252119
 20
1873.7018448858
 30
0.0
 11
2286.2531183749
 21
1873.7018448858
 31
0.0
 70
   160
  1
max. -<>
 71
     2
 42
-1.0
  3
SLDDIMSTYLE4
100
AcDbAlignedDimension
 13
2386.7911252119
 23
1803.7018448858
 33
0.0
 14
2356.7911252119
 24
1901.2720538265
 34
0.0
100
AcDbRotatedDimension
  0
DIMENSION
  5
4BA
330
1F
100
AcDbEntity
  8
FORMAT
100
AcDbDimension
  2
_D_22
 10
2586.0569619135
 20
1735.2018448858
 30
0.0
 11
2586.0569619135
 21
1657.7018448889
 31
0.0
 70
   160
  1
<>
 71
     2
 42
-1.0
  3
SLDDIMSTYLE0
100
AcDbAlignedDimension
 13
2414.2911252096
 23
1580.201844892
 33
0.0
 14
2501.7911252115
 24
1735.2018448858
 34
0.0
 50
90.0
100
AcDbRotatedDimension
  0
DIMENSION
  5
4C4
330
1F
100
AcDbEntity
  8
FORMAT
100
AcDbDimension
  2
_D_23
 10
2273.8113802856
 20
1736.2018448858
 30
0.0
 11
2273.8113802856
 21
1682.4518448858
 31
0.0
 70
   160
  1
<>
 71
     2
 42
-1.0
  3
SLDDIMSTYLE0
100
AcDbAlignedDimension
 13
2346.7911252119
 23
1628.7018448858
 33
0.0
 14
2387.7911252115
 24
1736.2018448858
 34
0.0
 50
90.0
100
AcDbRotatedDimension
  0
DIMENSION
  5
4CE
330
1F
100
AcDbEntity
  8
FORMAT
100
AcDbDimension
  2
_D_24
 10
2414.7911252096
 20
1514.6754747393
 30
0.0
 11
2468.6987751394
 21
1514.6754747393
 31
0.0
 70
   160
  1
<>
 71
     2
 42
-1.0
  3
SLDDIMSTYLE1
100
AcDbAlignedDimension
 13
2386.7911252119
 23
1623.7018448858
 33
0.0
 14
2414.7911252096
 24
1580.701844892
 34
0.0
100
AcDbRotatedDimension
  0
DIMENSION
  5
4D9
330
1F
100
AcDbEntity
  8
FORMAT
100
AcDbDimension
  2
_D_25
 10
2506.7911252116
 20
1460.0857955061
 30
0.0
 11
2446.7911252115
 21
1460.0857955061
 31
0.0
 70
   160
  1
<>
 71
     2
 42
-1.0
  3
SLDDIMSTYLE0
100
AcDbAlignedDimension
 13
2386.7911252115
 23
1642.2018448858
 33
0.0
 14
2506.7911252116
 24
1645.2018448858
 34
0.0
 50
0.0
100
AcDbRotatedDimension
  0
MTEXT
  5
4E3
330
1F
100
AcDbEntity
  8
FORMAT
100
AcDbMText
 10
2389.4764894782
 20
1979.3117565916
 30
0.0
 40
35.0
 41
0.0
 71
     2
 72
     1
  1
A-A
  7
SLDTEXTSTYLE0
 73
     1
 44
1.0
  0
MTEXT
  5
4E4
330
1F
100
AcDbEntity
  8
FORMAT
100
AcDbMText
 10
2316.2137731025
 20
1289.3349599593
 30
0.0
 40
18.5208333333
 41
0.0
 71
     1
 72
     1
  1
** Sturztiefe
  7
SLDTEXTSTYLE0
 73
     1
 44
1.0
  0
CIRCLE
  5
4E5
330
1F
100
AcDbEntity
  8
0
  6
Continuous
 62
     7
370
    18
100
AcDbCircle
 10
2366.1360271787
 20
1684.8883332042
 30
0.0
 40
160.9496845142207
  0
MTEXT
  5
4E6
330
1F
100
AcDbEntity
  8
0
  6
Continuous
 62
     7
370
    18
100
AcDbMText
 10
2524.0118977331
 20
1810.7470363284
 30
0.0
 40
35.0
 41
0.0
 71
     1
 72
     1
  1
B
  7
SLDTEXTSTYLE0
 73
     1
 44
1.0
  0
LINE
  5
4E7
330
1F
100
AcDbEntity
  8
0
  6
Continuous
 62
     7
370
    25
100
AcDbLine
 10
2297.2225596556
 20
792.6239741621
 30
0.0
 11
2297.2225596556
 21
750.6239724932
 31
0.0
  0
LINE
  5
4E8
330
1F
100
AcDbEntity
  8
0
  6
Continuous
 62
     7
370
    25
100
AcDbLine
 10
2316.8225609126
 20
750.6239724932
 30
0.0
 11
2316.8225609126
 21
792.6239741621
 31
0.0
  0
LINE
  5
4E9
330
1F
100
AcDbEntity
  8
0
  6
Continuous
 62
     7
370
    25
100
AcDbLine
 10
2314.0225604536
 20
792.6239741621
 30
0.0
 11
2314.0225604536
 21
793.3239755807
 31
0.0
  0
LINE
  5
4EA
330
1F
100
AcDbEntity
  8
0
  6
Continuous
 62
     7
370
    25
100
AcDbLine
 10
2300.0225601146
 20
793.3239755807
 30
0.0
 11
2300.0225601146
 21
792.6239741621
 31
0.0
  0
LINE
  5
4EB
330
1F
100
AcDbEntity
  8
0
  6
Continuous
 62
     7
370
    25
100
AcDbLine
 10
2351.4725600729
 20
809.4239769158
 30
0.0
 11
2351.4725600729
 21
807.3239726601
 31
0.0
  0
LINE
  5
4EC
330
1F
100
AcDbEntity
  8
0
  6
Continuous
 62
     7
370
    25
100
AcDbLine
 10
2393.4725617418
 20
794.7239784179
 30
0.0
 11
2393.4725617418
 21
810.8239693222
 31
0.0
  0
LINE
  5
4ED
330
1F
100
AcDbEntity
  8
0
  6
Continuous
 62
     7
370
    25
100
AcDbLine
 10
2392.0725589046
 20
793.3239755807
 30
0.0
 11
2393.4725617418
 21
794.7239784179
 31
0.0
  0
LWPOLYLINE
  5
4EE
330
1F
100
AcDbEntity
  8
0
  6
Continuous
 62
     7
370
    25
100
AcDbPolyline
 90
        3
 70
   128
 43
0.0
 10
2351.2595028976
 20
805.8434439478
 10
2351.169641445
 20
805.3623957214
 10
2351.0493976423
 20
804.818710464
  0
ARC
  5
4EF
330
1F
100
AcDbEntity
  8
0
  6
Continuous
 62
     7
370
    25
100
AcDbCircle
 10
2347.2724796812
 20
807.3239814998
 30
0.0
 40
4.200080391684631
100
AcDbArc
 50
347.4492632116
 51
359.9998794123
  0
LINE
  5
4F0
330
1F
100
AcDbEntity
  8
0
  6
Continuous
 62
     7
370
    25
100
AcDbLine
 10
2293.0225615749
 20
803.1239745793
 30
0.0
 11
2291.6225613454
 21
801.7239717422
 31
0.0
  0
LINE
  5
4F1
330
1F
100
AcDbEntity
  8
0
  6
Continuous
 62
     7
370
    25
100
AcDbLine
 10
2291.6225613454
 20
794.7239784179
 30
0.0
 11
2293.0225615749
 21
793.3239755807
 31
0.0
  0
LINE
  5
4F2
330
1F
100
AcDbEntity
  8
0
  6
Continuous
 62
     7
370
    25
100
AcDbLine
 10
2291.6225613454
 20
801.7239717422
 30
0.0
 11
2291.6225613454
 21
794.7239784179
 31
0.0
  0
LINE
  5
4F3
330
1F
100
AcDbEntity
  8
0
  6
Continuous
 62
     7
370
    25
100
AcDbLine
 10
2404.6725583622
 20
943.8239780841
 30
0.0
 11
2404.6725583622
 21
945.2239809213
 31
0.0
  0
ARC
  5
4F4
330
1F
100
AcDbEntity
  8
0
  6
Continuous
 62
     7
370
    18
100
AcDbCircle
 10
2259.5554208702
 20
873.3850209687
 30
0.0
 40
225.3295216310508
100
AcDbArc
 50
252.1463979296
 51
277.373254346
  0
LINE
  5
4F5
330
1F
100
AcDbEntity
  8
0
  6
Continuous
 62
     7
370
    25
100
AcDbLine
 10
2288.4725601772
 20
649.9187094746
 30
0.0
 11
2288.4725601772
 21
727.5239752261
 31
0.0
  0
LINE
  5
4F6
330
1F
100
AcDbEntity
  8
0
  6
Continuous
 62
     7
370
    25
100
AcDbLine
 10
2288.4725601772
 20
749.92397629
 30
0.0
 11
2288.4725601772
 21
787.7239746628
 31
0.0
  0
LINE
  5
4F7
330
1F
100
AcDbEntity
  8
0
  6
Continuous
 62
     7
370
    25
100
AcDbLine
 10
2190.4725623677
 20
658.906695771
 30
0.0
 11
2190.4725623677
 21
752.723976749
 31
0.0
  0
LINE
  5
4F8
330
1F
100
AcDbEntity
  8
0
  6
Continuous
 62
     7
370
    25
100
AcDbLine
 10
2232.4725640366
 20
752.723976749
 30
0.0
 11
2232.4725640366
 21
787.7239746628
 31
0.0
  0
LINE
  5
4F9
330
1F
100
AcDbEntity
  8
0
  6
Continuous
 62
     7
370
    25
100
AcDbLine
 10
2232.4725640366
 20
787.7239746628
 30
0.0
 11
2288.4725601772
 21
787.7239746628
 31
0.0
  0
LINE
  5
4FA
330
1F
100
AcDbEntity
  8
0
  6
Continuous
 62
     7
370
    25
100
AcDbLine
 10
2190.4725623677
 20
752.723976749
 30
0.0
 11
2232.4725640366
 21
752.723976749
 31
0.0
  0
LINE
  5
4FB
330
1F
100
AcDbEntity
  8
0
  6
Continuous
 62
     7
370
    25
100
AcDbLine
 10
2288.4725601772
 20
1039.7239742456
 30
0.0
 11
2288.4725601772
 21
943.8239780841
 31
0.0
  0
LINE
  5
4FC
330
1F
100
AcDbEntity
  8
0
  6
Continuous
 62
     7
370
    25
100
AcDbLine
 10
2288.4725601772
 20
810.8239693222
 30
0.0
 11
2288.4725601772
 21
794.7239784179
 31
0.0
  0
LINE
  5
4FD
330
1F
100
AcDbEntity
  8
0
  6
Continuous
 62
     7
370
    25
100
AcDbLine
 10
2288.4725601772
 20
794.7239784179
 30
0.0
 11
2232.4725640366
 21
794.7239784179
 31
0.0
  0
LINE
  5
4FE
330
1F
100
AcDbEntity
  8
0
  6
Continuous
 62
     7
370
    25
100
AcDbLine
 10
2232.4725640366
 20
794.7239784179
 30
0.0
 11
2232.4725640366
 21
759.7239752886
 31
0.0
  0
LINE
  5
4FF
330
1F
100
AcDbEntity
  8
0
  6
Continuous
 62
     7
370
    25
100
AcDbLine
 10
2232.4725640366
 20
759.7239752886
 30
0.0
 11
2190.4725623677
 21
759.7239752886
 31
0.0
  0
LINE
  5
500
330
1F
100
AcDbEntity
  8
0
  6
Continuous
 62
     7
370
    25
100
AcDbLine
 10
2190.4725623677
 20
1039.7239742456
 30
0.0
 11
2288.4725601772
 21
1039.7239742456
 31
0.0
  0
LINE
  5
501
330
1F
100
AcDbEntity
  8
0
  6
Continuous
 62
     7
370
    25
100
AcDbLine
 10
2190.4725623677
 20
1039.7239742456
 30
0.0
 11
2190.4725623677
 21
759.7239752886
 31
0.0
  0
LINE
  5
502
330
1F
100
AcDbEntity
  8
0
  6
Continuous
 62
     7
370
    25
100
AcDbLine
 10
2190.4725623677
 20
752.723976749
 30
0.0
 11
2190.4725623677
 21
759.7239752886
 31
0.0
  0
LINE
  5
503
330
1F
100
AcDbEntity
  8
0
  6
Continuous
 62
     7
370
    25
100
AcDbLine
 10
2288.4725601772
 20
787.7239746628
 30
0.0
 11
2288.4725601772
 21
794.7239784179
 31
0.0
  0
LINE
  5
504
330
1F
100
AcDbEntity
  8
0
  6
Continuous
 62
     7
370
    25
100
AcDbLine
 10
2316.8225609126
 20
792.6239741621
 30
0.0
 11
2297.2225596556
 21
792.6239741621
 31
0.0
  0
LINE
  5
505
330
1F
100
AcDbEntity
  8
0
  6
Continuous
 62
     7
370
    25
100
AcDbLine
 10
2393.4725617418
 20
794.7239784179
 30
0.0
 11
2351.6164818207
 21
794.7239784179
 31
0.0
  0
LINE
  5
506
330
1F
100
AcDbEntity
  8
0
  6
Continuous
 62
     7
370
    25
100
AcDbLine
 10
2351.6164818207
 20
794.7239784179
 30
0.0
 11
2351.6164818207
 21
807.3239726601
 31
0.0
  0
LINE
  5
507
330
1F
100
AcDbEntity
  8
0
  6
Continuous
 62
     7
370
    25
100
AcDbLine
 10
2392.0725589046
 20
793.3239755807
 30
0.0
 11
2353.0068857023
 21
793.3239755807
 31
0.0
  0
LINE
  5
508
330
1F
100
AcDbEntity
  8
0
  6
Continuous
 62
     7
370
    25
100
AcDbLine
 10
2353.0068857023
 20
793.3239755807
 30
0.0
 11
2351.6164818207
 21
794.7239784179
 31
0.0
  0
ARC
  5
509
330
1F
100
AcDbEntity
  8
0
  6
Continuous
 62
     7
370
    25
100
AcDbCircle
 10
2360.6202874179
 20
804.4152521538
 30
0.0
 40
9.46198553248058
100
AcDbArc
 50
162.0967124178
 51
171.7377058031
  0
LWPOLYLINE
  5
50A
330
1F
100
AcDbEntity
  8
0
  6
Continuous
 62
     7
370
    25
100
AcDbPolyline
 90
       11
 70
   128
 43
0.0
 10
2351.6164818207
 20
807.3239726601
 10
2351.6164479205
 20
807.3238370595
 10
2351.616197581
 20
807.3227313933
 10
2351.615503932
 20
807.3196021495
 10
2351.612885798
 20
807.3077005921
 10
2351.6027340094
 20
807.2613043366
 10
2351.3056409905
 20
805.9170333324
 10
2351.0158625791
 20
804.6823797403
 10
2350.7383481959
 20
803.6304322658
 10
2350.2667242089
 20
802.2886646567
 10
2349.7652759204
 20
801.7239717422
  0
LINE
  5
50B
330
1F
100
AcDbEntity
  8
0
  6
Continuous
 62
     7
370
    25
100
AcDbLine
 10
2351.6164818207
 20
794.7239784179
 30
0.0
 11
2317.1781173335
 21
794.7239784179
 31
0.0
  0
LINE
  5
50C
330
1F
100
AcDbEntity
  8
0
  6
Continuous
 62
     7
370
    25
100
AcDbLine
 10
2317.1781173335
 20
801.7239717422
 30
0.0
 11
2317.1781173335
 21
794.7239784179
 31
0.0
  0
LINE
  5
50D
330
1F
100
AcDbEntity
  8
0
  6
Continuous
 62
     7
370
    25
100
AcDbLine
 10
2349.7652759204
 20
801.7239717422
 30
0.0
 11
2317.1781173335
 21
801.7239717422
 31
0.0
  0
LINE
  5
50E
330
1F
100
AcDbEntity
  8
0
  6
Continuous
 62
     7
370
    25
100
AcDbLine
 10
2318.568522845
 20
793.3239755807
 30
0.0
 11
2317.1781173335
 21
794.7239784179
 31
0.0
  0
LINE
  5
50F
330
1F
100
AcDbEntity
  8
0
  6
Continuous
 62
     7
370
    25
100
AcDbLine
 10
2353.0068857023
 20
793.3239755807
 30
0.0
 11
2318.568522845
 21
793.3239755807
 31
0.0
  0
LINE
  5
510
330
1F
100
AcDbEntity
  8
0
  6
Continuous
 62
     7
370
    25
100
AcDbLine
 10
2318.568522845
 20
803.1239745793
 30
0.0
 11
2317.1781173335
 21
801.7239717422
 31
0.0
  0
LINE
  5
511
330
1F
100
AcDbEntity
  8
0
  6
Continuous
 62
     7
370
    25
100
AcDbLine
 10
2318.568522845
 20
803.1239745793
 30
0.0
 11
2350.5603307286
 21
803.1239745793
 31
0.0
  0
LINE
  5
512
330
1F
100
AcDbEntity
  8
0
  6
Continuous
 62
     7
370
    25
100
AcDbLine
 10
2317.0206596503
 20
801.7239717422
 30
0.0
 11
2318.4142142894
 21
803.1239745793
 31
0.0
  0
LINE
  5
513
330
1F
100
AcDbEntity
  8
0
  6
Continuous
 62
     7
370
    25
100
AcDbLine
 10
2317.1781173335
 20
801.7239717422
 30
0.0
 11
2317.0206596503
 21
801.7239717422
 31
0.0
  0
LINE
  5
514
330
1F
100
AcDbEntity
  8
0
  6
Continuous
 62
     7
370
    25
100
AcDbLine
 10
2318.4142142894
 20
803.1239745793
 30
0.0
 11
2318.568522845
 21
803.1239745793
 31
0.0
  0
LINE
  5
515
330
1F
100
AcDbEntity
  8
0
  6
Continuous
 62
     7
370
    25
100
AcDbLine
 10
2317.0206596503
 20
794.7239784179
 30
0.0
 11
2317.1781173335
 21
794.7239784179
 31
0.0
  0
LINE
  5
516
330
1F
100
AcDbEntity
  8
0
  6
Continuous
 62
     7
370
    25
100
AcDbLine
 10
2317.0206596503
 20
794.7239784179
 30
0.0
 11
2317.0206596503
 21
801.7239717422
 31
0.0
  0
LINE
  5
517
330
1F
100
AcDbEntity
  8
0
  6
Continuous
 62
     7
370
    25
100
AcDbLine
 10
2318.4142142894
 20
793.3239755807
 30
0.0
 11
2317.0206596503
 21
794.7239784179
 31
0.0
  0
LINE
  5
518
330
1F
100
AcDbEntity
  8
0
  6
Continuous
 62
     7
370
    25
100
AcDbLine
 10
2318.568522845
 20
793.3239755807
 30
0.0
 11
2318.4142142894
 21
793.3239755807
 31
0.0
  0
LINE
  5
519
330
1F
100
AcDbEntity
  8
0
  6
Continuous
 62
     7
370
    25
100
AcDbLine
 10
2291.693462188
 20
801.7239717422
 30
0.0
 11
2293.0870161751
 21
803.1239745793
 31
0.0
  0
LINE
  5
51A
330
1F
100
AcDbEntity
  8
0
  6
Continuous
 62
     7
370
    25
100
AcDbLine
 10
2317.0206596503
 20
801.7239717422
 30
0.0
 11
2291.693462188
 21
801.7239717422
 31
0.0
  0
LINE
  5
51B
330
1F
100
AcDbEntity
  8
0
  6
Continuous
 62
     7
370
    25
100
AcDbLine
 10
2293.0870161751
 20
803.1239745793
 30
0.0
 11
2318.4142142894
 21
803.1239745793
 31
0.0
  0
LINE
  5
51C
330
1F
100
AcDbEntity
  8
0
  6
Continuous
 62
     7
370
    25
100
AcDbLine
 10
2293.0870161751
 20
793.3239755807
 30
0.0
 11
2291.693462188
 21
794.7239784179
 31
0.0
  0
LINE
  5
51D
330
1F
100
AcDbEntity
  8
0
  6
Continuous
 62
     7
370
    25
100
AcDbLine
 10
2317.0206596503
 20
794.7239784179
 30
0.0
 11
2291.693462188
 21
794.7239784179
 31
0.0
  0
LINE
  5
51E
330
1F
100
AcDbEntity
  8
0
  6
Continuous
 62
     7
370
    25
100
AcDbLine
 10
2318.4142142894
 20
793.3239755807
 30
0.0
 11
2293.0870161751
 21
793.3239755807
 31
0.0
  0
LINE
  5
51F
330
1F
100
AcDbEntity
  8
0
  6
Continuous
 62
     7
370
    25
100
AcDbLine
 10
2291.693462188
 20
794.7239784179
 30
0.0
 11
2291.693462188
 21
801.7239717422
 31
0.0
  0
LINE
  5
520
330
1F
100
AcDbEntity
  8
0
  6
Continuous
 62
     7
370
    25
100
AcDbLine
 10
2291.693462188
 20
801.7239717422
 30
0.0
 11
2291.6225613454
 21
801.7239717422
 31
0.0
  0
LINE
  5
521
330
1F
100
AcDbEntity
  8
0
  6
Continuous
 62
     7
370
    25
100
AcDbLine
 10
2293.0225615749
 20
803.1239745793
 30
0.0
 11
2293.0870161751
 21
803.1239745793
 31
0.0
  0
LINE
  5
522
330
1F
100
AcDbEntity
  8
0
  6
Continuous
 62
     7
370
    25
100
AcDbLine
 10
2291.693462188
 20
794.7239784179
 30
0.0
 11
2291.6225613454
 21
794.7239784179
 31
0.0
  0
LINE
  5
523
330
1F
100
AcDbEntity
  8
0
  6
Continuous
 62
     7
370
    25
100
AcDbLine
 10
2293.0870161751
 20
793.3239755807
 30
0.0
 11
2293.0225615749
 21
793.3239755807
 31
0.0
  0
LINE
  5
524
330
1F
100
AcDbEntity
  8
0
  6
Continuous
 62
     7
370
    25
100
AcDbLine
 10
2327.6725607352
 20
749.92397629
 30
0.0
 11
2326.9725606205
 21
749.92397629
 31
0.0
  0
LINE
  5
525
330
1F
100
AcDbEntity
  8
0
  6
Continuous
 62
     7
370
    25
100
AcDbLine
 10
2327.6725607352
 20
727.5239752261
 30
0.0
 11
2327.6725607352
 21
749.92397629
 31
0.0
  0
LINE
  5
526
330
1F
100
AcDbEntity
  8
0
  6
Continuous
 62
     7
370
    25
100
AcDbLine
 10
2326.9725606205
 20
727.5239752261
 30
0.0
 11
2327.6725607352
 21
727.5239752261
 31
0.0
  0
LINE
  5
527
330
1F
100
AcDbEntity
  8
0
  6
Continuous
 62
     7
370
    25
100
AcDbLine
 10
2326.9725606205
 20
727.5239752261
 30
0.0
 11
2326.9725606205
 21
749.92397629
 31
0.0
  0
LINE
  5
528
330
1F
100
AcDbEntity
  8
0
  6
Continuous
 62
     7
370
    25
100
AcDbLine
 10
2289.1725615958
 20
727.5239752261
 30
0.0
 11
2326.9725606205
 21
727.5239752261
 31
0.0
  0
LINE
  5
529
330
1F
100
AcDbEntity
  8
0
  6
Continuous
 62
     7
370
    25
100
AcDbLine
 10
2289.1725615958
 20
749.92397629
 30
0.0
 11
2289.1725615958
 21
727.5239752261
 31
0.0
  0
LINE
  5
52A
330
1F
100
AcDbEntity
  8
0
  6
Continuous
 62
     7
370
    25
100
AcDbLine
 10
2326.9725606205
 20
749.92397629
 30
0.0
 11
2289.1725615958
 21
749.92397629
 31
0.0
  0
LINE
  5
52B
330
1F
100
AcDbEntity
  8
0
  6
Continuous
 62
     7
370
    25
100
AcDbLine
 10
2289.1725615958
 20
727.5239752261
 30
0.0
 11
2289.1725615958
 21
726.8239738075
 31
0.0
  0
LINE
  5
52C
330
1F
100
AcDbEntity
  8
0
  6
Continuous
 62
     7
370
    25
100
AcDbLine
 10
2326.9725606205
 20
726.8239738075
 30
0.0
 11
2326.9725606205
 21
727.5239752261
 31
0.0
  0
LINE
  5
52D
330
1F
100
AcDbEntity
  8
0
  6
Continuous
 62
     7
370
    25
100
AcDbLine
 10
2289.1725615958
 20
726.8239738075
 30
0.0
 11
2326.9725606205
 21
726.8239738075
 31
0.0
  0
LINE
  5
52E
330
1F
100
AcDbEntity
  8
0
  6
Continuous
 62
     7
370
    25
100
AcDbLine
 10
2326.9725606205
 20
749.92397629
 30
0.0
 11
2326.9725606205
 21
750.6239724932
 31
0.0
  0
LINE
  5
52F
330
1F
100
AcDbEntity
  8
0
  6
Continuous
 62
     7
370
    25
100
AcDbLine
 10
2289.1725615958
 20
750.6239724932
 30
0.0
 11
2289.1725615958
 21
749.92397629
 31
0.0
  0
LINE
  5
530
330
1F
100
AcDbEntity
  8
0
  6
Continuous
 62
     7
370
    25
100
AcDbLine
 10
2326.9725606205
 20
750.6239724932
 30
0.0
 11
2289.1725615958
 21
750.6239724932
 31
0.0
  0
ARC
  5
531
330
1F
100
AcDbEntity
  8
0
  6
Continuous
 62
     7
370
    25
100
AcDbCircle
 10
2326.9725600653
 20
727.5239744774
 30
0.0
 40
0.7000006699578235
100
AcDbArc
 50
270.0000454452
 51
0.0000612764
  0
ARC
  5
532
330
1F
100
AcDbEntity
  8
0
  6
Continuous
 62
     7
370
    25
100
AcDbCircle
 10
2326.9725645169
 20
749.9239762749
 30
0.0
 40
0.6999962183413558
100
AcDbArc
 50
0.0000012398
 51
90.0003189262
  0
LINE
  5
533
330
1F
100
AcDbEntity
  8
0
  6
Continuous
 62
     7
370
    25
100
AcDbLine
 10
2288.4725601772
 20
727.5239752261
 30
0.0
 11
2289.1725615958
 21
727.5239752261
 31
0.0
  0
ARC
  5
534
330
1F
100
AcDbEntity
  8
0
  6
Continuous
 62
     7
370
    25
100
AcDbCircle
 10
2289.1725608471
 20
727.5239744774
 30
0.0
 40
0.7000006699581174
100
AcDbArc
 50
179.9999387236
 51
270.0000612764
  0
LINE
  5
535
330
1F
100
AcDbEntity
  8
0
  6
Continuous
 62
     7
370
    25
100
AcDbLine
 10
2289.1725615958
 20
749.92397629
 30
0.0
 11
2288.4725601772
 21
749.92397629
 31
0.0
  0
LINE
  5
536
330
1F
100
AcDbEntity
  8
0
  6
Continuous
 62
     7
370
    25
100
AcDbLine
 10
2288.4725601772
 20
749.92397629
 30
0.0
 11
2288.4725601772
 21
727.5239752261
 31
0.0
  0
ARC
  5
537
330
1F
100
AcDbEntity
  8
0
  6
Continuous
 62
     7
370
    25
100
AcDbCircle
 10
2289.1725563955
 20
749.9239762748
 30
0.0
 40
0.6999962183558638
100
AcDbArc
 50
89.9995743527
 51
179.9999987597
  0
LINE
  5
538
330
1F
100
AcDbEntity
  8
0
  6
Continuous
 62
     7
370
    25
100
AcDbLine
 10
2289.8725604067
 20
945.2239809213
 30
0.0
 11
2372.4725609073
 21
945.2239809213
 31
0.0
  0
LINE
  5
539
330
1F
100
AcDbEntity
  8
0
  6
Continuous
 62
     7
370
    25
100
AcDbLine
 10
2372.4725609073
 20
945.2239809213
 30
0.0
 11
2372.4725609073
 21
943.8239780841
 31
0.0
  0
LINE
  5
53A
330
1F
100
AcDbEntity
  8
0
  6
Continuous
 62
     7
370
    25
100
AcDbLine
 10
2289.8725604067
 20
943.8239780841
 30
0.0
 11
2289.8725604067
 21
945.2239809213
 31
0.0
  0
LINE
  5
53B
330
1F
100
AcDbEntity
  8
0
  6
Continuous
 62
     7
370
    25
100
AcDbLine
 10
2372.4725609073
 20
945.2239809213
 30
0.0
 11
2404.6725583622
 21
945.2239809213
 31
0.0
  0
LINE
  5
53C
330
1F
100
AcDbEntity
  8
0
  6
Continuous
 62
     7
370
    25
100
AcDbLine
 10
2368.2725628266
 20
810.8239693222
 30
0.0
 11
2368.2725628266
 21
809.4239769158
 31
0.0
  0
LINE
  5
53D
330
1F
100
AcDbEntity
  8
0
  6
Continuous
 62
     7
370
    25
100
AcDbLine
 10
2289.8725604067
 20
809.4239769158
 30
0.0
 11
2289.8725604067
 21
810.8239693222
 31
0.0
  0
LINE
  5
53E
330
1F
100
AcDbEntity
  8
0
  6
Continuous
 62
     7
370
    25
100
AcDbLine
 10
2368.2725628266
 20
809.4239769158
 30
0.0
 11
2289.8725604067
 21
809.4239769158
 31
0.0
  0
LINE
  5
53F
330
1F
100
AcDbEntity
  8
0
  6
Continuous
 62
     7
370
    25
100
AcDbLine
 10
2449.4725657055
 20
941.0239724097
 30
0.0
 11
2300.3725608239
 21
941.0239724097
 31
0.0
  0
LINE
  5
540
330
1F
100
AcDbEntity
  8
0
  6
Continuous
 62
     7
370
    25
100
AcDbLine
 10
2449.4725657055
 20
936.8239638982
 30
0.0
 11
2449.4725657055
 21
941.0239724097
 31
0.0
  0
LINE
  5
541
330
1F
100
AcDbEntity
  8
0
  6
Continuous
 62
     7
370
    25
100
AcDbLine
 10
2449.4725657055
 20
936.8239638982
 30
0.0
 11
2288.4725601772
 21
936.8239638982
 31
0.0
  0
LINE
  5
542
330
1F
100
AcDbEntity
  8
0
  6
Continuous
 62
     7
370
    25
100
AcDbLine
 10
2288.4725601772
 20
936.8239638982
 30
0.0
 11
2288.4725601772
 21
941.0239724097
 31
0.0
  0
LINE
  5
543
330
1F
100
AcDbEntity
  8
0
  6
Continuous
 62
     7
370
    25
100
AcDbLine
 10
2293.3725596765
 20
941.0239724097
 30
0.0
 11
2288.4725601772
 21
941.0239724097
 31
0.0
  0
ARC
  5
544
330
1F
100
AcDbEntity
  8
0
  6
Continuous
 62
     7
370
    25
100
AcDbCircle
 10
2296.8725602502
 20
942.8906384508
 30
0.0
 40
3.966666878480581
100
AcDbArc
 50
208.0724750633
 51
331.9275249367
  0
LINE
  5
545
330
1F
100
AcDbEntity
  8
0
  6
Continuous
 62
     7
370
    25
100
AcDbLine
 10
2449.4725657055
 20
817.8239730773
 30
0.0
 11
2449.4725657055
 21
936.8239638982
 31
0.0
  0
LINE
  5
546
330
1F
100
AcDbEntity
  8
0
  6
Continuous
 62
     7
370
    25
100
AcDbLine
 10
2288.4725601772
 20
817.8239730773
 30
0.0
 11
2449.4725657055
 21
817.8239730773
 31
0.0
  0
LINE
  5
547
330
1F
100
AcDbEntity
  8
0
  6
Continuous
 62
     7
370
    25
100
AcDbLine
 10
2288.4725601772
 20
936.8239638982
 30
0.0
 11
2288.4725601772
 21
817.8239730773
 31
0.0
  0
LINE
  5
548
330
1F
100
AcDbEntity
  8
0
  6
Continuous
 62
     7
370
    25
100
AcDbLine
 10
2305.2725603232
 20
918.6239687381
 30
0.0
 11
2305.2725603232
 21
836.0239786682
 31
0.0
  0
ARC
  5
549
330
1F
100
AcDbEntity
  8
0
  6
Continuous
 62
     7
370
    25
100
AcDbCircle
 10
2309.4725710204
 20
836.0239808539
 30
0.0
 40
4.200010697196945
100
AcDbArc
 50
180.0000298161
 51
269.9998634623
  0
LINE
  5
54A
330
1F
100
AcDbEntity
  8
0
  6
Continuous
 62
     7
370
    25
100
AcDbLine
 10
2309.4725610116
 20
831.8239701567
 30
0.0
 11
2429.8725572774
 21
831.8239701567
 31
0.0
  0
ARC
  5
54B
330
1F
100
AcDbEntity
  8
0
  6
Continuous
 62
     7
370
    25
100
AcDbCircle
 10
2429.8725439627
 20
836.023991983
 30
0.0
 40
4.200021826323523
100
AcDbArc
 50
270.000181637
 51
359.999818363
  0
LINE
  5
54C
330
1F
100
AcDbEntity
  8
0
  6
Continuous
 62
     7
370
    25
100
AcDbLine
 10
2434.072565789
 20
836.0239786682
 30
0.0
 11
2434.072565789
 21
918.6239687381
 31
0.0
  0
ARC
  5
54D
330
1F
100
AcDbEntity
  8
0
  6
Continuous
 62
     7
370
    25
100
AcDbCircle
 10
2429.8725617692
 20
918.6239732299
 30
0.0
 40
4.200004019732788
100
AcDbArc
 50
359.9999387234
 51
90.0000612766
  0
LINE
  5
54E
330
1F
100
AcDbEntity
  8
0
  6
Continuous
 62
     7
370
    25
100
AcDbLine
 10
2429.8725572774
 20
922.8239772496
 30
0.0
 11
2309.4725610116
 21
922.8239772496
 31
0.0
  0
ARC
  5
54F
330
1F
100
AcDbEntity
  8
0
  6
Continuous
 62
     7
370
    25
100
AcDbCircle
 10
2309.4725532139
 20
918.6239843589
 30
0.0
 40
4.199992890729922
100
AcDbArc
 50
89.9998936243
 51
180.0002130973
  0
LINE
  5
550
330
1F
100
AcDbEntity
  8
0
  6
Continuous
 62
     7
370
    25
100
AcDbLine
 10
2288.4725601772
 20
813.6239749966
 30
0.0
 11
2293.3725596765
 21
813.6239749966
 31
0.0
  0
LINE
  5
551
330
1F
100
AcDbEntity
  8
0
  6
Continuous
 62
     7
370
    25
100
AcDbLine
 10
2288.4725601772
 20
813.6239749966
 30
0.0
 11
2288.4725601772
 21
817.8239730773
 31
0.0
  0
LINE
  5
552
330
1F
100
AcDbEntity
  8
0
  6
Continuous
 62
     7
370
    25
100
AcDbLine
 10
2449.4725657055
 20
813.6239749966
 30
0.0
 11
2449.4725657055
 21
817.8239730773
 31
0.0
  0
LINE
  5
553
330
1F
100
AcDbEntity
  8
0
  6
Continuous
 62
     7
370
    25
100
AcDbLine
 10
2300.3725608239
 20
813.6239749966
 30
0.0
 11
2449.4725657055
 21
813.6239749966
 31
0.0
  0
ARC
  5
554
330
1F
100
AcDbEntity
  8
0
  6
Continuous
 62
     7
370
    25
100
AcDbCircle
 10
2296.8725602502
 20
811.7573089555
 30
0.0
 40
3.966666878480475
100
AcDbArc
 50
28.0724750633
 51
151.9275249367
  0
LINE
  5
555
330
1F
100
AcDbEntity
  8
0
  6
Continuous
 62
     7
370
    25
100
AcDbLine
 10
2453.6725637862
 20
817.8239730773
 30
0.0
 11
2453.6725637862
 21
936.8239638982
 31
0.0
  0
LINE
  5
556
330
1F
100
AcDbEntity
  8
0
  6
Continuous
 62
     7
370
    25
100
AcDbLine
 10
2449.4725657055
 20
817.8239730773
 30
0.0
 11
2453.6725637862
 21
817.8239730773
 31
0.0
  0
LINE
  5
557
330
1F
100
AcDbEntity
  8
0
  6
Continuous
 62
     7
370
    25
100
AcDbLine
 10
2453.6725637862
 20
936.8239638982
 30
0.0
 11
2449.4725657055
 21
936.8239638982
 31
0.0
  0
ARC
  5
558
330
1F
100
AcDbEntity
  8
0
  6
Continuous
 62
     7
370
    25
100
AcDbCircle
 10
2449.4725597665
 20
817.8239790163
 30
0.0
 40
4.200004019738678
100
AcDbArc
 50
270.0000810189
 51
359.9999189811
  0
ARC
  5
559
330
1F
100
AcDbEntity
  8
0
  6
Continuous
 62
     7
370
    25
100
AcDbCircle
 10
2449.4725597665
 20
936.82396839
 30
0.0
 40
4.200004019735516
100
AcDbArc
 50
359.9999387234
 51
89.9999189811
  0
LINE
  5
55A
330
1F
100
AcDbEntity
  8
0
  6
Continuous
 62
     7
370
    25
100
AcDbLine
 10
2288.4725601772
 20
943.8239780841
 30
0.0
 11
2449.4725657055
 21
943.8239780841
 31
0.0
  0
ARC
  5
55B
330
1F
100
AcDbEntity
  8
0
  6
Continuous
 62
     7
370
    25
100
AcDbCircle
 10
2449.4725523302
 20
936.8239713845
 30
0.0
 40
7.000006699586176
100
AcDbArc
 50
359.9999387236
 51
89.9998905218
  0
LINE
  5
55C
330
1F
100
AcDbEntity
  8
0
  6
Continuous
 62
     7
370
    25
100
AcDbLine
 10
2456.4725590298
 20
936.8239638982
 30
0.0
 11
2456.4725590298
 21
817.8239730773
 31
0.0
  0
ARC
  5
55D
330
1F
100
AcDbEntity
  8
0
  6
Continuous
 62
     7
370
    25
100
AcDbCircle
 10
2449.4725523302
 20
817.8239760218
 30
0.0
 40
7.000006699580063
100
AcDbArc
 50
270.0001094782
 51
359.9999758992
  0
LINE
  5
55E
330
1F
100
AcDbEntity
  8
0
  6
Continuous
 62
     7
370
    25
100
AcDbLine
 10
2449.4725657055
 20
810.8239693222
 30
0.0
 11
2288.4725601772
 21
810.8239693222
 31
0.0
  0
LINE
  5
55F
330
1F
100
AcDbEntity
  8
0
  6
Continuous
 62
     7
370
    25
100
AcDbLine
 10
2288.4725601772
 20
941.0239724097
 30
0.0
 11
2288.4725601772
 21
943.8239780841
 31
0.0
  0
LINE
  5
560
330
1F
100
AcDbEntity
  8
0
  6
Continuous
 62
     7
370
    25
100
AcDbLine
 10
2288.4725601772
 20
810.8239693222
 30
0.0
 11
2288.4725601772
 21
813.6239749966
 31
0.0
  0
LINE
  5
561
330
1F
100
AcDbEntity
  8
0
  6
Continuous
 62
     7
370
    25
100
AcDbLine
 10
2351.4725600729
 20
807.3239726601
 30
0.0
 11
2351.6164818207
 21
807.3239726601
 31
0.0
  0
LINE
  5
562
330
1F
100
AcDbEntity
  8
FORMAT
370
    25
100
AcDbLine
 10
2288.4725606985
 20
837.4239742456
 30
0.0
 11
2292.6725606985
 21
837.4239742456
 31
0.0
  0
LINE
  5
563
330
1F
100
AcDbEntity
  8
FORMAT
370
    25
100
AcDbLine
 10
2292.6725606985
 20
847.2239742456
 30
0.0
 11
2288.4725606985
 21
847.2239742456
 31
0.0
  0
LINE
  5
564
330
1F
100
AcDbEntity
  8
FORMAT
370
    25
100
AcDbLine
 10
2288.4725606985
 20
849.3239742456
 30
0.0
 11
2292.6725606985
 21
849.3239742456
 31
0.0
  0
LINE
  5
565
330
1F
100
AcDbEntity
  8
FORMAT
370
    25
100
AcDbLine
 10
2292.6725606985
 20
863.3239742456
 30
0.0
 11
2288.4725606985
 21
863.3239742456
 31
0.0
  0
LINE
  5
566
330
1F
100
AcDbEntity
  8
FORMAT
370
    25
100
AcDbLine
 10
2288.4725606985
 20
865.4239742456
 30
0.0
 11
2292.6725606985
 21
865.4239742456
 31
0.0
  0
LINE
  5
567
330
1F
100
AcDbEntity
  8
FORMAT
370
    25
100
AcDbLine
 10
2292.6725606985
 20
875.2239742456
 30
0.0
 11
2288.4725606985
 21
875.2239742456
 31
0.0
  0
LINE
  5
568
330
1F
100
AcDbEntity
  8
FORMAT
370
    25
100
AcDbLine
 10
2288.4725606985
 20
879.4239742456
 30
0.0
 11
2292.6725606985
 21
879.4239742456
 31
0.0
  0
LINE
  5
569
330
1F
100
AcDbEntity
  8
FORMAT
370
    25
100
AcDbLine
 10
2292.6725606985
 20
889.2239742456
 30
0.0
 11
2288.4725606985
 21
889.2239742456
 31
0.0
  0
LINE
  5
56A
330
1F
100
AcDbEntity
  8
FORMAT
370
    25
100
AcDbLine
 10
2288.4725606985
 20
891.3239742456
 30
0.0
 11
2292.6725606985
 21
891.3239742456
 31
0.0
  0
LINE
  5
56B
330
1F
100
AcDbEntity
  8
FORMAT
370
    25
100
AcDbLine
 10
2292.6725606985
 20
905.3239742456
 30
0.0
 11
2288.4725606985
 21
905.3239742456
 31
0.0
  0
LINE
  5
56C
330
1F
100
AcDbEntity
  8
FORMAT
370
    25
100
AcDbLine
 10
2288.4725606985
 20
907.4239742456
 30
0.0
 11
2292.6725606985
 21
907.4239742456
 31
0.0
  0
LINE
  5
56D
330
1F
100
AcDbEntity
  8
FORMAT
370
    25
100
AcDbLine
 10
2292.6725606985
 20
917.2239742456
 30
0.0
 11
2288.4725606985
 21
917.2239742456
 31
0.0
  0
LINE
  5
56E
330
1F
100
AcDbEntity
  8
FORMAT
  6
CENTERX2
370
    25
100
AcDbLine
 10
2280.3139469381
 20
927.195820779
 30
0.0
 11
2302.4966766321
 21
927.195820779
 31
0.0
  0
LINE
  5
56F
330
1F
100
AcDbEntity
  8
FORMAT
  6
CENTERX2
370
    25
100
AcDbLine
 10
2280.3139469381
 20
927.195820779
 30
0.0
 11
2280.3139469381
 21
828.0526003099
 31
0.0
  0
LINE
  5
570
330
1F
100
AcDbEntity
  8
FORMAT
  6
CENTERX2
370
    25
100
AcDbLine
 10
2280.3139469381
 20
828.0526003099
 30
0.0
 11
2302.4966766321
 21
828.0526003099
 31
0.0
  0
LINE
  5
571
330
1F
100
AcDbEntity
  8
FORMAT
  6
CENTERX2
370
    25
100
AcDbLine
 10
2302.4966766321
 20
927.195820779
 30
0.0
 11
2302.4966766321
 21
828.0526003099
 31
0.0
  0
ARC
  5
572
330
1F
100
AcDbEntity
  8
FORMAT
370
    25
100
AcDbCircle
 10
2292.6725606985
 20
842.3239742456
 30
0.0
 40
4.900000000001342
100
AcDbArc
 50
270.0
 51
90.0
  0
ARC
  5
573
330
1F
100
AcDbEntity
  8
FORMAT
370
    25
100
AcDbCircle
 10
2292.6725606985
 20
856.3239742456
 30
0.0
 40
7.0
100
AcDbArc
 50
270.0
 51
90.0
  0
ARC
  5
574
330
1F
100
AcDbEntity
  8
FORMAT
370
    25
100
AcDbCircle
 10
2292.6725606985
 20
870.3239742456
 30
0.0
 40
4.900000000000091
100
AcDbArc
 50
270.0
 51
90.0
  0
ARC
  5
575
330
1F
100
AcDbEntity
  8
FORMAT
370
    25
100
AcDbCircle
 10
2292.6725606985
 20
884.3239742456
 30
0.0
 40
4.899999999999864
100
AcDbArc
 50
270.0
 51
90.0
  0
ARC
  5
576
330
1F
100
AcDbEntity
  8
FORMAT
370
    25
100
AcDbCircle
 10
2292.6725606985
 20
898.3239742456
 30
0.0
 40
7.0
100
AcDbArc
 50
270.0
 51
90.0
  0
ARC
  5
577
330
1F
100
AcDbEntity
  8
FORMAT
370
    25
100
AcDbCircle
 10
2292.6725606985
 20
912.3239742456
 30
0.0
 40
4.900000000000091
100
AcDbArc
 50
270.0
 51
90.0
  0
DIMENSION
  5
578
330
1F
100
AcDbEntity
  8
FORMAT
100
AcDbDimension
  2
_D_26
 10
2327.6725606958
 20
575.3398581618
 30
0.0
 11
2385.8464939881
 21
575.3398581618
 31
0.0
 70
   160
  1
(<>)
 71
     2
 42
-1.0
  3
SLDDIMSTYLE5
100
AcDbAlignedDimension
 13
2288.472560699
 23
649.9187094746
 33
0.0
 14
2327.6725606958
 24
727.5239742543
 34
0.0
100
AcDbRotatedDimension
  0
DIMENSION
  5
587
330
1F
100
AcDbEntity
  8
FORMAT
100
AcDbDimension
  2
_D_27
 10
2390.8784400067
 20
750.6239742543
 30
0.0
 11
2390.8784400068
 21
677.2069916497
 31
0.0
 70
   160
  1
(<>)
 71
     2
 42
-1.0
  3
SLDDIMSTYLE5
100
AcDbAlignedDimension
 13
2326.9725606958
 23
726.8239742543
 33
0.0
 14
2326.9725606958
 24
750.6239742543
 34
0.0
 50
90.0
100
AcDbRotatedDimension
  0
DIMENSION
  5
595
330
1F
100
AcDbEntity
  8
FORMAT
100
AcDbDimension
  2
_D_28
 10
2496.8799879366
 20
793.3239742454
 30
0.0
 11
2496.8799879366
 21
734.6399011339
 31
0.0
 70
   160
  1
<>*
 71
     2
 42
-1.0
  3
SLDDIMSTYLE6
100
AcDbAlignedDimension
 13
2288.472560699
 23
787.7239742456
 33
0.0
 14
2353.0068866945
 24
793.3239742454
 34
0.0
 50
90.0
100
AcDbRotatedDimension
  0
DIMENSION
  5
5A3
330
1F
100
AcDbEntity
  8
FORMAT
100
AcDbDimension
  2
_D_29
 10
2551.7475653903
 20
810.8239742456
 30
0.0
 11
2551.7475653903
 21
866.9882676785
 31
0.0
 70
   160
  1
<>
 71
     2
 42
-1.0
  3
SLDDIMSTYLE5
100
AcDbAlignedDimension
 13
2353.0068866945
 23
793.3239742454
 33
0.0
 14
2449.4725606985
 24
810.8239742456
 34
0.0
 50
90.0
100
AcDbRotatedDimension
  0
DIMENSION
  5
5B1
330
1F
100
AcDbEntity
  8
FORMAT
100
AcDbDimension
  2
_D_30
 10
2096.7701329295
 20
787.7239742456
 30
0.0
 11
2096.7701329295
 21
677.2069916615
 31
0.0
 70
   160
  1
<>
 71
     2
 42
-1.0
  3
SLDDIMSTYLE7
100
AcDbAlignedDimension
 13
2289.1725606958
 23
750.6239742542
 33
0.0
 14
2232.472560699
 24
787.7239742456
 34
0.0
 50
90.0
100
AcDbRotatedDimension
  0
DIMENSION
  5
5BE
330
1F
100
AcDbEntity
  8
FORMAT
100
AcDbDimension
  2
_D_31
 10
2096.7701329295
 20
810.8239742456
 30
0.0
 11
2096.7701329295
 21
866.9882677111
 31
0.0
 70
   160
  1
<>
 71
     2
 42
-1.0
  3
SLDDIMSTYLE8
100
AcDbAlignedDimension
 13
2232.472560699
 23
787.7239742456
 33
0.0
 14
2288.4725606985
 24
810.8239742456
 34
0.0
 50
90.0
100
AcDbRotatedDimension
  0
DIMENSION
  5
5CB
330
1F
100
AcDbEntity
  8
FORMAT
100
AcDbDimension
  2
_D_32
 10
2151.4795471526
 20
810.8239742456
 30
0.0
 11
2151.4795471526
 21
864.3432077764
 31
0.0
 70
   160
  1
<>
 71
     2
 42
-1.0
  3
SLDDIMSTYLE5
100
AcDbAlignedDimension
 13
2318.5685228454
 23
803.1239742454
 33
0.0
 14
2288.4725606985
 24
810.8239742456
 34
0.0
 50
90.0
100
AcDbRotatedDimension
  0
MTEXT
  5
5D7
330
1F
100
AcDbEntity
  8
FORMAT
100
AcDbMText
 10
2283.4600842911
 20
1140.8318913287
 30
0.0
 40
35.0
 41
0.0
 71
     2
 72
     1
  1
B (1 : 5)
  7
SLDTEXTSTYLE0
 73
     1
 44
1.0
  0
MTEXT
  5
5D8
330
1F
100
AcDbEntity
  8
FORMAT
100
AcDbMText
 10
2024.0993047994
 20
593.9668973407
 30
0.0
 40
18.5208333333
 41
0.0
 71
     1
 72
     1
  1
GB 46
  7
SLDTEXTSTYLE0
 73
     1
 44
1.0
  0
LEADER
  5
5DA
330
1F
100
AcDbEntity
  8
FORMAT
100
AcDbLeader
  3
SLDDIMSTYLE9
 76
     3
 10
2307.2446413115
 20
766.7581904923
 30
0.0
 10
2141.9326857364
 20
585.2472247118
 30
0.0
 10
2097.4826857364
 20
585.2472247118
 30
0.0
  0
MTEXT
  5
5DB
330
1F
100
AcDbEntity
  8
FORMAT
100
AcDbMText
 10
1742.4573469885
 20
978.0691137138
 30
0.0
 40
18.5208333333
 41
0.0
 71
     1
 72
     1
  1
aufliegende Kabelzuführung (optional)
  7
SLDTEXTSTYLE0
 73
     1
 44
1.0
  0
LEADER
  5
5DC
330
1F
100
AcDbEntity
  8
FORMAT
100
AcDbLeader
  3
SLDDIMSTYLE3
 76
     3
 10
2280.3139469381
 20
906.371217295
 30
0.0
 10
2207.3838016339
 20
968.985699146
 30
0.0
 10
2162.9338016339
 20
968.985699146
 30
0.0
  0
CIRCLE
  5
5DD
330
1F
100
AcDbEntity
  8
0
  6
Continuous
 62
     7
370
    18
100
AcDbCircle
 10
1844.2897990367
 20
313.9754219361
 30
0.0
 40
80.83488286213452
  0
ARC
  5
5DE
330
1F
100
AcDbEntity
  8
0
  6
Continuous
 62
     7
370
    25
100
AcDbCircle
 10
1867.1226777689
 20
368.5105423725
 30
0.0
 40
4.200008151989297
100
AcDbArc
 50
9.5942083945
 51
170.4057916055
  0
ARC
  5
5DF
330
1F
100
AcDbEntity
  8
0
  6
Continuous
 62
     7
370
    25
100
AcDbCircle
 10
1844.7226740972
 20
368.5105504764
 30
0.0
 40
4.549995541921954
100
AcDbArc
 50
8.8499349891
 51
171.1500650109
  0
ARC
  5
5E0
330
1F
100
AcDbEntity
  8
0
  6
Continuous
 62
     7
370
    25
100
AcDbCircle
 10
1844.7226740972
 20
368.5105544109
 30
0.0
 40
4.549995541921972
100
AcDbArc
 50
188.8499349891
 51
351.1500650109
  0
ARC
  5
5E1
330
1F
100
AcDbEntity
  8
0
  6
Continuous
 62
     7
370
    25
100
AcDbCircle
 10
1867.1226777689
 20
368.5105625149
 30
0.0
 40
4.200008151989297
100
AcDbArc
 50
189.5942083945
 51
350.4057916055
  0
ARC
  5
5E2
330
1F
100
AcDbEntity
  8
0
  6
Continuous
 62
     7
370
    25
100
AcDbCircle
 10
1844.7226740972
 20
262.110566225
 30
0.0
 40
4.549993645416754
100
AcDbArc
 50
8.8497816055
 51
171.1502183945
  0
ARC
  5
5E3
330
1F
100
AcDbEntity
  8
0
  6
Continuous
 62
     7
370
    25
100
AcDbCircle
 10
1867.1226777689
 20
262.1105457938
 30
0.0
 40
4.200008151989287
100
AcDbArc
 50
9.5942083945
 51
170.4057916055
  0
ARC
  5
5E4
330
1F
100
AcDbEntity
  8
0
  6
Continuous
 62
     7
370
    25
100
AcDbCircle
 10
1844.7226740972
 20
262.1105455049
 30
0.0
 40
4.549993645416771
100
AcDbArc
 50
188.8497816055
 51
351.1502183945
  0
ARC
  5
5E5
330
1F
100
AcDbEntity
  8
0
  6
Continuous
 62
     7
370
    25
100
AcDbCircle
 10
1867.1226777689
 20
262.1105659362
 30
0.0
 40
4.200008151989306
100
AcDbArc
 50
189.5942083945
 51
350.4057916055
  0
LINE
  5
5E6
330
1F
100
AcDbEntity
  8
0
  6
Continuous
 62
     7
370
    25
100
AcDbLine
 10
1892.3015125648
 20
379.0105528609
 30
0.0
 11
1796.2781198875
 21
379.0105528609
 31
0.0
  0
LINE
  5
5E7
330
1F
100
AcDbEntity
  8
0
  6
Continuous
 62
     7
370
    25
100
AcDbLine
 10
1792.8650327579
 20
251.6105554477
 30
0.0
 11
1895.7145788328
 21
251.6105554477
 31
0.0
  0
ARC
  5
5E8
330
1F
100
AcDbEntity
  8
0
  6
Continuous
 62
     7
370
    25
100
AcDbCircle
 10
1844.7157069497
 20
368.511170098
 30
0.0
 40
4.543016036885815
100
AcDbArc
 50
171.1442682278
 51
180.0076582037
  0
ARC
  5
5E9
330
1F
100
AcDbEntity
  8
0
  6
Continuous
 62
     7
370
    25
100
AcDbCircle
 10
1867.1184314909
 20
368.5101838484
 30
0.0
 40
4.204254806567713
100
AcDbArc
 50
0.0051653852
 51
9.5893811514
  0
ARC
  5
5EA
330
1F
100
AcDbEntity
  8
0
  6
Continuous
 62
     7
370
    25
100
AcDbCircle
 10
1867.1269240468
 20
368.5101838484
 30
0.0
 40
4.204254806567485
100
AcDbArc
 50
170.4106188486
 51
179.9948346148
  0
ARC
  5
5EB
330
1F
100
AcDbEntity
  8
0
  6
Continuous
 62
     7
370
    25
100
AcDbCircle
 10
1844.721819631
 20
368.5102937009
 30
0.0
 40
4.550879341279502
100
AcDbArc
 50
0.0033889076
 51
8.8514742656
  0
ARC
  5
5EC
330
1F
100
AcDbEntity
  8
0
  6
Continuous
 62
     7
370
    25
100
AcDbCircle
 10
1844.7159083529
 20
262.1111579282
 30
0.0
 40
4.543217439322885
100
AcDbArc
 50
171.1444649669
 51
180.0075927874
  0
ARC
  5
5ED
330
1F
100
AcDbEntity
  8
0
  6
Continuous
 62
     7
370
    25
100
AcDbCircle
 10
1844.7216181133
 20
262.1102815234
 30
0.0
 40
4.55108085929561
100
AcDbArc
 50
0.0034538202
 51
8.8512779301
  0
ARC
  5
5EE
330
1F
100
AcDbEntity
  8
0
  6
Continuous
 62
     7
370
    25
100
AcDbCircle
 10
1867.1267375322
 20
262.1102029282
 30
0.0
 40
4.204068289653818
100
AcDbArc
 50
170.4104058184
 51
179.9951899474
  0
ARC
  5
5EF
330
1F
100
AcDbEntity
  8
0
  6
Continuous
 62
     7
370
    25
100
AcDbCircle
 10
1867.1186180056
 20
262.1102029282
 30
0.0
 40
4.204068289653818
100
AcDbArc
 50
0.0048100526
 51
9.5895941816
  0
ARC
  5
5F0
330
1F
100
AcDbEntity
  8
0
  6
Continuous
 62
     7
370
    25
100
AcDbCircle
 10
1867.1269237844
 20
368.5109210059
 30
0.0
 40
4.204254542280762
100
AcDbArc
 50
180.0048806324
 51
189.5893813036
  0
ARC
  5
5F1
330
1F
100
AcDbEntity
  8
0
  6
Continuous
 62
     7
370
    25
100
AcDbCircle
 10
1844.7218199232
 20
368.5108111561
 30
0.0
 40
4.550879047894292
100
AcDbArc
 50
351.1485255457
 51
359.996874123
  0
ARC
  5
5F2
330
1F
100
AcDbEntity
  8
0
  6
Continuous
 62
     7
370
    25
100
AcDbCircle
 10
1867.1184317534
 20
368.5109210059
 30
0.0
 40
4.20425454228099
100
AcDbArc
 50
350.4106186964
 51
359.9951193676
  0
ARC
  5
5F3
330
1F
100
AcDbEntity
  8
0
  6
Continuous
 62
     7
370
    25
100
AcDbCircle
 10
1844.7157074695
 20
368.509934848
 30
0.0
 40
4.543016559435189
100
AcDbArc
 50
179.9920794331
 51
188.8557314936
  0
ARC
  5
5F4
330
1F
100
AcDbEntity
  8
0
  6
Continuous
 62
     7
370
    25
100
AcDbCircle
 10
1844.7159083529
 20
262.1099538017
 30
0.0
 40
4.543217439324022
100
AcDbArc
 50
179.9924072126
 51
188.8555350331
  0
ARC
  5
5F5
330
1F
100
AcDbEntity
  8
0
  6
Continuous
 62
     7
370
    25
100
AcDbCircle
 10
1867.1186180056
 20
262.1109088018
 30
0.0
 40
4.2040682896545
100
AcDbArc
 50
350.4104058184
 51
359.9951899474
  0
ARC
  5
5F6
330
1F
100
AcDbEntity
  8
0
  6
Continuous
 62
     7
370
    25
100
AcDbCircle
 10
1844.7216181133
 20
262.1108302066
 30
0.0
 40
4.551080859296987
100
AcDbArc
 50
351.1487220699
 51
359.9965461798
  0
ARC
  5
5F7
330
1F
100
AcDbEntity
  8
0
  6
Continuous
 62
     7
370
    25
100
AcDbCircle
 10
1867.1267375322
 20
262.1109088018
 30
0.0
 40
4.204068289654274
100
AcDbArc
 50
180.0048100526
 51
189.5895941816
  0
DIMENSION
  5
5F8
330
1F
100
AcDbEntity
  8
FORMAT
100
AcDbDimension
  2
_D_33
 10
1754.5096040063
 20
262.1105546961
 30
0.0
 11
1754.5096040063
 21
201.3684343249
 31
0.0
 70
   160
  1
<>
 71
     2
 42
-1.0
  3
SLDDIMSTYLE5
100
AcDbAlignedDimension
 13
1792.8650327579
 23
251.6105546961
 33
0.0
 14
1844.7226842777
 24
262.1105546961
 34
0.0
 50
90.0
100
AcDbRotatedDimension
  0
DIMENSION
  5
604
330
1F
100
AcDbEntity
  8
FORMAT
100
AcDbDimension
  2
_D_34
 10
1692.3292351776
 20
368.5105546961
 30
0.0
 11
1692.3292351776
 21
315.3105546961
 31
0.0
 70
   160
  1
<>
 71
     2
 42
-1.0
  3
SLDDIMSTYLE10
100
AcDbAlignedDimension
 13
1836.6726842777
 23
262.1105546961
 33
0.0
 14
1836.6726842777
 24
368.5105546961
 34
0.0
 50
90.0
100
AcDbRotatedDimension
  0
MTEXT
  5
60F
330
1F
100
AcDbEntity
  8
FORMAT
100
AcDbMText
 10
1848.8693643923
 20
473.3647896732
 30
0.0
 40
35.0
 41
0.0
 71
     2
 72
     1
  1
C (1 : 5)
  7
SLDTEXTSTYLE0
 73
     1
 44
1.0
  0
INSERT
  5
61B
330
1F
100
AcDbEntity
  8
FORMAT
100
AcDbBlockReference
  2
SW_CENTERMARKSYMBOL_12
 10
1844.7226949589
 20
368.5105628745
 30
0.0
  0
INSERT
  5
627
330
1F
100
AcDbEntity
  8
FORMAT
100
AcDbBlockReference
  2
SW_CENTERMARKSYMBOL_13
 10
1844.7226949589
 20
262.110555865
 30
0.0
  0
ENDSEC
  0
SECTION
  2
OBJECTS
  0
DICTIONARY
  5
C
330
0
100
AcDbDictionary
281
     1
  3
ACAD_GROUP
350
D
  3
ACAD_LAYOUT
350
1A
  3
ACAD_MLINESTYLE
350
17
  3
ACAD_PLOTSETTINGS
350
19
  3
ACAD_PLOTSTYLENAME
350
E
  3
ACAD_SCALELIST
350
47
  3
DWGPROPS
350
628
  0
DICTIONARY
  5
D
102
{ACAD_REACTORS
330
C
102
}
330
C
100
AcDbDictionary
281
     1
  0
DICTIONARY
  5
1A
102
{ACAD_REACTORS
330
C
102
}
330
C
100
AcDbDictionary
281
     1
  3
Layout1
350
1E
  3
Layout2
350
26
  3
Model
350
22
  0
DICTIONARY
  5
17
102
{ACAD_REACTORS
330
C
102
}
330
C
100
AcDbDictionary
281
     1
  3
Standard
350
18
  0
DICTIONARY
  5
19
102
{ACAD_REACTORS
330
C
102
}
330
C
100
AcDbDictionary
281
     1
  0
ACDBDICTIONARYWDFLT
  5
E
102
{ACAD_REACTORS
330
C
102
}
330
C
100
AcDbDictionary
281
     1
  3
Normal
350
F
100
AcDbDictionaryWithDefault
340
F
  0
DICTIONARY
  5
47
102
{ACAD_REACTORS
330
C
102
}
330
C
100
AcDbDictionary
281
     1
  3
A0
350
48
  3
A1
350
49
  3
A2
350
4A
  3
A3
350
4B
  3
A4
350
4C
  3
A5
350
4D
  3
A6
350
4E
  3
A7
350
4F
  3
A8
350
50
  3
A9
350
51
  3
B0
350
52
  3
B1
350
53
  3
B2
350
54
  3
B3
350
55
  3
B4
350
56
  3
B5
350
57
  3
B6
350
58
  3
B7
350
59
  3
B8
350
5A
  3
B9
350
5B
  3
C0
350
5C
  3
C1
350
5D
  3
C2
350
5E
  3
C3
350
5F
  3
C4
350
60
  3
C5
350
61
  3
C6
350
62
  3
C7
350
63
  3
C8
350
64
  3
C9
350
65
  3
D0
350
66
  3
D1
350
67
  3
D2
350
68
  0
XRECORD
  5
628
102
{ACAD_REACTORS
330
C
102
}
330
C
100
AcDbXrecord
280
     1
  1
DWGPROPS COOKIE
  2

  3

  4

  6

  7

  8
l.eckardt
  9

300
=
301
=
302
=
303
=
304
=
305
=
306
=
307
=
308
=
309
=
 40
0.0
 41
2460077.371054618
 42
2460077.371059653
  1

 90
        0
  0
LAYOUT
  5
1E
102
{ACAD_REACTORS
330
1A
102
}
330
1A
100
AcDbPlotSettings
  1

  2
none_device
  4

  6

 40
0.0
 41
0.0
 42
0.0
 43
0.0
 44
0.0
 45
0.0
 46
0.0
 47
0.0
 48
0.0
 49
0.0
140
0.0
141
0.0
142
1.0
143
1.0
 70
   688
 72
     1
 73
     0
 74
     5
  7

 75
    16
147
1.0
148
0.0
149
0.0
100
AcDbLayout
  1
Layout1
 70
     1
 71
     1
 10
0.0
 20
0.0
 11
420.0
 21
297.0
 12
0.0
 22
0.0
 32
0.0
 14
1.0000000000E+20
 24
1.0000000000E+20
 34
1.0000000000E+20
 15
-1.0000000000E+20
 25
-1.0000000000E+20
 35
-1.0000000000E+20
146
0.0
 13
0.0
 23
0.0
 33
0.0
 16
1.0
 26
0.0
 36
0.0
 17
0.0
 27
1.0
 37
0.0
 76
     0
330
1B
  0
LAYOUT
  5
26
102
{ACAD_REACTORS
330
1A
102
}
330
1A
100
AcDbPlotSettings
  1

  2
none_device
  4

  6

 40
0.0
 41
0.0
 42
0.0
 43
0.0
 44
0.0
 45
0.0
 46
0.0
 47
0.0
 48
0.0
 49
0.0
140
0.0
141
0.0
142
1.0
143
1.0
 70
   688
 72
     1
 73
     0
 74
     5
  7

 75
    16
147
1.0
148
0.0
149
0.0
100
AcDbLayout
  1
Layout2
 70
     1
 71
     2
 10
0.0
 20
0.0
 11
0.0
 21
0.0
 12
0.0
 22
0.0
 32
0.0
 14
0.0
 24
0.0
 34
0.0
 15
0.0
 25
0.0
 35
0.0
146
0.0
 13
0.0
 23
0.0
 33
0.0
 16
1.0
 26
0.0
 36
0.0
 17
0.0
 27
1.0
 37
0.0
 76
     0
330
23
  0
LAYOUT
  5
22
102
{ACAD_REACTORS
330
1A
102
}
330
1A
100
AcDbPlotSettings
  1

  2
none_device
  4
Letter_(8.50_x_11.00_Inches)
  6

 40
6.35
 41
6.35
 42
6.35000508
 43
6.35000508
 44
215.9
 45
279.4
 46
0.0
 47
0.0
 48
0.0
 49
0.0
140
0.0
141
0.0
142
1.0
143
1.0
 70
  1712
 72
     1
 73
     0
 74
     0
  7

 75
     0
147
1.0
148
0.0
149
0.0
100
AcDbLayout
  1
Model
 70
     1
 71
     0
 10
0.0
 20
0.0
 11
2940.0
 21
2079.0
 12
0.0
 22
0.0
 32
0.0
 14
0.0
 24
0.0
 34
0.0
 15
2940.0
 25
2079.0
 35
0.0
146
0.0
 13
0.0
 23
0.0
 33
0.0
 16
1.0
 26
0.0
 36
0.0
 17
0.0
 27
1.0
 37
0.0
 76
     0
330
1F
331
29
  0
MLINESTYLE
  5
18
102
{ACAD_REACTORS
330
17
102
}
330
17
100
AcDbMlineStyle
  2
Standard
 70
     0
  3

 62
   256
 51
90.0
 52
90.0
 71
     2
 49
0.5
 62
   256
  6
BYLAYER
 49
-0.5
 62
   256
  6
BYLAYER
  0
ACDBPLACEHOLDER
  5
F
102
{ACAD_REACTORS
330
E
102
}
330
E
  0
SCALE
  5
48
102
{ACAD_REACTORS
330
47
102
}
330
47
100
AcDbScale
 70
     0
300
1:1
140
1.0
141
1.0
290
     1
  0
SCALE
  5
49
102
{ACAD_REACTORS
330
47
102
}
330
47
100
AcDbScale
 70
     0
300
1:2
140
1.0
141
2.0
290
     0
  0
SCALE
  5
4A
102
{ACAD_REACTORS
330
47
102
}
330
47
100
AcDbScale
 70
     0
300
1:4
140
1.0
141
4.0
290
     0
  0
SCALE
  5
4B
102
{ACAD_REACTORS
330
47
102
}
330
47
100
AcDbScale
 70
     0
300
1:5
140
1.0
141
5.0
290
     0
  0
SCALE
  5
4C
102
{ACAD_REACTORS
330
47
102
}
330
47
100
AcDbScale
 70
     0
300
1:8
140
1.0
141
8.0
290
     0
  0
SCALE
  5
4D
102
{ACAD_REACTORS
330
47
102
}
330
47
100
AcDbScale
 70
     0
300
1:10
140
1.0
141
10.0
290
     0
  0
SCALE
  5
4E
102
{ACAD_REACTORS
330
47
102
}
330
47
100
AcDbScale
 70
     0
300
1:16
140
1.0
141
16.0
290
     0
  0
SCALE
  5
4F
102
{ACAD_REACTORS
330
47
102
}
330
47
100
AcDbScale
 70
     0
300
1:20
140
1.0
141
20.0
290
     0
  0
SCALE
  5
50
102
{ACAD_REACTORS
330
47
102
}
330
47
100
AcDbScale
 70
     0
300
1:30
140
1.0
141
30.0
290
     0
  0
SCALE
  5
51
102
{ACAD_REACTORS
330
47
102
}
330
47
100
AcDbScale
 70
     0
300
1:40
140
1.0
141
40.0
290
     0
  0
SCALE
  5
52
102
{ACAD_REACTORS
330
47
102
}
330
47
100
AcDbScale
 70
     0
300
1:50
140
1.0
141
50.0
290
     0
  0
SCALE
  5
53
102
{ACAD_REACTORS
330
47
102
}
330
47
100
AcDbScale
 70
     0
300
1:100
140
1.0
141
100.0
290
     0
  0
SCALE
  5
54
102
{ACAD_REACTORS
330
47
102
}
330
47
100
AcDbScale
 70
     0
300
2:1
140
2.0
141
1.0
290
     0
  0
SCALE
  5
55
102
{ACAD_REACTORS
330
47
102
}
330
47
100
AcDbScale
 70
     0
300
4:1
140
4.0
141
1.0
290
     0
  0
SCALE
  5
56
102
{ACAD_REACTORS
330
47
102
}
330
47
100
AcDbScale
 70
     0
300
8:1
140
8.0
141
1.0
290
     0
  0
SCALE
  5
57
102
{ACAD_REACTORS
330
47
102
}
330
47
100
AcDbScale
 70
     0
300
10:1
140
10.0
141
1.0
290
     0
  0
SCALE
  5
58
102
{ACAD_REACTORS
330
47
102
}
330
47
100
AcDbScale
 70
     0
300
100:1
140
100.0
141
1.0
290
     0
  0
SCALE
  5
59
102
{ACAD_REACTORS
330
47
102
}
330
47
100
AcDbScale
 70
     0
300
1/128" = 1'-0"
140
0.0078125
141
12.0
290
     0
  0
SCALE
  5
5A
102
{ACAD_REACTORS
330
47
102
}
330
47
100
AcDbScale
 70
     0
300
1/64" = 1'-0"
140
0.015625
141
12.0
290
     0
  0
SCALE
  5
5B
102
{ACAD_REACTORS
330
47
102
}
330
47
100
AcDbScale
 70
     0
300
1/32" = 1'-0"
140
0.03125
141
12.0
290
     0
  0
SCALE
  5
5C
102
{ACAD_REACTORS
330
47
102
}
330
47
100
AcDbScale
 70
     0
300
1/16" = 1'-0"
140
0.0625
141
12.0
290
     0
  0
SCALE
  5
5D
102
{ACAD_REACTORS
330
47
102
}
330
47
100
AcDbScale
 70
     0
300
3/32" = 1'-0"
140
0.09375
141
12.0
290
     0
  0
SCALE
  5
5E
102
{ACAD_REACTORS
330
47
102
}
330
47
100
AcDbScale
 70
     0
300
1/8" = 1'-0"
140
0.125
141
12.0
290
     0
  0
SCALE
  5
5F
102
{ACAD_REACTORS
330
47
102
}
330
47
100
AcDbScale
 70
     0
300
3/16" = 1'-0"
140
0.1875
141
12.0
290
     0
  0
SCALE
  5
60
102
{ACAD_REACTORS
330
47
102
}
330
47
100
AcDbScale
 70
     0
300
1/4" = 1'-0"
140
0.25
141
12.0
290
     0
  0
SCALE
  5
61
102
{ACAD_REACTORS
330
47
102
}
330
47
100
AcDbScale
 70
     0
300
3/8" = 1'-0"
140
0.375
141
12.0
290
     0
  0
SCALE
  5
62
102
{ACAD_REACTORS
330
47
102
}
330
47
100
AcDbScale
 70
     0
300
1/2" = 1'-0"
140
0.5
141
12.0
290
     0
  0
SCALE
  5
63
102
{ACAD_REACTORS
330
47
102
}
330
47
100
AcDbScale
 70
     0
300
3/4" = 1'-0"
140
0.75
141
12.0
290
     0
  0
SCALE
  5
64
102
{ACAD_REACTORS
330
47
102
}
330
47
100
AcDbScale
 70
     0
300
1" = 1'-0"
140
1.0
141
12.0
290
     0
  0
SCALE
  5
65
102
{ACAD_REACTORS
330
47
102
}
330
47
100
AcDbScale
 70
     0
300
1-1/2" = 1'-0"
140
1.5
141
12.0
290
     0
  0
SCALE
  5
66
102
{ACAD_REACTORS
330
47
102
}
330
47
100
AcDbScale
 70
     0
300
3" = 1'-0"
140
3.0
141
12.0
290
     0
  0
SCALE
  5
67
102
{ACAD_REACTORS
330
47
102
}
330
47
100
AcDbScale
 70
     0
300
6" = 1'-0"
140
6.0
141
12.0
290
     0
  0
SCALE
  5
68
102
{ACAD_REACTORS
330
47
102
}
330
47
100
AcDbScale
 70
     0
300
1'-0" = 1'-0"
140
12.0
141
12.0
290
     0
  0
ENDSEC
  0
EOF
