  0
SECTION
  2
HEADER
  9
$ACADVER
  1
AC1015
  9
$ACADMAINTVER
 70
     6
  9
$DWGCODEPAGE
  3
ANSI_1252
  9
$INSBASE
 10
0.0
 20
0.0
 30
0.0
  9
$EXTMIN
 10
0.0
 20
0.0
 30
0.0
  9
$EXTMAX
 10
2940.0
 20
2079.0
 30
0.0
  9
$LIMMIN
 10
0.0
 20
0.0
  9
$LIMMAX
 10
2940.0
 20
2079.0
  9
$ORTHOMODE
 70
     0
  9
$REGENMODE
 70
     1
  9
$FILLMODE
 70
     1
  9
$QTEXTMODE
 70
     0
  9
$MIRRTEXT
 70
     1
  9
$LTSCALE
 40
7.0
  9
$ATTMODE
 70
     1
  9
$TEXTSIZE
 40
24.5
  9
$TRACEWID
 40
1.0
  9
$TEXTSTYLE
  7
STANDARD
  9
$CLAYER
  8
0
  9
$CELTYPE
  6
ByLayer
  9
$CECOLOR
 62
   256
  9
$CELTSCALE
 40
1.0
  9
$DISPSILH
 70
     0
  9
$DIMSCALE
 40
1.0
  9
$DIMASZ
 40
23.114
  9
$DIMEXO
 40
7.0
  9
$DIMDLI
 40
3.75
  9
$DIMRND
 40
0.0
  9
$DIMDLE
 40
0.0
  9
$DIMEXE
 40
7.0
  9
$DIMTP
 40
0.0
  9
$DIMTM
 40
0.0
  9
$DIMTXT
 40
24.5
  9
$DIMCEN
 40
2.5
  9
$DIMTSZ
 40
0.0
  9
$DIMTOL
 70
     0
  9
$DIMLIM
 70
     0
  9
$DIMTIH
 70
     1
  9
$DIMTOH
 70
     1
  9
$DIMSE1
 70
     0
  9
$DIMSE2
 70
     0
  9
$DIMTAD
 70
     1
  9
$DIMZIN
 70
     0
  9
$DIMBLK
  1

  9
$DIMASO
 70
     1
  9
$DIMSHO
 70
     1
  9
$DIMPOST
  1

  9
$DIMAPOST
  1

  9
$DIMALT
 70
     0
  9
$DIMALTD
 70
     3
  9
$DIMALTF
 40
0.0393700787
  9
$DIMLFAC
 40
1.0
  9
$DIMTOFL
 70
     1
  9
$DIMTVP
 40
0.0
  9
$DIMTIX
 70
     0
  9
$DIMSOXD
 70
     0
  9
$DIMSAH
 70
     0
  9
$DIMBLK1
  1

  9
$DIMBLK2
  1

  9
$DIMSTYLE
  2
ISO-25
  9
$DIMCLRD
 70
     0
  9
$DIMCLRE
 70
     0
  9
$DIMCLRT
 70
     0
  9
$DIMTFAC
 40
1.0
  9
$DIMGAP
 40
21.0
  9
$DIMJUST
 70
     0
  9
$DIMSD1
 70
     0
  9
$DIMSD2
 70
     0
  9
$DIMTOLJ
 70
     0
  9
$DIMTZIN
 70
     0
  9
$DIMALTZ
 70
     0
  9
$DIMALTTZ
 70
     0
  9
$DIMUPT
 70
     0
  9
$DIMDEC
 70
     2
  9
$DIMTDEC
 70
     2
  9
$DIMALTU
 70
     2
  9
$DIMALTTD
 70
     3
  9
$DIMTXSTY
  7
STANDARD
  9
$DIMAUNIT
 70
     0
  9
$DIMADEC
 70
     2
  9
$DIMALTRND
 40
0.0
  9
$DIMAZIN
 70
     0
  9
$DIMDSEP
 70
    44
  9
$DIMATFIT
 70
     3
  9
$DIMFRAC
 70
     0
  9
$DIMLDRBLK
  1

  9
$DIMLUNIT
 70
     2
  9
$DIMLWD
 70
    -2
  9
$DIMLWE
 70
    -2
  9
$DIMTMOVE
 70
     0
  9
$LUNITS
 70
     2
  9
$LUPREC
 70
     2
  9
$SKETCHINC
 40
1.0
  9
$FILLETRAD
 40
10.0
  9
$AUNITS
 70
     0
  9
$AUPREC
 70
     2
  9
$MENU
  1
.
  9
$ELEVATION
 40
0.0
  9
$PELEVATION
 40
0.0
  9
$THICKNESS
 40
0.0
  9
$LIMCHECK
 70
     0
  9
$CHAMFERA
 40
0.0
  9
$CHAMFERB
 40
0.0
  9
$CHAMFERC
 40
0.0
  9
$CHAMFERD
 40
0.0
  9
$SKPOLY
 70
     0
  9
$TDCREATE
 40
2460077.468781887
  9
$TDUCREATE
 40
2460077.385448553
  9
$TDUPDATE
 40
2460077.468785602
  9
$TDUUPDATE
 40
2460077.385452269
  9
$TDINDWG
 40
0.0000000116
  9
$TDUSRTIMER
 40
0.0000000116
  9
$USRTIMER
 70
     1
  9
$ANGBASE
 50
0.0
  9
$ANGDIR
 70
     0
  9
$PDMODE
 70
     0
  9
$PDSIZE
 40
-1.0
  9
$PLINEWID
 40
0.0
  9
$SPLFRAME
 70
     0
  9
$SPLINETYPE
 70
     6
  9
$SPLINESEGS
 70
     8
  9
$HANDSEED
  5
699
  9
$SURFTAB1
 70
     6
  9
$SURFTAB2
 70
     6
  9
$SURFTYPE
 70
     6
  9
$SURFU
 70
     6
  9
$SURFV
 70
     6
  9
$UCSBASE
  2

  9
$UCSNAME
  2

  9
$UCSORG
 10
0.0
 20
0.0
 30
0.0
  9
$UCSXDIR
 10
1.0
 20
0.0
 30
0.0
  9
$UCSYDIR
 10
0.0
 20
1.0
 30
0.0
  9
$UCSORTHOREF
  2

  9
$UCSORTHOVIEW
 70
     0
  9
$UCSORGTOP
 10
0.0
 20
0.0
 30
0.0
  9
$UCSORGBOTTOM
 10
0.0
 20
0.0
 30
0.0
  9
$UCSORGLEFT
 10
0.0
 20
0.0
 30
0.0
  9
$UCSORGRIGHT
 10
0.0
 20
0.0
 30
0.0
  9
$UCSORGFRONT
 10
0.0
 20
0.0
 30
0.0
  9
$UCSORGBACK
 10
0.0
 20
0.0
 30
0.0
  9
$PUCSBASE
  2

  9
$PUCSNAME
  2

  9
$PUCSORG
 10
0.0
 20
0.0
 30
0.0
  9
$PUCSXDIR
 10
1.0
 20
0.0
 30
0.0
  9
$PUCSYDIR
 10
0.0
 20
1.0
 30
0.0
  9
$PUCSORTHOREF
  2

  9
$PUCSORTHOVIEW
 70
     0
  9
$PUCSORGTOP
 10
0.0
 20
0.0
 30
0.0
  9
$PUCSORGBOTTOM
 10
0.0
 20
0.0
 30
0.0
  9
$PUCSORGLEFT
 10
0.0
 20
0.0
 30
0.0
  9
$PUCSORGRIGHT
 10
0.0
 20
0.0
 30
0.0
  9
$PUCSORGFRONT
 10
0.0
 20
0.0
 30
0.0
  9
$PUCSORGBACK
 10
0.0
 20
0.0
 30
0.0
  9
$USERI1
 70
     0
  9
$USERI2
 70
     0
  9
$USERI3
 70
     0
  9
$USERI4
 70
     0
  9
$USERI5
 70
     0
  9
$USERR1
 40
0.0
  9
$USERR2
 40
0.0
  9
$USERR3
 40
0.0
  9
$USERR4
 40
0.0
  9
$USERR5
 40
0.0
  9
$WORLDVIEW
 70
     1
  9
$SHADEDGE
 70
     3
  9
$SHADEDIF
 70
    70
  9
$TILEMODE
 70
     1
  9
$MAXACTVP
 70
    64
  9
$PINSBASE
 10
0.0
 20
0.0
 30
0.0
  9
$PLIMCHECK
 70
     0
  9
$PEXTMIN
 10
1.0000000000E+20
 20
1.0000000000E+20
 30
1.0000000000E+20
  9
$PEXTMAX
 10
-1.0000000000E+20
 20
-1.0000000000E+20
 30
-1.0000000000E+20
  9
$PLIMMIN
 10
0.0
 20
0.0
  9
$PLIMMAX
 10
420.0
 20
297.0
  9
$UNITMODE
 70
     0
  9
$VISRETAIN
 70
     1
  9
$PLINEGEN
 70
     0
  9
$PSLTSCALE
 70
     1
  9
$TREEDEPTH
 70
  3020
  9
$CMLSTYLE
  2
Standard
  9
$CMLJUST
 70
     0
  9
$CMLSCALE
 40
20.0
  9
$PROXYGRAPHICS
 70
     1
  9
$MEASUREMENT
 70
     1
  9
$CELWEIGHT
370
    -1
  9
$ENDCAPS
280
     0
  9
$JOINSTYLE
280
     0
  9
$LWDISPLAY
290
     1
  9
$INSUNITS
 70
     4
  9
$HYPERLINKBASE
  1

  9
$STYLESHEET
  1

  9
$XEDIT
290
     1
  9
$CEPSNTYPE
380
     0
  9
$PSTYLEMODE
290
     1
  9
$FINGERPRINTGUID
  2
{055c6fa6-d1e1-4b93-b7f0-bb79002dd30d}
  9
$VERSIONGUID
  2
{FAEB1C32-E019-11D5-929B-00C0DF256EC4}
  9
$EXTNAMES
290
     1
  9
$PSVPSCALE
 40
0.0
  9
$OLESTARTUP
290
     0
  0
ENDSEC
  0
SECTION
  2
CLASSES
  0
CLASS
  1
ACDBDICTIONARYWDFLT
  2
AcDbDictionaryWithDefault
  3
ObjectDBX Classes
 90
        0
280
     0
281
     0
  0
CLASS
  1
VISUALSTYLE
  2
AcDbVisualStyle
  3
ObjectDBX Classes
 90
     4095
280
     0
281
     0
  0
CLASS
  1
MATERIAL
  2
AcDbMaterial
  3
ObjectDBX Classes
 90
     1153
280
     0
281
     0
  0
CLASS
  1
SCALE
  2
AcDbScale
  3
ObjectDBX Classes
 90
     1153
280
     0
281
     0
  0
CLASS
  1
TABLESTYLE
  2
AcDbTableStyle
  3
ObjectDBX Classes
 90
     4095
280
     0
281
     0
  0
CLASS
  1
MLEADERSTYLE
  2
AcDbMLeaderStyle
  3
ACDB_MLEADERSTYLE_CLASS
 90
     4095
280
     0
281
     0
  0
CLASS
  1
SUN
  2
AcDbSun
  3
SCENEOE
 90
     1153
280
     0
281
     0
  0
CLASS
  1
ACDBPLACEHOLDER
  2
AcDbPlaceHolder
  3
ObjectDBX Classes
 90
        0
280
     0
281
     0
  0
CLASS
  1
LAYOUT
  2
AcDbLayout
  3
ObjectDBX Classes
 90
        0
280
     0
281
     0
  0
ENDSEC
  0
SECTION
  2
TABLES
  0
TABLE
  2
VPORT
  5
8
330
0
100
AcDbSymbolTable
 70
     1
  0
VPORT
  5
29
330
8
100
AcDbSymbolTableRecord
100
AcDbViewportTableRecord
  2
*Active
 70
     0
 10
0.0
 20
0.0
 11
1.0
 21
1.0
 12
1470.0
 22
1039.5
 13
0.0
 23
0.0
 14
10.0
 24
10.0
 15
10.0
 25
10.0
 16
0.0
 26
0.0
 36
1.0
 17
0.0
 27
0.0
 37
0.0
 40
2079.0
 41
1.4141414141
 42
50.0
 43
0.0
 44
0.0
 50
0.0
 51
0.0
 71
     0
 72
  2000
 73
     1
 74
     3
 75
     0
 76
     0
 77
     0
 78
     0
281
     0
 65
     1
110
0.0
120
0.0
130
0.0
111
1.0
121
0.0
131
0.0
112
0.0
122
1.0
132
0.0
 79
     0
146
0.0
  0
ENDTAB
  0
TABLE
  2
LTYPE
  5
5
330
0
100
AcDbSymbolTable
 70
     6
  0
LTYPE
  5
14
330
5
100
AcDbSymbolTableRecord
100
AcDbLinetypeTableRecord
  2
ByBlock
 70
     0
  3

 72
    65
 73
     0
 40
0.0
  0
LTYPE
  5
15
330
5
100
AcDbSymbolTableRecord
100
AcDbLinetypeTableRecord
  2
ByLayer
 70
     0
  3

 72
    65
 73
     0
 40
0.0
  0
LTYPE
  5
16
330
5
100
AcDbSymbolTableRecord
100
AcDbLinetypeTableRecord
  2
Continuous
 70
     0
  3
Solid line
 72
    65
 73
     0
 40
0.0
  0
LTYPE
  5
6E
330
5
100
AcDbSymbolTableRecord
100
AcDbLinetypeTableRecord
  2
HIDDEN
 70
     0
  3
Hidden __ __ __ __ __ __ __ __ __ __ __ __ __ __
 72
    65
 73
     2
 40
1.905
 49
1.27
 74
     0
 49
-0.635
 74
     0
  0
LTYPE
  5
6F
330
5
100
AcDbSymbolTableRecord
100
AcDbLinetypeTableRecord
  2
PHANTOM
 70
     0
  3
Phantom ______  __  __  ______  __  __  ______
 72
    65
 73
     6
 40
12.7
 49
6.35
 74
     0
 49
-1.27
 74
     0
 49
1.27
 74
     0
 49
-1.27
 74
     0
 49
1.27
 74
     0
 49
-1.27
 74
     0
  0
LTYPE
  5
70
330
5
100
AcDbSymbolTableRecord
100
AcDbLinetypeTableRecord
  2
CENTER
 70
     0
  3
Center ____ _ ____ _ ____ _ ____ _ ____ _ ____
 72
    65
 73
     4
 40
10.16
 49
6.35
 74
     0
 49
-1.27
 74
     0
 49
1.27
 74
     0
 49
-1.27
 74
     0
  0
LTYPE
  5
71
330
5
100
AcDbSymbolTableRecord
100
AcDbLinetypeTableRecord
  2
CENTERX2
 70
     0
  3
Center (2x) ________  __  ________  __  _____
 72
    65
 73
     4
 40
20.32
 49
12.7
 74
     0
 49
-2.54
 74
     0
 49
2.54
 74
     0
 49
-2.54
 74
     0
  0
LTYPE
  5
72
330
5
100
AcDbSymbolTableRecord
100
AcDbLinetypeTableRecord
  2
DOT2
 70
     0
  3
Dot (.5x) ........................................
 72
    65
 73
     2
 40
0.635
 49
0.0
 74
     0
 49
-0.635
 74
     0
  0
ENDTAB
  0
TABLE
  2
LAYER
  5
2
330
0
100
AcDbSymbolTable
 70
     8
  0
LAYER
  5
10
330
2
100
AcDbSymbolTableRecord
100
AcDbLayerTableRecord
  2
0
 70
     0
 62
     7
  6
Continuous
370
    -3
390
F
  0
LAYER
  5
73
330
2
100
AcDbSymbolTableRecord
100
AcDbLayerTableRecord
  2
FORMAT
 70
     0
 62
     7
  6
Continuous
370
    -3
390
F
  0
LAYER
  5
74
330
2
100
AcDbSymbolTableRecord
100
AcDbLayerTableRecord
  2
VORLAGE
 70
     0
 62
     7
  6
Continuous
370
    -3
390
F
  0
LAYER
  5
75
330
2
100
AcDbSymbolTableRecord
100
AcDbLayerTableRecord
  2
1
 70
     0
 62
   179
  6
Continuous
370
    -3
390
F
  0
LAYER
  5
76
330
2
100
AcDbSymbolTableRecord
100
AcDbLayerTableRecord
  2
LAYER0
 70
     0
 62
     7
  6
Continuous
370
    -3
390
F
  0
LAYER
  5
77
330
2
100
AcDbSymbolTableRecord
100
AcDbLayerTableRecord
  2
BEMASSUNG
 70
     0
 62
     1
  6
Continuous
370
    -3
390
F
  0
LAYER
  5
78
330
2
100
AcDbSymbolTableRecord
100
AcDbLayerTableRecord
  2
ÄNDERUNG
 70
     0
 62
     1
  6
Continuous
370
    -3
390
F
  0
LAYER
  5
79
330
2
100
AcDbSymbolTableRecord
100
AcDbLayerTableRecord
  2
KENNZEICHNUNG
 70
     0
 62
     7
  6
Continuous
370
    -3
390
F
  0
ENDTAB
  0
TABLE
  2
STYLE
  5
3
330
0
100
AcDbSymbolTable
 70
     5
  0
STYLE
  5
11
330
3
100
AcDbSymbolTableRecord
100
AcDbTextStyleTableRecord
  2
STANDARD
 70
     0
 40
0.0
 41
1.0
 50
0.0
 71
     0
 42
24.5
  3
ARIAL.TTF
  4

1001
ACAD
1000
ARIAL
1071
       34
  0
STYLE
  5
8B
330
3
100
AcDbSymbolTableRecord
100
AcDbTextStyleTableRecord
  2
SLDTEXTSTYLE0
 70
     0
 40
0.0
 41
0.948
 50
0.0
 71
     0
 42
24.5
  3
ARIAL.TTF
  4

1001
ACAD
1000
Arial
1071
      290
  0
STYLE
  5
B2
330
3
100
AcDbSymbolTableRecord
100
AcDbTextStyleTableRecord
  2
SLDTEXTSTYLE1
 70
     0
 40
0.0
 41
1.0
 50
0.0
 71
     0
 42
24.5
  3
ARIALUNI.TTF
  4

1001
ACAD
1000
Arial Unicode MS
1071
 33554722
  0
STYLE
  5
B8
330
3
100
AcDbSymbolTableRecord
100
AcDbTextStyleTableRecord
  2
SLDTEXTSTYLE2
 70
     0
 40
0.0
 41
0.87
 50
0.0
 71
     0
 42
24.5
  3
ARIALN.TTF
  4

1001
ACAD
1000
Arial Narrow
1071
      290
  0
STYLE
  5
E7
330
3
100
AcDbSymbolTableRecord
100
AcDbTextStyleTableRecord
  2
SLDTEXTSTYLE3
 70
     0
 40
0.0
 41
0.948
 50
0.0
 71
     0
 42
24.5
  3
ARIALBD.TTF
  4

1001
ACAD
1000
Arial
1071
 33554722
  0
ENDTAB
  0
TABLE
  2
VIEW
  5
6
330
0
100
AcDbSymbolTable
 70
     0
  0
ENDTAB
  0
TABLE
  2
UCS
  5
7
330
0
100
AcDbSymbolTable
 70
     0
  0
ENDTAB
  0
TABLE
  2
APPID
  5
9
330
0
100
AcDbSymbolTable
 70
     1
  0
APPID
  5
12
330
9
100
AcDbSymbolTableRecord
100
AcDbRegAppTableRecord
  2
ACAD
 70
     0
  0
ENDTAB
  0
TABLE
  2
DIMSTYLE
  5
A
330
0
100
AcDbSymbolTable
 70
    11
100
AcDbDimStyleTable
  0
DIMSTYLE
105
27
330
A
100
AcDbSymbolTableRecord
100
AcDbDimStyleTableRecord
  2
ISO-25
 70
     0
 41
2.5
 42
0.625
 43
3.75
 44
1.25
 73
     0
 74
     0
 77
     1
 78
     8
140
2.5
141
2.5
143
0.0393700787
147
0.625
171
     3
172
     1
178
     0
271
     2
272
     2
274
     3
278
    44
283
     0
284
     8
340
11
  0
DIMSTYLE
105
1F2
102
{ACAD_REACTORS
330
1F1
330
1FC
330
206
330
210
330
219
330
2DC
330
2E6
330
2F0
330
339
330
343
330
34D
330
357
330
361
330
51E
102
}
330
A
100
AcDbSymbolTableRecord
100
AcDbDimStyleTableRecord
  2
SLDDIMSTYLE0
 70
     0
 41
23.114
 44
0.0
 45
0.000000001
 73
     0
 74
     0
 77
     1
 78
    12
 79
     3
140
24.5
147
6.125
173
     1
178
     0
271
     2
272
     2
276
     2
284
    12
340
8B
  0
DIMSTYLE
105
223
102
{ACAD_REACTORS
330
222
330
2F9
330
305
330
376
102
}
330
A
100
AcDbSymbolTableRecord
100
AcDbDimStyleTableRecord
  2
SLDDIMSTYLE1
 70
     0
 41
23.114
 44
0.0
 45
0.000000001
 73
     0
 74
     0
 77
     1
 78
    12
 79
     3
140
24.5
147
6.125
172
     1
173
     1
178
     0
271
     0
272
     2
276
     2
284
    12
289
     0
340
8B
  0
DIMSTYLE
105
313
102
{ACAD_REACTORS
330
312
330
321
330
32D
330
36B
102
}
330
A
100
AcDbSymbolTableRecord
100
AcDbDimStyleTableRecord
  2
SLDDIMSTYLE2
 70
     0
 41
23.114
 44
0.0
 45
0.000000001
 73
     0
 74
     0
 77
     1
 78
    12
 79
     3
140
24.5
147
6.125
172
     1
173
     1
178
     0
271
     2
272
     2
276
     2
284
    12
289
     0
340
8B
  0
DIMSTYLE
105
382
330
A
100
AcDbSymbolTableRecord
100
AcDbDimStyleTableRecord
  2
SLDDIMSTYLE3
 70
     0
 41
23.114
 44
0.0
 45
0.000000001
146
23.114
147
0.0
173
     1
178
     0
271
     0
272
     0
276
     2
340
11
  0
DIMSTYLE
105
528
102
{ACAD_REACTORS
330
527
330
532
102
}
330
A
100
AcDbSymbolTableRecord
100
AcDbDimStyleTableRecord
  2
SLDDIMSTYLE4
 70
     0
 41
23.114
 44
0.0
 45
0.000000001
 73
     0
 74
     0
 77
     1
 78
    12
 79
     3
140
24.5
147
6.125
173
     1
178
     0
271
     0
272
     2
276
     2
284
    12
340
8B
  0
DIMSTYLE
105
53D
102
{ACAD_REACTORS
330
53C
102
}
330
A
100
AcDbSymbolTableRecord
100
AcDbDimStyleTableRecord
  2
SLDDIMSTYLE5
 70
     0
 41
7.112
 44
0.0
 45
0.000000001
 73
     0
 74
     0
 77
     1
 78
     4
 79
     1
140
17.9782307943
147
4.4945576986
173
     1
178
     0
271
     2
272
     2
276
     2
284
    12
340
8B
341
53E
343
53E
  0
DIMSTYLE
105
621
102
{ACAD_REACTORS
330
620
102
}
330
A
100
AcDbSymbolTableRecord
100
AcDbDimStyleTableRecord
  2
SLDDIMSTYLE6
 70
     0
 41
23.114
 44
0.0
 45
0.000000001
 73
     0
 74
     0
 77
     1
 78
    12
 79
     3
140
24.5
144
0.7142857143
147
6.125
172
     1
173
     1
178
     0
271
     2
272
     2
276
     2
284
    12
289
     0
340
E7
  0
DIMSTYLE
105
62F
102
{ACAD_REACTORS
330
62E
330
668
102
}
330
A
100
AcDbSymbolTableRecord
100
AcDbDimStyleTableRecord
  2
SLDDIMSTYLE7
 70
     0
 41
23.114
 44
0.0
 45
0.000000001
 73
     0
 74
     0
 77
     1
 78
    12
 79
     3
140
24.5
144
0.7142857143
147
6.125
172
     1
173
     1
178
     0
271
     2
272
     2
276
     2
284
    12
289
     0
340
8B
  0
DIMSTYLE
105
63C
102
{ACAD_REACTORS
330
63B
102
}
330
A
100
AcDbSymbolTableRecord
100
AcDbDimStyleTableRecord
  2
SLDDIMSTYLE8
 70
     0
 41
23.114
 44
0.0
 45
0.000000001
 73
     0
 74
     0
 77
     1
 78
    12
 79
     3
140
24.5
144
0.7142857143
147
6.125
172
     1
173
     1
178
     0
271
     0
272
     2
276
     2
284
    12
289
     0
340
8B
  0
DIMSTYLE
105
675
102
{ACAD_REACTORS
330
674
102
}
330
A
100
AcDbSymbolTableRecord
100
AcDbDimStyleTableRecord
  2
SLDDIMSTYLE9
 70
     0
 41
23.114
 44
0.0
 45
0.000000001
 73
     0
 74
     0
 77
     1
 78
    12
 79
     3
140
24.5
144
0.7142857143
147
6.125
173
     1
178
     0
271
     2
272
     2
276
     2
284
    12
340
8B
  0
ENDTAB
  0
TABLE
  2
BLOCK_RECORD
  5
1
330
0
100
AcDbSymbolTable
 70
    55
  0
BLOCK_RECORD
  5
1F
330
1
100
AcDbSymbolTableRecord
100
AcDbBlockTableRecord
  2
*Model_Space
340
22
  0
BLOCK_RECORD
  5
1B
330
1
100
AcDbSymbolTableRecord
100
AcDbBlockTableRecord
  2
*Paper_Space
340
1E
  0
BLOCK_RECORD
  5
23
330
1
100
AcDbSymbolTableRecord
100
AcDbBlockTableRecord
  2
*Paper_Space0
340
26
  0
BLOCK_RECORD
  5
7A
330
1
100
AcDbSymbolTableRecord
100
AcDbBlockTableRecord
  2
Block1_3_1
340
0
102
{BLKREFS
331
DA
102
}
  0
BLOCK_RECORD
  5
88
330
1
100
AcDbSymbolTableRecord
100
AcDbBlockTableRecord
  2
SW_NOTE_0
340
0
102
{BLKREFS
331
8E
102
}
  0
BLOCK_RECORD
  5
8F
330
1
100
AcDbSymbolTableRecord
100
AcDbBlockTableRecord
  2
Block2_3_1
340
0
102
{BLKREFS
331
D9
102
}
  0
BLOCK_RECORD
  5
AF
330
1
100
AcDbSymbolTableRecord
100
AcDbBlockTableRecord
  2
SW_NOTE_0_1
340
0
102
{BLKREFS
331
B4
102
}
  0
BLOCK_RECORD
  5
B5
330
1
100
AcDbSymbolTableRecord
100
AcDbBlockTableRecord
  2
SW_NOTE_0_2
340
0
102
{BLKREFS
331
BC
102
}
  0
BLOCK_RECORD
  5
BD
330
1
100
AcDbSymbolTableRecord
100
AcDbBlockTableRecord
  2
rechtlicher_Hinweis_Katalogzeichnungen_1
340
0
102
{BLKREFS
331
D8
102
}
  0
BLOCK_RECORD
  5
C0
330
1
100
AcDbSymbolTableRecord
100
AcDbBlockTableRecord
  2
SW_NOTE_0_3
340
0
102
{BLKREFS
331
C9
102
}
  0
BLOCK_RECORD
  5
DB
330
1
100
AcDbSymbolTableRecord
100
AcDbBlockTableRecord
  2
SW_NOTE_0_4
340
0
102
{BLKREFS
331
E1
102
}
  0
BLOCK_RECORD
  5
1F3
330
1
100
AcDbSymbolTableRecord
100
AcDbBlockTableRecord
  2
_D
340
0
  0
BLOCK_RECORD
  5
1FD
330
1
100
AcDbSymbolTableRecord
100
AcDbBlockTableRecord
  2
_D_1
340
0
  0
BLOCK_RECORD
  5
207
330
1
100
AcDbSymbolTableRecord
100
AcDbBlockTableRecord
  2
_D_2
340
0
  0
BLOCK_RECORD
  5
211
330
1
100
AcDbSymbolTableRecord
100
AcDbBlockTableRecord
  2
_D_3
340
0
  0
BLOCK_RECORD
  5
21A
330
1
100
AcDbSymbolTableRecord
100
AcDbBlockTableRecord
  2
_D_4
340
0
  0
BLOCK_RECORD
  5
224
330
1
100
AcDbSymbolTableRecord
100
AcDbBlockTableRecord
  2
_D_5
340
0
  0
BLOCK_RECORD
  5
2DD
330
1
100
AcDbSymbolTableRecord
100
AcDbBlockTableRecord
  2
_D_6
340
0
  0
BLOCK_RECORD
  5
2E7
330
1
100
AcDbSymbolTableRecord
100
AcDbBlockTableRecord
  2
_D_7
340
0
  0
BLOCK_RECORD
  5
2F1
330
1
100
AcDbSymbolTableRecord
100
AcDbBlockTableRecord
  2
_D_8
340
0
  0
BLOCK_RECORD
  5
2FA
330
1
100
AcDbSymbolTableRecord
100
AcDbBlockTableRecord
  2
_D_9
340
0
  0
BLOCK_RECORD
  5
306
330
1
100
AcDbSymbolTableRecord
100
AcDbBlockTableRecord
  2
_D_10
340
0
  0
BLOCK_RECORD
  5
314
330
1
100
AcDbSymbolTableRecord
100
AcDbBlockTableRecord
  2
_D_11
340
0
  0
BLOCK_RECORD
  5
322
330
1
100
AcDbSymbolTableRecord
100
AcDbBlockTableRecord
  2
_D_12
340
0
  0
BLOCK_RECORD
  5
32E
330
1
100
AcDbSymbolTableRecord
100
AcDbBlockTableRecord
  2
_D_13
340
0
  0
BLOCK_RECORD
  5
33A
330
1
100
AcDbSymbolTableRecord
100
AcDbBlockTableRecord
  2
_D_14
340
0
  0
BLOCK_RECORD
  5
344
330
1
100
AcDbSymbolTableRecord
100
AcDbBlockTableRecord
  2
_D_15
340
0
  0
BLOCK_RECORD
  5
34E
330
1
100
AcDbSymbolTableRecord
100
AcDbBlockTableRecord
  2
_D_16
340
0
  0
BLOCK_RECORD
  5
358
330
1
100
AcDbSymbolTableRecord
100
AcDbBlockTableRecord
  2
_D_17
340
0
  0
BLOCK_RECORD
  5
362
330
1
100
AcDbSymbolTableRecord
100
AcDbBlockTableRecord
  2
_D_18
340
0
  0
BLOCK_RECORD
  5
36C
330
1
100
AcDbSymbolTableRecord
100
AcDbBlockTableRecord
  2
_D_19
340
0
  0
BLOCK_RECORD
  5
377
330
1
100
AcDbSymbolTableRecord
100
AcDbBlockTableRecord
  2
_D_20
340
0
  0
BLOCK_RECORD
  5
386
330
1
100
AcDbSymbolTableRecord
100
AcDbBlockTableRecord
  2
SW_NOTE_0_5
340
0
102
{BLKREFS
331
38B
102
}
  0
BLOCK_RECORD
  5
38D
330
1
100
AcDbSymbolTableRecord
100
AcDbBlockTableRecord
  2
SW_CENTERMARKSYMBOL_0
340
0
102
{BLKREFS
331
398
102
}
  0
BLOCK_RECORD
  5
399
330
1
100
AcDbSymbolTableRecord
100
AcDbBlockTableRecord
  2
SW_CENTERMARKSYMBOL_1
340
0
102
{BLKREFS
331
3A4
102
}
  0
BLOCK_RECORD
  5
3A5
330
1
100
AcDbSymbolTableRecord
100
AcDbBlockTableRecord
  2
SW_CENTERMARKSYMBOL_2
340
0
102
{BLKREFS
331
3B0
102
}
  0
BLOCK_RECORD
  5
3B1
330
1
100
AcDbSymbolTableRecord
100
AcDbBlockTableRecord
  2
SW_CENTERMARKSYMBOL_3
340
0
102
{BLKREFS
331
3BC
102
}
  0
BLOCK_RECORD
  5
3BD
330
1
100
AcDbSymbolTableRecord
100
AcDbBlockTableRecord
  2
SW_CENTERMARKSYMBOL_4
340
0
102
{BLKREFS
331
3C8
102
}
  0
BLOCK_RECORD
  5
3C9
330
1
100
AcDbSymbolTableRecord
100
AcDbBlockTableRecord
  2
SW_CENTERMARKSYMBOL_5
340
0
102
{BLKREFS
331
3D4
102
}
  0
BLOCK_RECORD
  5
3D5
330
1
100
AcDbSymbolTableRecord
100
AcDbBlockTableRecord
  2
SW_CENTERMARKSYMBOL_6
340
0
102
{BLKREFS
331
3E0
102
}
  0
BLOCK_RECORD
  5
3E1
330
1
100
AcDbSymbolTableRecord
100
AcDbBlockTableRecord
  2
SW_CENTERMARKSYMBOL_7
340
0
102
{BLKREFS
331
3EC
102
}
  0
BLOCK_RECORD
  5
3ED
330
1
100
AcDbSymbolTableRecord
100
AcDbBlockTableRecord
  2
SW_CENTERMARKSYMBOL_8
340
0
102
{BLKREFS
331
3F8
102
}
  0
BLOCK_RECORD
  5
3F9
330
1
100
AcDbSymbolTableRecord
100
AcDbBlockTableRecord
  2
SW_CENTERMARKSYMBOL_9
340
0
102
{BLKREFS
331
404
102
}
  0
BLOCK_RECORD
  5
405
330
1
100
AcDbSymbolTableRecord
100
AcDbBlockTableRecord
  2
SW_CENTERMARKSYMBOL_10
340
0
102
{BLKREFS
331
410
102
}
  0
BLOCK_RECORD
  5
411
330
1
100
AcDbSymbolTableRecord
100
AcDbBlockTableRecord
  2
SW_CENTERMARKSYMBOL_11
340
0
102
{BLKREFS
331
41C
102
}
  0
BLOCK_RECORD
  5
51F
330
1
100
AcDbSymbolTableRecord
100
AcDbBlockTableRecord
  2
_D_21
340
0
  0
BLOCK_RECORD
  5
529
330
1
100
AcDbSymbolTableRecord
100
AcDbBlockTableRecord
  2
_D_22
340
0
  0
BLOCK_RECORD
  5
533
330
1
100
AcDbSymbolTableRecord
100
AcDbBlockTableRecord
  2
_D_23
340
0
  0
BLOCK_RECORD
  5
53E
330
1
100
AcDbSymbolTableRecord
100
AcDbBlockTableRecord
  2
_Dot
340
0
102
{BLKREFS
331
546
102
}
  0
BLOCK_RECORD
  5
543
330
1
100
AcDbSymbolTableRecord
100
AcDbBlockTableRecord
  2
_D_24
340
0
  0
BLOCK_RECORD
  5
622
330
1
100
AcDbSymbolTableRecord
100
AcDbBlockTableRecord
  2
_D_25
340
0
  0
BLOCK_RECORD
  5
630
330
1
100
AcDbSymbolTableRecord
100
AcDbBlockTableRecord
  2
_D_26
340
0
  0
BLOCK_RECORD
  5
63D
330
1
100
AcDbSymbolTableRecord
100
AcDbBlockTableRecord
  2
_D_27
340
0
  0
BLOCK_RECORD
  5
669
330
1
100
AcDbSymbolTableRecord
100
AcDbBlockTableRecord
  2
_D_28
340
0
  0
BLOCK_RECORD
  5
676
330
1
100
AcDbSymbolTableRecord
100
AcDbBlockTableRecord
  2
_D_29
340
0
  0
BLOCK_RECORD
  5
680
330
1
100
AcDbSymbolTableRecord
100
AcDbBlockTableRecord
  2
SW_CENTERMARKSYMBOL_12
340
0
102
{BLKREFS
331
68B
102
}
  0
BLOCK_RECORD
  5
68C
330
1
100
AcDbSymbolTableRecord
100
AcDbBlockTableRecord
  2
SW_CENTERMARKSYMBOL_13
340
0
102
{BLKREFS
331
697
102
}
  0
ENDTAB
  0
ENDSEC
  0
SECTION
  2
BLOCKS
  0
BLOCK
  5
20
330
1F
100
AcDbEntity
  8
0
100
AcDbBlockBegin
  2
*Model_Space
 70
     0
 10
0.0
 20
0.0
 30
0.0
  3
*Model_Space
  1

  0
ENDBLK
  5
21
330
1F
100
AcDbEntity
  8
0
100
AcDbBlockEnd
  0
BLOCK
  5
1C
330
1B
100
AcDbEntity
 67
     1
  8
0
100
AcDbBlockBegin
  2
*Paper_Space
 70
     0
 10
0.0
 20
0.0
 30
0.0
  3
*Paper_Space
  1

  0
ENDBLK
  5
1D
330
1B
100
AcDbEntity
 67
     1
  8
0
100
AcDbBlockEnd
  0
BLOCK
  5
24
330
23
100
AcDbEntity
  8
0
100
AcDbBlockBegin
  2
*Paper_Space0
 70
     0
 10
0.0
 20
0.0
 30
0.0
  3
*Paper_Space0
  1

  0
ENDBLK
  5
25
330
23
100
AcDbEntity
  8
0
100
AcDbBlockEnd
  0
BLOCK
  5
7B
330
7A
100
AcDbEntity
  8
0
100
AcDbBlockBegin
  2
Block1_3_1
 70
     0
 10
0.0
 20
0.0
 30
0.0
  3
Block1_3_1
  1

  0
CIRCLE
  5
7D
330
7A
100
AcDbEntity
  8
0
  6
Continuous
 62
     7
370
    18
100
AcDbCircle
 10
81.2962813747
 20
63.6276108944
 30
0.0
 40
8.79136307741128
  0
CIRCLE
  5
7E
330
7A
100
AcDbEntity
  8
0
  6
Continuous
 62
     7
370
    18
100
AcDbCircle
 10
81.2962813747
 20
63.6276108944
 30
0.0
 40
15.51210404558959
  0
LINE
  5
7F
330
7A
100
AcDbEntity
  8
0
  6
CENTERX2
 62
     7
370
    18
100
AcDbLine
 10
81.2962813747
 20
63.6276108944
 30
0.0
 11
55.2841773291
 21
63.6276108944
 31
0.0
  0
LINE
  5
80
330
7A
100
AcDbEntity
  8
0
  6
Continuous
 62
     7
370
    18
100
AcDbLine
 10
57.1602751158
 20
48.1155068489
 30
0.0
 11
57.1602751158
 21
79.150109214
 31
0.0
  0
LINE
  5
81
330
7A
100
AcDbEntity
  8
0
  6
Continuous
 62
     7
370
    18
100
AcDbLine
 10
18.7580035265
 20
72.4189739719
 30
0.0
 11
18.7580035265
 21
54.836247817
 31
0.0
  0
LINE
  5
82
330
7A
100
AcDbEntity
  8
0
  6
Continuous
 62
     7
370
    18
100
AcDbLine
 10
18.7580035265
 20
54.836247817
 30
0.0
 11
57.1602751158
 21
48.1155068489
 31
0.0
  0
LINE
  5
83
330
7A
100
AcDbEntity
  8
0
  6
CENTERX2
 62
     7
370
    18
100
AcDbLine
 10
67.6602751158
 20
63.6276108944
 30
0.0
 11
8.2580035265
 21
63.6276108944
 31
0.0
  0
LINE
  5
84
330
7A
100
AcDbEntity
  8
0
  6
Continuous
 62
     7
370
    18
100
AcDbLine
 10
57.1602751158
 20
79.150109214
 30
0.0
 11
18.7580035265
 21
72.4189739719
 31
0.0
  0
LINE
  5
85
330
7A
100
AcDbEntity
  8
0
  6
CENTERX2
 62
     7
370
    18
100
AcDbLine
 10
81.2962813747
 20
63.6276108944
 30
0.0
 11
81.2962813747
 21
37.6155068489
 31
0.0
  0
LINE
  5
86
330
7A
100
AcDbEntity
  8
0
  6
CENTERX2
 62
     7
370
    18
100
AcDbLine
 10
81.2962813747
 20
63.6276108944
 30
0.0
 11
81.2962813747
 21
89.63971494
 31
0.0
  0
LINE
  5
87
330
7A
100
AcDbEntity
  8
0
  6
CENTERX2
 62
     7
370
    18
100
AcDbLine
 10
81.2962813747
 20
63.6276108944
 30
0.0
 11
107.3083854203
 21
63.6276108944
 31
0.0
  0
INSERT
  5
8E
330
7A
100
AcDbEntity
  8
0
  6
Continuous
 62
     7
370
     0
100
AcDbBlockReference
  2
SW_NOTE_0
 10
14.7222830224
 20
16.6281309378
 30
0.0
  0
ENDBLK
  5
7C
330
7A
100
AcDbEntity
  8
0
100
AcDbBlockEnd
  0
BLOCK
  5
89
330
88
100
AcDbEntity
  8
0
100
AcDbBlockBegin
  2
SW_NOTE_0
 70
     0
 10
0.0
 20
0.0
 30
0.0
  3
SW_NOTE_0
  1

  0
MTEXT
  5
8C
330
88
100
AcDbEntity
  8
0
  6
Continuous
 62
     0
370
     0
100
AcDbMText
 10
46.134375
 20
17.144600939
 30
0.0
 40
13.3
 41
0.0
 71
     2
 72
     1
  1
DIN 6  T1 - 
  7
SLDTEXTSTYLE0
 73
     1
 44
1.0
  0
MTEXT
  5
8D
330
88
100
AcDbEntity
  8
0
  6
Continuous
 62
     0
370
     0
100
AcDbMText
 10
46.5984838367
 20
0.0023782104
 30
0.0
 40
13.3
 41
0.0
 71
     2
 72
     1
  1
Proj.methode 1
  7
SLDTEXTSTYLE0
 73
     1
 44
1.0
  0
ENDBLK
  5
8A
330
88
100
AcDbEntity
  8
0
100
AcDbBlockEnd
  0
BLOCK
  5
90
330
8F
100
AcDbEntity
  8
0
100
AcDbBlockBegin
  2
Block2_3_1
 70
     0
 10
0.0
 20
0.0
 30
0.0
  3
Block2_3_1
  1

  0
ARC
  5
92
330
8F
100
AcDbEntity
  8
FORMAT
100
AcDbCircle
 10
1657.2474557671
 20
399.6934206979
 30
0.0
 40
26.25000000000006
100
AcDbArc
 50
93.8225537293
 51
266.1774462707
  0
ARC
  5
93
330
8F
100
AcDbEntity
  8
FORMAT
100
AcDbCircle
 10
1657.2474557671
 20
399.6934206979
 30
0.0
 40
21.0000000000001
100
AcDbArc
 50
94.7801918472
 51
265.2198081528
  0
ARC
  5
94
330
8F
100
AcDbEntity
  8
FORMAT
100
AcDbCircle
 10
1657.2474557671
 20
399.6934206979
 30
0.0
 40
26.25000000000006
100
AcDbArc
 50
273.8225537293
 51
86.1774462707
  0
ARC
  5
95
330
8F
100
AcDbEntity
  8
FORMAT
100
AcDbCircle
 10
1657.2474557671
 20
399.6934206979
 30
0.0
 40
21.0000000000001
100
AcDbArc
 50
274.7801918472
 51
85.2198081528
  0
ARC
  5
96
330
8F
100
AcDbEntity
  8
FORMAT
100
AcDbCircle
 10
1657.2474557671
 20
407.6242915053
 30
0.0
 40
6.022819479648172
100
AcDbArc
 50
304.8395134495
 51
73.1084194601
  0
ARC
  5
97
330
8F
100
AcDbEntity
  8
FORMAT
100
AcDbCircle
 10
1657.2474557671
 20
407.6242915053
 30
0.0
 40
9.81620102162464
100
AcDbArc
 50
313.8988153445
 51
79.7306010333
  0
ARC
  5
98
330
8F
100
AcDbEntity
  8
FORMAT
100
AcDbCircle
 10
1657.2474557671
 20
388.4857005791
 30
0.0
 40
3.440714680707612
100
AcDbArc
 50
300.5716370086
 51
0.0
  0
ARC
  5
99
330
8F
100
AcDbEntity
  8
FORMAT
100
AcDbCircle
 10
1657.2474557671
 20
407.6242915053
 30
0.0
 40
9.81620102162464
100
AcDbArc
 50
100.2693989667
 51
226.1011846555
  0
ARC
  5
9A
330
8F
100
AcDbEntity
  8
FORMAT
100
AcDbCircle
 10
1657.2474557671
 20
388.4857005791
 30
0.0
 40
6.806425489791309
100
AcDbArc
 50
180.0
 51
255.1013518888
  0
ARC
  5
9B
330
8F
100
AcDbEntity
  8
FORMAT
100
AcDbCircle
 10
1657.2474557671
 20
388.4857005791
 30
0.0
 40
6.806425489791309
100
AcDbArc
 50
284.8986481112
 51
0.0
  0
ARC
  5
9C
330
8F
100
AcDbEntity
  8
FORMAT
100
AcDbCircle
 10
1657.2474557671
 20
388.4857005791
 30
0.0
 40
3.440714680707612
100
AcDbArc
 50
180.0
 51
239.4283629914
  0
ARC
  5
9D
330
8F
100
AcDbEntity
  8
FORMAT
100
AcDbCircle
 10
1657.2474557671
 20
407.6242915053
 30
0.0
 40
6.022819479648172
100
AcDbArc
 50
106.8915805399
 51
235.1604865505
  0
LINE
  5
9E
330
8F
100
AcDbEntity
  8
FORMAT
100
AcDbLine
 10
1627.7186808898
 20
370.1646458206
 30
0.0
 11
1686.7762306444
 21
370.1646458206
 31
0.0
  0
LINE
  5
9F
330
8F
100
AcDbEntity
  8
FORMAT
100
AcDbLine
 10
1627.7186808898
 20
429.2221955752
 30
0.0
 11
1686.7762306444
 21
429.2221955752
 31
0.0
  0
LINE
  5
A0
330
8F
100
AcDbEntity
  8
FORMAT
100
AcDbLine
 10
1627.7186808898
 20
429.2221955752
 30
0.0
 11
1627.7186808898
 21
370.1646458206
 31
0.0
  0
LINE
  5
A1
330
8F
100
AcDbEntity
  8
FORMAT
100
AcDbLine
 10
1686.7762306444
 20
429.2221955752
 30
0.0
 11
1686.7762306444
 21
370.1646458206
 31
0.0
  0
LINE
  5
A2
330
8F
100
AcDbEntity
  8
FORMAT
100
AcDbLine
 10
1655.4974557671
 20
425.8850224053
 30
0.0
 11
1655.4974557671
 21
420.6203769983
 31
0.0
  0
LINE
  5
A3
330
8F
100
AcDbEntity
  8
FORMAT
100
AcDbLine
 10
1658.9974557671
 20
425.8850224053
 30
0.0
 11
1658.9974557671
 21
420.6203769983
 31
0.0
  0
LINE
  5
A4
330
8F
100
AcDbEntity
  8
FORMAT
100
AcDbLine
 10
1655.4974557671
 20
378.7664643974
 30
0.0
 11
1655.4974557671
 21
373.5018189904
 31
0.0
  0
LINE
  5
A5
330
8F
100
AcDbEntity
  8
FORMAT
100
AcDbLine
 10
1658.9974557671
 20
378.7664643974
 30
0.0
 11
1658.9974557671
 21
373.5018189904
 31
0.0
  0
LINE
  5
A6
330
8F
100
AcDbEntity
  8
FORMAT
100
AcDbLine
 10
1658.9974557671
 20
417.2832408527
 30
0.0
 11
1658.9974557671
 21
413.3872642177
 31
0.0
  0
LINE
  5
A7
330
8F
100
AcDbEntity
  8
FORMAT
100
AcDbLine
 10
1655.4974557671
 20
417.2832408527
 30
0.0
 11
1655.4974557671
 21
413.3872642177
 31
0.0
  0
LINE
  5
A8
330
8F
100
AcDbEntity
  8
FORMAT
100
AcDbLine
 10
1650.4410302773
 20
388.4857005791
 30
0.0
 11
1650.4410302773
 21
400.5510762146
 31
0.0
  0
LINE
  5
A9
330
8F
100
AcDbEntity
  8
FORMAT
100
AcDbLine
 10
1664.0538812569
 20
388.4857005791
 30
0.0
 11
1664.0538812569
 21
400.5510762146
 31
0.0
  0
LINE
  5
AA
330
8F
100
AcDbEntity
  8
FORMAT
100
AcDbLine
 10
1660.6881704478
 20
388.4857005791
 30
0.0
 11
1660.6881704478
 21
402.6810297309
 31
0.0
  0
LINE
  5
AB
330
8F
100
AcDbEntity
  8
FORMAT
100
AcDbLine
 10
1653.8067410864
 20
388.4857005791
 30
0.0
 11
1653.8067410864
 21
402.6810297309
 31
0.0
  0
LINE
  5
AC
330
8F
100
AcDbEntity
  8
FORMAT
100
AcDbLine
 10
1655.4974557671
 20
385.5232661892
 30
0.0
 11
1655.4974557671
 21
381.9080925071
 31
0.0
  0
LINE
  5
AD
330
8F
100
AcDbEntity
  8
FORMAT
100
AcDbLine
 10
1658.9974557671
 20
385.5232661892
 30
0.0
 11
1658.9974557671
 21
381.9080925071
 31
0.0
  0
HATCH
  5
AE
330
8F
100
AcDbEntity
  8
FORMAT
100
AcDbHatch
 10
0.0
 20
0.0
 30
0.0
210
0.0
220
0.0
230
1.0
  2
SOLID
 70
     1
 71
     0
 91
        5
 92
        0
 93
        4
 72
     1
 10
1686.776230644441
 20
429.2221955751519
 11
1686.776230644441
 21
370.1646458205502
 72
     1
 10
1686.776230644441
 20
370.1646458205502
 11
1627.718680889839
 21
370.1646458205502
 72
     1
 10
1627.718680889839
 20
370.1646458205502
 11
1627.718680889839
 21
429.2221955751519
 72
     1
 10
1627.718680889839
 20
429.2221955751519
 11
1686.776230644441
 21
429.2221955751519
 97
        0
 92
        0
 93
        4
 72
     2
 10
1657.24745576714
 20
399.693420697851
 40
21.00000000000007
 50
94.78019184719915
 51
265.2198081528017
 73
     0
 72
     1
 10
1655.49745576714
 20
420.6203769982786
 11
1655.49745576714
 21
425.8850224052687
 72
     2
 10
1657.24745576714
 20
399.693420697851
 40
26.25000000000005
 50
93.82255372927435
 51
266.1774462707265
 73
     1
 72
     1
 10
1655.49745576714
 20
373.5018189904334
 11
1655.49745576714
 21
378.7664643974235
 97
        0
 92
        0
 93
        8
 72
     1
 10
1664.053881256931
 20
388.4857005790521
 11
1664.053881256931
 21
400.5510762145541
 72
     2
 10
1657.24745576714
 20
407.6242915052733
 40
9.816201021624591
 50
313.8988153445118
 51
439.730601033339
 73
     1
 72
     1
 10
1658.99745576714
 20
417.2832408527408
 11
1658.99745576714
 21
413.3872642177221
 72
     2
 10
1657.24745576714
 20
407.6242915052733
 40
6.022819479648148
 50
286.8915805399267
 51
415.1604865505418
 73
     0
 72
     1
 10
1660.688170447847
 20
402.6810297308583
 11
1660.688170447847
 21
388.4857005790521
 72
     2
 10
1657.24745576714
 20
388.4857005790521
 40
3.440714680707529
 50
0.0
 51
59.42836299135161
 73
     0
 72
     1
 10
1658.99745576714
 20
385.523266189224
 11
1658.99745576714
 21
381.9080925071099
 72
     2
 10
1657.24745576714
 20
388.4857005790521
 40
6.806425489791268
 50
284.8986481111874
 51
360.0000000000008
 73
     1
 97
        0
 92
        0
 93
        8
 72
     2
 10
1657.24745576714
 20
388.4857005790521
 40
3.440714680707529
 50
120.5716370086479
 51
180.0
 73
     0
 72
     1
 10
1653.806741086432
 20
388.4857005790521
 11
1653.806741086432
 21
402.6810297308583
 72
     2
 10
1657.24745576714
 20
407.6242915052733
 40
6.022819479648148
 50
124.839513449459
 51
253.1084194600749
 73
     0
 72
     1
 10
1655.49745576714
 20
413.3872642177221
 11
1655.49745576714
 21
417.2832408527408
 72
     2
 10
1657.24745576714
 20
407.6242915052733
 40
9.816201021624591
 50
100.2693989666618
 51
226.1011846554899
 73
     1
 72
     1
 10
1650.441030277349
 20
400.5510762145541
 11
1650.441030277349
 21
388.4857005790521
 72
     2
 10
1657.24745576714
 20
388.4857005790521
 40
6.806425489791268
 50
180.0
 51
255.1013518888142
 73
     1
 72
     1
 10
1655.49745576714
 20
381.9080925071099
 11
1655.49745576714
 21
385.5232661892239
 97
        0
 92
        0
 93
        4
 72
     2
 10
1657.24745576714
 20
399.693420697851
 40
21.00000000000007
 50
274.7801918471999
 51
445.2198081528016
 73
     0
 72
     1
 10
1658.99745576714
 20
378.7664643974235
 11
1658.99745576714
 21
373.5018189904334
 72
     2
 10
1657.24745576714
 20
399.693420697851
 40
26.25000000000005
 50
273.8225537292751
 51
446.1774462707265
 73
     1
 72
     1
 10
1658.99745576714
 20
425.8850224052687
 11
1658.99745576714
 21
420.6203769982786
 97
        0
 75
     0
 76
     1
 98
        1
 10
0.0
 20
0.0
  0
INSERT
  5
B4
330
8F
100
AcDbEntity
  8
FORMAT
 62
     7
100
AcDbBlockReference
  2
SW_NOTE_0_1
 10
1625.7602656139
 20
334.0630571774
 30
0.0
  0
INSERT
  5
BC
330
8F
100
AcDbEntity
  8
0
  6
Continuous
 62
     7
370
     0
100
AcDbBlockReference
  2
SW_NOTE_0_2
 10
1708.506124485
 20
399.8232127904
 30
0.0
  0
ENDBLK
  5
91
330
8F
100
AcDbEntity
  8
0
100
AcDbBlockEnd
  0
BLOCK
  5
B0
330
AF
100
AcDbEntity
  8
0
100
AcDbBlockBegin
  2
SW_NOTE_0_1
 70
     0
 10
0.0
 20
0.0
 30
0.0
  3
SW_NOTE_0_1
  1

  0
MTEXT
  5
B3
330
AF
100
AcDbEntity
  8
FORMAT
 62
     0
100
AcDbMText
 10
0.0
 20
27.0563380282
 30
0.0
 40
21.0
 41
0.0
 71
     1
 72
     1
  1
ECO
  7
SLDTEXTSTYLE1
 73
     1
 44
1.0
  0
ENDBLK
  5
B1
330
AF
100
AcDbEntity
  8
0
100
AcDbBlockEnd
  0
BLOCK
  5
B6
330
B5
100
AcDbEntity
  8
0
100
AcDbBlockBegin
  2
SW_NOTE_0_2
 70
     0
 10
0.0
 20
0.0
 30
0.0
  3
SW_NOTE_0_2
  1

  0
MTEXT
  5
B9
330
B5
100
AcDbEntity
  8
0
  6
Continuous
 62
     0
370
     0
100
AcDbMText
 10
0.0
 20
22.558685446
 30
0.0
 40
17.5
 41
0.0
 71
     1
 72
     1
  1
ECO Schulte GmbH & Co. KG
  7
SLDTEXTSTYLE2
 73
     1
 44
1.0
  0
MTEXT
  5
BA
330
B5
100
AcDbEntity
  8
0
  6
Continuous
 62
     0
370
     0
100
AcDbMText
 10
0.0
 20
-1.9413153102
 30
0.0
 40
17.5
 41
0.0
 71
     1
 72
     1
  1
Postfach 206
  7
SLDTEXTSTYLE2
 73
     1
 44
1.0
  0
MTEXT
  5
BB
330
B5
100
AcDbEntity
  8
0
  6
Continuous
 62
     0
370
     0
100
AcDbMText
 10
0.0
 20
-26.4413160665
 30
0.0
 40
17.5
 41
0.0
 71
     1
 72
     1
  1
58682 Menden
  7
SLDTEXTSTYLE2
 73
     1
 44
1.0
  0
ENDBLK
  5
B7
330
B5
100
AcDbEntity
  8
0
100
AcDbBlockEnd
  0
BLOCK
  5
BE
330
BD
100
AcDbEntity
  8
0
100
AcDbBlockBegin
  2
rechtlicher_Hinweis_Katalogzeichnungen_1
 70
     0
 10
0.0
 20
0.0
 30
0.0
  3
rechtlicher_Hinweis_Katalogzeichnungen_1
  1

  0
INSERT
  5
C9
330
BD
100
AcDbEntity
  8
0
  6
Continuous
 62
     7
370
     0
100
AcDbBlockReference
  2
SW_NOTE_0_3
 10
2.1768074632
 20
401.5030406501
 30
0.0
  0
ENDBLK
  5
BF
330
BD
100
AcDbEntity
  8
0
100
AcDbBlockEnd
  0
BLOCK
  5
C1
330
C0
100
AcDbEntity
  8
0
100
AcDbBlockBegin
  2
SW_NOTE_0_3
 70
     0
 10
0.0
 20
0.0
 30
0.0
  3
SW_NOTE_0_3
  1

  0
MTEXT
  5
C3
330
C0
100
AcDbEntity
  8
0
  6
Continuous
 62
     0
370
     0
100
AcDbMText
 10
0.0
 20
45.117370892
 30
0.0
 40
35.0
 41
0.0
 71
     1
 72
     1
  1
Technische Änderungen und Irrtümer vorbehalten. Aus dem Gebrauch der Zeichnung können keinerlei Ansprüche (inkl. 
  7
SLDTEXTSTYLE0
 73
     1
 44
1.0
  0
MTEXT
  5
C4
330
C0
100
AcDbEntity
  8
0
  6
Continuous
 62
     0
370
     0
100
AcDbMText
 10
0.0
 20
-3.8826306204
 30
0.0
 40
35.0
 41
0.0
 71
     1
 72
     1
  1
Schadenersatzansprüche) erhoben und gegen ECO Schulte geltend gemacht werden. Die Zeichnung bleibt unser 
  7
SLDTEXTSTYLE0
 73
     1
 44
1.0
  0
MTEXT
  5
C5
330
C0
100
AcDbEntity
  8
0
  6
Continuous
 62
     0
370
     0
100
AcDbMText
 10
0.0
 20
-52.8826321329
 30
0.0
 40
35.0
 41
0.0
 71
     1
 72
     1
  1
Eigentum. Sämtliche sich aus der Zeichnung ergebenden Ansprüche stehen ausschließlich ECO Schulte zu.
  7
SLDTEXTSTYLE0
 73
     1
 44
1.0
  0
MTEXT
  5
C6
330
C0
100
AcDbEntity
  8
0
  6
Continuous
 62
     0
370
     0
100
AcDbMText
 10
0.0
 20
-150.8826351579
 30
0.0
 40
35.0
 41
0.0
 71
     1
 72
     1
  1
Technical changes and errors excepted. No claims (including compensation claims) may be raised against ECO Schulte by 
  7
SLDTEXTSTYLE0
 73
     1
 44
1.0
  0
MTEXT
  5
C7
330
C0
100
AcDbEntity
  8
0
  6
Continuous
 62
     0
370
     0
100
AcDbMText
 10
0.0
 20
-199.8826366703
 30
0.0
 40
35.0
 41
0.0
 71
     1
 72
     1
  1
using of this drawing. The drawing remains the property of ECO Schulte. All claims resulting from this drawing are solely 
  7
SLDTEXTSTYLE0
 73
     1
 44
1.0
  0
MTEXT
  5
C8
330
C0
100
AcDbEntity
  8
0
  6
Continuous
 62
     0
370
     0
100
AcDbMText
 10
0.0
 20
-248.8826381828
 30
0.0
 40
35.0
 41
0.0
 71
     1
 72
     1
  1
entitled to ECO Schulte.
  7
SLDTEXTSTYLE0
 73
     1
 44
1.0
  0
ENDBLK
  5
C2
330
C0
100
AcDbEntity
  8
0
100
AcDbBlockEnd
  0
BLOCK
  5
DC
330
DB
100
AcDbEntity
  8
0
100
AcDbBlockBegin
  2
SW_NOTE_0_4
 70
     0
 10
0.0
 20
0.0
 30
0.0
  3
SW_NOTE_0_4
  1

  0
MTEXT
  5
DE
330
DB
100
AcDbEntity
  8
FORMAT
 62
     0
100
AcDbMText
 10
0.0
 20
23.8746087637
 30
0.0
 40
18.5208333333
 41
0.0
 71
     1
 72
     1
  1
\LBefestigungsmittel:
  7
SLDTEXTSTYLE0
 73
     1
 44
1.0
  0
MTEXT
  5
DF
330
DB
100
AcDbEntity
  8
FORMAT
 62
     0
100
AcDbMText
 10
0.0
 20
-9.7180977825
 30
0.0
 40
18.5208333333
 41
0.0
 71
     1
 72
     1
  1
1. Montageplatte: Stahl/Alu-Tür: 6x M6 (Einnietmutter M6) ; Holztür: 6x Senkschraube ø6x60
  7
SLDTEXTSTYLE0
 73
     1
 44
1.0
  0
MTEXT
  5
E0
330
DB
100
AcDbEntity
  8
FORMAT
 62
     0
100
AcDbMText
 10
0.0
 20
-41.4125430759
 30
0.0
 40
18.5208333333
 41
0.0
 71
     1
 72
     1
  1
2. Gestänge: Stahl/Alu-Tür: 2x M6 (Einnietmutter M6) ; Holztür 2x Senkschraube ø4x30
  7
SLDTEXTSTYLE0
 73
     1
 44
1.0
  0
ENDBLK
  5
DD
330
DB
100
AcDbEntity
  8
0
100
AcDbBlockEnd
  0
BLOCK
  5
1F4
330
1F3
100
AcDbEntity
  8
0
100
AcDbBlockBegin
  2
_D
 70
     0
 10
0.0
 20
0.0
 30
0.0
  3
_D
  1

  0
SOLID
  5
1F6
330
1F3
100
AcDbEntity
  8
FORMAT
100
AcDbTrace
 10
850.1918070173
 20
1444.9453247314
 30
0.0
 11
873.3058070173
 21
1441.3893247314
 31
0.0
 12
873.3058070173
 22
1448.5013247314
 32
0.0
 13
873.3058070173
 23
1448.5013247314
 33
0.0
  0
SOLID
  5
1F7
330
1F3
100
AcDbEntity
  8
FORMAT
100
AcDbTrace
 10
930.1918070173
 20
1444.9453247315
 30
0.0
 11
907.0778070173
 21
1448.5013247315
 31
0.0
 12
907.0778070173
 22
1441.3893247315
 32
0.0
 13
907.0778070173
 23
1441.3893247315
 33
0.0
  0
LINE
  5
1F8
330
1F3
100
AcDbEntity
  8
FORMAT
100
AcDbLine
 10
850.1918070171
 20
1575.4443081804
 30
0.0
 11
850.1918070173
 21
1437.9453247314
 31
0.0
  0
LINE
  5
1F9
330
1F3
100
AcDbEntity
  8
FORMAT
100
AcDbLine
 10
930.191807017
 20
1575.4443081804
 30
0.0
 11
930.1918070173
 21
1437.9453247315
 31
0.0
  0
LINE
  5
1FA
330
1F3
100
AcDbEntity
  8
FORMAT
100
AcDbLine
 10
850.1918070173
 20
1444.9453247314
 30
0.0
 11
930.1918070173
 21
1444.9453247315
 31
0.0
  0
MTEXT
  5
1FB
330
1F3
100
AcDbEntity
  8
FORMAT
100
AcDbMText
 10
871.4765297031
 20
1476.5274859857
 30
0.0
 40
24.5
 41
0.0
 71
     1
 72
     1
  1
80
  7
SLDTEXTSTYLE0
 73
     1
 44
1.0
  0
ENDBLK
  5
1F5
330
1F3
100
AcDbEntity
  8
0
100
AcDbBlockEnd
  0
BLOCK
  5
1FE
330
1FD
100
AcDbEntity
  8
0
100
AcDbBlockBegin
  2
_D_1
 70
     0
 10
0.0
 20
0.0
 30
0.0
  3
_D_1
  1

  0
SOLID
  5
200
330
1FD
100
AcDbEntity
  8
FORMAT
100
AcDbTrace
 10
475.0945811848
 20
1612.7943081803
 30
0.0
 11
478.6505811848
 21
1635.9083081803
 31
0.0
 12
471.5385811848
 22
1635.9083081803
 32
0.0
 13
471.5385811848
 23
1635.9083081803
 33
0.0
  0
SOLID
  5
201
330
1FD
100
AcDbEntity
  8
FORMAT
100
AcDbTrace
 10
475.0945811847
 20
1707.7943081803
 30
0.0
 11
471.5385811847
 21
1684.6803081803
 31
0.0
 12
478.6505811847
 22
1684.6803081803
 32
0.0
 13
478.6505811847
 23
1684.6803081803
 33
0.0
  0
LINE
  5
202
330
1FD
100
AcDbEntity
  8
FORMAT
100
AcDbLine
 10
513.1918070161
 20
1612.7943081803
 30
0.0
 11
468.0945811848
 21
1612.7943081803
 31
0.0
  0
LINE
  5
203
330
1FD
100
AcDbEntity
  8
FORMAT
100
AcDbLine
 10
513.1918070161
 20
1707.7943081803
 30
0.0
 11
468.0945811847
 21
1707.7943081803
 31
0.0
  0
LINE
  5
204
330
1FD
100
AcDbEntity
  8
FORMAT
100
AcDbLine
 10
475.0945811848
 20
1612.7943081803
 30
0.0
 11
475.0945811847
 21
1707.7943081803
 31
0.0
  0
MTEXT
  5
205
330
1FD
100
AcDbEntity
  8
FORMAT
100
AcDbMText
 10
443.5124199305
 20
1641.5790308661
 30
0.0
 40
24.5
 41
0.0
 71
     1
 72
     1
  1
95
  7
SLDTEXTSTYLE0
 11
-1.895648602660194E-13
 21
1.0
 31
0.0
 73
     1
 44
1.0
  0
ENDBLK
  5
1FF
330
1FD
100
AcDbEntity
  8
0
100
AcDbBlockEnd
  0
BLOCK
  5
208
330
207
100
AcDbEntity
  8
0
100
AcDbBlockBegin
  2
_D_2
 70
     0
 10
0.0
 20
0.0
 30
0.0
  3
_D_2
  1

  0
SOLID
  5
20A
330
207
100
AcDbEntity
  8
FORMAT
100
AcDbTrace
 10
510.691807016
 20
1748.7466836118
 30
0.0
 11
533.805807016
 21
1745.1906836118
 31
0.0
 12
533.805807016
 22
1752.3026836118
 32
0.0
 13
533.805807016
 23
1752.3026836118
 33
0.0
  0
SOLID
  5
20B
330
207
100
AcDbEntity
  8
FORMAT
100
AcDbTrace
 10
1199.691807016
 20
1748.7466836119
 30
0.0
 11
1176.577807016
 21
1752.3026836119
 31
0.0
 12
1176.577807016
 22
1745.1906836119
 32
0.0
 13
1176.577807016
 23
1745.1906836119
 33
0.0
  0
LINE
  5
20C
330
207
100
AcDbEntity
  8
FORMAT
100
AcDbLine
 10
510.6918070161
 20
1709.7943081803
 30
0.0
 11
510.691807016
 21
1755.7466836118
 31
0.0
  0
LINE
  5
20D
330
207
100
AcDbEntity
  8
FORMAT
100
AcDbLine
 10
1199.6918070161
 20
1709.7943081804
 30
0.0
 11
1199.691807016
 21
1755.7466836119
 31
0.0
  0
LINE
  5
20E
330
207
100
AcDbEntity
  8
FORMAT
100
AcDbLine
 10
510.691807016
 20
1748.7466836118
 30
0.0
 11
1199.691807016
 21
1748.7466836119
 31
0.0
  0
MTEXT
  5
20F
330
207
100
AcDbEntity
  8
FORMAT
100
AcDbMText
 10
827.1188910448
 20
1780.3288448661
 30
0.0
 40
24.5
 41
0.0
 71
     1
 72
     1
  1
689
  7
SLDTEXTSTYLE0
 73
     1
 44
1.0
  0
ENDBLK
  5
209
330
207
100
AcDbEntity
  8
0
100
AcDbBlockEnd
  0
BLOCK
  5
212
330
211
100
AcDbEntity
  8
0
100
AcDbBlockBegin
  2
_D_3
 70
     0
 10
0.0
 20
0.0
 30
0.0
  3
_D_3
  1

  0
SOLID
  5
214
330
211
100
AcDbEntity
  8
FORMAT
100
AcDbTrace
 10
510.1918070161
 20
1444.9453247315
 30
0.0
 11
533.3058070161
 21
1441.3893247315
 31
0.0
 12
533.3058070161
 22
1448.5013247315
 32
0.0
 13
533.3058070161
 23
1448.5013247315
 33
0.0
  0
SOLID
  5
215
330
211
100
AcDbEntity
  8
FORMAT
100
AcDbTrace
 10
850.191807017
 20
1444.9453247315
 30
0.0
 11
827.077807017
 21
1448.5013247315
 31
0.0
 12
827.077807017
 22
1441.3893247315
 32
0.0
 13
827.077807017
 23
1441.3893247315
 33
0.0
  0
LINE
  5
216
330
211
100
AcDbEntity
  8
FORMAT
100
AcDbLine
 10
850.191807017
 20
1575.4443081804
 30
0.0
 11
850.191807017
 21
1437.9453247315
 31
0.0
  0
LINE
  5
217
330
211
100
AcDbEntity
  8
FORMAT
100
AcDbLine
 10
510.1918070161
 20
1444.9453247315
 30
0.0
 11
850.191807017
 21
1444.9453247315
 31
0.0
  0
MTEXT
  5
218
330
211
100
AcDbEntity
  8
FORMAT
100
AcDbMText
 10
652.1188910453
 20
1476.5274859857
 30
0.0
 40
24.5
 41
0.0
 71
     1
 72
     1
  1
340
  7
SLDTEXTSTYLE0
 73
     1
 44
1.0
  0
ENDBLK
  5
213
330
211
100
AcDbEntity
  8
0
100
AcDbBlockEnd
  0
BLOCK
  5
21B
330
21A
100
AcDbEntity
  8
0
100
AcDbBlockBegin
  2
_D_4
 70
     0
 10
0.0
 20
0.0
 30
0.0
  3
_D_4
  1

  0
SOLID
  5
21D
330
21A
100
AcDbEntity
  8
FORMAT
100
AcDbTrace
 10
510.1918070161
 20
1394.7652899159
 30
0.0
 11
533.3058070161
 21
1391.2092899159
 31
0.0
 12
533.3058070161
 22
1398.3212899159
 32
0.0
 13
533.3058070161
 23
1398.3212899159
 33
0.0
  0
SOLID
  5
21E
330
21A
100
AcDbEntity
  8
FORMAT
100
AcDbTrace
 10
790.1918070161
 20
1394.7652899159
 30
0.0
 11
767.0778070161
 21
1398.3212899159
 31
0.0
 12
767.0778070161
 22
1391.2092899159
 32
0.0
 13
767.0778070161
 23
1391.2092899159
 33
0.0
  0
LINE
  5
21F
330
21A
100
AcDbEntity
  8
FORMAT
100
AcDbLine
 10
790.1918070161
 20
1584.7943081807
 30
0.0
 11
790.1918070161
 21
1387.7652899159
 31
0.0
  0
LINE
  5
220
330
21A
100
AcDbEntity
  8
FORMAT
100
AcDbLine
 10
510.1918070161
 20
1394.7652899159
 30
0.0
 11
790.1918070161
 21
1394.7652899159
 31
0.0
  0
MTEXT
  5
221
330
21A
100
AcDbEntity
  8
FORMAT
100
AcDbMText
 10
622.1188910448
 20
1426.3474511701
 30
0.0
 40
24.5
 41
0.0
 71
     1
 72
     1
  1
280
  7
SLDTEXTSTYLE0
 73
     1
 44
1.0
  0
ENDBLK
  5
21C
330
21A
100
AcDbEntity
  8
0
100
AcDbBlockEnd
  0
BLOCK
  5
225
330
224
100
AcDbEntity
  8
0
100
AcDbBlockBegin
  2
_D_5
 70
     0
 10
0.0
 20
0.0
 30
0.0
  3
_D_5
  1

  0
SOLID
  5
227
330
224
100
AcDbEntity
  8
FORMAT
100
AcDbTrace
 10
997.8669148615
 20
1582.4443081804
 30
0.0
 11
994.3109148615
 21
1559.3303081804
 31
0.0
 12
1001.4229148615
 22
1559.3303081804
 32
0.0
 13
1001.4229148615
 23
1559.3303081804
 33
0.0
  0
SOLID
  5
228
330
224
100
AcDbEntity
  8
FORMAT
100
AcDbTrace
 10
997.8669148615
 20
1602.9443081804
 30
0.0
 11
1001.4229148615
 21
1626.0583081804
 31
0.0
 12
994.3109148615
 22
1626.0583081804
 32
0.0
 13
994.3109148615
 23
1626.0583081804
 33
0.0
  0
LINE
  5
229
330
224
100
AcDbEntity
  8
FORMAT
100
AcDbLine
 10
884.7273409236
 20
1582.4443081804
 30
0.0
 11
1004.8669148615
 21
1582.4443081804
 31
0.0
  0
LINE
  5
22A
330
224
100
AcDbEntity
  8
FORMAT
100
AcDbLine
 10
884.7273409236
 20
1602.9443081804
 30
0.0
 11
1004.8669148615
 21
1602.9443081804
 31
0.0
  0
LINE
  5
22B
330
224
100
AcDbEntity
  8
FORMAT
100
AcDbLine
 10
997.8669148615
 20
1582.4443081804
 30
0.0
 11
997.8669148615
 21
1503.3080198159
 31
0.0
  0
LINE
  5
22C
330
224
100
AcDbEntity
  8
FORMAT
100
AcDbLine
 10
997.8669148615
 20
1582.4443081804
 30
0.0
 11
997.8669148615
 21
1602.9443081804
 31
0.0
  0
LINE
  5
22D
330
224
100
AcDbEntity
  8
FORMAT
100
AcDbLine
 10
997.8669148615
 20
1602.9443081804
 30
0.0
 11
997.8669148615
 21
1647.3943081804
 31
0.0
  0
MTEXT
  5
22E
330
224
100
AcDbEntity
  8
FORMAT
100
AcDbMText
 10
966.2847536073
 20
1503.3080198159
 30
0.0
 40
24.5
 41
0.0
 71
     1
 72
     1
  1
21
  7
SLDTEXTSTYLE0
 11
-2.547389722642123E-14
 21
1.0
 31
0.0
 73
     1
 44
1.0
  0
ENDBLK
  5
226
330
224
100
AcDbEntity
  8
0
100
AcDbBlockEnd
  0
BLOCK
  5
2DE
330
2DD
100
AcDbEntity
  8
0
100
AcDbBlockBegin
  2
_D_6
 70
     0
 10
0.0
 20
0.0
 30
0.0
  3
_D_6
  1

  0
SOLID
  5
2E0
330
2DD
100
AcDbEntity
  8
FORMAT
100
AcDbTrace
 10
856.1918070161
 20
621.8370711016
 30
0.0
 11
879.3058070161
 21
618.2810711016
 31
0.0
 12
879.3058070161
 22
625.3930711016
 32
0.0
 13
879.3058070161
 23
625.3930711016
 33
0.0
  0
SOLID
  5
2E1
330
2DD
100
AcDbEntity
  8
FORMAT
100
AcDbTrace
 10
924.1918070161
 20
621.8370711016
 30
0.0
 11
901.0778070161
 21
625.3930711016
 31
0.0
 12
901.0778070161
 22
618.2810711016
 32
0.0
 13
901.0778070161
 23
618.2810711016
 33
0.0
  0
LINE
  5
2E2
330
2DD
100
AcDbEntity
  8
FORMAT
100
AcDbLine
 10
856.1918070161
 20
744.0578128061
 30
0.0
 11
856.1918070161
 21
614.8370711016
 31
0.0
  0
LINE
  5
2E3
330
2DD
100
AcDbEntity
  8
FORMAT
100
AcDbLine
 10
924.1918070161
 20
744.0578128061
 30
0.0
 11
924.1918070161
 21
614.8370711016
 31
0.0
  0
LINE
  5
2E4
330
2DD
100
AcDbEntity
  8
FORMAT
100
AcDbLine
 10
856.1918070161
 20
621.8370711016
 30
0.0
 11
924.1918070161
 21
621.8370711016
 31
0.0
  0
MTEXT
  5
2E5
330
2DD
100
AcDbEntity
  8
FORMAT
100
AcDbMText
 10
871.4765297019
 20
653.4192323559
 30
0.0
 40
24.5
 41
0.0
 71
     1
 72
     1
  1
68
  7
SLDTEXTSTYLE0
 73
     1
 44
1.0
  0
ENDBLK
  5
2DF
330
2DD
100
AcDbEntity
  8
0
100
AcDbBlockEnd
  0
BLOCK
  5
2E8
330
2E7
100
AcDbEntity
  8
0
100
AcDbBlockBegin
  2
_D_7
 70
     0
 10
0.0
 20
0.0
 30
0.0
  3
_D_7
  1

  0
SOLID
  5
2EA
330
2E7
100
AcDbEntity
  8
FORMAT
100
AcDbTrace
 10
1253.6982674578
 20
778.1578128057
 30
0.0
 11
1257.2542674578
 21
801.2718128057
 31
0.0
 12
1250.1422674578
 22
801.2718128057
 32
0.0
 13
1250.1422674578
 23
801.2718128057
 33
0.0
  0
SOLID
  5
2EB
330
2E7
100
AcDbEntity
  8
FORMAT
100
AcDbTrace
 10
1253.6982674578
 20
869.1578128057
 30
0.0
 11
1250.1422674578
 21
846.0438128057
 31
0.0
 12
1257.2542674578
 22
846.0438128057
 32
0.0
 13
1257.2542674578
 23
846.0438128057
 33
0.0
  0
LINE
  5
2EC
330
2E7
100
AcDbEntity
  8
FORMAT
100
AcDbLine
 10
1197.1918070161
 20
778.1578128057
 30
0.0
 11
1260.6982674578
 21
778.1578128057
 31
0.0
  0
LINE
  5
2ED
330
2E7
100
AcDbEntity
  8
FORMAT
100
AcDbLine
 10
1197.1918070161
 20
869.1578128057
 30
0.0
 11
1260.6982674578
 21
869.1578128057
 31
0.0
  0
LINE
  5
2EE
330
2E7
100
AcDbEntity
  8
FORMAT
100
AcDbLine
 10
1253.6982674578
 20
778.1578128057
 30
0.0
 11
1253.6982674578
 21
869.1578128057
 31
0.0
  0
MTEXT
  5
2EF
330
2E7
100
AcDbEntity
  8
FORMAT
100
AcDbMText
 10
1222.1161062035
 20
804.9425354916
 30
0.0
 40
24.5
 41
0.0
 71
     1
 72
     1
  1
91
  7
SLDTEXTSTYLE0
 11
-1.888987264512443E-13
 21
1.0
 31
0.0
 73
     1
 44
1.0
  0
ENDBLK
  5
2E9
330
2E7
100
AcDbEntity
  8
0
100
AcDbBlockEnd
  0
BLOCK
  5
2F2
330
2F1
100
AcDbEntity
  8
0
100
AcDbBlockBegin
  2
_D_8
 70
     0
 10
0.0
 20
0.0
 30
0.0
  3
_D_8
  1

  0
SOLID
  5
2F4
330
2F1
100
AcDbEntity
  8
FORMAT
100
AcDbTrace
 10
510.1918070161
 20
621.8370711016
 30
0.0
 11
533.3058070161
 21
618.2810711016
 31
0.0
 12
533.3058070161
 22
625.3930711016
 32
0.0
 13
533.3058070161
 23
625.3930711016
 33
0.0
  0
SOLID
  5
2F5
330
2F1
100
AcDbEntity
  8
FORMAT
100
AcDbTrace
 10
856.1918070161
 20
621.8370711016
 30
0.0
 11
833.0778070161
 21
625.3930711016
 31
0.0
 12
833.0778070161
 22
618.2810711016
 32
0.0
 13
833.0778070161
 23
618.2810711016
 33
0.0
  0
LINE
  5
2F6
330
2F1
100
AcDbEntity
  8
FORMAT
100
AcDbLine
 10
856.1918070161
 20
744.0578128061
 30
0.0
 11
856.1918070161
 21
614.8370711016
 31
0.0
  0
LINE
  5
2F7
330
2F1
100
AcDbEntity
  8
FORMAT
100
AcDbLine
 10
510.1918070161
 20
621.8370711016
 30
0.0
 11
856.1918070161
 21
621.8370711016
 31
0.0
  0
MTEXT
  5
2F8
330
2F1
100
AcDbEntity
  8
FORMAT
100
AcDbMText
 10
655.1188910449
 20
653.4192323559
 30
0.0
 40
24.5
 41
0.0
 71
     1
 72
     1
  1
346
  7
SLDTEXTSTYLE0
 73
     1
 44
1.0
  0
ENDBLK
  5
2F3
330
2F1
100
AcDbEntity
  8
0
100
AcDbBlockEnd
  0
BLOCK
  5
2FB
330
2FA
100
AcDbEntity
  8
0
100
AcDbBlockBegin
  2
_D_9
 70
     0
 10
0.0
 20
0.0
 30
0.0
  3
_D_9
  1

  0
SOLID
  5
2FD
330
2FA
100
AcDbEntity
  8
FORMAT
100
AcDbTrace
 10
378.7757142767
 20
775.0578128061
 30
0.0
 11
375.2197142767
 21
751.9438128061
 31
0.0
 12
382.3317142767
 22
751.9438128061
 32
0.0
 13
382.3317142767
 23
751.9438128061
 33
0.0
  0
SOLID
  5
2FE
330
2FA
100
AcDbEntity
  8
FORMAT
100
AcDbTrace
 10
378.7757142767
 20
778.1578128056
 30
0.0
 11
382.3317142767
 21
801.2718128056
 31
0.0
 12
375.2197142767
 22
801.2718128056
 32
0.0
 13
375.2197142767
 23
801.2718128056
 33
0.0
  0
LINE
  5
2FF
330
2FA
100
AcDbEntity
  8
FORMAT
100
AcDbLine
 10
523.1918070161
 20
775.0578128061
 30
0.0
 11
371.7757142767
 21
775.0578128061
 31
0.0
  0
LINE
  5
300
330
2FA
100
AcDbEntity
  8
FORMAT
100
AcDbLine
 10
513.1918070161
 20
778.1578128056
 30
0.0
 11
371.7757142767
 21
778.1578128056
 31
0.0
  0
LINE
  5
301
330
2FA
100
AcDbEntity
  8
FORMAT
100
AcDbLine
 10
378.7757142767
 20
775.0578128061
 30
0.0
 11
378.7757142767
 21
713.2600469481
 31
0.0
  0
LINE
  5
302
330
2FA
100
AcDbEntity
  8
FORMAT
100
AcDbLine
 10
378.7757142767
 20
775.0578128061
 30
0.0
 11
378.7757142767
 21
778.1578128056
 31
0.0
  0
LINE
  5
303
330
2FA
100
AcDbEntity
  8
FORMAT
100
AcDbLine
 10
378.7757142767
 20
778.1578128056
 30
0.0
 11
378.7757142767
 21
822.6078128056
 31
0.0
  0
MTEXT
  5
304
330
2FA
100
AcDbEntity
  8
FORMAT
100
AcDbMText
 10
347.1935530225
 20
713.2600469481
 30
0.0
 40
24.5
 41
0.0
 71
     1
 72
     1
  1
3
  7
SLDTEXTSTYLE0
 11
6.123233995736766E-17
 21
1.0
 31
0.0
 73
     1
 44
1.0
  0
ENDBLK
  5
2FC
330
2FA
100
AcDbEntity
  8
0
100
AcDbBlockEnd
  0
BLOCK
  5
307
330
306
100
AcDbEntity
  8
0
100
AcDbBlockBegin
  2
_D_10
 70
     0
 10
0.0
 20
0.0
 30
0.0
  3
_D_10
  1

  0
SOLID
  5
309
330
306
100
AcDbEntity
  8
FORMAT
100
AcDbTrace
 10
340.1918070161
 20
778.1578128056
 30
0.0
 11
336.6358070161
 21
755.0438128056
 31
0.0
 12
343.7478070161
 22
755.0438128056
 32
0.0
 13
343.7478070161
 23
755.0438128056
 33
0.0
  0
SOLID
  5
30A
330
306
100
AcDbEntity
  8
FORMAT
100
AcDbTrace
 10
340.1918070161
 20
812.6578128061
 30
0.0
 11
343.7478070161
 21
835.7718128061
 31
0.0
 12
336.6358070161
 22
835.7718128061
 32
0.0
 13
336.6358070161
 23
835.7718128061
 33
0.0
  0
LINE
  5
30B
330
306
100
AcDbEntity
  8
FORMAT
100
AcDbLine
 10
513.1918070161
 20
778.1578128056
 30
0.0
 11
333.1918070161
 21
778.1578128056
 31
0.0
  0
LINE
  5
30C
330
306
100
AcDbEntity
  8
FORMAT
100
AcDbLine
 10
514.6918070161
 20
812.6578128061
 30
0.0
 11
389.2757142767
 21
812.6578128061
 31
0.0
  0
LINE
  5
30D
330
306
100
AcDbEntity
  8
FORMAT
100
AcDbLine
 10
368.2757142767
 20
812.6578128061
 30
0.0
 11
333.1918070161
 21
812.6578128061
 31
0.0
  0
LINE
  5
30E
330
306
100
AcDbEntity
  8
FORMAT
100
AcDbLine
 10
340.1918070161
 20
778.1578128056
 30
0.0
 11
340.1918070161
 21
703.902408291
 31
0.0
  0
LINE
  5
30F
330
306
100
AcDbEntity
  8
FORMAT
100
AcDbLine
 10
340.1918070161
 20
778.1578128056
 30
0.0
 11
340.1918070161
 21
812.6578128061
 31
0.0
  0
LINE
  5
310
330
306
100
AcDbEntity
  8
FORMAT
100
AcDbLine
 10
340.1918070161
 20
812.6578128061
 30
0.0
 11
340.1918070161
 21
857.1078128061
 31
0.0
  0
MTEXT
  5
311
330
306
100
AcDbEntity
  8
FORMAT
100
AcDbMText
 10
308.6096457619
 20
703.902408291
 30
0.0
 40
24.5
 41
0.0
 71
     1
 72
     1
  1
35
  7
SLDTEXTSTYLE0
 11
-1.893428156610943E-13
 21
1.0
 31
0.0
 73
     1
 44
1.0
  0
ENDBLK
  5
308
330
306
100
AcDbEntity
  8
0
100
AcDbBlockEnd
  0
BLOCK
  5
315
330
314
100
AcDbEntity
  8
0
100
AcDbBlockBegin
  2
_D_11
 70
     0
 10
0.0
 20
0.0
 30
0.0
  3
_D_11
  1

  0
SOLID
  5
317
330
314
100
AcDbEntity
  8
FORMAT
100
AcDbTrace
 10
298.1918070161
 20
812.6578128061
 30
0.0
 11
294.6358070161
 21
789.5438128061
 31
0.0
 12
301.7478070161
 22
789.5438128061
 32
0.0
 13
301.7478070161
 23
789.5438128061
 33
0.0
  0
SOLID
  5
318
330
314
100
AcDbEntity
  8
FORMAT
100
AcDbTrace
 10
298.1918070161
 20
836.6578128061
 30
0.0
 11
301.7478070161
 21
859.7718128061
 31
0.0
 12
294.6358070161
 22
859.7718128061
 32
0.0
 13
294.6358070161
 23
859.7718128061
 33
0.0
  0
LINE
  5
319
330
314
100
AcDbEntity
  8
FORMAT
100
AcDbLine
 10
514.6918070161
 20
812.6578128061
 30
0.0
 11
389.2757142767
 21
812.6578128061
 31
0.0
  0
LINE
  5
31A
330
314
100
AcDbEntity
  8
FORMAT
100
AcDbLine
 10
368.2757142767
 20
812.6578128061
 30
0.0
 11
291.1918070161
 21
812.6578128061
 31
0.0
  0
LINE
  5
31B
330
314
100
AcDbEntity
  8
FORMAT
100
AcDbLine
 10
514.6918070161
 20
836.6578128061
 30
0.0
 11
350.6918070161
 21
836.6578128061
 31
0.0
  0
LINE
  5
31C
330
314
100
AcDbEntity
  8
FORMAT
100
AcDbLine
 10
329.6918070161
 20
836.6578128061
 30
0.0
 11
291.1918070161
 21
836.6578128061
 31
0.0
  0
LINE
  5
31D
330
314
100
AcDbEntity
  8
FORMAT
100
AcDbLine
 10
298.1918070161
 20
812.6578128061
 30
0.0
 11
298.1918070161
 21
703.902408291
 31
0.0
  0
LINE
  5
31E
330
314
100
AcDbEntity
  8
FORMAT
100
AcDbLine
 10
298.1918070161
 20
812.6578128061
 30
0.0
 11
298.1918070161
 21
836.6578128061
 31
0.0
  0
LINE
  5
31F
330
314
100
AcDbEntity
  8
FORMAT
100
AcDbLine
 10
298.1918070161
 20
836.6578128061
 30
0.0
 11
298.1918070161
 21
881.1078128061
 31
0.0
  0
MTEXT
  5
320
330
314
100
AcDbEntity
  8
FORMAT
100
AcDbMText
 10
266.6096457619
 20
703.902408291
 30
0.0
 40
24.5
 41
0.0
 71
     1
 72
     1
  1
24
  7
SLDTEXTSTYLE0
 11
6.123233995736766E-17
 21
1.0
 31
0.0
 73
     1
 44
1.0
  0
ENDBLK
  5
316
330
314
100
AcDbEntity
  8
0
100
AcDbBlockEnd
  0
BLOCK
  5
323
330
322
100
AcDbEntity
  8
0
100
AcDbBlockBegin
  2
_D_12
 70
     0
 10
0.0
 20
0.0
 30
0.0
  3
_D_12
  1

  0
SOLID
  5
325
330
322
100
AcDbEntity
  8
FORMAT
100
AcDbTrace
 10
510.1918070161
 20
994.5597297139
 30
0.0
 11
487.0778070161
 21
998.1157297139
 31
0.0
 12
487.0778070161
 22
991.0037297139
 32
0.0
 13
487.0778070161
 23
991.0037297139
 33
0.0
  0
SOLID
  5
326
330
322
100
AcDbEntity
  8
FORMAT
100
AcDbTrace
 10
520.1918070161
 20
994.5597297139
 30
0.0
 11
543.3058070161
 21
991.0037297139
 31
0.0
 12
543.3058070161
 22
998.1157297139
 32
0.0
 13
543.3058070161
 23
998.1157297139
 33
0.0
  0
LINE
  5
327
330
322
100
AcDbEntity
  8
FORMAT
100
AcDbLine
 10
510.1918070161
 20
651.0578128061
 30
0.0
 11
510.1918070161
 21
1001.5597297139
 31
0.0
  0
LINE
  5
328
330
322
100
AcDbEntity
  8
FORMAT
100
AcDbLine
 10
520.1918070161
 20
803.1578128056
 30
0.0
 11
520.1918070161
 21
1001.5597297139
 31
0.0
  0
LINE
  5
329
330
322
100
AcDbEntity
  8
FORMAT
100
AcDbLine
 10
510.1918070161
 20
994.5597297139
 30
0.0
 11
442.1881708831
 21
994.5597297139
 31
0.0
  0
LINE
  5
32A
330
322
100
AcDbEntity
  8
FORMAT
100
AcDbLine
 10
510.1918070161
 20
994.5597297139
 30
0.0
 11
520.1918070161
 21
994.5597297139
 31
0.0
  0
LINE
  5
32B
330
322
100
AcDbEntity
  8
FORMAT
100
AcDbLine
 10
520.1918070161
 20
994.5597297139
 30
0.0
 11
564.6418070161
 21
994.5597297139
 31
0.0
  0
MTEXT
  5
32C
330
322
100
AcDbEntity
  8
FORMAT
100
AcDbMText
 10
442.1881708831
 20
1026.1418909681
 30
0.0
 40
24.5
 41
0.0
 71
     1
 72
     1
  1
10
  7
SLDTEXTSTYLE0
 73
     1
 44
1.0
  0
ENDBLK
  5
324
330
322
100
AcDbEntity
  8
0
100
AcDbBlockEnd
  0
BLOCK
  5
32F
330
32E
100
AcDbEntity
  8
0
100
AcDbBlockBegin
  2
_D_13
 70
     0
 10
0.0
 20
0.0
 30
0.0
  3
_D_13
  1

  0
SOLID
  5
331
330
32E
100
AcDbEntity
  8
FORMAT
100
AcDbTrace
 10
510.1918070161
 20
1036.3709321528
 30
0.0
 11
487.0778070161
 21
1039.9269321528
 31
0.0
 12
487.0778070161
 22
1032.8149321528
 32
0.0
 13
487.0778070161
 23
1032.8149321528
 33
0.0
  0
SOLID
  5
332
330
32E
100
AcDbEntity
  8
FORMAT
100
AcDbTrace
 10
534.1918070161
 20
1036.3709321528
 30
0.0
 11
557.3058070161
 21
1032.8149321528
 31
0.0
 12
557.3058070161
 22
1039.9269321528
 32
0.0
 13
557.3058070161
 23
1039.9269321528
 33
0.0
  0
LINE
  5
333
330
32E
100
AcDbEntity
  8
FORMAT
100
AcDbLine
 10
510.1918070161
 20
651.0578128061
 30
0.0
 11
510.1918070161
 21
1043.3709321528
 31
0.0
  0
LINE
  5
334
330
32E
100
AcDbEntity
  8
FORMAT
100
AcDbLine
 10
534.1918070161
 20
832.1578128061
 30
0.0
 11
534.1918070161
 21
1043.3709321528
 31
0.0
  0
LINE
  5
335
330
32E
100
AcDbEntity
  8
FORMAT
100
AcDbLine
 10
510.1918070161
 20
1036.3709321528
 30
0.0
 11
442.1881708831
 21
1036.3709321528
 31
0.0
  0
LINE
  5
336
330
32E
100
AcDbEntity
  8
FORMAT
100
AcDbLine
 10
510.1918070161
 20
1036.3709321528
 30
0.0
 11
534.1918070161
 21
1036.3709321528
 31
0.0
  0
LINE
  5
337
330
32E
100
AcDbEntity
  8
FORMAT
100
AcDbLine
 10
534.1918070161
 20
1036.3709321528
 30
0.0
 11
578.6418070161
 21
1036.3709321528
 31
0.0
  0
MTEXT
  5
338
330
32E
100
AcDbEntity
  8
FORMAT
100
AcDbMText
 10
442.1881708831
 20
1067.953093407
 30
0.0
 40
24.5
 41
0.0
 71
     1
 72
     1
  1
24
  7
SLDTEXTSTYLE0
 73
     1
 44
1.0
  0
ENDBLK
  5
330
330
32E
100
AcDbEntity
  8
0
100
AcDbBlockEnd
  0
BLOCK
  5
33B
330
33A
100
AcDbEntity
  8
0
100
AcDbBlockBegin
  2
_D_14
 70
     0
 10
0.0
 20
0.0
 30
0.0
  3
_D_14
  1

  0
SOLID
  5
33D
330
33A
100
AcDbEntity
  8
FORMAT
100
AcDbTrace
 10
510.1918070161
 20
1076.1693651158
 30
0.0
 11
533.3058070161
 21
1072.6133651158
 31
0.0
 12
533.3058070161
 22
1079.7253651158
 32
0.0
 13
533.3058070161
 23
1079.7253651158
 33
0.0
  0
SOLID
  5
33E
330
33A
100
AcDbEntity
  8
FORMAT
100
AcDbTrace
 10
727.1918070161
 20
1076.1693651158
 30
0.0
 11
704.0778070161
 21
1079.7253651158
 31
0.0
 12
704.0778070161
 22
1072.6133651158
 32
0.0
 13
704.0778070161
 23
1072.6133651158
 33
0.0
  0
LINE
  5
33F
330
33A
100
AcDbEntity
  8
FORMAT
100
AcDbLine
 10
510.1918070161
 20
651.0578128061
 30
0.0
 11
510.1918070161
 21
1083.1693651158
 31
0.0
  0
LINE
  5
340
330
33A
100
AcDbEntity
  8
FORMAT
100
AcDbLine
 10
727.1918070161
 20
874.4078128056
 30
0.0
 11
727.1918070161
 21
1083.1693651158
 31
0.0
  0
LINE
  5
341
330
33A
100
AcDbEntity
  8
FORMAT
100
AcDbLine
 10
510.1918070161
 20
1076.1693651158
 30
0.0
 11
727.1918070161
 21
1076.1693651158
 31
0.0
  0
MTEXT
  5
342
330
33A
100
AcDbEntity
  8
FORMAT
100
AcDbMText
 10
590.6188910448
 20
1107.7515263701
 30
0.0
 40
24.5
 41
0.0
 71
     1
 72
     1
  1
217
  7
SLDTEXTSTYLE0
 73
     1
 44
1.0
  0
ENDBLK
  5
33C
330
33A
100
AcDbEntity
  8
0
100
AcDbBlockEnd
  0
BLOCK
  5
345
330
344
100
AcDbEntity
  8
0
100
AcDbBlockBegin
  2
_D_15
 70
     0
 10
0.0
 20
0.0
 30
0.0
  3
_D_15
  1

  0
SOLID
  5
347
330
344
100
AcDbEntity
  8
FORMAT
100
AcDbTrace
 10
727.1918070161
 20
1076.1693651158
 30
0.0
 11
750.3058070161
 21
1072.6133651158
 31
0.0
 12
750.3058070161
 22
1079.7253651158
 32
0.0
 13
750.3058070161
 23
1079.7253651158
 33
0.0
  0
SOLID
  5
348
330
344
100
AcDbEntity
  8
FORMAT
100
AcDbTrace
 10
934.1918070161
 20
1076.1693651158
 30
0.0
 11
911.0778070161
 21
1079.7253651158
 31
0.0
 12
911.0778070161
 22
1072.6133651158
 32
0.0
 13
911.0778070161
 23
1072.6133651158
 33
0.0
  0
LINE
  5
349
330
344
100
AcDbEntity
  8
FORMAT
100
AcDbLine
 10
727.1918070161
 20
874.4078128056
 30
0.0
 11
727.1918070161
 21
1083.1693651158
 31
0.0
  0
LINE
  5
34A
330
344
100
AcDbEntity
  8
FORMAT
100
AcDbLine
 10
934.1918070161
 20
874.4078128057
 30
0.0
 11
934.1918070161
 21
1083.1693651158
 31
0.0
  0
LINE
  5
34B
330
344
100
AcDbEntity
  8
FORMAT
100
AcDbLine
 10
727.1918070161
 20
1076.1693651158
 30
0.0
 11
934.1918070161
 21
1076.1693651158
 31
0.0
  0
MTEXT
  5
34C
330
344
100
AcDbEntity
  8
FORMAT
100
AcDbMText
 10
802.6188910448
 20
1107.7515263701
 30
0.0
 40
24.5
 41
0.0
 71
     1
 72
     1
  1
207
  7
SLDTEXTSTYLE0
 73
     1
 44
1.0
  0
ENDBLK
  5
346
330
344
100
AcDbEntity
  8
0
100
AcDbBlockEnd
  0
BLOCK
  5
34F
330
34E
100
AcDbEntity
  8
0
100
AcDbBlockBegin
  2
_D_16
 70
     0
 10
0.0
 20
0.0
 30
0.0
  3
_D_16
  1

  0
SOLID
  5
351
330
34E
100
AcDbEntity
  8
FORMAT
100
AcDbTrace
 10
934.1918070161
 20
1076.1693651158
 30
0.0
 11
957.3058070161
 21
1072.6133651158
 31
0.0
 12
957.3058070161
 22
1079.7253651158
 32
0.0
 13
957.3058070161
 23
1079.7253651158
 33
0.0
  0
SOLID
  5
352
330
34E
100
AcDbEntity
  8
FORMAT
100
AcDbTrace
 10
1160.1918070161
 20
1076.1693651158
 30
0.0
 11
1137.0778070161
 21
1079.7253651158
 31
0.0
 12
1137.0778070161
 22
1072.6133651158
 32
0.0
 13
1137.0778070161
 23
1072.6133651158
 33
0.0
  0
LINE
  5
353
330
34E
100
AcDbEntity
  8
FORMAT
100
AcDbLine
 10
934.1918070161
 20
874.4078128057
 30
0.0
 11
934.1918070161
 21
1083.1693651158
 31
0.0
  0
LINE
  5
354
330
34E
100
AcDbEntity
  8
FORMAT
100
AcDbLine
 10
1160.1918070161
 20
874.4078128057
 30
0.0
 11
1160.1918070161
 21
1083.1693651158
 31
0.0
  0
LINE
  5
355
330
34E
100
AcDbEntity
  8
FORMAT
100
AcDbLine
 10
934.1918070161
 20
1076.1693651158
 30
0.0
 11
1160.1918070161
 21
1076.1693651158
 31
0.0
  0
MTEXT
  5
356
330
34E
100
AcDbEntity
  8
FORMAT
100
AcDbMText
 10
1019.1188910448
 20
1107.7515263701
 30
0.0
 40
24.5
 41
0.0
 71
     1
 72
     1
  1
226
  7
SLDTEXTSTYLE0
 73
     1
 44
1.0
  0
ENDBLK
  5
350
330
34E
100
AcDbEntity
  8
0
100
AcDbBlockEnd
  0
BLOCK
  5
359
330
358
100
AcDbEntity
  8
0
100
AcDbBlockBegin
  2
_D_17
 70
     0
 10
0.0
 20
0.0
 30
0.0
  3
_D_17
  1

  0
SOLID
  5
35B
330
358
100
AcDbEntity
  8
FORMAT
100
AcDbTrace
 10
510.1918070161
 20
1117.0966186619
 30
0.0
 11
533.3058070161
 21
1113.5406186619
 31
0.0
 12
533.3058070161
 22
1120.6526186619
 32
0.0
 13
533.3058070161
 23
1120.6526186619
 33
0.0
  0
SOLID
  5
35C
330
358
100
AcDbEntity
  8
FORMAT
100
AcDbTrace
 10
1176.1918070161
 20
1117.0966186619
 30
0.0
 11
1153.0778070161
 21
1120.6526186619
 31
0.0
 12
1153.0778070161
 22
1113.5406186619
 32
0.0
 13
1153.0778070161
 23
1113.5406186619
 33
0.0
  0
LINE
  5
35D
330
358
100
AcDbEntity
  8
FORMAT
100
AcDbLine
 10
510.1918070161
 20
651.0578128061
 30
0.0
 11
510.1918070161
 21
1124.0966186619
 31
0.0
  0
LINE
  5
35E
330
358
100
AcDbEntity
  8
FORMAT
100
AcDbLine
 10
1176.1918070161
 20
856.1578128061
 30
0.0
 11
1176.1918070161
 21
1124.0966186619
 31
0.0
  0
LINE
  5
35F
330
358
100
AcDbEntity
  8
FORMAT
100
AcDbLine
 10
510.1918070161
 20
1117.0966186619
 30
0.0
 11
1176.1918070161
 21
1117.0966186619
 31
0.0
  0
MTEXT
  5
360
330
358
100
AcDbEntity
  8
FORMAT
100
AcDbMText
 10
815.1188910449
 20
1148.6787799161
 30
0.0
 40
24.5
 41
0.0
 71
     1
 72
     1
  1
666
  7
SLDTEXTSTYLE0
 73
     1
 44
1.0
  0
ENDBLK
  5
35A
330
358
100
AcDbEntity
  8
0
100
AcDbBlockEnd
  0
BLOCK
  5
363
330
362
100
AcDbEntity
  8
0
100
AcDbBlockBegin
  2
_D_18
 70
     0
 10
0.0
 20
0.0
 30
0.0
  3
_D_18
  1

  0
SOLID
  5
365
330
362
100
AcDbEntity
  8
FORMAT
100
AcDbTrace
 10
510.1918070161
 20
1156.7214327288
 30
0.0
 11
533.3058070161
 21
1153.1654327288
 31
0.0
 12
533.3058070161
 22
1160.2774327288
 32
0.0
 13
533.3058070161
 23
1160.2774327288
 33
0.0
  0
SOLID
  5
366
330
362
100
AcDbEntity
  8
FORMAT
100
AcDbTrace
 10
1190.1918070161
 20
1156.7214327288
 30
0.0
 11
1167.0778070161
 21
1160.2774327288
 31
0.0
 12
1167.0778070161
 22
1153.1654327288
 32
0.0
 13
1167.0778070161
 23
1153.1654327288
 33
0.0
  0
LINE
  5
367
330
362
100
AcDbEntity
  8
FORMAT
100
AcDbLine
 10
510.1918070161
 20
651.0578128061
 30
0.0
 11
510.1918070161
 21
1163.7214327288
 31
0.0
  0
LINE
  5
368
330
362
100
AcDbEntity
  8
FORMAT
100
AcDbLine
 10
1190.1918070161
 20
868.6578128057
 30
0.0
 11
1190.1918070161
 21
1163.7214327288
 31
0.0
  0
LINE
  5
369
330
362
100
AcDbEntity
  8
FORMAT
100
AcDbLine
 10
510.1918070161
 20
1156.7214327288
 30
0.0
 11
1190.1918070161
 21
1156.7214327288
 31
0.0
  0
MTEXT
  5
36A
330
362
100
AcDbEntity
  8
FORMAT
100
AcDbMText
 10
822.1188910448
 20
1188.303593983
 30
0.0
 40
24.5
 41
0.0
 71
     1
 72
     1
  1
680
  7
SLDTEXTSTYLE0
 73
     1
 44
1.0
  0
ENDBLK
  5
364
330
362
100
AcDbEntity
  8
0
100
AcDbBlockEnd
  0
BLOCK
  5
36D
330
36C
100
AcDbEntity
  8
0
100
AcDbBlockBegin
  2
_D_19
 70
     0
 10
0.0
 20
0.0
 30
0.0
  3
_D_19
  1

  0
SOLID
  5
36F
330
36C
100
AcDbEntity
  8
FORMAT
100
AcDbTrace
 10
1284.5522520872
 20
775.0578128061
 30
0.0
 11
1288.1082520872
 21
798.1718128061
 31
0.0
 12
1280.9962520872
 22
798.1718128061
 32
0.0
 13
1280.9962520872
 23
798.1718128061
 33
0.0
  0
SOLID
  5
370
330
36C
100
AcDbEntity
  8
FORMAT
100
AcDbTrace
 10
1284.5522520872
 20
756.0578128061
 30
0.0
 11
1280.9962520872
 21
732.9438128061
 31
0.0
 12
1288.1082520872
 22
732.9438128061
 32
0.0
 13
1288.1082520872
 23
732.9438128061
 33
0.0
  0
LINE
  5
371
330
36C
100
AcDbEntity
  8
FORMAT
100
AcDbLine
 10
936.1918070161
 20
756.0578128061
 30
0.0
 11
1291.5522520872
 21
756.0578128061
 31
0.0
  0
LINE
  5
372
330
36C
100
AcDbEntity
  8
FORMAT
100
AcDbLine
 10
1284.5522520872
 20
775.0578128061
 30
0.0
 11
1284.5522520872
 21
819.5078128061
 31
0.0
  0
LINE
  5
373
330
36C
100
AcDbEntity
  8
FORMAT
100
AcDbLine
 10
1284.5522520872
 20
775.0578128061
 30
0.0
 11
1284.5522520872
 21
756.0578128061
 31
0.0
  0
LINE
  5
374
330
36C
100
AcDbEntity
  8
FORMAT
100
AcDbLine
 10
1284.5522520872
 20
756.0578128061
 30
0.0
 11
1284.5522520872
 21
688.2018652864
 31
0.0
  0
MTEXT
  5
375
330
36C
100
AcDbEntity
  8
FORMAT
100
AcDbMText
 10
1252.970090833
 20
688.2018652864
 30
0.0
 40
24.5
 41
0.0
 71
     1
 72
     1
  1
19
  7
SLDTEXTSTYLE0
 11
-7.044195017643634E-15
 21
1.0
 31
0.0
 73
     1
 44
1.0
  0
ENDBLK
  5
36E
330
36C
100
AcDbEntity
  8
0
100
AcDbBlockEnd
  0
BLOCK
  5
378
330
377
100
AcDbEntity
  8
0
100
AcDbBlockBegin
  2
_D_20
 70
     0
 10
0.0
 20
0.0
 30
0.0
  3
_D_20
  1

  0
SOLID
  5
37A
330
377
100
AcDbEntity
  8
FORMAT
100
AcDbTrace
 10
659.7617800644
 20
775.0578128061
 30
0.0
 11
656.2057800644
 21
751.9438128061
 31
0.0
 12
663.3177800644
 22
751.9438128061
 32
0.0
 13
663.3177800644
 23
751.9438128061
 33
0.0
  0
SOLID
  5
37B
330
377
100
AcDbEntity
  8
FORMAT
100
AcDbTrace
 10
659.7617800644
 20
785.6578128056
 30
0.0
 11
663.3177800644
 21
808.7718128056
 31
0.0
 12
656.2057800644
 22
808.7718128056
 32
0.0
 13
656.2057800644
 23
808.7718128056
 33
0.0
  0
LINE
  5
37C
330
377
100
AcDbEntity
  8
FORMAT
100
AcDbLine
 10
720.1918070161
 20
785.6578128056
 30
0.0
 11
652.7617800644
 21
785.6578128056
 31
0.0
  0
LINE
  5
37D
330
377
100
AcDbEntity
  8
FORMAT
100
AcDbLine
 10
659.7617800644
 20
775.0578128061
 30
0.0
 11
659.7617800644
 21
703.9024082911
 31
0.0
  0
LINE
  5
37E
330
377
100
AcDbEntity
  8
FORMAT
100
AcDbLine
 10
659.7617800644
 20
775.0578128061
 30
0.0
 11
659.7617800644
 21
785.6578128056
 31
0.0
  0
LINE
  5
37F
330
377
100
AcDbEntity
  8
FORMAT
100
AcDbLine
 10
659.7617800644
 20
785.6578128056
 30
0.0
 11
659.7617800644
 21
830.1078128056
 31
0.0
  0
MTEXT
  5
380
330
377
100
AcDbEntity
  8
FORMAT
100
AcDbMText
 10
628.1796188102
 20
703.9024082911
 30
0.0
 40
24.5
 41
0.0
 71
     1
 72
     1
  1
11
  7
SLDTEXTSTYLE0
 11
6.123233995736766E-17
 21
1.0
 31
0.0
 73
     1
 44
1.0
  0
ENDBLK
  5
379
330
377
100
AcDbEntity
  8
0
100
AcDbBlockEnd
  0
BLOCK
  5
387
330
386
100
AcDbEntity
  8
0
100
AcDbBlockBegin
  2
SW_NOTE_0_5
 70
     0
 10
0.0
 20
0.0
 30
0.0
  3
SW_NOTE_0_5
  1

  0
MTEXT
  5
389
330
386
100
AcDbEntity
  8
FORMAT
 62
     0
100
AcDbMText
 10
-306.5664963581
 20
37.1070449132
 30
0.0
 40
18.5208333333
 41
0.0
 71
     1
 72
     1
  1
ø20
  7
SLDTEXTSTYLE0
 73
     1
 44
1.0
  0
MTEXT
  5
38A
330
386
100
AcDbEntity
  8
FORMAT
 62
     0
100
AcDbMText
 10
-306.5664963581
 20
5.4125996198
 30
0.0
 40
18.5208333333
 41
0.0
 71
     1
 72
     1
  1
(verdeckte Kabelzuführung)
  7
SLDTEXTSTYLE0
 73
     1
 44
1.0
  0
ENDBLK
  5
388
330
386
100
AcDbEntity
  8
0
100
AcDbBlockEnd
  0
BLOCK
  5
38E
330
38D
100
AcDbEntity
  8
0
100
AcDbBlockBegin
  2
SW_CENTERMARKSYMBOL_0
 70
     0
 10
0.0
 20
0.0
 30
0.0
  3
SW_CENTERMARKSYMBOL_0
  1

  0
LINE
  5
390
330
38D
100
AcDbEntity
  8
FORMAT
 62
     0
100
AcDbLine
 10
0.0
 20
0.0
 30
0.0
 11
0.0
 21
2.5
 31
0.0
  0
LINE
  5
391
330
38D
100
AcDbEntity
  8
FORMAT
 62
     0
100
AcDbLine
 10
0.0
 20
0.0
 30
0.0
 11
-2.5
 21
0.0
 31
0.0
  0
LINE
  5
392
330
38D
100
AcDbEntity
  8
FORMAT
 62
     0
100
AcDbLine
 10
0.0
 20
0.0
 30
0.0
 11
0.0
 21
-2.5
 31
0.0
  0
LINE
  5
393
330
38D
100
AcDbEntity
  8
FORMAT
 62
     0
100
AcDbLine
 10
0.0
 20
0.0
 30
0.0
 11
2.5
 21
0.0
 31
0.0
  0
LINE
  5
394
330
38D
100
AcDbEntity
  8
FORMAT
 62
     0
100
AcDbLine
 10
0.0
 20
2.5
 30
0.0
 11
0.0
 21
5.0
 31
0.0
  0
LINE
  5
395
330
38D
100
AcDbEntity
  8
FORMAT
 62
     0
100
AcDbLine
 10
-2.5
 20
0.0
 30
0.0
 11
-5.0
 21
0.0
 31
0.0
  0
LINE
  5
396
330
38D
100
AcDbEntity
  8
FORMAT
 62
     0
100
AcDbLine
 10
0.0
 20
-2.5
 30
0.0
 11
0.0
 21
-5.0
 31
0.0
  0
LINE
  5
397
330
38D
100
AcDbEntity
  8
FORMAT
 62
     0
100
AcDbLine
 10
2.5
 20
0.0
 30
0.0
 11
5.0
 21
0.0
 31
0.0
  0
ENDBLK
  5
38F
330
38D
100
AcDbEntity
  8
0
100
AcDbBlockEnd
  0
BLOCK
  5
39A
330
399
100
AcDbEntity
  8
0
100
AcDbBlockBegin
  2
SW_CENTERMARKSYMBOL_1
 70
     0
 10
0.0
 20
0.0
 30
0.0
  3
SW_CENTERMARKSYMBOL_1
  1

  0
LINE
  5
39C
330
399
100
AcDbEntity
  8
FORMAT
 62
     0
100
AcDbLine
 10
0.0
 20
0.0
 30
0.0
 11
0.0
 21
2.5
 31
0.0
  0
LINE
  5
39D
330
399
100
AcDbEntity
  8
FORMAT
 62
     0
100
AcDbLine
 10
0.0
 20
0.0
 30
0.0
 11
-2.5
 21
0.0
 31
0.0
  0
LINE
  5
39E
330
399
100
AcDbEntity
  8
FORMAT
 62
     0
100
AcDbLine
 10
0.0
 20
0.0
 30
0.0
 11
0.0
 21
-2.5
 31
0.0
  0
LINE
  5
39F
330
399
100
AcDbEntity
  8
FORMAT
 62
     0
100
AcDbLine
 10
0.0
 20
0.0
 30
0.0
 11
2.5
 21
0.0
 31
0.0
  0
LINE
  5
3A0
330
399
100
AcDbEntity
  8
FORMAT
 62
     0
100
AcDbLine
 10
0.0
 20
2.5
 30
0.0
 11
0.0
 21
5.0
 31
0.0
  0
LINE
  5
3A1
330
399
100
AcDbEntity
  8
FORMAT
 62
     0
100
AcDbLine
 10
-2.5
 20
0.0
 30
0.0
 11
-5.0
 21
0.0
 31
0.0
  0
LINE
  5
3A2
330
399
100
AcDbEntity
  8
FORMAT
 62
     0
100
AcDbLine
 10
0.0
 20
-2.5
 30
0.0
 11
0.0
 21
-5.0
 31
0.0
  0
LINE
  5
3A3
330
399
100
AcDbEntity
  8
FORMAT
 62
     0
100
AcDbLine
 10
2.5
 20
0.0
 30
0.0
 11
5.0
 21
0.0
 31
0.0
  0
ENDBLK
  5
39B
330
399
100
AcDbEntity
  8
0
100
AcDbBlockEnd
  0
BLOCK
  5
3A6
330
3A5
100
AcDbEntity
  8
0
100
AcDbBlockBegin
  2
SW_CENTERMARKSYMBOL_2
 70
     0
 10
0.0
 20
0.0
 30
0.0
  3
SW_CENTERMARKSYMBOL_2
  1

  0
LINE
  5
3A8
330
3A5
100
AcDbEntity
  8
FORMAT
 62
     0
100
AcDbLine
 10
0.0
 20
0.0
 30
0.0
 11
0.0
 21
2.5
 31
0.0
  0
LINE
  5
3A9
330
3A5
100
AcDbEntity
  8
FORMAT
 62
     0
100
AcDbLine
 10
0.0
 20
0.0
 30
0.0
 11
-2.5
 21
0.0
 31
0.0
  0
LINE
  5
3AA
330
3A5
100
AcDbEntity
  8
FORMAT
 62
     0
100
AcDbLine
 10
0.0
 20
0.0
 30
0.0
 11
0.0
 21
-2.5
 31
0.0
  0
LINE
  5
3AB
330
3A5
100
AcDbEntity
  8
FORMAT
 62
     0
100
AcDbLine
 10
0.0
 20
0.0
 30
0.0
 11
2.5
 21
0.0
 31
0.0
  0
LINE
  5
3AC
330
3A5
100
AcDbEntity
  8
FORMAT
 62
     0
100
AcDbLine
 10
0.0
 20
5.0
 30
0.0
 11
0.0
 21
5.75
 31
0.0
  0
LINE
  5
3AD
330
3A5
100
AcDbEntity
  8
FORMAT
 62
     0
100
AcDbLine
 10
-5.0
 20
0.0
 30
0.0
 11
-5.75
 21
0.0
 31
0.0
  0
LINE
  5
3AE
330
3A5
100
AcDbEntity
  8
FORMAT
 62
     0
100
AcDbLine
 10
0.0
 20
-5.0
 30
0.0
 11
0.0
 21
-5.75
 31
0.0
  0
LINE
  5
3AF
330
3A5
100
AcDbEntity
  8
FORMAT
 62
     0
100
AcDbLine
 10
5.0
 20
0.0
 30
0.0
 11
5.75
 21
0.0
 31
0.0
  0
ENDBLK
  5
3A7
330
3A5
100
AcDbEntity
  8
0
100
AcDbBlockEnd
  0
BLOCK
  5
3B2
330
3B1
100
AcDbEntity
  8
0
100
AcDbBlockBegin
  2
SW_CENTERMARKSYMBOL_3
 70
     0
 10
0.0
 20
0.0
 30
0.0
  3
SW_CENTERMARKSYMBOL_3
  1

  0
LINE
  5
3B4
330
3B1
100
AcDbEntity
  8
FORMAT
 62
     0
100
AcDbLine
 10
0.0
 20
0.0
 30
0.0
 11
0.0
 21
2.5
 31
0.0
  0
LINE
  5
3B5
330
3B1
100
AcDbEntity
  8
FORMAT
 62
     0
100
AcDbLine
 10
0.0
 20
0.0
 30
0.0
 11
-2.5
 21
0.0
 31
0.0
  0
LINE
  5
3B6
330
3B1
100
AcDbEntity
  8
FORMAT
 62
     0
100
AcDbLine
 10
0.0
 20
0.0
 30
0.0
 11
0.0
 21
-2.5
 31
0.0
  0
LINE
  5
3B7
330
3B1
100
AcDbEntity
  8
FORMAT
 62
     0
100
AcDbLine
 10
0.0
 20
0.0
 30
0.0
 11
2.5
 21
0.0
 31
0.0
  0
LINE
  5
3B8
330
3B1
100
AcDbEntity
  8
FORMAT
 62
     0
100
AcDbLine
 10
0.0
 20
5.0
 30
0.0
 11
0.0
 21
5.75
 31
0.0
  0
LINE
  5
3B9
330
3B1
100
AcDbEntity
  8
FORMAT
 62
     0
100
AcDbLine
 10
-5.0
 20
0.0
 30
0.0
 11
-5.75
 21
0.0
 31
0.0
  0
LINE
  5
3BA
330
3B1
100
AcDbEntity
  8
FORMAT
 62
     0
100
AcDbLine
 10
0.0
 20
-5.0
 30
0.0
 11
0.0
 21
-5.75
 31
0.0
  0
LINE
  5
3BB
330
3B1
100
AcDbEntity
  8
FORMAT
 62
     0
100
AcDbLine
 10
5.0
 20
0.0
 30
0.0
 11
5.75
 21
0.0
 31
0.0
  0
ENDBLK
  5
3B3
330
3B1
100
AcDbEntity
  8
0
100
AcDbBlockEnd
  0
BLOCK
  5
3BE
330
3BD
100
AcDbEntity
  8
0
100
AcDbBlockBegin
  2
SW_CENTERMARKSYMBOL_4
 70
     0
 10
0.0
 20
0.0
 30
0.0
  3
SW_CENTERMARKSYMBOL_4
  1

  0
LINE
  5
3C0
330
3BD
100
AcDbEntity
  8
FORMAT
 62
     0
100
AcDbLine
 10
0.0
 20
0.0
 30
0.0
 11
0.0
 21
2.5
 31
0.0
  0
LINE
  5
3C1
330
3BD
100
AcDbEntity
  8
FORMAT
 62
     0
100
AcDbLine
 10
0.0
 20
0.0
 30
0.0
 11
-2.5
 21
0.0
 31
0.0
  0
LINE
  5
3C2
330
3BD
100
AcDbEntity
  8
FORMAT
 62
     0
100
AcDbLine
 10
0.0
 20
0.0
 30
0.0
 11
0.0
 21
-2.5
 31
0.0
  0
LINE
  5
3C3
330
3BD
100
AcDbEntity
  8
FORMAT
 62
     0
100
AcDbLine
 10
0.0
 20
0.0
 30
0.0
 11
2.5
 21
0.0
 31
0.0
  0
LINE
  5
3C4
330
3BD
100
AcDbEntity
  8
FORMAT
 62
     0
100
AcDbLine
 10
0.0
 20
5.0
 30
0.0
 11
0.0
 21
5.75
 31
0.0
  0
LINE
  5
3C5
330
3BD
100
AcDbEntity
  8
FORMAT
 62
     0
100
AcDbLine
 10
-5.0
 20
0.0
 30
0.0
 11
-5.75
 21
0.0
 31
0.0
  0
LINE
  5
3C6
330
3BD
100
AcDbEntity
  8
FORMAT
 62
     0
100
AcDbLine
 10
0.0
 20
-5.0
 30
0.0
 11
0.0
 21
-5.75
 31
0.0
  0
LINE
  5
3C7
330
3BD
100
AcDbEntity
  8
FORMAT
 62
     0
100
AcDbLine
 10
5.0
 20
0.0
 30
0.0
 11
5.75
 21
0.0
 31
0.0
  0
ENDBLK
  5
3BF
330
3BD
100
AcDbEntity
  8
0
100
AcDbBlockEnd
  0
BLOCK
  5
3CA
330
3C9
100
AcDbEntity
  8
0
100
AcDbBlockBegin
  2
SW_CENTERMARKSYMBOL_5
 70
     0
 10
0.0
 20
0.0
 30
0.0
  3
SW_CENTERMARKSYMBOL_5
  1

  0
LINE
  5
3CC
330
3C9
100
AcDbEntity
  8
FORMAT
 62
     0
100
AcDbLine
 10
0.0
 20
0.0
 30
0.0
 11
0.0
 21
2.5
 31
0.0
  0
LINE
  5
3CD
330
3C9
100
AcDbEntity
  8
FORMAT
 62
     0
100
AcDbLine
 10
0.0
 20
0.0
 30
0.0
 11
-2.5
 21
0.0
 31
0.0
  0
LINE
  5
3CE
330
3C9
100
AcDbEntity
  8
FORMAT
 62
     0
100
AcDbLine
 10
0.0
 20
0.0
 30
0.0
 11
0.0
 21
-2.5
 31
0.0
  0
LINE
  5
3CF
330
3C9
100
AcDbEntity
  8
FORMAT
 62
     0
100
AcDbLine
 10
0.0
 20
0.0
 30
0.0
 11
2.5
 21
0.0
 31
0.0
  0
LINE
  5
3D0
330
3C9
100
AcDbEntity
  8
FORMAT
 62
     0
100
AcDbLine
 10
0.0
 20
5.0
 30
0.0
 11
0.0
 21
5.75
 31
0.0
  0
LINE
  5
3D1
330
3C9
100
AcDbEntity
  8
FORMAT
 62
     0
100
AcDbLine
 10
-5.0
 20
0.0
 30
0.0
 11
-5.75
 21
0.0
 31
0.0
  0
LINE
  5
3D2
330
3C9
100
AcDbEntity
  8
FORMAT
 62
     0
100
AcDbLine
 10
0.0
 20
-5.0
 30
0.0
 11
0.0
 21
-5.75
 31
0.0
  0
LINE
  5
3D3
330
3C9
100
AcDbEntity
  8
FORMAT
 62
     0
100
AcDbLine
 10
5.0
 20
0.0
 30
0.0
 11
5.75
 21
0.0
 31
0.0
  0
ENDBLK
  5
3CB
330
3C9
100
AcDbEntity
  8
0
100
AcDbBlockEnd
  0
BLOCK
  5
3D6
330
3D5
100
AcDbEntity
  8
0
100
AcDbBlockBegin
  2
SW_CENTERMARKSYMBOL_6
 70
     0
 10
0.0
 20
0.0
 30
0.0
  3
SW_CENTERMARKSYMBOL_6
  1

  0
LINE
  5
3D8
330
3D5
100
AcDbEntity
  8
FORMAT
 62
     0
100
AcDbLine
 10
0.0
 20
0.0
 30
0.0
 11
0.0
 21
2.5
 31
0.0
  0
LINE
  5
3D9
330
3D5
100
AcDbEntity
  8
FORMAT
 62
     0
100
AcDbLine
 10
0.0
 20
0.0
 30
0.0
 11
-2.5
 21
0.0
 31
0.0
  0
LINE
  5
3DA
330
3D5
100
AcDbEntity
  8
FORMAT
 62
     0
100
AcDbLine
 10
0.0
 20
0.0
 30
0.0
 11
0.0
 21
-2.5
 31
0.0
  0
LINE
  5
3DB
330
3D5
100
AcDbEntity
  8
FORMAT
 62
     0
100
AcDbLine
 10
0.0
 20
0.0
 30
0.0
 11
2.5
 21
0.0
 31
0.0
  0
LINE
  5
3DC
330
3D5
100
AcDbEntity
  8
FORMAT
 62
     0
100
AcDbLine
 10
0.0
 20
5.0
 30
0.0
 11
0.0
 21
5.75
 31
0.0
  0
LINE
  5
3DD
330
3D5
100
AcDbEntity
  8
FORMAT
 62
     0
100
AcDbLine
 10
-5.0
 20
0.0
 30
0.0
 11
-5.75
 21
0.0
 31
0.0
  0
LINE
  5
3DE
330
3D5
100
AcDbEntity
  8
FORMAT
 62
     0
100
AcDbLine
 10
0.0
 20
-5.0
 30
0.0
 11
0.0
 21
-5.75
 31
0.0
  0
LINE
  5
3DF
330
3D5
100
AcDbEntity
  8
FORMAT
 62
     0
100
AcDbLine
 10
5.0
 20
0.0
 30
0.0
 11
5.75
 21
0.0
 31
0.0
  0
ENDBLK
  5
3D7
330
3D5
100
AcDbEntity
  8
0
100
AcDbBlockEnd
  0
BLOCK
  5
3E2
330
3E1
100
AcDbEntity
  8
0
100
AcDbBlockBegin
  2
SW_CENTERMARKSYMBOL_7
 70
     0
 10
0.0
 20
0.0
 30
0.0
  3
SW_CENTERMARKSYMBOL_7
  1

  0
LINE
  5
3E4
330
3E1
100
AcDbEntity
  8
FORMAT
 62
     0
100
AcDbLine
 10
0.0
 20
0.0
 30
0.0
 11
0.0
 21
2.5
 31
0.0
  0
LINE
  5
3E5
330
3E1
100
AcDbEntity
  8
FORMAT
 62
     0
100
AcDbLine
 10
0.0
 20
0.0
 30
0.0
 11
-2.5
 21
0.0
 31
0.0
  0
LINE
  5
3E6
330
3E1
100
AcDbEntity
  8
FORMAT
 62
     0
100
AcDbLine
 10
0.0
 20
0.0
 30
0.0
 11
0.0
 21
-2.5
 31
0.0
  0
LINE
  5
3E7
330
3E1
100
AcDbEntity
  8
FORMAT
 62
     0
100
AcDbLine
 10
0.0
 20
0.0
 30
0.0
 11
2.5
 21
0.0
 31
0.0
  0
LINE
  5
3E8
330
3E1
100
AcDbEntity
  8
FORMAT
 62
     0
100
AcDbLine
 10
0.0
 20
5.0
 30
0.0
 11
0.0
 21
5.75
 31
0.0
  0
LINE
  5
3E9
330
3E1
100
AcDbEntity
  8
FORMAT
 62
     0
100
AcDbLine
 10
-5.0
 20
0.0
 30
0.0
 11
-5.75
 21
0.0
 31
0.0
  0
LINE
  5
3EA
330
3E1
100
AcDbEntity
  8
FORMAT
 62
     0
100
AcDbLine
 10
0.0
 20
-5.0
 30
0.0
 11
0.0
 21
-5.75
 31
0.0
  0
LINE
  5
3EB
330
3E1
100
AcDbEntity
  8
FORMAT
 62
     0
100
AcDbLine
 10
5.0
 20
0.0
 30
0.0
 11
5.75
 21
0.0
 31
0.0
  0
ENDBLK
  5
3E3
330
3E1
100
AcDbEntity
  8
0
100
AcDbBlockEnd
  0
BLOCK
  5
3EE
330
3ED
100
AcDbEntity
  8
0
100
AcDbBlockBegin
  2
SW_CENTERMARKSYMBOL_8
 70
     0
 10
0.0
 20
0.0
 30
0.0
  3
SW_CENTERMARKSYMBOL_8
  1

  0
LINE
  5
3F0
330
3ED
100
AcDbEntity
  8
FORMAT
 62
     0
100
AcDbLine
 10
0.0
 20
0.0
 30
0.0
 11
0.0
 21
2.5
 31
0.0
  0
LINE
  5
3F1
330
3ED
100
AcDbEntity
  8
FORMAT
 62
     0
100
AcDbLine
 10
0.0
 20
0.0
 30
0.0
 11
-2.5
 21
0.0
 31
0.0
  0
LINE
  5
3F2
330
3ED
100
AcDbEntity
  8
FORMAT
 62
     0
100
AcDbLine
 10
0.0
 20
0.0
 30
0.0
 11
0.0
 21
-2.5
 31
0.0
  0
LINE
  5
3F3
330
3ED
100
AcDbEntity
  8
FORMAT
 62
     0
100
AcDbLine
 10
0.0
 20
0.0
 30
0.0
 11
2.5
 21
0.0
 31
0.0
  0
LINE
  5
3F4
330
3ED
100
AcDbEntity
  8
FORMAT
 62
     0
100
AcDbLine
 10
0.0
 20
5.0
 30
0.0
 11
0.0
 21
12.5
 31
0.0
  0
LINE
  5
3F5
330
3ED
100
AcDbEntity
  8
FORMAT
 62
     0
100
AcDbLine
 10
-5.0
 20
0.0
 30
0.0
 11
-12.5
 21
0.0
 31
0.0
  0
LINE
  5
3F6
330
3ED
100
AcDbEntity
  8
FORMAT
 62
     0
100
AcDbLine
 10
0.0
 20
-5.0
 30
0.0
 11
0.0
 21
-12.5
 31
0.0
  0
LINE
  5
3F7
330
3ED
100
AcDbEntity
  8
FORMAT
 62
     0
100
AcDbLine
 10
5.0
 20
0.0
 30
0.0
 11
12.5
 21
0.0
 31
0.0
  0
ENDBLK
  5
3EF
330
3ED
100
AcDbEntity
  8
0
100
AcDbBlockEnd
  0
BLOCK
  5
3FA
330
3F9
100
AcDbEntity
  8
0
100
AcDbBlockBegin
  2
SW_CENTERMARKSYMBOL_9
 70
     0
 10
0.0
 20
0.0
 30
0.0
  3
SW_CENTERMARKSYMBOL_9
  1

  0
LINE
  5
3FC
330
3F9
100
AcDbEntity
  8
FORMAT
 62
     0
100
AcDbLine
 10
0.0
 20
0.0
 30
0.0
 11
0.0
 21
2.5
 31
0.0
  0
LINE
  5
3FD
330
3F9
100
AcDbEntity
  8
FORMAT
 62
     0
100
AcDbLine
 10
0.0
 20
0.0
 30
0.0
 11
-2.5
 21
0.0
 31
0.0
  0
LINE
  5
3FE
330
3F9
100
AcDbEntity
  8
FORMAT
 62
     0
100
AcDbLine
 10
0.0
 20
0.0
 30
0.0
 11
0.0
 21
-2.5
 31
0.0
  0
LINE
  5
3FF
330
3F9
100
AcDbEntity
  8
FORMAT
 62
     0
100
AcDbLine
 10
0.0
 20
0.0
 30
0.0
 11
2.5
 21
0.0
 31
0.0
  0
LINE
  5
400
330
3F9
100
AcDbEntity
  8
FORMAT
 62
     0
100
AcDbLine
 10
0.0
 20
5.0
 30
0.0
 11
0.0
 21
12.5
 31
0.0
  0
LINE
  5
401
330
3F9
100
AcDbEntity
  8
FORMAT
 62
     0
100
AcDbLine
 10
-5.0
 20
0.0
 30
0.0
 11
-12.5
 21
0.0
 31
0.0
  0
LINE
  5
402
330
3F9
100
AcDbEntity
  8
FORMAT
 62
     0
100
AcDbLine
 10
0.0
 20
-5.0
 30
0.0
 11
0.0
 21
-12.5
 31
0.0
  0
LINE
  5
403
330
3F9
100
AcDbEntity
  8
FORMAT
 62
     0
100
AcDbLine
 10
5.0
 20
0.0
 30
0.0
 11
12.5
 21
0.0
 31
0.0
  0
ENDBLK
  5
3FB
330
3F9
100
AcDbEntity
  8
0
100
AcDbBlockEnd
  0
BLOCK
  5
406
330
405
100
AcDbEntity
  8
0
100
AcDbBlockBegin
  2
SW_CENTERMARKSYMBOL_10
 70
     0
 10
0.0
 20
0.0
 30
0.0
  3
SW_CENTERMARKSYMBOL_10
  1

  0
LINE
  5
408
330
405
100
AcDbEntity
  8
FORMAT
 62
     0
100
AcDbLine
 10
0.0
 20
0.0
 30
0.0
 11
0.0
 21
2.5
 31
0.0
  0
LINE
  5
409
330
405
100
AcDbEntity
  8
FORMAT
 62
     0
100
AcDbLine
 10
0.0
 20
0.0
 30
0.0
 11
-2.5
 21
0.0
 31
0.0
  0
LINE
  5
40A
330
405
100
AcDbEntity
  8
FORMAT
 62
     0
100
AcDbLine
 10
0.0
 20
0.0
 30
0.0
 11
0.0
 21
-2.5
 31
0.0
  0
LINE
  5
40B
330
405
100
AcDbEntity
  8
FORMAT
 62
     0
100
AcDbLine
 10
0.0
 20
0.0
 30
0.0
 11
2.5
 21
0.0
 31
0.0
  0
LINE
  5
40C
330
405
100
AcDbEntity
  8
FORMAT
 62
     0
100
AcDbLine
 10
0.0
 20
5.0
 30
0.0
 11
0.0
 21
12.5
 31
0.0
  0
LINE
  5
40D
330
405
100
AcDbEntity
  8
FORMAT
 62
     0
100
AcDbLine
 10
-5.0
 20
0.0
 30
0.0
 11
-12.5
 21
0.0
 31
0.0
  0
LINE
  5
40E
330
405
100
AcDbEntity
  8
FORMAT
 62
     0
100
AcDbLine
 10
0.0
 20
-5.0
 30
0.0
 11
0.0
 21
-12.5
 31
0.0
  0
LINE
  5
40F
330
405
100
AcDbEntity
  8
FORMAT
 62
     0
100
AcDbLine
 10
5.0
 20
0.0
 30
0.0
 11
12.5
 21
0.0
 31
0.0
  0
ENDBLK
  5
407
330
405
100
AcDbEntity
  8
0
100
AcDbBlockEnd
  0
BLOCK
  5
412
330
411
100
AcDbEntity
  8
0
100
AcDbBlockBegin
  2
SW_CENTERMARKSYMBOL_11
 70
     0
 10
0.0
 20
0.0
 30
0.0
  3
SW_CENTERMARKSYMBOL_11
  1

  0
LINE
  5
414
330
411
100
AcDbEntity
  8
FORMAT
 62
     0
100
AcDbLine
 10
0.0
 20
0.0
 30
0.0
 11
0.0
 21
2.5
 31
0.0
  0
LINE
  5
415
330
411
100
AcDbEntity
  8
FORMAT
 62
     0
100
AcDbLine
 10
0.0
 20
0.0
 30
0.0
 11
-2.5
 21
0.0
 31
0.0
  0
LINE
  5
416
330
411
100
AcDbEntity
  8
FORMAT
 62
     0
100
AcDbLine
 10
0.0
 20
0.0
 30
0.0
 11
0.0
 21
-2.5
 31
0.0
  0
LINE
  5
417
330
411
100
AcDbEntity
  8
FORMAT
 62
     0
100
AcDbLine
 10
0.0
 20
0.0
 30
0.0
 11
2.5
 21
0.0
 31
0.0
  0
LINE
  5
418
330
411
100
AcDbEntity
  8
FORMAT
 62
     0
100
AcDbLine
 10
0.0
 20
5.0
 30
0.0
 11
0.0
 21
12.5
 31
0.0
  0
LINE
  5
419
330
411
100
AcDbEntity
  8
FORMAT
 62
     0
100
AcDbLine
 10
-5.0
 20
0.0
 30
0.0
 11
-12.5
 21
0.0
 31
0.0
  0
LINE
  5
41A
330
411
100
AcDbEntity
  8
FORMAT
 62
     0
100
AcDbLine
 10
0.0
 20
-5.0
 30
0.0
 11
0.0
 21
-12.5
 31
0.0
  0
LINE
  5
41B
330
411
100
AcDbEntity
  8
FORMAT
 62
     0
100
AcDbLine
 10
5.0
 20
0.0
 30
0.0
 11
12.5
 21
0.0
 31
0.0
  0
ENDBLK
  5
413
330
411
100
AcDbEntity
  8
0
100
AcDbBlockEnd
  0
BLOCK
  5
520
330
51F
100
AcDbEntity
  8
0
100
AcDbBlockBegin
  2
_D_21
 70
     0
 10
0.0
 20
0.0
 30
0.0
  3
_D_21
  1

  0
SOLID
  5
522
330
51F
100
AcDbEntity
  8
FORMAT
100
AcDbTrace
 10
2186.6358063594
 20
1473.787873556
 30
0.0
 11
2209.7498063594
 21
1470.231873556
 31
0.0
 12
2209.7498063594
 22
1477.343873556
 32
0.0
 13
2209.7498063594
 23
1477.343873556
 33
0.0
  0
SOLID
  5
523
330
51F
100
AcDbEntity
  8
FORMAT
100
AcDbTrace
 10
2306.6358063593
 20
1473.787873556
 30
0.0
 11
2283.5218063593
 21
1477.343873556
 31
0.0
 12
2283.5218063593
 22
1470.231873556
 32
0.0
 13
2283.5218063593
 23
1470.231873556
 33
0.0
  0
LINE
  5
524
330
51F
100
AcDbEntity
  8
FORMAT
100
AcDbLine
 10
2306.6358063593
 20
1610.7943081803
 30
0.0
 11
2306.6358063593
 21
1466.787873556
 31
0.0
  0
LINE
  5
525
330
51F
100
AcDbEntity
  8
FORMAT
100
AcDbLine
 10
2186.6358063594
 20
1473.787873556
 30
0.0
 11
2306.6358063593
 21
1473.787873556
 31
0.0
  0
MTEXT
  5
526
330
51F
100
AcDbEntity
  8
FORMAT
100
AcDbMText
 10
2218.5628903881
 20
1505.3700348102
 30
0.0
 40
24.5
 41
0.0
 71
     1
 72
     1
  1
120
  7
SLDTEXTSTYLE0
 73
     1
 44
1.0
  0
ENDBLK
  5
521
330
51F
100
AcDbEntity
  8
0
100
AcDbBlockEnd
  0
BLOCK
  5
52A
330
529
100
AcDbEntity
  8
0
100
AcDbBlockBegin
  2
_D_22
 70
     0
 10
0.0
 20
0.0
 30
0.0
  3
_D_22
  1

  0
SOLID
  5
52C
330
529
100
AcDbEntity
  8
FORMAT
100
AcDbTrace
 10
2608.1540998156
 20
1582.4443081801
 30
0.0
 11
2611.7100998157
 21
1605.5583081801
 31
0.0
 12
2604.5980998157
 22
1605.5583081801
 32
0.0
 13
2604.5980998157
 23
1605.5583081801
 33
0.0
  0
SOLID
  5
52D
330
529
100
AcDbEntity
  8
FORMAT
100
AcDbTrace
 10
2608.1540998157
 20
1707.7943081801
 30
0.0
 11
2604.5980998157
 21
1684.6803081801
 31
0.0
 12
2611.7100998157
 22
1684.6803081801
 32
0.0
 13
2611.7100998157
 23
1684.6803081801
 33
0.0
  0
LINE
  5
52E
330
529
100
AcDbEntity
  8
FORMAT
100
AcDbLine
 10
2148.1713402653
 20
1582.4443081804
 30
0.0
 11
2615.1540998156
 21
1582.4443081801
 31
0.0
  0
LINE
  5
52F
330
529
100
AcDbEntity
  8
FORMAT
100
AcDbLine
 10
2308.6358063593
 20
1707.7943081803
 30
0.0
 11
2615.1540998157
 21
1707.7943081801
 31
0.0
  0
LINE
  5
530
330
529
100
AcDbEntity
  8
FORMAT
100
AcDbLine
 10
2608.1540998156
 20
1582.4443081801
 30
0.0
 11
2608.1540998157
 21
1707.7943081801
 31
0.0
  0
MTEXT
  5
531
330
529
100
AcDbEntity
  8
FORMAT
100
AcDbMText
 10
2576.5719385614
 20
1617.0463922088
 30
0.0
 40
24.5
 41
0.0
 71
     1
 72
     1
  1
125
  7
SLDTEXTSTYLE0
 11
6.699698053987768E-13
 21
1.0
 31
0.0
 73
     1
 44
1.0
  0
ENDBLK
  5
52B
330
529
100
AcDbEntity
  8
0
100
AcDbBlockEnd
  0
BLOCK
  5
534
330
533
100
AcDbEntity
  8
0
100
AcDbBlockBegin
  2
_D_23
 70
     0
 10
0.0
 20
0.0
 30
0.0
  3
_D_23
  1

  0
SOLID
  5
536
330
533
100
AcDbEntity
  8
FORMAT
100
AcDbTrace
 10
1924.6358063594
 20
1611.6943081804
 30
0.0
 11
1928.1918063594
 21
1634.8083081804
 31
0.0
 12
1921.0798063594
 22
1634.8083081804
 32
0.0
 13
1921.0798063594
 23
1634.8083081804
 33
0.0
  0
SOLID
  5
537
330
533
100
AcDbEntity
  8
FORMAT
100
AcDbTrace
 10
1924.6358063594
 20
1708.7943081804
 30
0.0
 11
1921.0798063594
 21
1685.6803081804
 31
0.0
 12
1928.1918063594
 22
1685.6803081804
 32
0.0
 13
1928.1918063594
 23
1685.6803081804
 33
0.0
  0
LINE
  5
538
330
533
100
AcDbEntity
  8
FORMAT
100
AcDbLine
 10
2069.6358063594
 20
1611.6943081804
 30
0.0
 11
1917.6358063594
 21
1611.6943081804
 31
0.0
  0
LINE
  5
539
330
533
100
AcDbEntity
  8
FORMAT
100
AcDbLine
 10
2180.6358063593
 20
1708.7943081804
 30
0.0
 11
1917.6358063594
 21
1708.7943081804
 31
0.0
  0
LINE
  5
53A
330
533
100
AcDbEntity
  8
FORMAT
100
AcDbLine
 10
1924.6358063594
 20
1611.6943081804
 30
0.0
 11
1924.6358063594
 21
1708.7943081804
 31
0.0
  0
MTEXT
  5
53B
330
533
100
AcDbEntity
  8
FORMAT
100
AcDbMText
 10
1893.0536451052
 20
1641.5290308662
 30
0.0
 40
24.5
 41
0.0
 71
     1
 72
     1
  1
97
  7
SLDTEXTSTYLE0
 11
6.123233995736766E-17
 21
1.0
 31
0.0
 73
     1
 44
1.0
  0
ENDBLK
  5
535
330
533
100
AcDbEntity
  8
0
100
AcDbBlockEnd
  0
BLOCK
  5
53F
330
53E
100
AcDbEntity
  8
0
100
AcDbBlockBegin
  2
_Dot
 70
     0
 10
0.0
 20
0.0
 30
0.0
  3
_Dot
  1

  0
LWPOLYLINE
  5
541
330
53E
100
AcDbEntity
  8
0
  6
ByBlock
 62
     0
100
AcDbPolyline
 90
        2
 70
     1
 43
0.5
 10
-0.25
 20
0.0
 42
1.0
 10
0.25
 20
0.0
 42
1.0
  0
LINE
  5
542
330
53E
100
AcDbEntity
  8
0
  6
ByBlock
 62
     0
370
    -2
100
AcDbLine
 10
-0.5
 20
0.0
 30
0.0
 11
-1.0
 21
0.0
 31
0.0
  0
ENDBLK
  5
540
330
53E
100
AcDbEntity
  8
0
100
AcDbBlockEnd
  0
BLOCK
  5
544
330
543
100
AcDbEntity
  8
0
100
AcDbBlockBegin
  2
_D_24
 70
     0
 10
0.0
 20
0.0
 30
0.0
  3
_D_24
  1

  0
INSERT
  5
546
330
543
100
AcDbEntity
  8
FORMAT
100
AcDbBlockReference
  2
_Dot
 10
2106.6358063594
 20
1857.8902535167
 30
690.5466225452
 41
7.112
 42
7.112
 50
180.0
  0
SOLID
  5
547
330
543
100
AcDbEntity
  8
FORMAT
100
AcDbTrace
 10
2186.6358063594
 20
1857.8902535167
 30
0.0
 11
2163.5218063594
 21
1861.4462535167
 31
0.0
 12
2163.5218063594
 22
1854.3342535167
 32
0.0
 13
2163.5218063594
 23
1854.3342535167
 33
0.0
  0
LINE
  5
548
330
543
100
AcDbEntity
  8
FORMAT
100
AcDbLine
 10
2106.6358063594
 20
1613.6943081804
 30
0.0
 11
2106.6358063594
 21
1864.8902535167
 31
0.0
  0
LINE
  5
549
330
543
100
AcDbEntity
  8
FORMAT
100
AcDbLine
 10
2186.6358063594
 20
1818.6943081804
 30
0.0
 11
2186.6358063594
 21
1864.8902535167
 31
0.0
  0
LINE
  5
54A
330
543
100
AcDbEntity
  8
FORMAT
100
AcDbLine
 10
2106.6358063594
 20
1857.8902535167
 30
0.0
 11
1972.1812191254
 21
1857.8902535167
 31
0.0
  0
LINE
  5
54B
330
543
100
AcDbEntity
  8
FORMAT
100
AcDbLine
 10
2106.6358063594
 20
1857.8902535167
 30
0.0
 11
2186.6358063594
 21
1857.8902535167
 31
0.0
  0
MTEXT
  5
54C
330
543
100
AcDbEntity
  8
FORMAT
100
AcDbMText
 10
1972.1812191254
 20
1881.7648635028
 30
0.0
 40
18.5208333333
 41
0.0
 71
     1
 72
     1
  1
max. 250**
  7
SLDTEXTSTYLE0
 73
     1
 44
1.0
  0
ENDBLK
  5
545
330
543
100
AcDbEntity
  8
0
100
AcDbBlockEnd
  0
BLOCK
  5
623
330
622
100
AcDbEntity
  8
0
100
AcDbBlockBegin
  2
_D_25
 70
     0
 10
0.0
 20
0.0
 30
0.0
  3
_D_25
  1

  0
SOLID
  5
625
330
622
100
AcDbEntity
  8
FORMAT
100
AcDbTrace
 10
2163.6157588545
 20
724.3463593813
 30
0.0
 11
2160.0597588545
 21
701.2323593813
 31
0.0
 12
2167.1717588545
 22
701.2323593813
 32
0.0
 13
2167.1717588545
 23
701.2323593813
 33
0.0
  0
SOLID
  5
626
330
622
100
AcDbEntity
  8
FORMAT
100
AcDbTrace
 10
2163.6157588545
 20
730.5063593807
 30
0.0
 11
2167.1717588545
 21
753.6203593807
 31
0.0
 12
2160.0597588545
 22
753.6203593807
 32
0.0
 13
2160.0597588545
 23
753.6203593807
 33
0.0
  0
LINE
  5
627
330
622
100
AcDbEntity
  8
FORMAT
100
AcDbLine
 10
2518.1909007738
 20
724.346359381
 30
0.0
 11
2156.6157588545
 21
724.3463593813
 31
0.0
  0
LINE
  5
628
330
622
100
AcDbEntity
  8
FORMAT
100
AcDbLine
 10
2256.8492775501
 20
730.5063593806
 30
0.0
 11
2156.6157588545
 21
730.5063593807
 31
0.0
  0
LINE
  5
629
330
622
100
AcDbEntity
  8
FORMAT
100
AcDbLine
 10
2163.6157588545
 20
724.3463593813
 30
0.0
 11
2163.6157588544
 21
639.8499787504
 31
0.0
  0
LINE
  5
62A
330
622
100
AcDbEntity
  8
FORMAT
100
AcDbLine
 10
2163.6157588545
 20
724.3463593813
 30
0.0
 11
2163.6157588545
 21
730.5063593807
 31
0.0
  0
LINE
  5
62B
330
622
100
AcDbEntity
  8
FORMAT
100
AcDbLine
 10
2163.6157588545
 20
730.5063593807
 30
0.0
 11
2163.6157588545
 21
774.9563593807
 31
0.0
  0
MTEXT
  5
62C
330
622
100
AcDbEntity
  8
FORMAT
100
AcDbMText
 10
2132.0335976002
 20
639.8499787504
 30
0.0
 40
24.5
 41
0.0
 71
     1
 72
     1
  1
4,4
  7
SLDTEXTSTYLE0
 11
1.050554258240280E-12
 21
1.0
 31
0.0
 73
     1
 44
1.0
  0
MTEXT
  5
62D
330
622
100
AcDbEntity
  8
FORMAT
100
AcDbMText
 10
2132.0335976002
 20
686.6381720359
 30
0.0
 40
24.5
 41
0.0
 71
     1
 72
     1
  1
*
  7
SLDTEXTSTYLE0
 11
1.050554258240280E-12
 21
1.0
 31
0.0
 73
     1
 44
1.0
  0
ENDBLK
  5
624
330
622
100
AcDbEntity
  8
0
100
AcDbBlockEnd
  0
BLOCK
  5
631
330
630
100
AcDbEntity
  8
0
100
AcDbBlockBegin
  2
_D_26
 70
     0
 10
0.0
 20
0.0
 30
0.0
  3
_D_26
  1

  0
SOLID
  5
633
330
630
100
AcDbEntity
  8
FORMAT
100
AcDbTrace
 10
2663.4072761387
 20
724.3463593808
 30
0.0
 11
2659.8512761386
 21
701.2323593808
 31
0.0
 12
2666.9632761386
 22
701.2323593808
 32
0.0
 13
2666.9632761386
 23
701.2323593808
 33
0.0
  0
SOLID
  5
634
330
630
100
AcDbEntity
  8
FORMAT
100
AcDbTrace
 10
2663.4072761387
 20
732.0463593803
 30
0.0
 11
2666.9632761387
 21
755.1603593803
 31
0.0
 12
2659.8512761387
 22
755.1603593803
 32
0.0
 13
2659.8512761387
 23
755.1603593803
 33
0.0
  0
LINE
  5
635
330
630
100
AcDbEntity
  8
FORMAT
100
AcDbLine
 10
2593.2097698684
 20
724.3463593809
 30
0.0
 11
2670.4072761387
 21
724.3463593808
 31
0.0
  0
LINE
  5
636
330
630
100
AcDbEntity
  8
FORMAT
100
AcDbLine
 10
2585.8492775498
 20
732.0463593803
 30
0.0
 11
2670.4072761387
 21
732.0463593803
 31
0.0
  0
LINE
  5
637
330
630
100
AcDbEntity
  8
FORMAT
100
AcDbLine
 10
2663.4072761387
 20
724.3463593808
 30
0.0
 11
2663.4072761386
 21
646.4003271142
 31
0.0
  0
LINE
  5
638
330
630
100
AcDbEntity
  8
FORMAT
100
AcDbLine
 10
2663.4072761387
 20
724.3463593808
 30
0.0
 11
2663.4072761387
 21
732.0463593803
 31
0.0
  0
LINE
  5
639
330
630
100
AcDbEntity
  8
FORMAT
100
AcDbLine
 10
2663.4072761387
 20
732.0463593803
 30
0.0
 11
2663.4072761387
 21
776.4963593803
 31
0.0
  0
MTEXT
  5
63A
330
630
100
AcDbEntity
  8
FORMAT
100
AcDbMText
 10
2631.8251148843
 20
646.4003271142
 30
0.0
 40
24.5
 41
0.0
 71
     1
 72
     1
  1
5,5
  7
SLDTEXTSTYLE0
 11
1.050554258240280E-12
 21
1.0
 31
0.0
 73
     1
 44
1.0
  0
ENDBLK
  5
632
330
630
100
AcDbEntity
  8
0
100
AcDbBlockEnd
  0
BLOCK
  5
63E
330
63D
100
AcDbEntity
  8
0
100
AcDbBlockBegin
  2
_D_27
 70
     0
 10
0.0
 20
0.0
 30
0.0
  3
_D_27
  1

  0
SOLID
  5
640
330
63D
100
AcDbEntity
  8
FORMAT
100
AcDbTrace
 10
2108.8079736526
 20
730.5063593807
 30
0.0
 11
2105.2519736526
 21
707.3923593807
 31
0.0
 12
2112.3639736526
 22
707.3923593807
 32
0.0
 13
2112.3639736526
 23
707.3923593807
 33
0.0
  0
SOLID
  5
641
330
63D
100
AcDbEntity
  8
FORMAT
100
AcDbTrace
 10
2108.8079736526
 20
732.0463593807
 30
0.0
 11
2112.3639736526
 21
755.1603593807
 31
0.0
 12
2105.2519736526
 22
755.1603593807
 32
0.0
 13
2105.2519736526
 23
755.1603593807
 33
0.0
  0
LINE
  5
642
330
63D
100
AcDbEntity
  8
FORMAT
100
AcDbLine
 10
2256.8492775501
 20
730.5063593806
 30
0.0
 11
2101.8079736526
 21
730.5063593807
 31
0.0
  0
LINE
  5
643
330
63D
100
AcDbEntity
  8
FORMAT
100
AcDbLine
 10
2410.8492775498
 20
732.0463593805
 30
0.0
 11
2101.8079736526
 21
732.0463593807
 31
0.0
  0
LINE
  5
644
330
63D
100
AcDbEntity
  8
FORMAT
100
AcDbLine
 10
2108.8079736526
 20
730.5063593807
 30
0.0
 11
2108.8079736525
 21
659.8389110308
 31
0.0
  0
LINE
  5
645
330
63D
100
AcDbEntity
  8
FORMAT
100
AcDbLine
 10
2108.8079736526
 20
730.5063593807
 30
0.0
 11
2108.8079736526
 21
732.0463593807
 31
0.0
  0
LINE
  5
646
330
63D
100
AcDbEntity
  8
FORMAT
100
AcDbLine
 10
2108.8079736526
 20
732.0463593807
 30
0.0
 11
2108.8079736526
 21
776.4963593807
 31
0.0
  0
MTEXT
  5
647
330
63D
100
AcDbEntity
  8
FORMAT
100
AcDbMText
 10
2077.2258123983
 20
659.8389110309
 30
0.0
 40
24.5
 41
0.0
 71
     1
 72
     1
  1
1
  7
SLDTEXTSTYLE0
 11
6.679714039544516E-13
 21
1.0
 31
0.0
 73
     1
 44
1.0
  0
ENDBLK
  5
63F
330
63D
100
AcDbEntity
  8
0
100
AcDbBlockEnd
  0
BLOCK
  5
66A
330
669
100
AcDbEntity
  8
0
100
AcDbBlockBegin
  2
_D_28
 70
     0
 10
0.0
 20
0.0
 30
0.0
  3
_D_28
  1

  0
SOLID
  5
66C
330
669
100
AcDbEntity
  8
FORMAT
100
AcDbTrace
 10
1745.6297189944
 20
210.676686968
 30
0.0
 11
1742.0737189944
 21
187.562686968
 31
0.0
 12
1749.1857189944
 22
187.562686968
 32
0.0
 13
1749.1857189944
 23
187.562686968
 33
0.0
  0
SOLID
  5
66D
330
669
100
AcDbEntity
  8
FORMAT
100
AcDbTrace
 10
1745.6297189944
 20
221.176686968
 30
0.0
 11
1749.1857189944
 21
244.290686968
 31
0.0
 12
1742.0737189944
 22
244.290686968
 32
0.0
 13
1742.0737189944
 23
244.290686968
 33
0.0
  0
LINE
  5
66E
330
669
100
AcDbEntity
  8
FORMAT
100
AcDbLine
 10
1799.5209159582
 20
210.676686968
 30
0.0
 11
1738.6297189944
 21
210.676686968
 31
0.0
  0
LINE
  5
66F
330
669
100
AcDbEntity
  8
FORMAT
100
AcDbLine
 10
1833.1849775045
 20
221.176686968
 30
0.0
 11
1738.6297189944
 21
221.176686968
 31
0.0
  0
LINE
  5
670
330
669
100
AcDbEntity
  8
FORMAT
100
AcDbLine
 10
1745.6297189944
 20
210.676686968
 30
0.0
 11
1745.6297189944
 21
140.1362205925
 31
0.0
  0
LINE
  5
671
330
669
100
AcDbEntity
  8
FORMAT
100
AcDbLine
 10
1745.6297189944
 20
210.676686968
 30
0.0
 11
1745.6297189944
 21
221.176686968
 31
0.0
  0
LINE
  5
672
330
669
100
AcDbEntity
  8
FORMAT
100
AcDbLine
 10
1745.6297189944
 20
221.176686968
 30
0.0
 11
1745.6297189944
 21
265.626686968
 31
0.0
  0
MTEXT
  5
673
330
669
100
AcDbEntity
  8
FORMAT
100
AcDbMText
 10
1714.0475577402
 20
140.1362205925
 30
0.0
 40
24.5
 41
0.0
 71
     1
 72
     1
  1
7,5
  7
SLDTEXTSTYLE0
 11
-1.893428156610943E-13
 21
1.0
 31
0.0
 73
     1
 44
1.0
  0
ENDBLK
  5
66B
330
669
100
AcDbEntity
  8
0
100
AcDbBlockEnd
  0
BLOCK
  5
677
330
676
100
AcDbEntity
  8
0
100
AcDbBlockBegin
  2
_D_29
 70
     0
 10
0.0
 20
0.0
 30
0.0
  3
_D_29
  1

  0
SOLID
  5
679
330
676
100
AcDbEntity
  8
FORMAT
100
AcDbTrace
 10
1700.0644935191
 20
221.176686968
 30
0.0
 11
1703.6204935191
 21
244.290686968
 31
0.0
 12
1696.5084935191
 22
244.290686968
 32
0.0
 13
1696.5084935191
 23
244.290686968
 33
0.0
  0
SOLID
  5
67A
330
676
100
AcDbEntity
  8
FORMAT
100
AcDbTrace
 10
1700.0644935191
 20
327.576686968
 30
0.0
 11
1696.5084935191
 21
304.462686968
 31
0.0
 12
1703.6204935191
 22
304.462686968
 32
0.0
 13
1703.6204935191
 23
304.462686968
 33
0.0
  0
LINE
  5
67B
330
676
100
AcDbEntity
  8
FORMAT
100
AcDbLine
 10
1841.2349775045
 20
221.176686968
 30
0.0
 11
1693.0644935191
 21
221.176686968
 31
0.0
  0
LINE
  5
67C
330
676
100
AcDbEntity
  8
FORMAT
100
AcDbLine
 10
1833.1849775044
 20
327.576686968
 30
0.0
 11
1693.0644935191
 21
327.576686968
 31
0.0
  0
LINE
  5
67D
330
676
100
AcDbEntity
  8
FORMAT
100
AcDbLine
 10
1700.0644935191
 20
221.176686968
 30
0.0
 11
1700.0644935191
 21
327.576686968
 31
0.0
  0
MTEXT
  5
67E
330
676
100
AcDbEntity
  8
FORMAT
100
AcDbMText
 10
1668.4823322648
 20
255.6614096538
 30
0.0
 40
24.5
 41
0.0
 71
     1
 72
     1
  1
76
  7
SLDTEXTSTYLE0
 11
6.123233995736766E-17
 21
1.0
 31
0.0
 73
     1
 44
1.0
  0
ENDBLK
  5
678
330
676
100
AcDbEntity
  8
0
100
AcDbBlockEnd
  0
BLOCK
  5
681
330
680
100
AcDbEntity
  8
0
100
AcDbBlockBegin
  2
SW_CENTERMARKSYMBOL_12
 70
     0
 10
0.0
 20
0.0
 30
0.0
  3
SW_CENTERMARKSYMBOL_12
  1

  0
LINE
  5
683
330
680
100
AcDbEntity
  8
FORMAT
 62
     0
100
AcDbLine
 10
0.0
 20
0.0
 30
0.0
 11
0.0
 21
3.5000018775
 31
0.0
  0
LINE
  5
684
330
680
100
AcDbEntity
  8
FORMAT
 62
     0
100
AcDbLine
 10
0.0
 20
0.0
 30
0.0
 11
-3.4999966621
 21
0.0
 31
0.0
  0
LINE
  5
685
330
680
100
AcDbEntity
  8
FORMAT
 62
     0
100
AcDbLine
 10
0.0
 20
0.0
 30
0.0
 11
0.0
 21
-3.5000018775
 31
0.0
  0
LINE
  5
686
330
680
100
AcDbEntity
  8
FORMAT
 62
     0
100
AcDbLine
 10
0.0
 20
0.0
 30
0.0
 11
3.4999966621
 21
0.0
 31
0.0
  0
LINE
  5
687
330
680
100
AcDbEntity
  8
FORMAT
 62
     0
100
AcDbLine
 10
0.0
 20
6.9999985397
 30
0.0
 11
0.0
 21
8.0499954522
 31
0.0
  0
LINE
  5
688
330
680
100
AcDbEntity
  8
FORMAT
 62
     0
100
AcDbLine
 10
-6.9999933243
 20
0.0
 30
0.0
 11
-8.0500006676
 21
0.0
 31
0.0
  0
LINE
  5
689
330
680
100
AcDbEntity
  8
FORMAT
 62
     0
100
AcDbLine
 10
0.0
 20
-7.0000037551
 30
0.0
 11
0.0
 21
-8.0500006676
 31
0.0
  0
LINE
  5
68A
330
680
100
AcDbEntity
  8
FORMAT
 62
     0
100
AcDbLine
 10
6.9999933243
 20
0.0
 30
0.0
 11
8.0500006676
 21
0.0
 31
0.0
  0
ENDBLK
  5
682
330
680
100
AcDbEntity
  8
0
100
AcDbBlockEnd
  0
BLOCK
  5
68D
330
68C
100
AcDbEntity
  8
0
100
AcDbBlockBegin
  2
SW_CENTERMARKSYMBOL_13
 70
     0
 10
0.0
 20
0.0
 30
0.0
  3
SW_CENTERMARKSYMBOL_13
  1

  0
LINE
  5
68F
330
68C
100
AcDbEntity
  8
FORMAT
 62
     0
100
AcDbLine
 10
0.0
 20
0.0
 30
0.0
 11
0.0
 21
3.4999966621
 31
0.0
  0
LINE
  5
690
330
68C
100
AcDbEntity
  8
FORMAT
 62
     0
100
AcDbLine
 10
0.0
 20
0.0
 30
0.0
 11
-3.4999966621
 21
0.0
 31
0.0
  0
LINE
  5
691
330
68C
100
AcDbEntity
  8
FORMAT
 62
     0
100
AcDbLine
 10
0.0
 20
0.0
 30
0.0
 11
0.0
 21
-3.4999966621
 31
0.0
  0
LINE
  5
692
330
68C
100
AcDbEntity
  8
FORMAT
 62
     0
100
AcDbLine
 10
0.0
 20
0.0
 30
0.0
 11
3.4999966621
 21
0.0
 31
0.0
  0
LINE
  5
693
330
68C
100
AcDbEntity
  8
FORMAT
 62
     0
100
AcDbLine
 10
0.0
 20
6.9999933243
 30
0.0
 11
0.0
 21
8.0500006676
 31
0.0
  0
LINE
  5
694
330
68C
100
AcDbEntity
  8
FORMAT
 62
     0
100
AcDbLine
 10
-6.9999933243
 20
0.0
 30
0.0
 11
-8.0500006676
 21
0.0
 31
0.0
  0
LINE
  5
695
330
68C
100
AcDbEntity
  8
FORMAT
 62
     0
100
AcDbLine
 10
0.0
 20
-6.9999933243
 30
0.0
 11
0.0
 21
-8.0500006676
 31
0.0
  0
LINE
  5
696
330
68C
100
AcDbEntity
  8
FORMAT
 62
     0
100
AcDbLine
 10
6.9999933243
 20
0.0
 30
0.0
 11
8.0500006676
 21
0.0
 31
0.0
  0
ENDBLK
  5
68E
330
68C
100
AcDbEntity
  8
0
100
AcDbBlockEnd
  0
ENDSEC
  0
SECTION
  2
ENTITIES
  0
LINE
  5
CA
330
1F
100
AcDbEntity
  8
FORMAT
  6
Continuous
 62
     7
370
    18
100
AcDbLine
 10
2648.7467156628
 20
249.0548071362
 30
0.0
 11
2121.8704816337
 21
249.0548071362
 31
0.0
  0
LINE
  5
CB
330
1F
100
AcDbEntity
  8
FORMAT
  6
Continuous
 62
     7
370
    18
100
AcDbLine
 10
2648.7467156628
 20
341.1944719343
 30
0.0
 11
2869.6070185003
 21
341.1944719343
 31
0.0
  0
LINE
  5
CC
330
1F
100
AcDbEntity
  8
0
  6
Continuous
 62
     7
370
    18
100
AcDbLine
 10
2552.9704263625
 20
249.0548071362
 30
0.0
 11
2552.9704263625
 21
181.3583509723
 31
0.0
  0
LINE
  5
CD
330
1F
100
AcDbEntity
  8
FORMAT
100
AcDbLine
 10
2869.6070185003
 20
2009.0
 30
0.0
 11
69.6070185003
 21
2009.0
 31
0.0
  0
LINE
  5
CE
330
1F
100
AcDbEntity
  8
FORMAT
100
AcDbLine
 10
69.6070185003
 20
2009.0
 30
0.0
 11
69.6070185003
 21
70.0
 31
0.0
  0
LINE
  5
CF
330
1F
100
AcDbEntity
  8
BEMASSUNG
  6
Continuous
 62
     7
370
    18
100
AcDbLine
 10
2648.7467156628
 20
283.9466531596
 30
0.0
 11
2869.6070185003
 21
283.9466531596
 31
0.0
  0
LINE
  5
D0
330
1F
100
AcDbEntity
  8
FORMAT
100
AcDbLine
 10
69.6070185003
 20
70.0
 30
0.0
 11
2869.6070185003
 21
70.0
 31
0.0
  0
LINE
  5
D1
330
1F
100
AcDbEntity
  8
FORMAT
100
AcDbLine
 10
2869.6070185003
 20
70.0
 30
0.0
 11
2869.6070185003
 21
2009.0
 31
0.0
  0
LINE
  5
D2
330
1F
100
AcDbEntity
  8
0
  6
Continuous
 62
     7
370
    18
100
AcDbLine
 10
2121.8704816337
 20
368.7467824209
 30
0.0
 11
2121.8704816337
 21
70.0000160588
 31
0.0
  0
LINE
  5
D3
330
1F
100
AcDbEntity
  8
0
  6
Continuous
 62
     7
370
    18
100
AcDbLine
 10
2766.39523512
 20
70.0
 30
0.0
 11
2766.39523512
 21
135.4292810523
 31
0.0
  0
LINE
  5
D4
330
1F
100
AcDbEntity
  8
0
  6
Continuous
 62
     7
370
    18
100
AcDbLine
 10
2121.8704816337
 20
181.3583509723
 30
0.0
 11
2869.6070185003
 21
181.3583509723
 31
0.0
  0
LINE
  5
D5
330
1F
100
AcDbEntity
  8
0
  6
Continuous
 62
     7
370
    18
100
AcDbLine
 10
2648.7467156628
 20
135.4292810523
 30
0.0
 11
2869.6070185003
 21
135.4292810523
 31
0.0
  0
LINE
  5
D6
330
1F
100
AcDbEntity
  8
0
  6
Continuous
 62
     7
370
    18
100
AcDbLine
 10
2121.8704816337
 20
368.7467824209
 30
0.0
 11
2869.7006917056
 21
368.7467824209
 31
0.0
  0
LINE
  5
D7
330
1F
100
AcDbEntity
  8
0
  6
Continuous
 62
     7
370
    18
100
AcDbLine
 10
2648.7467156628
 20
70.0
 30
0.0
 11
2648.7467156628
 21
368.7467824209
 31
0.0
  0
INSERT
  5
D8
330
1F
100
AcDbEntity
  8
FORMAT
100
AcDbBlockReference
  2
rechtlicher_Hinweis_Katalogzeichnungen_1
 10
86.2294908427
 20
31.5549972483
 30
0.0
 41
0.5
 42
0.5
 43
0.5
  0
INSERT
  5
D9
330
1F
100
AcDbEntity
  8
0
  6
Continuous
 62
     7
100
AcDbBlockReference
  2
Block2_3_1
 10
509.1807851128
 20
-261.5944962483
 30
0.0
  0
INSERT
  5
DA
330
1F
100
AcDbEntity
  8
0
  6
Continuous
 62
     7
100
AcDbBlockReference
  2
Block1_3_1
 10
2700.6135347481
 20
189.6696797211
 30
0.0
  0
INSERT
  5
E1
330
1F
100
AcDbEntity
  8
FORMAT
100
AcDbBlockReference
  2
SW_NOTE_0_4
 10
110.592829217
 20
350.9995070172
 30
0.0
  0
MTEXT
  5
E2
330
1F
100
AcDbEntity
  8
0
  6
Continuous
 62
     7
370
     0
100
AcDbMText
 10
2655.2495495755
 20
165.0094332157
 30
0.0
 40
14.0
 41
0.0
 71
     1
 72
     1
  1
Maßstab:
  7
SLDTEXTSTYLE0
 73
     1
 44
1.0
  0
MTEXT
  5
E3
330
1F
100
AcDbEntity
  8
0
  6
Continuous
 62
     7
370
     0
100
AcDbMText
 10
2785.9502817651
 20
125.2286542559
 30
0.0
 40
14.0
 41
0.0
 71
     1
 72
     1
  1
Format
  7
SLDTEXTSTYLE0
 73
     1
 44
1.0
  0
MTEXT
  5
E4
330
1F
100
AcDbEntity
  8
0
  6
Continuous
 62
     7
370
     0
100
AcDbMText
 10
2135.8123898948
 20
356.9818853041
 30
0.0
 40
14.0
 41
0.0
 71
     1
 72
     1
  1
Benennung:
  7
SLDTEXTSTYLE0
 73
     1
 44
1.0
  0
MTEXT
  5
E5
330
1F
100
AcDbEntity
  8
0
  6
Continuous
 62
     7
370
     0
100
AcDbMText
 10
2664.5005395913
 20
125.2286542559
 30
0.0
 40
14.0
 41
0.0
 71
     1
 72
     1
  1
Blatt / von
  7
SLDTEXTSTYLE0
 73
     1
 44
1.0
  0
MTEXT
  5
E6
330
1F
100
AcDbEntity
  8
0
  6
Continuous
 62
     7
370
     0
100
AcDbMText
 10
2706.4725907482
 20
100.6974422258
 30
0.0
 40
17.5
 41
0.0
 71
     2
 72
     1
  1
/
  7
SLDTEXTSTYLE0
 73
     1
 44
1.0
  0
MTEXT
  5
E8
330
1F
100
AcDbEntity
  8
0
  6
Continuous
 62
     7
370
     0
100
AcDbMText
 10
2134.2541581219
 20
214.7882486886
 30
0.0
 40
22.225
 41
0.0
 71
     1
 72
     1
  1
D052-49504
  7
SLDTEXTSTYLE3
 73
     1
 44
1.0
  0
MTEXT
  5
E9
330
1F
100
AcDbEntity
  8
0
  6
Continuous
 62
     7
370
     0
100
AcDbMText
 10
2752.495267605
 20
165.9085614452
 30
0.0
 40
14.8166666667
 41
0.0
 71
     1
 72
     1
  1
1:7
  7
SLDTEXTSTYLE0
 73
     1
 44
1.0
  0
MTEXT
  5
EA
330
1F
100
AcDbEntity
  8
0
  6
Continuous
 62
     7
370
     0
100
AcDbMText
 10
2803.7489693293
 20
99.2074950551
 30
0.0
 40
14.8166666667
 41
0.0
 71
     1
 72
     1
  1
A3
  7
SLDTEXTSTYLE0
 73
     1
 44
1.0
  0
MTEXT
  5
EB
330
1F
100
AcDbEntity
  8
0
  6
Continuous
 62
     7
370
     0
100
AcDbMText
 10
2680.0334055091
 20
99.9642475618
 30
0.0
 40
14.8166666667
 41
0.0
 71
     1
 72
     1
  1
1
  7
SLDTEXTSTYLE0
 73
     1
 44
1.0
  0
MTEXT
  5
EC
330
1F
100
AcDbEntity
  8
0
  6
Continuous
 62
     7
370
     0
100
AcDbMText
 10
2722.5410575592
 20
99.9642475618
 30
0.0
 40
14.8166666667
 41
0.0
 71
     1
 72
     1
  1
1
  7
SLDTEXTSTYLE0
 73
     1
 44
1.0
  0
MTEXT
  5
ED
330
1F
100
AcDbEntity
  8
FORMAT
100
AcDbMText
 10
2137.971220638
 20
240.9301481691
 30
0.0
 40
14.0
 41
0.0
 71
     1
 72
     1
  1
Zeichnungsnummer:
  7
SLDTEXTSTYLE0
 73
     1
 44
1.0
  0
MTEXT
  5
EE
330
1F
100
AcDbEntity
  8
FORMAT
100
AcDbMText
 10
2666.6233339517
 20
361.2067203863
 30
0.0
 40
12.6
 41
0.0
 71
     1
 72
     1
  1
KATALOGZEICHNUNG
  7
SLDTEXTSTYLE3
 73
     1
 44
1.0
  0
MTEXT
  5
EF
330
1F
100
AcDbEntity
  8
FORMAT
100
AcDbMText
 10
2573.4610565193
 20
241.0417881835
 30
0.0
 40
14.0
 41
0.0
 71
     1
 72
     1
  1
Index:
  7
SLDTEXTSTYLE0
 73
     1
 44
1.0
  0
MTEXT
  5
F0
330
1F
100
AcDbEntity
  8
BEMASSUNG
 62
     7
100
AcDbMText
 10
2654.3752871088
 20
335.5547520888
 30
0.0
 40
14.0
 41
0.0
 71
     1
 72
     1
  1
Ausführung:
  7
SLDTEXTSTYLE0
 73
     1
 44
1.0
  0
MTEXT
  5
F1
330
1F
100
AcDbEntity
  8
FORMAT
100
AcDbMText
 10
2134.4508235056
 20
277.1473496808
 30
0.0
 40
17.5
 41
0.0
 71
     1
 72
     1
  1
Bandgegenseite DIN Rechts
  7
SLDTEXTSTYLE3
 73
     1
 44
1.0
  0
MTEXT
  5
F2
330
1F
100
AcDbEntity
  8
FORMAT
100
AcDbMText
 10
2134.4508235056
 20
333.2914097385
 30
0.0
 40
24.5
 41
0.0
 71
     1
 72
     1
  1
ETS 73 (SGS - AV 0)
  7
SLDTEXTSTYLE3
 73
     1
 44
1.0
  0
LINE
  5
F3
330
1F
100
AcDbEntity
  8
0
  6
Continuous
 62
     7
370
    25
100
AcDbLine
 10
938.1199609168
 20
1600.2943166234
 30
0.0
 11
937.9199609169
 21
1600.0943166234
 31
0.0
  0
LINE
  5
F4
330
1F
100
AcDbEntity
  8
0
  6
Continuous
 62
     7
370
    25
100
AcDbLine
 10
951.9199609169
 20
1598.9943166234
 30
0.0
 11
951.9199609169
 21
1600.0943166234
 31
0.0
  0
LINE
  5
F5
330
1F
100
AcDbEntity
  8
0
  6
Continuous
 62
     7
370
    25
100
AcDbLine
 10
937.9199609169
 20
1600.0943166234
 30
0.0
 11
937.9199609169
 21
1598.9943166234
 31
0.0
  0
LINE
  5
F6
330
1F
100
AcDbEntity
  8
0
  6
Continuous
 62
     7
370
    25
100
AcDbLine
 10
937.919960917
 20
1598.9943166234
 30
0.0
 11
938.1199609169
 21
1598.7943166235
 31
0.0
  0
LINE
  5
F7
330
1F
100
AcDbEntity
  8
0
  6
Continuous
 62
     7
370
    25
100
AcDbLine
 10
951.7199609168
 20
1598.7943166235
 30
0.0
 11
951.9199609167
 21
1598.9943166234
 31
0.0
  0
LINE
  5
F8
330
1F
100
AcDbEntity
  8
0
  6
Continuous
 62
     7
370
    25
100
AcDbLine
 10
959.9199609166
 20
1606.2943081804
 30
0.0
 11
958.9199609166
 21
1607.2943081804
 31
0.0
  0
LINE
  5
F9
330
1F
100
AcDbEntity
  8
0
  6
Continuous
 62
     7
370
    25
100
AcDbLine
 10
959.9199609166
 20
1601.2943081804
 30
0.0
 11
959.9199609166
 21
1606.2943081804
 31
0.0
  0
LINE
  5
FA
330
1F
100
AcDbEntity
  8
0
  6
Continuous
 62
     7
370
    25
100
AcDbLine
 10
958.9199609166
 20
1600.2943081804
 30
0.0
 11
959.9199609166
 21
1601.2943081804
 31
0.0
  0
ARC
  5
FB
330
1F
100
AcDbEntity
  8
0
  6
Continuous
 62
     7
370
    25
100
AcDbCircle
 10
808.191807016
 20
1610.2943081807
 30
0.0
 40
2.999999999999865
100
AcDbArc
 50
180.0000000002
 51
239.5756492871
  0
LINE
  5
FC
330
1F
100
AcDbEntity
  8
0
  6
Continuous
 62
     7
370
    25
100
AcDbLine
 10
775.1918070161
 20
1612.7943081803
 30
0.0
 11
775.1918070161
 21
1601.2943081807
 31
0.0
  0
LINE
  5
FD
330
1F
100
AcDbEntity
  8
0
  6
Continuous
 62
     7
370
    25
100
AcDbLine
 10
805.191807016
 20
1610.2943081807
 30
0.0
 11
805.191807016
 21
1612.7943081803
 31
0.0
  0
LINE
  5
FE
330
1F
100
AcDbEntity
  8
0
  6
Continuous
 62
     7
370
    25
100
AcDbLine
 10
775.1918070161
 20
1601.2943081807
 30
0.0
 11
776.1918070161
 21
1600.2943081807
 31
0.0
  0
LINE
  5
FF
330
1F
100
AcDbEntity
  8
0
  6
Continuous
 62
     7
370
    25
100
AcDbLine
 10
922.612627914
 20
1591.6960439894
 30
0.0
 11
923.899681477
 21
1593.9460439894
 31
0.0
  0
ARC
  5
100
330
1F
100
AcDbEntity
  8
0
  6
Continuous
 62
     7
370
    25
100
AcDbCircle
 10
924.3422257222
 20
1593.6993665204
 30
0.0
 40
0.53305343161424
100
AcDbArc
 50
89.2032567546
 51
149.6650569098
  0
ARC
  5
101
330
1F
100
AcDbEntity
  8
0
  6
Continuous
 62
     7
370
    25
100
AcDbCircle
 10
876.1918070197
 20
1589.1943081804
 30
0.0
 40
1.0
100
AcDbArc
 50
180.0
 51
270.0
  0
LINE
  5
102
330
1F
100
AcDbEntity
  8
0
  6
Continuous
 62
     7
370
    25
100
AcDbLine
 10
875.1918070197
 20
1596.6943081804
 30
0.0
 11
875.1918070197
 21
1589.1943081804
 31
0.0
  0
ARC
  5
103
330
1F
100
AcDbEntity
  8
0
  6
Continuous
 62
     7
370
    25
100
AcDbCircle
 10
875.6918070197
 20
1596.6943081804
 30
0.0
 40
0.5
100
AcDbArc
 50
90.0
 51
180.0
  0
LINE
  5
104
330
1F
100
AcDbEntity
  8
0
  6
Continuous
 62
     7
370
    25
100
AcDbLine
 10
929.9199609167
 20
1597.1943081804
 30
0.0
 11
929.9199609167
 21
1591.6943081305
 31
0.0
  0
LINE
  5
105
330
1F
100
AcDbEntity
  8
0
  6
Continuous
 62
     7
370
    25
100
AcDbLine
 10
959.9199609167
 20
1588.6943081804
 30
0.0
 11
959.9199609167
 21
1597.1943081804
 31
0.0
  0
ARC
  5
106
330
1F
100
AcDbEntity
  8
0
  6
Continuous
 62
     7
370
    25
100
AcDbCircle
 10
959.4199609167
 20
1588.6943081804
 30
0.0
 40
0.5000000000001137
100
AcDbArc
 50
270.0
 51
360.0
  0
ARC
  5
107
330
1F
100
AcDbEntity
  8
0
  6
Continuous
 62
     7
370
    25
100
AcDbCircle
 10
930.9199609167
 20
1597.1943081804
 30
0.0
 40
1.000000000001137
100
AcDbArc
 50
90.0
 51
180.0000000002
  0
ARC
  5
108
330
1F
100
AcDbEntity
  8
0
  6
Continuous
 62
     7
370
    25
100
AcDbCircle
 10
958.9199609167
 20
1597.1943081804
 30
0.0
 40
1.0
100
AcDbArc
 50
0.0000000001
 51
90.0
  0
LINE
  5
109
330
1F
100
AcDbEntity
  8
0
  6
Continuous
 62
     7
370
    25
100
AcDbLine
 10
887.4319667322
 20
1590.6943081804
 30
0.0
 11
887.4319667322
 21
1588.6943081804
 31
0.0
  0
ARC
  5
10A
330
1F
100
AcDbEntity
  8
0
  6
Continuous
 62
     7
370
    25
100
AcDbCircle
 10
887.9066423558
 20
1588.6763491474
 30
0.0
 40
0.4750152360255889
100
AcDbArc
 50
177.8332861493
 51
272.9944838685
  0
ARC
  5
10B
330
1F
100
AcDbEntity
  8
0
  6
Continuous
 62
     7
370
    25
100
AcDbCircle
 10
887.9314180656
 20
1590.6945124182
 30
0.0
 40
0.4994513750934634
100
AcDbArc
 50
102.7348232452
 51
180.0234296354
  0
LINE
  5
10C
330
1F
100
AcDbEntity
  8
0
  6
Continuous
 62
     7
370
    25
100
AcDbLine
 10
898.1918070197
 20
1598.8443081804
 30
0.0
 11
898.1918070197
 21
1600.2943081805
 31
0.0
  0
LINE
  5
10D
330
1F
100
AcDbEntity
  8
0
  6
Continuous
 62
     7
370
    25
100
AcDbLine
 10
882.1918070197
 20
1600.2943081805
 30
0.0
 11
882.1918070197
 21
1598.8443081804
 31
0.0
  0
LINE
  5
10E
330
1F
100
AcDbEntity
  8
0
  6
Continuous
 62
     7
370
    25
100
AcDbLine
 10
898.1918070197
 20
1584.9443081804
 30
0.0
 11
898.1918070197
 21
1586.5443081804
 31
0.0
  0
LINE
  5
10F
330
1F
100
AcDbEntity
  8
0
  6
Continuous
 62
     7
370
    25
100
AcDbLine
 10
882.1918070197
 20
1586.5443081804
 30
0.0
 11
882.1918070197
 21
1584.9443081804
 31
0.0
  0
LINE
  5
110
330
1F
100
AcDbEntity
  8
0
  6
Continuous
 62
     7
370
    25
100
AcDbLine
 10
939.9199609168
 20
1587.1943081804
 30
0.0
 11
939.9199609168
 21
1585.5943081804
 31
0.0
  0
LINE
  5
111
330
1F
100
AcDbEntity
  8
0
  6
Continuous
 62
     7
370
    25
100
AcDbLine
 10
949.9199609168
 20
1585.5943081804
 30
0.0
 11
949.9199609168
 21
1587.1943081804
 31
0.0
  0
LINE
  5
112
330
1F
100
AcDbEntity
  8
0
  6
Continuous
 62
     7
370
    25
100
AcDbLine
 10
920.5259448786
 20
1598.5708802552
 30
0.0
 11
918.8025169533
 21
1600.2943081804
 31
0.0
  0
LINE
  5
113
330
1F
100
AcDbEntity
  8
0
  6
Continuous
 62
     7
370
    25
100
AcDbLine
 10
904.9025169552
 20
1600.2943081805
 30
0.0
 11
902.8525169553
 21
1598.2443081806
 31
0.0
  0
LINE
  5
114
330
1F
100
AcDbEntity
  8
0
  6
Continuous
 62
     7
370
    25
100
AcDbLine
 10
902.8525169553
 20
1598.2443081806
 30
0.0
 11
902.8525169553
 21
1597.1943081806
 31
0.0
  0
LINE
  5
115
330
1F
100
AcDbEntity
  8
0
  6
Continuous
 62
     7
370
    25
100
AcDbLine
 10
920.1993728044
 20
1598.244308181
 30
0.0
 11
920.1993728044
 21
1597.194308181
 31
0.0
  0
LINE
  5
116
330
1F
100
AcDbEntity
  8
0
  6
Continuous
 62
     7
370
    25
100
AcDbLine
 10
938.1993728023
 20
1598.244308181
 30
0.0
 11
936.1493728028
 21
1600.2943081804
 31
0.0
  0
LINE
  5
117
330
1F
100
AcDbEntity
  8
0
  6
Continuous
 62
     7
370
    25
100
AcDbLine
 10
922.2493728039
 20
1600.2943081804
 30
0.0
 11
920.1993728044
 21
1598.244308181
 31
0.0
  0
LWPOLYLINE
  5
118
330
1F
100
AcDbEntity
  8
0
  6
Continuous
 62
     7
370
    25
100
AcDbPolyline
 90
        3
 70
   128
 43
0.0
 10
884.9600843649
 20
1598.7042039964
 10
884.2829605552
 20
1598.0874087224
 10
883.6037176369
 20
1597.1943081802
  0
LWPOLYLINE
  5
119
330
1F
100
AcDbEntity
  8
0
  6
Continuous
 62
     7
370
    25
100
AcDbPolyline
 90
        3
 70
   128
 43
0.0
 10
896.7922064363
 20
1597.1943081802
 10
896.1240264472
 20
1598.0616886088
 10
895.4309537854
 20
1598.709769437
  0
LWPOLYLINE
  5
11A
330
1F
100
AcDbEntity
  8
0
  6
Continuous
 62
     7
370
    25
100
AcDbPolyline
 90
        3
 70
   128
 43
0.0
 10
895.4541644399
 20
1586.7123177163
 10
896.1006534844
 20
1587.3012076381
 10
896.7798964028
 20
1588.1943081804
  0
LWPOLYLINE
  5
11B
330
1F
100
AcDbEntity
  8
0
  6
Continuous
 62
     7
370
    25
100
AcDbPolyline
 90
        3
 70
   128
 43
0.0
 10
883.5914076031
 20
1588.1943081804
 10
884.2595875923
 20
1587.3269277517
 10
884.9486165656
 20
1586.6826281101
  0
LWPOLYLINE
  5
11C
330
1F
100
AcDbEntity
  8
0
  6
Continuous
 62
     7
370
    25
100
AcDbPolyline
 90
        3
 70
   128
 43
0.0
 10
939.2513391397
 20
1598.7943166235
 10
938.8606887766
 20
1598.4178339176
 10
938.700522631
 20
1598.1943081804
  0
LWPOLYLINE
  5
11D
330
1F
100
AcDbEntity
  8
0
  6
Continuous
 62
     7
370
    25
100
AcDbPolyline
 90
        3
 70
   128
 43
0.0
 10
951.1353383352
 20
1598.1943081804
 10
950.8668735128
 20
1598.5454043836
 10
950.6015434085
 20
1598.7943166235
  0
LWPOLYLINE
  5
11E
330
1F
100
AcDbEntity
  8
0
  6
Continuous
 62
     7
370
    25
100
AcDbPolyline
 90
        3
 70
   128
 43
0.0
 10
950.1548126323
 20
1587.1762611478
 10
950.9792330574
 20
1587.9707824429
 10
951.1393992032
 20
1588.1943081804
  0
LWPOLYLINE
  5
11F
330
1F
100
AcDbEntity
  8
0
  6
Continuous
 62
     7
370
    25
100
AcDbPolyline
 90
        3
 70
   128
 43
0.0
 10
938.7045834985
 20
1588.1943081804
 10
938.9730483212
 20
1587.8432119768
 10
939.6634541377
 20
1587.1955264883
  0
ARC
  5
120
330
1F
100
AcDbEntity
  8
0
  6
Continuous
 62
     7
370
    25
100
AcDbCircle
 10
881.1668070198
 20
1588.6693081802
 30
0.0
 40
0.4750000000001364
100
AcDbArc
 50
180.0000000001
 51
270.0
  0
LINE
  5
121
330
1F
100
AcDbEntity
  8
0
  6
Continuous
 62
     7
370
    25
100
AcDbLine
 10
896.191807019
 20
1581.4443081804
 30
0.0
 11
896.191807019
 21
1582.4443081804
 31
0.0
  0
LINE
  5
122
330
1F
100
AcDbEntity
  8
0
  6
Continuous
 62
     7
370
    25
100
AcDbLine
 10
884.1918070204
 20
1582.4443081804
 30
0.0
 11
884.1918070204
 21
1581.4443081804
 31
0.0
  0
LINE
  5
123
330
1F
100
AcDbEntity
  8
0
  6
Continuous
 62
     7
370
    25
100
AcDbLine
 10
886.1918070197
 20
1598.8443081804
 30
0.0
 11
886.1918070197
 21
1598.6943081802
 31
0.0
  0
LINE
  5
124
330
1F
100
AcDbEntity
  8
0
  6
Continuous
 62
     7
370
    25
100
AcDbLine
 10
886.1918070197
 20
1586.6943081802
 30
0.0
 11
886.1918070197
 21
1586.5443081804
 31
0.0
  0
LINE
  5
125
330
1F
100
AcDbEntity
  8
0
  6
Continuous
 62
     7
370
    25
100
AcDbLine
 10
894.1918070197
 20
1586.5443081804
 30
0.0
 11
894.1918070197
 21
1586.6943081802
 31
0.0
  0
LINE
  5
126
330
1F
100
AcDbEntity
  8
0
  6
Continuous
 62
     7
370
    25
100
AcDbLine
 10
894.1918070197
 20
1598.6943081802
 30
0.0
 11
894.1918070197
 21
1598.8443081804
 31
0.0
  0
LINE
  5
127
330
1F
100
AcDbEntity
  8
0
  6
Continuous
 62
     7
370
    25
100
AcDbLine
 10
767.1918070161
 20
1708.7943081803
 30
0.0
 11
767.1918070161
 21
1707.7943081803
 31
0.0
  0
LINE
  5
128
330
1F
100
AcDbEntity
  8
0
  6
Continuous
 62
     7
370
    25
100
AcDbLine
 10
813.1918070161
 20
1708.7943081804
 30
0.0
 11
813.1918070161
 21
1707.7943081804
 31
0.0
  0
LINE
  5
129
330
1F
100
AcDbEntity
  8
0
  6
Continuous
 62
     7
370
    25
100
AcDbLine
 10
767.1918070161
 20
1708.7943081803
 30
0.0
 11
813.1918070161
 21
1708.7943081804
 31
0.0
  0
LINE
  5
12A
330
1F
100
AcDbEntity
  8
0
  6
Continuous
 62
     7
370
    25
100
AcDbLine
 10
813.1918070161
 20
1611.7943081804
 30
0.0
 11
809.9655269494
 21
1611.7943081804
 31
0.0
  0
LINE
  5
12B
330
1F
100
AcDbEntity
  8
0
  6
Continuous
 62
     7
370
    25
100
AcDbLine
 10
809.9655269494
 20
1612.7943081804
 30
0.0
 11
809.9655269494
 21
1611.7943081804
 31
0.0
  0
LINE
  5
12C
330
1F
100
AcDbEntity
  8
0
  6
Continuous
 62
     7
370
    25
100
AcDbLine
 10
813.1918070161
 20
1611.7943081804
 30
0.0
 11
813.1918070161
 21
1612.7943081804
 31
0.0
  0
LINE
  5
12D
330
1F
100
AcDbEntity
  8
0
  6
Continuous
 62
     7
370
    25
100
AcDbLine
 10
770.4180870828
 20
1611.7943081803
 30
0.0
 11
770.4180870828
 21
1612.7943081803
 31
0.0
  0
LINE
  5
12E
330
1F
100
AcDbEntity
  8
0
  6
Continuous
 62
     7
370
    25
100
AcDbLine
 10
770.4180870828
 20
1611.7943081803
 30
0.0
 11
767.1918070161
 21
1611.7943081803
 31
0.0
  0
LINE
  5
12F
330
1F
100
AcDbEntity
  8
0
  6
Continuous
 62
     7
370
    25
100
AcDbLine
 10
767.1918070161
 20
1612.7943081803
 30
0.0
 11
767.1918070161
 21
1611.7943081803
 31
0.0
  0
LINE
  5
130
330
1F
100
AcDbEntity
  8
0
  6
Continuous
 62
     7
370
    25
100
AcDbLine
 10
809.9655269494
 20
1611.7943081804
 30
0.0
 11
805.191807016
 21
1611.7943081804
 31
0.0
  0
LINE
  5
131
330
1F
100
AcDbEntity
  8
0
  6
Continuous
 62
     7
370
    25
100
AcDbLine
 10
775.1918070161
 20
1611.7943081804
 30
0.0
 11
770.4180870828
 21
1611.7943081803
 31
0.0
  0
LINE
  5
132
330
1F
100
AcDbEntity
  8
0
  6
Continuous
 62
     7
370
    25
100
AcDbLine
 10
1190.1918070161
 20
1702.7943081804
 30
0.0
 11
1192.1918070161
 21
1702.7943081804
 31
0.0
  0
LINE
  5
133
330
1F
100
AcDbEntity
  8
0
  6
Continuous
 62
     7
370
    25
100
AcDbLine
 10
1190.1918070161
 20
1702.7943081804
 30
0.0
 11
1190.1918070161
 21
1707.7943081804
 31
0.0
  0
LINE
  5
134
330
1F
100
AcDbEntity
  8
0
  6
Continuous
 62
     7
370
    25
100
AcDbLine
 10
1190.1918070161
 20
1707.7943081804
 30
0.0
 11
1192.1918070161
 21
1707.7943081804
 31
0.0
  0
LINE
  5
135
330
1F
100
AcDbEntity
  8
0
  6
Continuous
 62
     7
370
    25
100
AcDbLine
 10
1192.1918070161
 20
1702.7943081804
 30
0.0
 11
1192.1918070161
 21
1707.7943081804
 31
0.0
  0
LINE
  5
136
330
1F
100
AcDbEntity
  8
0
  6
Continuous
 62
     7
370
    25
100
AcDbLine
 10
1190.1918070161
 20
1617.7943081804
 30
0.0
 11
1192.1918070161
 21
1617.7943081804
 31
0.0
  0
LINE
  5
137
330
1F
100
AcDbEntity
  8
0
  6
Continuous
 62
     7
370
    25
100
AcDbLine
 10
1190.1918070161
 20
1617.7943081804
 30
0.0
 11
1190.1918070161
 21
1702.7943081804
 31
0.0
  0
LINE
  5
138
330
1F
100
AcDbEntity
  8
0
  6
Continuous
 62
     7
370
    25
100
AcDbLine
 10
1192.1918070161
 20
1617.7943081804
 30
0.0
 11
1192.1918070161
 21
1702.7943081804
 31
0.0
  0
LINE
  5
139
330
1F
100
AcDbEntity
  8
0
  6
Continuous
 62
     7
370
    25
100
AcDbLine
 10
1190.1918070161
 20
1612.7943081804
 30
0.0
 11
1192.1918070161
 21
1612.7943081804
 31
0.0
  0
LINE
  5
13A
330
1F
100
AcDbEntity
  8
0
  6
Continuous
 62
     7
370
    25
100
AcDbLine
 10
1190.1918070161
 20
1612.7943081804
 30
0.0
 11
1190.1918070161
 21
1617.7943081804
 31
0.0
  0
LINE
  5
13B
330
1F
100
AcDbEntity
  8
0
  6
Continuous
 62
     7
370
    25
100
AcDbLine
 10
1192.1918070161
 20
1612.7943081804
 30
0.0
 11
1192.1918070161
 21
1617.7943081804
 31
0.0
  0
LINE
  5
13C
330
1F
100
AcDbEntity
  8
0
  6
Continuous
 62
     7
370
    25
100
AcDbLine
 10
1196.6918070161
 20
1702.7943081804
 30
0.0
 11
1196.6918070161
 21
1617.7943081757
 31
0.0
  0
LINE
  5
13D
330
1F
100
AcDbEntity
  8
0
  6
Continuous
 62
     7
370
    25
100
AcDbLine
 10
1192.1918070161
 20
1617.7943081804
 30
0.0
 11
1196.6918070161
 21
1617.7943081804
 31
0.0
  0
LINE
  5
13E
330
1F
100
AcDbEntity
  8
0
  6
Continuous
 62
     7
370
    25
100
AcDbLine
 10
1196.6918070161
 20
1702.7943081804
 30
0.0
 11
1192.1918070161
 21
1702.7943081804
 31
0.0
  0
LINE
  5
13F
330
1F
100
AcDbEntity
  8
0
  6
Continuous
 62
     7
370
    25
100
AcDbLine
 10
1199.6918070161
 20
1702.7943081804
 30
0.0
 11
1196.6918070161
 21
1702.7943081804
 31
0.0
  0
LINE
  5
140
330
1F
100
AcDbEntity
  8
0
  6
Continuous
 62
     7
370
    25
100
AcDbLine
 10
1199.6918070161
 20
1702.7943081804
 30
0.0
 11
1199.6918070161
 21
1617.7943081804
 31
0.0
  0
LINE
  5
141
330
1F
100
AcDbEntity
  8
0
  6
Continuous
 62
     7
370
    25
100
AcDbLine
 10
1196.6918070161
 20
1617.7943081804
 30
0.0
 11
1199.6918070161
 21
1617.7943081804
 31
0.0
  0
LINE
  5
142
330
1F
100
AcDbEntity
  8
0
  6
Continuous
 62
     7
370
    25
100
AcDbLine
 10
1196.6918070161
 20
1617.794308171
 30
0.0
 11
1196.6918070161
 21
1614.7943081804
 31
0.0
  0
LINE
  5
143
330
1F
100
AcDbEntity
  8
0
  6
Continuous
 62
     7
370
    25
100
AcDbLine
 10
1196.6918070161
 20
1614.7943081804
 30
0.0
 11
1192.1918070161
 21
1614.7943081804
 31
0.0
  0
LINE
  5
144
330
1F
100
AcDbEntity
  8
0
  6
Continuous
 62
     7
370
    25
100
AcDbLine
 10
1192.1918070161
 20
1705.7943081804
 30
0.0
 11
1196.6918070161
 21
1705.7943081804
 31
0.0
  0
LINE
  5
145
330
1F
100
AcDbEntity
  8
0
  6
Continuous
 62
     7
370
    25
100
AcDbLine
 10
1196.6918070161
 20
1705.7943081804
 30
0.0
 11
1196.6918070161
 21
1702.7943081804
 31
0.0
  0
ARC
  5
146
330
1F
100
AcDbEntity
  8
0
  6
Continuous
 62
     7
370
    25
100
AcDbCircle
 10
1196.6918070161
 20
1702.7943081804
 30
0.0
 40
3.0
100
AcDbArc
 50
0.0
 51
90.0
  0
ARC
  5
147
330
1F
100
AcDbEntity
  8
0
  6
Continuous
 62
     7
370
    25
100
AcDbCircle
 10
1196.6918070161
 20
1617.7943081804
 30
0.0
 40
2.999999999999773
100
AcDbArc
 50
270.0
 51
0.0
  0
LINE
  5
148
330
1F
100
AcDbEntity
  8
0
  6
Continuous
 62
     7
370
    25
100
AcDbLine
 10
518.1918070161
 20
1707.7943081803
 30
0.0
 11
518.1918070161
 21
1702.7943081803
 31
0.0
  0
LINE
  5
149
330
1F
100
AcDbEntity
  8
0
  6
Continuous
 62
     7
370
    25
100
AcDbLine
 10
520.1918070161
 20
1707.7943081803
 30
0.0
 11
518.1918070161
 21
1707.7943081803
 31
0.0
  0
LINE
  5
14A
330
1F
100
AcDbEntity
  8
0
  6
Continuous
 62
     7
370
    25
100
AcDbLine
 10
520.1918070161
 20
1702.7943081803
 30
0.0
 11
518.1918070161
 21
1702.7943081803
 31
0.0
  0
LINE
  5
14B
330
1F
100
AcDbEntity
  8
0
  6
Continuous
 62
     7
370
    25
100
AcDbLine
 10
520.1918070161
 20
1707.7943081803
 30
0.0
 11
520.1918070161
 21
1702.7943081803
 31
0.0
  0
LINE
  5
14C
330
1F
100
AcDbEntity
  8
0
  6
Continuous
 62
     7
370
    25
100
AcDbLine
 10
520.1918070161
 20
1617.7943081803
 30
0.0
 11
518.1918070161
 21
1617.7943081803
 31
0.0
  0
LINE
  5
14D
330
1F
100
AcDbEntity
  8
0
  6
Continuous
 62
     7
370
    25
100
AcDbLine
 10
518.1918070161
 20
1702.7943081803
 30
0.0
 11
518.1918070161
 21
1617.7943081803
 31
0.0
  0
LINE
  5
14E
330
1F
100
AcDbEntity
  8
0
  6
Continuous
 62
     7
370
    25
100
AcDbLine
 10
520.1918070161
 20
1702.7943081803
 30
0.0
 11
520.1918070161
 21
1617.7943081803
 31
0.0
  0
LINE
  5
14F
330
1F
100
AcDbEntity
  8
0
  6
Continuous
 62
     7
370
    25
100
AcDbLine
 10
520.1918070161
 20
1612.7943081803
 30
0.0
 11
518.1918070161
 21
1612.7943081803
 31
0.0
  0
LINE
  5
150
330
1F
100
AcDbEntity
  8
0
  6
Continuous
 62
     7
370
    25
100
AcDbLine
 10
518.1918070161
 20
1617.7943081803
 30
0.0
 11
518.1918070161
 21
1612.7943081803
 31
0.0
  0
LINE
  5
151
330
1F
100
AcDbEntity
  8
0
  6
Continuous
 62
     7
370
    25
100
AcDbLine
 10
520.1918070161
 20
1617.7943081803
 30
0.0
 11
520.1918070161
 21
1612.7943081803
 31
0.0
  0
LINE
  5
152
330
1F
100
AcDbEntity
  8
0
  6
Continuous
 62
     7
370
    25
100
AcDbLine
 10
518.1918070161
 20
1702.7943081803
 30
0.0
 11
513.6918070161
 21
1702.7943081803
 31
0.0
  0
LINE
  5
153
330
1F
100
AcDbEntity
  8
0
  6
Continuous
 62
     7
370
    25
100
AcDbLine
 10
513.6918070161
 20
1702.7943081897
 30
0.0
 11
513.6918070161
 21
1705.7943081803
 31
0.0
  0
LINE
  5
154
330
1F
100
AcDbEntity
  8
0
  6
Continuous
 62
     7
370
    25
100
AcDbLine
 10
513.6918070161
 20
1705.7943081803
 30
0.0
 11
518.1918070161
 21
1705.7943081803
 31
0.0
  0
LINE
  5
155
330
1F
100
AcDbEntity
  8
0
  6
Continuous
 62
     7
370
    25
100
AcDbLine
 10
513.6918070161
 20
1617.7943081803
 30
0.0
 11
513.6918070161
 21
1702.794308185
 31
0.0
  0
LINE
  5
156
330
1F
100
AcDbEntity
  8
0
  6
Continuous
 62
     7
370
    25
100
AcDbLine
 10
513.6918070161
 20
1617.7943081803
 30
0.0
 11
518.1918070161
 21
1617.7943081803
 31
0.0
  0
LINE
  5
157
330
1F
100
AcDbEntity
  8
0
  6
Continuous
 62
     7
370
    25
100
AcDbLine
 10
510.6918070161
 20
1617.7943081803
 30
0.0
 11
513.6918070161
 21
1617.7943081803
 31
0.0
  0
LINE
  5
158
330
1F
100
AcDbEntity
  8
0
  6
Continuous
 62
     7
370
    25
100
AcDbLine
 10
510.6918070161
 20
1617.7943081803
 30
0.0
 11
510.6918070161
 21
1702.7943081803
 31
0.0
  0
LINE
  5
159
330
1F
100
AcDbEntity
  8
0
  6
Continuous
 62
     7
370
    25
100
AcDbLine
 10
513.6918070161
 20
1702.7943081803
 30
0.0
 11
510.6918070161
 21
1702.7943081803
 31
0.0
  0
LINE
  5
15A
330
1F
100
AcDbEntity
  8
0
  6
Continuous
 62
     7
370
    25
100
AcDbLine
 10
518.1918070161
 20
1614.7943081803
 30
0.0
 11
513.6918070161
 21
1614.7943081803
 31
0.0
  0
LINE
  5
15B
330
1F
100
AcDbEntity
  8
0
  6
Continuous
 62
     7
370
    25
100
AcDbLine
 10
513.6918070161
 20
1614.7943081803
 30
0.0
 11
513.6918070161
 21
1617.7943081803
 31
0.0
  0
ARC
  5
15C
330
1F
100
AcDbEntity
  8
0
  6
Continuous
 62
     7
370
    25
100
AcDbCircle
 10
513.6918070161
 20
1617.7943081803
 30
0.0
 40
3.0
100
AcDbArc
 50
180.0
 51
270.0
  0
ARC
  5
15D
330
1F
100
AcDbEntity
  8
0
  6
Continuous
 62
     7
370
    25
100
AcDbCircle
 10
513.6918070161
 20
1702.7943081803
 30
0.0
 40
3.0
100
AcDbArc
 50
90.0
 51
180.0
  0
LINE
  5
15E
330
1F
100
AcDbEntity
  8
0
  6
Continuous
 62
     7
370
    25
100
AcDbLine
 10
520.1918070161
 20
1707.7943081803
 30
0.0
 11
1190.1918070161
 21
1707.7943081804
 31
0.0
  0
LINE
  5
15F
330
1F
100
AcDbEntity
  8
0
  6
Continuous
 62
     7
370
    25
100
AcDbLine
 10
520.1918070161
 20
1702.7943081803
 30
0.0
 11
1190.1918070161
 21
1702.7943081804
 31
0.0
  0
LINE
  5
160
330
1F
100
AcDbEntity
  8
0
  6
Continuous
 62
     7
370
    25
100
AcDbLine
 10
520.1918070161
 20
1617.7943081803
 30
0.0
 11
1190.1918070161
 21
1617.7943081804
 31
0.0
  0
LINE
  5
161
330
1F
100
AcDbEntity
  8
0
  6
Continuous
 62
     7
370
    25
100
AcDbLine
 10
520.1918070161
 20
1612.7943081803
 30
0.0
 11
1190.1918070161
 21
1612.7943081804
 31
0.0
  0
LINE
  5
162
330
1F
100
AcDbEntity
  8
0
  6
Continuous
 62
     7
370
    25
100
AcDbLine
 10
944.4981687165
 20
1600.0943166234
 30
0.0
 11
937.9199609169
 21
1600.0943166234
 31
0.0
  0
LINE
  5
163
330
1F
100
AcDbEntity
  8
0
  6
Continuous
 62
     7
370
    25
100
AcDbLine
 10
951.9199609168
 20
1600.0943166234
 30
0.0
 11
944.4981687165
 21
1600.0943166234
 31
0.0
  0
LINE
  5
164
330
1F
100
AcDbEntity
  8
0
  6
Continuous
 62
     7
370
    25
100
AcDbLine
 10
944.4981687165
 20
1598.9943166234
 30
0.0
 11
937.919960917
 21
1598.9943166234
 31
0.0
  0
LINE
  5
165
330
1F
100
AcDbEntity
  8
0
  6
Continuous
 62
     7
370
    25
100
AcDbLine
 10
951.9199609167
 20
1598.9943166234
 30
0.0
 11
944.4981687165
 21
1598.9943166234
 31
0.0
  0
LINE
  5
166
330
1F
100
AcDbEntity
  8
0
  6
Continuous
 62
     7
370
    25
100
AcDbLine
 10
944.5102199223
 20
1598.7943166235
 30
0.0
 11
938.1199609169
 21
1598.7943166235
 31
0.0
  0
LINE
  5
167
330
1F
100
AcDbEntity
  8
0
  6
Continuous
 62
     7
370
    25
100
AcDbLine
 10
951.7199609168
 20
1598.7943166235
 30
0.0
 11
944.5102199223
 21
1598.7943166235
 31
0.0
  0
LINE
  5
168
330
1F
100
AcDbEntity
  8
0
  6
Continuous
 62
     7
370
    25
100
AcDbLine
 10
931.7900066294
 20
1606.2943081804
 30
0.0
 11
932.6653369152
 21
1607.2943081804
 31
0.0
  0
LINE
  5
169
330
1F
100
AcDbEntity
  8
0
  6
Continuous
 62
     7
370
    25
100
AcDbLine
 10
932.6653369152
 20
1607.2943081804
 30
0.0
 11
958.9199609166
 21
1607.2943081804
 31
0.0
  0
LINE
  5
16A
330
1F
100
AcDbEntity
  8
0
  6
Continuous
 62
     7
370
    25
100
AcDbLine
 10
959.9199609166
 20
1606.2943081804
 30
0.0
 11
931.7900066294
 21
1606.2943081804
 31
0.0
  0
LINE
  5
16B
330
1F
100
AcDbEntity
  8
0
  6
Continuous
 62
     7
370
    25
100
AcDbLine
 10
959.9199609166
 20
1601.2943081804
 30
0.0
 11
931.7900066294
 21
1601.2943081804
 31
0.0
  0
LINE
  5
16C
330
1F
100
AcDbEntity
  8
0
  6
Continuous
 62
     7
370
    25
100
AcDbLine
 10
931.7900066294
 20
1601.2943081804
 30
0.0
 11
931.7900066294
 21
1606.2943081804
 31
0.0
  0
LINE
  5
16D
330
1F
100
AcDbEntity
  8
0
  6
Continuous
 62
     7
370
    25
100
AcDbLine
 10
958.9199609166
 20
1600.2943081804
 30
0.0
 11
932.6653369152
 21
1600.2943081804
 31
0.0
  0
LINE
  5
16E
330
1F
100
AcDbEntity
  8
0
  6
Continuous
 62
     7
370
    25
100
AcDbLine
 10
932.6653369152
 20
1600.2943081804
 30
0.0
 11
931.7900066294
 21
1601.2943081804
 31
0.0
  0
LWPOLYLINE
  5
16F
330
1F
100
AcDbEntity
  8
0
  6
Continuous
 62
     7
370
    25
100
AcDbPolyline
 90
       16
 70
   128
 43
0.0
 10
782.532319072
 20
1606.2943081807
 10
781.566024346
 20
1606.4735762768
 10
780.6053819034
 20
1606.9524455702
 10
779.6568106184
 20
1607.6560682185
 10
779.2480672483
 20
1608.0167379115
 10
778.8087502501
 20
1608.4349366114
 10
778.3388596236
 20
1608.9106643183
 10
777.6977384568
 20
1609.5947974581
 10
777.5815107036
 20
1609.721474011
 10
777.4754331242
 20
1609.8378547528
 10
777.3795057185
 20
1609.9439396836
 10
777.148072236
 20
1610.200426455
 10
777.0868107355
 20
1610.2676929486
 10
777.0697937954
 20
1610.2860819723
 10
777.0646887779
 20
1610.2914654284
 10
777.0618527288
 20
1610.2943081807
  0
LINE
  5
170
330
1F
100
AcDbEntity
  8
0
  6
Continuous
 62
     7
370
    25
100
AcDbLine
 10
931.7900066294
 20
1606.2943081804
 30
0.0
 11
782.532319072
 21
1606.2943081807
 31
0.0
  0
LINE
  5
171
330
1F
100
AcDbEntity
  8
0
  6
Continuous
 62
     7
370
    25
100
AcDbLine
 10
931.7900066294
 20
1601.2943081804
 30
0.0
 11
777.0618527288
 21
1601.2943081807
 31
0.0
  0
LINE
  5
172
330
1F
100
AcDbEntity
  8
0
  6
Continuous
 62
     7
370
    25
100
AcDbLine
 10
777.0618527288
 20
1601.2943081807
 30
0.0
 11
777.0618527288
 21
1610.2943081807
 31
0.0
  0
LINE
  5
173
330
1F
100
AcDbEntity
  8
0
  6
Continuous
 62
     7
370
    25
100
AcDbLine
 10
782.532319072
 20
1606.2943081807
 30
0.0
 11
783.4076493578
 21
1607.2943081807
 31
0.0
  0
LINE
  5
174
330
1F
100
AcDbEntity
  8
0
  6
Continuous
 62
     7
370
    25
100
AcDbLine
 10
783.4076493578
 20
1607.2943081807
 30
0.0
 11
932.6653369152
 21
1607.2943081804
 31
0.0
  0
LINE
  5
175
330
1F
100
AcDbEntity
  8
0
  6
Continuous
 62
     7
370
    25
100
AcDbLine
 10
777.9371830146
 20
1600.2943081807
 30
0.0
 11
777.0618527288
 21
1601.2943081807
 31
0.0
  0
LINE
  5
176
330
1F
100
AcDbEntity
  8
0
  6
Continuous
 62
     7
370
    25
100
AcDbLine
 10
932.6653369152
 20
1600.2943081804
 30
0.0
 11
777.9371830146
 21
1600.2943081807
 31
0.0
  0
LWPOLYLINE
  5
177
330
1F
100
AcDbEntity
  8
0
  6
Continuous
 62
     7
370
    25
100
AcDbPolyline
 90
       16
 70
   128
 43
0.0
 10
783.4076493578
 20
1607.2943081807
 10
782.2968871914
 20
1607.4305659817
 10
781.1721377177
 20
1607.7899244
 10
780.04787689
 20
1608.3156225261
 10
779.2997053587
 20
1608.7399403222
 10
778.4912324708
 20
1609.256575635
 10
778.3103940222
 20
1609.3796005399
 10
778.1281215761
 20
1609.5062442119
 10
777.9444764459
 20
1609.6363348205
 10
777.7595231688
 20
1609.7696761018
 10
777.2411225052
 20
1610.1572096861
 10
777.1105630448
 20
1610.257367372
 10
777.0760675143
 20
1610.2837451783
 10
777.0664313922
 20
1610.291003631
 10
777.0635103732
 20
1610.293150146
 10
777.0618527288
 20
1610.2943081807
  0
LWPOLYLINE
  5
178
330
1F
100
AcDbEntity
  8
0
  6
Continuous
 62
     7
370
    25
100
AcDbPolyline
 90
        3
 70
   128
 43
0.0
 10
806.6817898962
 20
1607.7229834459
 10
806.8725217938
 20
1607.5968221278
 10
807.9168973607
 20
1607.2943081807
  0
LINE
  5
179
330
1F
100
AcDbEntity
  8
0
  6
Continuous
 62
     7
370
    25
100
AcDbLine
 10
777.0618527288
 20
1601.2943081807
 30
0.0
 11
775.1918070161
 21
1601.2943081807
 31
0.0
  0
LINE
  5
17A
330
1F
100
AcDbEntity
  8
0
  6
Continuous
 62
     7
370
    25
100
AcDbLine
 10
777.9371830146
 20
1600.2943081807
 30
0.0
 11
776.1918070161
 21
1600.2943081807
 31
0.0
  0
LINE
  5
17B
330
1F
100
AcDbEntity
  8
0
  6
Continuous
 62
     7
370
    25
100
AcDbLine
 10
918.3585264431
 20
1591.6943081806
 30
0.0
 11
918.9216747461
 21
1591.6943081806
 31
0.0
  0
LINE
  5
17C
330
1F
100
AcDbEntity
  8
0
  6
Continuous
 62
     7
370
    25
100
AcDbLine
 10
918.3585264431
 20
1591.6943081806
 30
0.0
 11
918.3585264431
 21
1596.6943081806
 31
0.0
  0
LINE
  5
17D
330
1F
100
AcDbEntity
  8
0
  6
Continuous
 62
     7
370
    25
100
AcDbLine
 10
918.9216747461
 20
1596.6943081806
 30
0.0
 11
918.3585264431
 21
1596.6943081806
 31
0.0
  0
LINE
  5
17E
330
1F
100
AcDbEntity
  8
0
  6
Continuous
 62
     7
370
    25
100
AcDbLine
 10
918.9216747461
 20
1596.6943081806
 30
0.0
 11
918.9216747461
 21
1591.6943081806
 31
0.0
  0
ARC
  5
17F
330
1F
100
AcDbEntity
  8
0
  6
Continuous
 62
     7
370
    25
100
AcDbCircle
 10
918.856230755
 20
1596.6966039677
 30
0.0
 40
0.4977096068813644
100
AcDbArc
 50
90.2667503897
 51
180.2642894102
  0
ARC
  5
180
330
1F
100
AcDbEntity
  8
0
  6
Continuous
 62
     7
370
    25
100
AcDbCircle
 10
917.9484965289
 20
1596.8170123935
 30
0.0
 40
0.9808833601975129
100
AcDbArc
 50
352.8137222055
 51
22.6219504405
  0
ARC
  5
181
330
1F
100
AcDbEntity
  8
0
  6
Continuous
 62
     7
370
    25
100
AcDbCircle
 10
917.9484965289
 20
1591.5716039677
 30
0.0
 40
0.9808833602030923
100
AcDbArc
 50
337.3780495596
 51
7.1862777944
  0
ARC
  5
182
330
1F
100
AcDbEntity
  8
0
  6
Continuous
 62
     7
370
    25
100
AcDbCircle
 10
918.856230755
 20
1591.6920123935
 30
0.0
 40
0.4977096068809561
100
AcDbArc
 50
179.7357105898
 51
269.7332496123
  0
ARC
  5
183
330
1F
100
AcDbEntity
  8
0
  6
Continuous
 62
     7
370
    25
100
AcDbCircle
 10
924.3912313896
 20
1593.7084891117
 30
0.0
 40
0.9858190973163434
100
AcDbArc
 50
89.9862425162
 51
150.4747203549
  0
LINE
  5
184
330
1F
100
AcDbEntity
  8
0
  6
Continuous
 62
     7
370
    25
100
AcDbLine
 10
922.2463788263
 20
1591.9443081806
 30
0.0
 11
923.5334323893
 21
1594.1943081806
 31
0.0
  0
ARC
  5
185
330
1F
100
AcDbEntity
  8
0
  6
Continuous
 62
     7
370
    25
100
AcDbCircle
 10
921.81747782
 20
1592.1872202996
 30
0.0
 40
0.4929121328740315
100
AcDbArc
 50
269.9864176564
 51
330.4745452147
  0
LINE
  5
186
330
1F
100
AcDbEntity
  8
0
  6
Continuous
 62
     7
370
    25
100
AcDbLine
 10
918.9216747461
 20
1591.6943081806
 30
0.0
 11
921.8173609719
 21
1591.6943081806
 31
0.0
  0
ARC
  5
187
330
1F
100
AcDbEntity
  8
0
  6
Continuous
 62
     7
370
    25
100
AcDbCircle
 10
920.8441827547
 20
1591.5716039677
 30
0.0
 40
0.9808833602044564
100
AcDbArc
 50
337.3780495596
 51
7.1862777945
  0
LINE
  5
188
330
1F
100
AcDbEntity
  8
0
  6
Continuous
 62
     7
370
    25
100
AcDbLine
 10
918.8539135904
 20
1597.1943081806
 30
0.0
 11
929.9199609167
 21
1597.1943081806
 31
0.0
  0
LINE
  5
189
330
1F
100
AcDbEntity
  8
0
  6
Continuous
 62
     7
370
    25
100
AcDbLine
 10
922.612627914
 20
1591.6960439894
 30
0.0
 11
922.607635525
 21
1591.6943081806
 31
0.0
  0
ARC
  5
18A
330
1F
100
AcDbEntity
  8
0
  6
Continuous
 62
     7
370
    25
100
AcDbCircle
 10
921.747850897
 20
1592.1835347281
 30
0.0
 40
0.9892280935901848
100
AcDbArc
 50
270.1012969044
 51
330.3596659702
  0
LINE
  5
18B
330
1F
100
AcDbEntity
  8
0
  6
Continuous
 62
     7
370
    25
100
AcDbLine
 10
875.3301925985
 20
1591.6943081804
 30
0.0
 11
918.3585264431
 21
1591.6943081806
 31
0.0
  0
LINE
  5
18C
330
1F
100
AcDbEntity
  8
0
  6
Continuous
 62
     7
370
    25
100
AcDbLine
 10
875.3301925985
 20
1596.6943081804
 30
0.0
 11
875.3301925985
 21
1591.6943081804
 31
0.0
  0
LINE
  5
18D
330
1F
100
AcDbEntity
  8
0
  6
Continuous
 62
     7
370
    25
100
AcDbLine
 10
875.3301925985
 20
1596.6943081804
 30
0.0
 11
918.3585264431
 21
1596.6943081806
 31
0.0
  0
ARC
  5
18E
330
1F
100
AcDbEntity
  8
0
  6
Continuous
 62
     7
370
    25
100
AcDbCircle
 10
875.8278969104
 20
1596.6966039675
 30
0.0
 40
0.4977096068817197
100
AcDbArc
 50
90.2667503897
 51
180.2642894101
  0
LINE
  5
18F
330
1F
100
AcDbEntity
  8
0
  6
Continuous
 62
     7
370
    25
100
AcDbLine
 10
875.8255797458
 20
1597.1943081804
 30
0.0
 11
918.8539135904
 21
1597.1943081806
 31
0.0
  0
LINE
  5
190
330
1F
100
AcDbEntity
  8
0
  6
Continuous
 62
     7
370
    25
100
AcDbLine
 10
876.3460630585
 20
1591.1943081804
 30
0.0
 11
887.9316682135
 21
1591.1943081805
 31
0.0
  0
LWPOLYLINE
  5
191
330
1F
100
AcDbEntity
  8
0
  6
Continuous
 62
     7
370
    25
100
AcDbPolyline
 90
        4
 70
   128
 43
0.0
 10
876.3460630585
 20
1591.1943081804
 10
875.992184682
 20
1591.2471812716
 10
875.3334773999
 20
1591.6899088063
 10
875.3301925985
 20
1591.6943081804
  0
ARC
  5
192
330
1F
100
AcDbEntity
  8
0
  6
Continuous
 62
     7
370
    25
100
AcDbCircle
 10
923.8620000914
 20
1593.9347034183
 30
0.0
 40
0.039350926029302
100
AcDbArc
 50
16.749667122
 51
58.6545419873
  0
LWPOLYLINE
  5
193
330
1F
100
AcDbEntity
  8
0
  6
Continuous
 62
     7
370
    25
100
AcDbPolyline
 90
        3
 70
   128
 43
0.0
 10
924.349591151
 20
1594.2322253328
 10
924.336926488
 20
1594.2039155404
 10
924.3237069423
 20
1594.1943081806
  0
LINE
  5
194
330
1F
100
AcDbEntity
  8
0
  6
Continuous
 62
     7
370
    25
100
AcDbLine
 10
876.2364885434
 20
1588.1943081804
 30
0.0
 11
887.7569467322
 21
1588.1943081804
 31
0.0
  0
LINE
  5
195
330
1F
100
AcDbEntity
  8
0
  6
Continuous
 62
     7
370
    25
100
AcDbLine
 10
930.0583464955
 20
1588.6943081804
 30
0.0
 11
930.0583464955
 21
1591.6943081804
 31
0.0
  0
ARC
  5
196
330
1F
100
AcDbEntity
  8
0
  6
Continuous
 62
     7
370
    25
100
AcDbCircle
 10
930.5560508075
 20
1588.6920123933
 30
0.0
 40
0.4977096068805218
100
AcDbArc
 50
179.7357105938
 51
269.7332496127
  0
LINE
  5
197
330
1F
100
AcDbEntity
  8
0
  6
Continuous
 62
     7
370
    25
100
AcDbLine
 10
930.5537336429
 20
1588.1943081804
 30
0.0
 11
959.4039200939
 21
1588.1943081804
 31
0.0
  0
LINE
  5
198
330
1F
100
AcDbEntity
  8
0
  6
Continuous
 62
     7
370
    25
100
AcDbLine
 10
946.8172732752
 20
1598.1943081804
 30
0.0
 11
930.9646424404
 21
1598.1943081804
 31
0.0
  0
LINE
  5
199
330
1F
100
AcDbEntity
  8
0
  6
Continuous
 62
     7
370
    25
100
AcDbLine
 10
946.8172732752
 20
1598.1943081804
 30
0.0
 11
958.9044732257
 21
1598.1943081804
 31
0.0
  0
LWPOLYLINE
  5
19A
330
1F
100
AcDbEntity
  8
0
  6
Continuous
 62
     7
370
    25
100
AcDbPolyline
 90
        3
 70
   128
 43
0.0
 10
929.8573775558
 20
1591.4456733791
 10
929.7988210419
 20
1591.3256431643
 10
929.8071848909
 20
1591.2386451199
  0
LINE
  5
19B
330
1F
100
AcDbEntity
  8
0
  6
Continuous
 62
     7
370
    25
100
AcDbLine
 10
929.316060233
 20
1590.6943081804
 30
0.0
 11
887.4365795849
 21
1590.6943081804
 31
0.0
  0
ARC
  5
19C
330
1F
100
AcDbEntity
  8
0
  6
Continuous
 62
     7
370
    25
100
AcDbCircle
 10
927.5709738072
 20
1592.765156309
 30
0.0
 40
2.708087628749737
100
AcDbArc
 50
310.1205593844
 51
336.7074577602
  0
LINE
  5
19D
330
1F
100
AcDbEntity
  8
0
  6
Continuous
 62
     7
370
    25
100
AcDbLine
 10
930.0583464955
 20
1588.6943081804
 30
0.0
 11
887.4365795849
 21
1588.6943081803
 31
0.0
  0
LINE
  5
19E
330
1F
100
AcDbEntity
  8
0
  6
Continuous
 62
     7
370
    25
100
AcDbLine
 10
887.4365795849
 20
1590.6943081804
 30
0.0
 11
887.4365795849
 21
1588.6943081804
 31
0.0
  0
ARC
  5
19F
330
1F
100
AcDbEntity
  8
0
  6
Continuous
 62
     7
370
    25
100
AcDbCircle
 10
887.9342838968
 20
1588.6920123933
 30
0.0
 40
0.4977096068817093
100
AcDbArc
 50
179.735710594
 51
269.7332496049
  0
LINE
  5
1A0
330
1F
100
AcDbEntity
  8
0
  6
Continuous
 62
     7
370
    25
100
AcDbLine
 10
930.5537336429
 20
1588.1943081804
 30
0.0
 11
887.9319667322
 21
1588.1943081804
 31
0.0
  0
ARC
  5
1A1
330
1F
100
AcDbEntity
  8
0
  6
Continuous
 62
     7
370
    25
100
AcDbCircle
 10
929.813764545
 20
1590.6966039675
 30
0.0
 40
0.4977096069759466
100
AcDbArc
 50
90.2667514043
 51
180.2642893958
  0
ARC
  5
1A2
330
1F
100
AcDbEntity
  8
0
  6
Continuous
 62
     7
370
    25
100
AcDbCircle
 10
887.9342838968
 20
1590.6966039675
 30
0.0
 40
0.4977096068937429
100
AcDbArc
 50
90.2667508922
 51
180.264289407
  0
LINE
  5
1A3
330
1F
100
AcDbEntity
  8
0
  6
Continuous
 62
     7
370
    25
100
AcDbLine
 10
929.8114473716
 20
1591.1943081804
 30
0.0
 11
887.9319667279
 21
1591.1943081804
 31
0.0
  0
LINE
  5
1A4
330
1F
100
AcDbEntity
  8
0
  6
Continuous
 62
     7
370
    25
100
AcDbLine
 10
924.1563440937
 20
1594.1943081804
 30
0.0
 11
929.9199609167
 21
1594.1943081804
 31
0.0
  0
LINE
  5
1A5
330
1F
100
AcDbEntity
  8
0
  6
Continuous
 62
     7
370
    25
100
AcDbLine
 10
882.1918070197
 20
1598.8443081804
 30
0.0
 11
898.1918070197
 21
1598.8443081804
 31
0.0
  0
LINE
  5
1A6
330
1F
100
AcDbEntity
  8
0
  6
Continuous
 62
     7
370
    25
100
AcDbLine
 10
882.1918070198
 20
1586.5443081804
 30
0.0
 11
898.1918070197
 21
1586.5443081804
 31
0.0
  0
LINE
  5
1A7
330
1F
100
AcDbEntity
  8
0
  6
Continuous
 62
     7
370
    25
100
AcDbLine
 10
939.9199609168
 20
1585.5943081804
 30
0.0
 11
949.9199609168
 21
1585.5943081804
 31
0.0
  0
LINE
  5
1A8
330
1F
100
AcDbEntity
  8
0
  6
Continuous
 62
     7
370
    25
100
AcDbLine
 10
947.1852187997
 20
1587.1943081804
 30
0.0
 11
947.7741418846
 21
1587.1943081804
 31
0.0
  0
LINE
  5
1A9
330
1F
100
AcDbEntity
  8
0
  6
Continuous
 62
     7
370
    25
100
AcDbLine
 10
920.1993728041
 20
1598.2443081806
 30
0.0
 11
902.8525169553
 21
1598.2443081806
 31
0.0
  0
LINE
  5
1AA
330
1F
100
AcDbEntity
  8
0
  6
Continuous
 62
     7
370
    25
100
AcDbLine
 10
930.6488799743
 20
1598.244308181
 30
0.0
 11
920.1993728044
 21
1598.244308181
 31
0.0
  0
LINE
  5
1AB
330
1F
100
AcDbEntity
  8
0
  6
Continuous
 62
     7
370
    25
100
AcDbLine
 10
947.4416171887
 20
1587.1943081802
 30
0.0
 11
950.1374201088
 21
1587.1943081802
 31
0.0
  0
LINE
  5
1AC
330
1F
100
AcDbEntity
  8
0
  6
Continuous
 62
     7
370
    25
100
AcDbLine
 10
947.4416171887
 20
1587.1943081802
 30
0.0
 11
939.6334194671
 21
1587.1943081802
 31
0.0
  0
LINE
  5
1AD
330
1F
100
AcDbEntity
  8
0
  6
Continuous
 62
     7
370
    25
100
AcDbLine
 10
884.1918070204
 20
1581.4443081804
 30
0.0
 11
896.1918070189
 21
1581.4443081804
 31
0.0
  0
LINE
  5
1AE
330
1F
100
AcDbEntity
  8
0
  6
Continuous
 62
     7
370
    25
100
AcDbLine
 10
921.3993728039
 20
1599.4443081804
 30
0.0
 11
919.6525169534
 21
1599.4443081804
 31
0.0
  0
LINE
  5
1AF
330
1F
100
AcDbEntity
  8
0
  6
Continuous
 62
     7
370
    25
100
AcDbLine
 10
904.0525169552
 20
1599.4443081804
 30
0.0
 11
898.1918070197
 21
1599.4443081804
 31
0.0
  0
LINE
  5
1B0
330
1F
100
AcDbEntity
  8
0
  6
Continuous
 62
     7
370
    25
100
AcDbLine
 10
882.1918070197
 20
1599.4443081804
 30
0.0
 11
850.1918070169
 21
1599.4443081804
 31
0.0
  0
LINE
  5
1B1
330
1F
100
AcDbEntity
  8
0
  6
Continuous
 62
     7
370
    25
100
AcDbLine
 10
850.1918070169
 20
1599.4443081804
 30
0.0
 11
850.1918070169
 21
1600.2943081806
 31
0.0
  0
LINE
  5
1B2
330
1F
100
AcDbEntity
  8
0
  6
Continuous
 62
     7
370
    25
100
AcDbLine
 10
930.1918070169
 20
1585.9443081804
 30
0.0
 11
930.1918070169
 21
1588.1943081804
 31
0.0
  0
LINE
  5
1B3
330
1F
100
AcDbEntity
  8
0
  6
Continuous
 62
     7
370
    25
100
AcDbLine
 10
850.1918070169
 20
1585.9443081804
 30
0.0
 11
882.1918070197
 21
1585.9443081804
 31
0.0
  0
LINE
  5
1B4
330
1F
100
AcDbEntity
  8
0
  6
Continuous
 62
     7
370
    25
100
AcDbLine
 10
898.1918070197
 20
1585.9443081804
 30
0.0
 11
930.1918070169
 21
1585.9443081804
 31
0.0
  0
LINE
  5
1B5
330
1F
100
AcDbEntity
  8
0
  6
Continuous
 62
     7
370
    25
100
AcDbLine
 10
850.1918070169
 20
1599.4443081804
 30
0.0
 11
850.1918070169
 21
1585.9443081804
 31
0.0
  0
CIRCLE
  5
1B6
330
1F
100
AcDbEntity
  8
0
  6
Continuous
 62
     7
370
    25
100
AcDbCircle
 10
856.1918070161
 20
1592.6943081804
 30
0.0
 40
3.250000000000227
  0
LINE
  5
1B7
330
1F
100
AcDbEntity
  8
0
  6
Continuous
 62
     7
370
    25
100
AcDbLine
 10
930.1918070169
 20
1585.9443081804
 30
0.0
 11
930.1918070169
 21
1584.9443081804
 31
0.0
  0
LINE
  5
1B8
330
1F
100
AcDbEntity
  8
0
  6
Continuous
 62
     7
370
    25
100
AcDbLine
 10
850.1918070169
 20
1584.9443081804
 30
0.0
 11
850.1918070169
 21
1585.9443081804
 31
0.0
  0
LINE
  5
1B9
330
1F
100
AcDbEntity
  8
0
  6
Continuous
 62
     7
370
    25
100
AcDbLine
 10
902.6562731103
 20
1584.9443081804
 30
0.0
 11
902.6562731103
 21
1582.4443081804
 31
0.0
  0
LINE
  5
1BA
330
1F
100
AcDbEntity
  8
0
  6
Continuous
 62
     7
370
    25
100
AcDbLine
 10
899.1207392044
 20
1582.4443081804
 30
0.0
 11
902.6562731103
 21
1582.4443081804
 31
0.0
  0
LINE
  5
1BB
330
1F
100
AcDbEntity
  8
0
  6
Continuous
 62
     7
370
    25
100
AcDbLine
 10
899.1207392044
 20
1584.9443081804
 30
0.0
 11
899.1207392044
 21
1582.4443081804
 31
0.0
  0
LINE
  5
1BC
330
1F
100
AcDbEntity
  8
0
  6
Continuous
 62
     7
370
    25
100
AcDbLine
 10
899.1207392044
 20
1584.9443081804
 30
0.0
 11
902.6562731103
 21
1584.9443081804
 31
0.0
  0
LINE
  5
1BD
330
1F
100
AcDbEntity
  8
0
  6
Continuous
 62
     7
370
    25
100
AcDbLine
 10
881.2628748295
 20
1582.4443081804
 30
0.0
 11
881.2628748295
 21
1584.9443081804
 31
0.0
  0
LINE
  5
1BE
330
1F
100
AcDbEntity
  8
0
  6
Continuous
 62
     7
370
    25
100
AcDbLine
 10
881.2628748295
 20
1582.4443081804
 30
0.0
 11
899.1207392044
 21
1582.4443081804
 31
0.0
  0
LINE
  5
1BF
330
1F
100
AcDbEntity
  8
0
  6
Continuous
 62
     7
370
    25
100
AcDbLine
 10
881.2628748295
 20
1584.9443081804
 30
0.0
 11
899.1207392044
 21
1584.9443081804
 31
0.0
  0
LINE
  5
1C0
330
1F
100
AcDbEntity
  8
0
  6
Continuous
 62
     7
370
    25
100
AcDbLine
 10
877.7273409236
 20
1584.9443081804
 30
0.0
 11
877.7273409236
 21
1582.4443081804
 31
0.0
  0
LINE
  5
1C1
330
1F
100
AcDbEntity
  8
0
  6
Continuous
 62
     7
370
    25
100
AcDbLine
 10
877.7273409236
 20
1582.4443081804
 30
0.0
 11
881.2628748295
 21
1582.4443081804
 31
0.0
  0
LINE
  5
1C2
330
1F
100
AcDbEntity
  8
0
  6
Continuous
 62
     7
370
    25
100
AcDbLine
 10
877.7273409236
 20
1584.9443081804
 30
0.0
 11
881.2628748295
 21
1584.9443081804
 31
0.0
  0
LINE
  5
1C3
330
1F
100
AcDbEntity
  8
0
  6
Continuous
 62
     7
370
    25
100
AcDbLine
 10
928.727340923
 20
1584.9443081804
 30
0.0
 11
928.727340923
 21
1582.4443081804
 31
0.0
  0
LINE
  5
1C4
330
1F
100
AcDbEntity
  8
0
  6
Continuous
 62
     7
370
    25
100
AcDbLine
 10
902.6562731103
 20
1582.4443081804
 30
0.0
 11
928.727340923
 21
1582.4443081804
 31
0.0
  0
LINE
  5
1C5
330
1F
100
AcDbEntity
  8
0
  6
Continuous
 62
     7
370
    25
100
AcDbLine
 10
902.6562731103
 20
1584.9443081804
 30
0.0
 11
928.727340923
 21
1584.9443081804
 31
0.0
  0
LINE
  5
1C6
330
1F
100
AcDbEntity
  8
0
  6
Continuous
 62
     7
370
    25
100
AcDbLine
 10
851.6562731111
 20
1584.9443081804
 30
0.0
 11
851.6562731111
 21
1582.4443081804
 31
0.0
  0
LINE
  5
1C7
330
1F
100
AcDbEntity
  8
0
  6
Continuous
 62
     7
370
    25
100
AcDbLine
 10
851.6562731111
 20
1582.4443081804
 30
0.0
 11
877.7273409236
 21
1582.4443081804
 31
0.0
  0
LINE
  5
1C8
330
1F
100
AcDbEntity
  8
0
  6
Continuous
 62
     7
370
    25
100
AcDbLine
 10
851.6562731111
 20
1584.9443081804
 30
0.0
 11
877.7273409236
 21
1584.9443081804
 31
0.0
  0
LINE
  5
1C9
330
1F
100
AcDbEntity
  8
0
  6
Continuous
 62
     7
370
    25
100
AcDbLine
 10
850.191807017
 20
1584.9443081804
 30
0.0
 11
850.191807017
 21
1582.4443081804
 31
0.0
  0
LINE
  5
1CA
330
1F
100
AcDbEntity
  8
0
  6
Continuous
 62
     7
370
    25
100
AcDbLine
 10
850.191807017
 20
1582.4443081804
 30
0.0
 11
851.6562731111
 21
1582.4443081804
 31
0.0
  0
LINE
  5
1CB
330
1F
100
AcDbEntity
  8
0
  6
Continuous
 62
     7
370
    25
100
AcDbLine
 10
850.191807017
 20
1584.9443081804
 30
0.0
 11
851.6562731111
 21
1584.9443081804
 31
0.0
  0
LINE
  5
1CC
330
1F
100
AcDbEntity
  8
0
  6
Continuous
 62
     7
370
    25
100
AcDbLine
 10
930.191807017
 20
1582.4443081804
 30
0.0
 11
930.191807017
 21
1584.9443081804
 31
0.0
  0
LINE
  5
1CD
330
1F
100
AcDbEntity
  8
0
  6
Continuous
 62
     7
370
    25
100
AcDbLine
 10
928.727340923
 20
1582.4443081804
 30
0.0
 11
930.191807017
 21
1582.4443081804
 31
0.0
  0
LINE
  5
1CE
330
1F
100
AcDbEntity
  8
0
  6
Continuous
 62
     7
370
    25
100
AcDbLine
 10
928.727340923
 20
1584.9443081804
 30
0.0
 11
930.191807017
 21
1584.9443081804
 31
0.0
  0
LINE
  5
1CF
330
1F
100
AcDbEntity
  8
0
  6
Continuous
 62
     7
370
    25
100
AcDbLine
 10
1485.1918070161
 20
1311.6943081804
 30
0.0
 11
1485.1918070161
 21
1606.6943081804
 31
0.0
  0
LINE
  5
1D0
330
1F
100
AcDbEntity
  8
0
  6
Continuous
 62
     7
370
    25
100
AcDbLine
 10
535.1918070161
 20
1606.6943081804
 30
0.0
 11
535.1918070161
 21
1311.6943081804
 31
0.0
  0
CIRCLE
  5
1D1
330
1F
100
AcDbEntity
  8
0
  6
Continuous
 62
     7
370
    25
100
AcDbCircle
 10
856.1918070161
 20
1592.6943081804
 30
0.0
 40
2.5
  0
LINE
  5
1D2
330
1F
100
AcDbEntity
  8
0
  6
Continuous
 62
     7
370
    25
100
AcDbLine
 10
535.1918070161
 20
1311.6943081804
 30
0.0
 11
1485.1918070161
 21
1311.6943081804
 31
0.0
  0
LINE
  5
1D3
330
1F
100
AcDbEntity
  8
0
  6
Continuous
 62
     7
370
    25
100
AcDbLine
 10
1485.1918070161
 20
1606.6943081804
 30
0.0
 11
959.5199609166
 21
1606.6943081804
 31
0.0
  0
LINE
  5
1D4
330
1F
100
AcDbEntity
  8
0
  6
Continuous
 62
     7
370
    25
100
AcDbLine
 10
775.1918070161
 20
1606.6943081804
 30
0.0
 11
535.1918070161
 21
1606.6943081804
 31
0.0
  0
LINE
  5
1D5
330
1F
100
AcDbEntity
  8
0
  6
Continuous
 62
     7
370
    25
100
AcDbLine
 10
1490.1918070161
 20
1311.6943081804
 30
0.0
 11
1485.1918070161
 21
1311.6943081804
 31
0.0
  0
LINE
  5
1D6
330
1F
100
AcDbEntity
  8
0
  6
Continuous
 62
     7
370
    25
100
AcDbLine
 10
535.1918070161
 20
1311.6943081804
 30
0.0
 11
530.1918070161
 21
1311.6943081804
 31
0.0
  0
LINE
  5
1D7
330
1F
100
AcDbEntity
  8
0
  6
Continuous
 62
     7
370
    25
100
AcDbLine
 10
410.1918070161
 20
1811.6943081804
 30
0.0
 11
410.1918070161
 21
1311.6943081804
 31
0.0
  0
LINE
  5
1D8
330
1F
100
AcDbEntity
  8
0
  6
Continuous
 62
     7
370
    25
100
AcDbLine
 10
1610.1918070161
 20
1811.6943081804
 30
0.0
 11
410.1918070161
 21
1811.6943081804
 31
0.0
  0
LINE
  5
1D9
330
1F
100
AcDbEntity
  8
0
  6
Continuous
 62
     7
370
    25
100
AcDbLine
 10
1610.1918070161
 20
1311.6943081804
 30
0.0
 11
1610.1918070161
 21
1811.6943081804
 31
0.0
  0
LINE
  5
1DA
330
1F
100
AcDbEntity
  8
0
  6
Continuous
 62
     7
370
    25
100
AcDbLine
 10
1490.1918070161
 20
1311.6943081804
 30
0.0
 11
1610.1918070161
 21
1311.6943081804
 31
0.0
  0
LINE
  5
1DB
330
1F
100
AcDbEntity
  8
0
  6
Continuous
 62
     7
370
    25
100
AcDbLine
 10
530.1918070161
 20
1611.6943081804
 30
0.0
 11
530.1918070161
 21
1311.6943081804
 31
0.0
  0
LINE
  5
1DC
330
1F
100
AcDbEntity
  8
0
  6
Continuous
 62
     7
370
    25
100
AcDbLine
 10
410.1918070161
 20
1311.6943081804
 30
0.0
 11
530.1918070161
 21
1311.6943081804
 31
0.0
  0
LINE
  5
1DD
330
1F
100
AcDbEntity
  8
0
  6
Continuous
 62
     7
370
    25
100
AcDbLine
 10
1490.1918070161
 20
1611.6943081804
 30
0.0
 11
805.191807016
 21
1611.6943081804
 31
0.0
  0
LINE
  5
1DE
330
1F
100
AcDbEntity
  8
0
  6
Continuous
 62
     7
370
    25
100
AcDbLine
 10
775.1918070161
 20
1611.6943081804
 30
0.0
 11
530.1918070161
 21
1611.6943081804
 31
0.0
  0
LINE
  5
1DF
330
1F
100
AcDbEntity
  8
0
  6
Continuous
 62
     7
370
    25
100
AcDbLine
 10
1490.1918070161
 20
1311.6943081804
 30
0.0
 11
1490.1918070161
 21
1611.6943081804
 31
0.0
  0
LINE
  5
1E0
330
1F
100
AcDbEntity
  8
0
  6
Continuous
 62
     7
370
    25
100
AcDbLine
 10
777.0618527288
 20
1610.2943081807
 30
0.0
 11
805.191807016
 21
1610.2943081807
 31
0.0
  0
LINE
  5
1E1
330
1F
100
AcDbEntity
  8
0
  6
Continuous
 62
     7
370
    25
100
AcDbLine
 10
924.391468098
 20
1594.6943081806
 30
0.0
 11
929.9199609167
 21
1594.6943081806
 31
0.0
  0
LINE
  5
1E2
330
1F
100
AcDbEntity
  8
0
  6
Continuous
 62
     7
370
    25
100
AcDbLine
 10
918.9216747461
 20
1596.6943081806
 30
0.0
 11
929.9199609167
 21
1596.6943081806
 31
0.0
  0
ARC
  5
1E3
330
1F
100
AcDbEntity
  8
0
  6
Continuous
 62
     7
370
    25
100
AcDbCircle
 10
921.6231658082
 20
1590.6306352371
 30
0.0
 40
1.454005181653828
100
AcDbArc
 50
47.1166500954
 51
64.6201033022
  0
ARC
  5
1E4
330
1F
100
AcDbEntity
  8
0
  6
Continuous
 62
     7
370
    25
100
AcDbCircle
 10
922.1194803931
 20
1591.6280202983
 30
0.0
 40
2.930033061629448
100
AcDbArc
 50
53.0085200376
 51
61.1464796226
  0
ARC
  5
1E5
330
1F
100
AcDbEntity
  8
0
  6
Continuous
 62
     7
370
    25
100
AcDbCircle
 10
922.7941900701
 20
1594.606124879
 30
0.0
 40
1.599710409108945
100
AcDbArc
 50
346.4832558351
 51
3.1600053033
  0
LINE
  5
1E6
330
1F
100
AcDbEntity
  8
0
  6
Continuous
 62
     7
370
    25
100
AcDbLine
 10
875.1918070197
 20
1589.1943081804
 30
0.0
 11
887.4319667322
 21
1589.1943081804
 31
0.0
  0
LINE
  5
1E7
330
1F
100
AcDbEntity
  8
0
  6
Continuous
 62
     7
370
    25
100
AcDbLine
 10
875.1918070197
 20
1596.6943081804
 30
0.0
 11
875.3301925985
 21
1596.6943081804
 31
0.0
  0
LINE
  5
1E8
330
1F
100
AcDbEntity
  8
0
  6
Continuous
 62
     7
370
    25
100
AcDbLine
 10
946.9527955866
 20
1597.1943081804
 30
0.0
 11
929.9199609167
 21
1597.1943081804
 31
0.0
  0
LINE
  5
1E9
330
1F
100
AcDbEntity
  8
0
  6
Continuous
 62
     7
370
    25
100
AcDbLine
 10
959.9199609167
 20
1597.1943081804
 30
0.0
 11
946.9527955866
 21
1597.1943081804
 31
0.0
  0
LINE
  5
1EA
330
1F
100
AcDbEntity
  8
0
  6
Continuous
 62
     7
370
    25
100
AcDbLine
 10
959.9199609167
 20
1588.6943081804
 30
0.0
 11
930.0583464955
 21
1588.6943081804
 31
0.0
  0
LINE
  5
1EB
330
1F
100
AcDbEntity
  8
0
  6
Continuous
 62
     7
370
    25
100
AcDbLine
 10
929.9199609167
 20
1591.6943081305
 30
0.0
 11
930.0583464955
 21
1591.6943081305
 31
0.0
  0
ARC
  5
1EC
330
1F
100
AcDbEntity
  8
0
  6
Continuous
 62
     7
370
    25
100
AcDbCircle
 10
930.7580127164
 20
1590.923237248
 30
0.0
 40
1.041193163407914
100
AcDbArc
 50
132.2204559803
 51
149.8830424026
  0
LINE
  5
1ED
330
1F
100
AcDbEntity
  8
0
  6
Continuous
 62
     7
370
    25
100
AcDbLine
 10
922.4049354134
 20
1591.4443081804
 30
0.0
 11
929.8567115424
 21
1591.4443081804
 31
0.0
  0
LINE
  5
1EE
330
1F
100
AcDbEntity
  8
0
  6
Continuous
 62
     7
370
    25
100
AcDbLine
 10
923.7556826016
 20
1593.6943081805
 30
0.0
 11
929.9199609167
 21
1593.6943081805
 31
0.0
  0
LINE
  5
1EF
330
1F
100
AcDbEntity
  8
0
  6
Continuous
 62
     7
370
    25
100
AcDbLine
 10
887.4365795849
 20
1590.6943081804
 30
0.0
 11
887.4319667322
 21
1590.6943081804
 31
0.0
  0
LINE
  5
1F0
330
1F
100
AcDbEntity
  8
0
  6
Continuous
 62
     7
370
    25
100
AcDbLine
 10
887.4319667322
 20
1588.6943081804
 30
0.0
 11
887.4365795849
 21
1588.6943081804
 31
0.0
  0
DIMENSION
  5
1F1
330
1F
100
AcDbEntity
  8
FORMAT
100
AcDbDimension
  2
_D
 10
930.1918070172
 20
1444.9453247315
 30
0.0
 11
890.1918070173
 21
1444.9453247315
 31
0.0
 70
   160
  1
<>
 71
     2
 42
-1.0
  3
SLDDIMSTYLE0
100
AcDbAlignedDimension
 13
850.191807017
 23
1582.4443081804
 33
0.0
 14
930.191807017
 24
1582.4443081804
 34
0.0
 50
0.0000000001
100
AcDbRotatedDimension
  0
DIMENSION
  5
1FC
330
1F
100
AcDbEntity
  8
FORMAT
100
AcDbDimension
  2
_D_1
 10
475.0945811847
 20
1707.7943081803
 30
0.0
 11
475.0945811847
 21
1660.2943081803
 31
0.0
 70
   160
  1
<>
 71
     2
 42
-1.0
  3
SLDDIMSTYLE0
100
AcDbAlignedDimension
 13
520.1918070161
 23
1612.7943081803
 33
0.0
 14
520.1918070161
 24
1707.7943081803
 34
0.0
 50
90.0
100
AcDbRotatedDimension
  0
DIMENSION
  5
206
330
1F
100
AcDbEntity
  8
FORMAT
100
AcDbDimension
  2
_D_2
 10
1199.691807016
 20
1748.7466836119
 30
0.0
 11
855.191807016
 21
1748.7466836119
 31
0.0
 70
   160
  1
<>
 71
     2
 42
-1.0
  3
SLDDIMSTYLE0
100
AcDbAlignedDimension
 13
510.6918070161
 23
1702.7943081803
 33
0.0
 14
1199.6918070161
 24
1702.7943081804
 34
0.0
 50
0.0
100
AcDbRotatedDimension
  0
DIMENSION
  5
210
330
1F
100
AcDbEntity
  8
FORMAT
100
AcDbDimension
  2
_D_3
 10
850.191807017
 20
1444.9453247315
 30
0.0
 11
680.1918070166
 21
1444.9453247315
 31
0.0
 70
   160
  1
<>
 71
     2
 42
-1.0
  3
SLDDIMSTYLE0
100
AcDbAlignedDimension
 13
510.1918070161
 23
1480.6943081804
 33
0.0
 14
850.191807017
 24
1582.4443081804
 34
0.0
100
AcDbRotatedDimension
  0
DIMENSION
  5
219
330
1F
100
AcDbEntity
  8
FORMAT
100
AcDbDimension
  2
_D_4
 10
790.1918070161
 20
1394.7652899159
 30
0.0
 11
650.1918070161
 21
1394.7652899159
 31
0.0
 70
   160
  1
<>
 71
     2
 42
-1.0
  3
SLDDIMSTYLE0
100
AcDbAlignedDimension
 13
510.1918070161
 23
1377.1743817776
 33
0.0
 14
790.1918070161
 24
1591.7943081807
 34
0.0
100
AcDbRotatedDimension
  0
DIMENSION
  5
222
330
1F
100
AcDbEntity
  8
FORMAT
100
AcDbDimension
  2
_D_5
 10
997.8669148615
 20
1602.9443081804
 30
0.0
 11
997.8669148615
 21
1522.02329713
 31
0.0
 70
   160
  1
<>
 71
     2
 42
-1.0
  3
SLDDIMSTYLE1
100
AcDbAlignedDimension
 13
877.7273409236
 23
1582.4443081804
 33
0.0
 14
877.7273409236
 24
1602.9443081804
 34
0.0
 50
90.0
100
AcDbRotatedDimension
  0
LINE
  5
22F
330
1F
100
AcDbEntity
  8
0
  6
CENTER
 62
     7
370
    18
100
AcDbLine
 10
591.2850771065
 20
1871.6943081804
 30
0.0
 11
591.2850771065
 21
1251.6943081804
 31
0.0
  0
LINE
  5
230
330
1F
100
AcDbEntity
  8
0
  6
Continuous
 62
     7
370
    18
100
AcDbLine
 10
502.3850771065
 20
1857.6943081804
 30
0.0
 11
591.2850771065
 21
1857.6943081804
 31
0.0
  0
SOLID
  5
231
330
1F
100
AcDbEntity
  8
0
  6
Continuous
 62
     7
370
    18
100
AcDbTrace
 10
591.2850771065
 20
1857.6943081804
 30
0.0
 11
546.8350771065
 21
1864.8063081804
 31
0.0
 12
546.8350771065
 22
1850.5823081804
 32
0.0
 13
546.8350771065
 23
1850.5823081804
 33
0.0
  0
LINE
  5
232
330
1F
100
AcDbEntity
  8
0
  6
Continuous
 62
     7
370
    18
100
AcDbLine
 10
502.3850771065
 20
1265.6943081804
 30
0.0
 11
591.2850771065
 21
1265.6943081804
 31
0.0
  0
SOLID
  5
233
330
1F
100
AcDbEntity
  8
0
  6
Continuous
 62
     7
370
    18
100
AcDbTrace
 10
591.2850771065
 20
1265.6943081804
 30
0.0
 11
546.8350771065
 21
1272.8063081804
 31
0.0
 12
546.8350771065
 22
1258.5823081804
 32
0.0
 13
546.8350771065
 23
1258.5823081804
 33
0.0
  0
MTEXT
  5
234
330
1F
100
AcDbEntity
  8
0
  6
Continuous
 62
     7
100
AcDbMText
 10
502.3850771065
 20
1911.3700434178
 30
0.0
 40
35.0
 41
0.0
 71
     1
 72
     1
  1
A
  7
SLDTEXTSTYLE0
 73
     1
 44
1.0
  0
MTEXT
  5
235
330
1F
100
AcDbEntity
  8
0
  6
Continuous
 62
     7
100
AcDbMText
 10
502.3850771065
 20
1247.8202883464
 30
0.0
 40
35.0
 41
0.0
 71
     1
 72
     1
  1
A
  7
SLDTEXTSTYLE0
 73
     1
 44
1.0
  0
LINE
  5
236
330
1F
100
AcDbEntity
  8
FORMAT
  6
CENTERX2
370
    18
100
AcDbLine
 10
790.1918070161
 20
1591.7943081807
 30
0.0
 11
790.1918070161
 21
1635.0943081807
 31
0.0
  0
LINE
  5
237
330
1F
100
AcDbEntity
  8
FORMAT
  6
CENTERX2
370
    18
100
AcDbLine
 10
510.1918070161
 20
1480.6943081804
 30
0.0
 11
510.1918070161
 21
1377.1743817776
 31
0.0
  0
ARC
  5
238
330
1F
100
AcDbEntity
  8
0
  6
Continuous
 62
     7
370
    25
100
AcDbCircle
 10
1179.6918070161
 20
861.6578128057
 30
0.0
 40
1.999999999999894
100
AcDbArc
 50
14.4775121862
 51
165.5224878125
  0
ARC
  5
239
330
1F
100
AcDbEntity
  8
0
  6
Continuous
 62
     7
370
    25
100
AcDbCircle
 10
1160.1918070161
 20
861.6578128057
 30
0.0
 40
3.25000000000033
100
AcDbArc
 50
8.8498831004
 51
171.1501169005
  0
ARC
  5
23A
330
1F
100
AcDbEntity
  8
0
  6
Continuous
 62
     7
370
    25
100
AcDbCircle
 10
934.1918070161
 20
861.6578128057
 30
0.0
 40
3.249999999996285
100
AcDbArc
 50
8.8498830993
 51
171.1501169007
  0
ARC
  5
23B
330
1F
100
AcDbEntity
  8
0
  6
Continuous
 62
     7
370
    25
100
AcDbCircle
 10
867.1918070161
 20
861.6578128057
 30
0.0
 40
3.000000000000434
100
AcDbArc
 50
9.5940682278
 51
170.4059317722
  0
ARC
  5
23C
330
1F
100
AcDbEntity
  8
0
  6
Continuous
 62
     7
370
    25
100
AcDbCircle
 10
743.1918070161
 20
861.6578128056
 30
0.0
 40
3.000000000000308
100
AcDbArc
 50
9.594068228
 51
170.4059317719
  0
ARC
  5
23D
330
1F
100
AcDbEntity
  8
0
  6
Continuous
 62
     7
370
    25
100
AcDbCircle
 10
727.1918070161
 20
861.6578128056
 30
0.0
 40
3.249999999996356
100
AcDbArc
 50
8.8498830994
 51
171.1501169005
  0
ARC
  5
23E
330
1F
100
AcDbEntity
  8
0
  6
Continuous
 62
     7
370
    25
100
AcDbCircle
 10
560.1918070161
 20
861.6578128056
 30
0.0
 40
2.000000000000657
100
AcDbArc
 50
14.4775121877
 51
165.5224878125
  0
ARC
  5
23F
330
1F
100
AcDbEntity
  8
0
  6
Continuous
 62
     7
370
    25
100
AcDbCircle
 10
530.6918070161
 20
861.6578128056
 30
0.0
 40
2.000000000000538
100
AcDbArc
 50
14.4775121876
 51
165.5224878126
  0
LINE
  5
240
330
1F
100
AcDbEntity
  8
0
  6
Continuous
 62
     7
370
    25
100
AcDbLine
 10
1190.1918070161
 20
868.1578128057
 30
0.0
 11
1190.1918070161
 21
862.1578128057
 31
0.0
  0
LINE
  5
241
330
1F
100
AcDbEntity
  8
0
  6
Continuous
 62
     7
370
    25
100
AcDbLine
 10
520.1918070161
 20
862.1578128056
 30
0.0
 11
520.1918070161
 21
868.1578128056
 31
0.0
  0
ARC
  5
242
330
1F
100
AcDbEntity
  8
0
  6
Continuous
 62
     7
370
    25
100
AcDbCircle
 10
530.6918070161
 20
861.6578128056
 30
0.0
 40
2.000000000000538
100
AcDbArc
 50
165.5224878126
 51
180.0000000001
  0
LINE
  5
243
330
1F
100
AcDbEntity
  8
0
  6
Continuous
 62
     7
370
    25
100
AcDbLine
 10
520.1918070161
 20
862.1578128056
 30
0.0
 11
520.1918070161
 21
861.6578128056
 31
0.0
  0
ARC
  5
244
330
1F
100
AcDbEntity
  8
0
  6
Continuous
 62
     7
370
    25
100
AcDbCircle
 10
530.6918070161
 20
861.6578128056
 30
0.0
 40
2.000000000000114
100
AcDbArc
 50
180.0000000001
 51
194.4775121861
  0
LINE
  5
245
330
1F
100
AcDbEntity
  8
0
  6
Continuous
 62
     7
370
    25
100
AcDbLine
 10
520.1918070161
 20
861.6578128056
 30
0.0
 11
520.1918070161
 21
861.1578128056
 31
0.0
  0
ARC
  5
246
330
1F
100
AcDbEntity
  8
0
  6
Continuous
 62
     7
370
    25
100
AcDbCircle
 10
530.6918070161
 20
861.6578128056
 30
0.0
 40
1.999999999999996
100
AcDbArc
 50
194.4775121861
 51
345.5224878139
  0
ARC
  5
247
330
1F
100
AcDbEntity
  8
0
  6
Continuous
 62
     7
370
    25
100
AcDbCircle
 10
560.1918070161
 20
861.6578128056
 30
0.0
 40
2.000000000000226
100
AcDbArc
 50
194.4775121861
 51
345.5224878141
  0
ARC
  5
248
330
1F
100
AcDbEntity
  8
0
  6
Continuous
 62
     7
370
    25
100
AcDbCircle
 10
727.1918070161
 20
861.6578128056
 30
0.0
 40
3.249999999995971
100
AcDbArc
 50
188.8498830985
 51
351.1501169016
  0
ARC
  5
249
330
1F
100
AcDbEntity
  8
0
  6
Continuous
 62
     7
370
    25
100
AcDbCircle
 10
743.1918070161
 20
861.6578128056
 30
0.0
 40
3.000000000000146
100
AcDbArc
 50
189.5940682267
 51
350.4059317733
  0
ARC
  5
24A
330
1F
100
AcDbEntity
  8
0
  6
Continuous
 62
     7
370
    25
100
AcDbCircle
 10
867.1918070161
 20
861.6578128057
 30
0.0
 40
3.000000000000148
100
AcDbArc
 50
189.5940682269
 51
350.4059317731
  0
ARC
  5
24B
330
1F
100
AcDbEntity
  8
0
  6
Continuous
 62
     7
370
    25
100
AcDbCircle
 10
934.1918070161
 20
861.6578128057
 30
0.0
 40
3.249999999996065
100
AcDbArc
 50
188.8498830985
 51
351.1501169016
  0
ARC
  5
24C
330
1F
100
AcDbEntity
  8
0
  6
Continuous
 62
     7
370
    25
100
AcDbCircle
 10
1160.1918070161
 20
861.6578128057
 30
0.0
 40
3.25000000000022
100
AcDbArc
 50
188.8498830983
 51
351.1501169018
  0
ARC
  5
24D
330
1F
100
AcDbEntity
  8
0
  6
Continuous
 62
     7
370
    25
100
AcDbCircle
 10
1179.6918070161
 20
861.6578128057
 30
0.0
 40
2.000000000000289
100
AcDbArc
 50
194.4775121856
 51
345.5224878144
  0
LINE
  5
24E
330
1F
100
AcDbEntity
  8
0
  6
Continuous
 62
     7
370
    25
100
AcDbLine
 10
1190.1918070161
 20
861.1578128057
 30
0.0
 11
1190.1918070161
 21
849.6578128057
 31
0.0
  0
LINE
  5
24F
330
1F
100
AcDbEntity
  8
0
  6
Continuous
 62
     7
370
    25
100
AcDbLine
 10
520.1918070161
 20
849.6578128056
 30
0.0
 11
520.1918070161
 21
861.1578128056
 31
0.0
  0
ARC
  5
250
330
1F
100
AcDbEntity
  8
0
  6
Continuous
 62
     7
370
    25
100
AcDbCircle
 10
1179.6918070161
 20
861.6578128057
 30
0.0
 40
2.000000000000204
100
AcDbArc
 50
345.5224878144
 51
0.0000000003
  0
LINE
  5
251
330
1F
100
AcDbEntity
  8
0
  6
Continuous
 62
     7
370
    25
100
AcDbLine
 10
1190.1918070161
 20
861.1578128057
 30
0.0
 11
1190.1918070161
 21
861.6578128057
 31
0.0
  0
ARC
  5
252
330
1F
100
AcDbEntity
  8
0
  6
Continuous
 62
     7
370
    25
100
AcDbCircle
 10
1179.6918070161
 20
861.6578128057
 30
0.0
 40
2.0
100
AcDbArc
 50
0.0000000003
 51
14.4775121862
  0
LINE
  5
253
330
1F
100
AcDbEntity
  8
0
  6
Continuous
 62
     7
370
    25
100
AcDbLine
 10
1190.1918070161
 20
861.6578128057
 30
0.0
 11
1190.1918070161
 21
862.1578128057
 31
0.0
  0
LINE
  5
254
330
1F
100
AcDbEntity
  8
0
  6
Continuous
 62
     7
370
    25
100
AcDbLine
 10
1190.1918070161
 20
849.6578128057
 30
0.0
 11
1190.1918070161
 21
849.1578128057
 31
0.0
  0
LINE
  5
255
330
1F
100
AcDbEntity
  8
0
  6
Continuous
 62
     7
370
    25
100
AcDbLine
 10
520.1918070161
 20
849.1578128056
 30
0.0
 11
520.1918070161
 21
849.6578128056
 31
0.0
  0
ARC
  5
256
330
1F
100
AcDbEntity
  8
0
  6
Continuous
 62
     7
370
    25
100
AcDbCircle
 10
727.1918070161
 20
785.6578128056
 30
0.0
 40
3.249999999996322
100
AcDbArc
 50
8.8498830985
 51
171.1501169016
  0
ARC
  5
257
330
1F
100
AcDbEntity
  8
0
  6
Continuous
 62
     7
370
    25
100
AcDbCircle
 10
560.1918070161
 20
785.6578128056
 30
0.0
 40
1.999999999999883
100
AcDbArc
 50
14.4775121861
 51
165.5224878138
  0
ARC
  5
258
330
1F
100
AcDbEntity
  8
0
  6
Continuous
 62
     7
370
    25
100
AcDbCircle
 10
530.6918070161
 20
785.6578128056
 30
0.0
 40
1.999999999999979
100
AcDbArc
 50
14.4775121862
 51
165.5224878138
  0
LINE
  5
259
330
1F
100
AcDbEntity
  8
0
  6
Continuous
 62
     7
370
    25
100
AcDbLine
 10
520.1918070161
 20
786.1578128056
 30
0.0
 11
520.1918070161
 21
795.8578128056
 31
0.0
  0
ARC
  5
25A
330
1F
100
AcDbEntity
  8
0
  6
Continuous
 62
     7
370
    25
100
AcDbCircle
 10
1179.6918070161
 20
785.6578128057
 30
0.0
 40
2.000000000000477
100
AcDbArc
 50
14.4775121862
 51
165.5224878136
  0
ARC
  5
25B
330
1F
100
AcDbEntity
  8
0
  6
Continuous
 62
     7
370
    25
100
AcDbCircle
 10
1160.1918070161
 20
785.6578128057
 30
0.0
 40
3.250000000000024
100
AcDbArc
 50
8.8498830987
 51
171.1501169013
  0
ARC
  5
25C
330
1F
100
AcDbEntity
  8
0
  6
Continuous
 62
     7
370
    25
100
AcDbCircle
 10
934.1918070161
 20
785.6578128057
 30
0.0
 40
3.249999999996064
100
AcDbArc
 50
8.8498830985
 51
171.1501169015
  0
ARC
  5
25D
330
1F
100
AcDbEntity
  8
0
  6
Continuous
 62
     7
370
    25
100
AcDbCircle
 10
867.1918070161
 20
785.6578128057
 30
0.0
 40
3.000000000000091
100
AcDbArc
 50
9.5940682269
 51
170.4059317732
  0
ARC
  5
25E
330
1F
100
AcDbEntity
  8
0
  6
Continuous
 62
     7
370
    25
100
AcDbCircle
 10
743.1918070161
 20
785.6578128056
 30
0.0
 40
3.000000000000451
100
AcDbArc
 50
9.5940682272
 51
170.405931773
  0
LINE
  5
25F
330
1F
100
AcDbEntity
  8
0
  6
Continuous
 62
     7
370
    25
100
AcDbLine
 10
1190.1918070161
 20
795.8578128057
 30
0.0
 11
1190.1918070161
 21
786.1578128057
 31
0.0
  0
ARC
  5
260
330
1F
100
AcDbEntity
  8
0
  6
Continuous
 62
     7
370
    25
100
AcDbCircle
 10
1179.6918070161
 20
785.6578128057
 30
0.0
 40
2.000000000000391
100
AcDbArc
 50
0.0000000001
 51
14.4775121862
  0
LINE
  5
261
330
1F
100
AcDbEntity
  8
0
  6
Continuous
 62
     7
370
    25
100
AcDbLine
 10
1190.1918070161
 20
785.6578128057
 30
0.0
 11
1190.1918070161
 21
786.1578128057
 31
0.0
  0
ARC
  5
262
330
1F
100
AcDbEntity
  8
0
  6
Continuous
 62
     7
370
    25
100
AcDbCircle
 10
530.6918070161
 20
785.6578128056
 30
0.0
 40
2.000000000000067
100
AcDbArc
 50
179.9999999998
 51
194.4775121859
  0
LINE
  5
263
330
1F
100
AcDbEntity
  8
0
  6
Continuous
 62
     7
370
    25
100
AcDbLine
 10
520.1918070161
 20
785.6578128056
 30
0.0
 11
520.1918070161
 21
785.1578128056
 31
0.0
  0
ARC
  5
264
330
1F
100
AcDbEntity
  8
0
  6
Continuous
 62
     7
370
    25
100
AcDbCircle
 10
530.6918070161
 20
785.6578128056
 30
0.0
 40
2.0
100
AcDbArc
 50
165.5224878138
 51
179.9999999998
  0
LINE
  5
265
330
1F
100
AcDbEntity
  8
0
  6
Continuous
 62
     7
370
    25
100
AcDbLine
 10
520.1918070161
 20
786.1578128056
 30
0.0
 11
520.1918070161
 21
785.6578128056
 31
0.0
  0
ARC
  5
266
330
1F
100
AcDbEntity
  8
0
  6
Continuous
 62
     7
370
    25
100
AcDbCircle
 10
1179.6918070161
 20
785.6578128057
 30
0.0
 40
1.99999999999987
100
AcDbArc
 50
345.5224878127
 51
0.0000000001
  0
LINE
  5
267
330
1F
100
AcDbEntity
  8
0
  6
Continuous
 62
     7
370
    25
100
AcDbLine
 10
1190.1918070161
 20
785.1578128057
 30
0.0
 11
1190.1918070161
 21
785.6578128057
 31
0.0
  0
ARC
  5
268
330
1F
100
AcDbEntity
  8
0
  6
Continuous
 62
     7
370
    25
100
AcDbCircle
 10
934.1918070161
 20
785.6578128057
 30
0.0
 40
3.249999999996065
100
AcDbArc
 50
188.8498830985
 51
351.1501169016
  0
ARC
  5
269
330
1F
100
AcDbEntity
  8
0
  6
Continuous
 62
     7
370
    25
100
AcDbCircle
 10
1160.1918070161
 20
785.6578128057
 30
0.0
 40
3.250000000000098
100
AcDbArc
 50
188.8498830983
 51
351.1501169018
  0
ARC
  5
26A
330
1F
100
AcDbEntity
  8
0
  6
Continuous
 62
     7
370
    25
100
AcDbCircle
 10
1179.6918070161
 20
785.6578128057
 30
0.0
 40
1.999999999999956
100
AcDbArc
 50
194.4775121873
 51
345.5224878127
  0
ARC
  5
26B
330
1F
100
AcDbEntity
  8
0
  6
Continuous
 62
     7
370
    25
100
AcDbCircle
 10
530.6918070161
 20
785.6578128056
 30
0.0
 40
1.999999999999982
100
AcDbArc
 50
194.4775121859
 51
345.5224878142
  0
ARC
  5
26C
330
1F
100
AcDbEntity
  8
0
  6
Continuous
 62
     7
370
    25
100
AcDbCircle
 10
560.1918070161
 20
785.6578128056
 30
0.0
 40
2.000000000000175
100
AcDbArc
 50
194.4775121858
 51
345.5224878144
  0
ARC
  5
26D
330
1F
100
AcDbEntity
  8
0
  6
Continuous
 62
     7
370
    25
100
AcDbCircle
 10
727.1918070161
 20
785.6578128056
 30
0.0
 40
3.249999999995953
100
AcDbArc
 50
188.8498830985
 51
351.1501169015
  0
ARC
  5
26E
330
1F
100
AcDbEntity
  8
0
  6
Continuous
 62
     7
370
    25
100
AcDbCircle
 10
743.1918070161
 20
785.6578128056
 30
0.0
 40
3.000000000000031
100
AcDbArc
 50
189.5940682268
 51
350.4059317733
  0
ARC
  5
26F
330
1F
100
AcDbEntity
  8
0
  6
Continuous
 62
     7
370
    25
100
AcDbCircle
 10
867.1918070161
 20
785.6578128057
 30
0.0
 40
3.000000000000075
100
AcDbArc
 50
189.5940682269
 51
350.4059317731
  0
LINE
  5
270
330
1F
100
AcDbEntity
  8
0
  6
Continuous
 62
     7
370
    25
100
AcDbLine
 10
520.1918070161
 20
779.1578128056
 30
0.0
 11
520.1918070161
 21
785.1578128056
 31
0.0
  0
LINE
  5
271
330
1F
100
AcDbEntity
  8
0
  6
Continuous
 62
     7
370
    25
100
AcDbLine
 10
1190.1918070161
 20
785.1578128057
 30
0.0
 11
1190.1918070161
 21
779.1578128057
 31
0.0
  0
LINE
  5
272
330
1F
100
AcDbEntity
  8
0
  6
Continuous
 62
     7
370
    25
100
AcDbLine
 10
1190.1918070161
 20
869.1578128057
 30
0.0
 11
520.1918070161
 21
869.1578128056
 31
0.0
  0
LINE
  5
273
330
1F
100
AcDbEntity
  8
0
  6
Continuous
 62
     7
370
    25
100
AcDbLine
 10
1190.1918070161
 20
868.1578128057
 30
0.0
 11
1190.1918070161
 21
869.1578128057
 31
0.0
  0
LINE
  5
274
330
1F
100
AcDbEntity
  8
0
  6
Continuous
 62
     7
370
    25
100
AcDbLine
 10
520.1918070161
 20
869.1578128056
 30
0.0
 11
520.1918070161
 21
868.1578128056
 31
0.0
  0
LINE
  5
275
330
1F
100
AcDbEntity
  8
0
  6
Continuous
 62
     7
370
    25
100
AcDbLine
 10
520.1918070161
 20
778.1578128056
 30
0.0
 11
1190.1918070161
 21
778.1578128057
 31
0.0
  0
LINE
  5
276
330
1F
100
AcDbEntity
  8
0
  6
Continuous
 62
     7
370
    25
100
AcDbLine
 10
520.1918070161
 20
779.1578128056
 30
0.0
 11
520.1918070161
 21
778.1578128056
 31
0.0
  0
LINE
  5
277
330
1F
100
AcDbEntity
  8
0
  6
Continuous
 62
     7
370
    25
100
AcDbLine
 10
1190.1918070161
 20
778.1578128057
 30
0.0
 11
1190.1918070161
 21
779.1578128057
 31
0.0
  0
ARC
  5
278
330
1F
100
AcDbEntity
  8
0
  6
Continuous
 62
     7
370
    25
100
AcDbCircle
 10
867.1918070161
 20
861.6578128057
 30
0.0
 40
3.000000000000207
100
AcDbArc
 50
170.4059317722
 51
180.0000000001
  0
ARC
  5
279
330
1F
100
AcDbEntity
  8
0
  6
Continuous
 62
     7
370
    25
100
AcDbCircle
 10
743.1918070161
 20
861.6578128056
 30
0.0
 40
3.000000000000308
100
AcDbArc
 50
0.0000000001
 51
9.594068228
  0
ARC
  5
27A
330
1F
100
AcDbEntity
  8
0
  6
Continuous
 62
     7
370
    25
100
AcDbCircle
 10
1179.6918070161
 20
861.6578128057
 30
0.0
 40
2.0
100
AcDbArc
 50
165.5224878125
 51
179.9999999991
  0
ARC
  5
27B
330
1F
100
AcDbEntity
  8
0
  6
Continuous
 62
     7
370
    25
100
AcDbCircle
 10
1160.1918070161
 20
861.6578128057
 30
0.0
 40
3.25
100
AcDbArc
 50
0.0000000005
 51
8.8498831004
  0
ARC
  5
27C
330
1F
100
AcDbEntity
  8
0
  6
Continuous
 62
     7
370
    25
100
AcDbCircle
 10
934.1918070161
 20
861.6578128057
 30
0.0
 40
3.24999999999599
100
AcDbArc
 50
360.0
 51
8.8498830993
  0
ARC
  5
27D
330
1F
100
AcDbEntity
  8
0
  6
Continuous
 62
     7
370
    25
100
AcDbCircle
 10
1160.1918070161
 20
861.6578128057
 30
0.0
 40
3.250000000000227
100
AcDbArc
 50
171.1501169005
 51
179.9999999999
  0
ARC
  5
27E
330
1F
100
AcDbEntity
  8
0
  6
Continuous
 62
     7
370
    25
100
AcDbCircle
 10
743.1918070161
 20
861.6578128056
 30
0.0
 40
3.0
100
AcDbArc
 50
170.4059317719
 51
179.9999999999
  0
ARC
  5
27F
330
1F
100
AcDbEntity
  8
0
  6
Continuous
 62
     7
370
    25
100
AcDbCircle
 10
727.1918070161
 20
861.6578128056
 30
0.0
 40
3.249999999996021
100
AcDbArc
 50
359.9999999999
 51
8.8498830994
  0
ARC
  5
280
330
1F
100
AcDbEntity
  8
0
  6
Continuous
 62
     7
370
    25
100
AcDbCircle
 10
560.1918070161
 20
861.6578128056
 30
0.0
 40
1.999999999999886
100
AcDbArc
 50
165.5224878125
 51
180.0000000001
  0
ARC
  5
281
330
1F
100
AcDbEntity
  8
0
  6
Continuous
 62
     7
370
    25
100
AcDbCircle
 10
530.6918070161
 20
861.6578128056
 30
0.0
 40
2.0
100
AcDbArc
 50
359.9999999999
 51
14.4775121876
  0
ARC
  5
282
330
1F
100
AcDbEntity
  8
0
  6
Continuous
 62
     7
370
    25
100
AcDbCircle
 10
560.1918070161
 20
861.6578128056
 30
0.0
 40
2.000000000000657
100
AcDbArc
 50
0.0
 51
14.4775121877
  0
ARC
  5
283
330
1F
100
AcDbEntity
  8
0
  6
Continuous
 62
     7
370
    25
100
AcDbCircle
 10
727.1918070161
 20
861.6578128056
 30
0.0
 40
3.249999999996146
100
AcDbArc
 50
171.1501169005
 51
180.0
  0
ARC
  5
284
330
1F
100
AcDbEntity
  8
0
  6
Continuous
 62
     7
370
    25
100
AcDbCircle
 10
867.1918070161
 20
861.6578128057
 30
0.0
 40
3.000000000000434
100
AcDbArc
 50
360.0
 51
9.5940682278
  0
ARC
  5
285
330
1F
100
AcDbEntity
  8
0
  6
Continuous
 62
     7
370
    25
100
AcDbCircle
 10
934.1918070161
 20
861.6578128057
 30
0.0
 40
3.249999999996075
100
AcDbArc
 50
171.1501169007
 51
180.0000000001
  0
ARC
  5
286
330
1F
100
AcDbEntity
  8
0
  6
Continuous
 62
     7
370
    25
100
AcDbCircle
 10
1160.1918070161
 20
785.6578128057
 30
0.0
 40
3.25000000000022
100
AcDbArc
 50
351.1501169017
 51
0.0000000002
  0
ARC
  5
287
330
1F
100
AcDbEntity
  8
0
  6
Continuous
 62
     7
370
    25
100
AcDbCircle
 10
1179.6918070161
 20
785.6578128057
 30
0.0
 40
2.000000000000041
100
AcDbArc
 50
179.9999999997
 51
194.4775121873
  0
ARC
  5
288
330
1F
100
AcDbEntity
  8
0
  6
Continuous
 62
     7
370
    25
100
AcDbCircle
 10
867.1918070161
 20
861.6578128057
 30
0.0
 40
3.000000000000039
100
AcDbArc
 50
180.0000000001
 51
189.5940682269
  0
ARC
  5
289
330
1F
100
AcDbEntity
  8
0
  6
Continuous
 62
     7
370
    25
100
AcDbCircle
 10
743.1918070161
 20
861.6578128056
 30
0.0
 40
3.000000000000143
100
AcDbArc
 50
350.4059317733
 51
0.0000000001
  0
ARC
  5
28A
330
1F
100
AcDbEntity
  8
0
  6
Continuous
 62
     7
370
    25
100
AcDbCircle
 10
560.1918070161
 20
861.6578128056
 30
0.0
 40
2.000000000000226
100
AcDbArc
 50
345.5224878141
 51
0.0
  0
ARC
  5
28B
330
1F
100
AcDbEntity
  8
0
  6
Continuous
 62
     7
370
    25
100
AcDbCircle
 10
727.1918070161
 20
861.6578128056
 30
0.0
 40
3.24999999999618
100
AcDbArc
 50
180.0
 51
188.8498830985
  0
ARC
  5
28C
330
1F
100
AcDbEntity
  8
0
  6
Continuous
 62
     7
370
    25
100
AcDbCircle
 10
1179.6918070161
 20
861.6578128057
 30
0.0
 40
2.000000000000289
100
AcDbArc
 50
179.9999999991
 51
194.4775121856
  0
ARC
  5
28D
330
1F
100
AcDbEntity
  8
0
  6
Continuous
 62
     7
370
    25
100
AcDbCircle
 10
1160.1918070161
 20
861.6578128057
 30
0.0
 40
3.250000000000168
100
AcDbArc
 50
351.1501169018
 51
0.0000000005
  0
ARC
  5
28E
330
1F
100
AcDbEntity
  8
0
  6
Continuous
 62
     7
370
    25
100
AcDbCircle
 10
743.1918070161
 20
861.6578128056
 30
0.0
 40
3.000000000000146
100
AcDbArc
 50
179.9999999999
 51
189.5940682267
  0
ARC
  5
28F
330
1F
100
AcDbEntity
  8
0
  6
Continuous
 62
     7
370
    25
100
AcDbCircle
 10
727.1918070161
 20
861.6578128056
 30
0.0
 40
3.249999999996136
100
AcDbArc
 50
351.1501169015
 51
359.9999999999
  0
ARC
  5
290
330
1F
100
AcDbEntity
  8
0
  6
Continuous
 62
     7
370
    25
100
AcDbCircle
 10
560.1918070161
 20
861.6578128056
 30
0.0
 40
1.999999999999886
100
AcDbArc
 50
180.0000000001
 51
194.4775121861
  0
ARC
  5
291
330
1F
100
AcDbEntity
  8
0
  6
Continuous
 62
     7
370
    25
100
AcDbCircle
 10
530.6918070161
 20
861.6578128056
 30
0.0
 40
2.0
100
AcDbArc
 50
345.5224878139
 51
359.9999999999
  0
ARC
  5
292
330
1F
100
AcDbEntity
  8
0
  6
Continuous
 62
     7
370
    25
100
AcDbCircle
 10
867.1918070161
 20
861.6578128057
 30
0.0
 40
3.000000000000148
100
AcDbArc
 50
350.4059317731
 51
360.0
  0
ARC
  5
293
330
1F
100
AcDbEntity
  8
0
  6
Continuous
 62
     7
370
    25
100
AcDbCircle
 10
934.1918070161
 20
861.6578128057
 30
0.0
 40
3.249999999996275
100
AcDbArc
 50
180.0000000001
 51
188.8498830985
  0
ARC
  5
294
330
1F
100
AcDbEntity
  8
0
  6
Continuous
 62
     7
370
    25
100
AcDbCircle
 10
934.1918070161
 20
861.6578128057
 30
0.0
 40
3.249999999996153
100
AcDbArc
 50
351.1501169015
 51
360.0
  0
ARC
  5
295
330
1F
100
AcDbEntity
  8
0
  6
Continuous
 62
     7
370
    25
100
AcDbCircle
 10
1160.1918070161
 20
861.6578128057
 30
0.0
 40
3.25000000000036
100
AcDbArc
 50
179.9999999999
 51
188.8498830983
  0
LINE
  5
296
330
1F
100
AcDbEntity
  8
0
  6
Continuous
 62
     7
370
    25
100
AcDbLine
 10
520.1918070161
 20
796.1578128056
 30
0.0
 11
520.1918070161
 21
795.8578128056
 31
0.0
  0
LINE
  5
297
330
1F
100
AcDbEntity
  8
0
  6
Continuous
 62
     7
370
    25
100
AcDbLine
 10
1190.1918070161
 20
795.8578128057
 30
0.0
 11
1190.1918070161
 21
796.1578128057
 31
0.0
  0
ARC
  5
298
330
1F
100
AcDbEntity
  8
0
  6
Continuous
 62
     7
370
    25
100
AcDbCircle
 10
934.1918070161
 20
785.6578128057
 30
0.0
 40
3.249999999996021
100
AcDbArc
 50
0.0
 51
8.8498830985
  0
ARC
  5
299
330
1F
100
AcDbEntity
  8
0
  6
Continuous
 62
     7
370
    25
100
AcDbCircle
 10
1160.1918070161
 20
785.6578128057
 30
0.0
 40
3.25
100
AcDbArc
 50
171.1501169013
 51
179.9999999998
  0
ARC
  5
29A
330
1F
100
AcDbEntity
  8
0
  6
Continuous
 62
     7
370
    25
100
AcDbCircle
 10
867.1918070161
 20
785.6578128057
 30
0.0
 40
3.000000000000053
100
AcDbArc
 50
170.4059317732
 51
180.0000000001
  0
ARC
  5
29B
330
1F
100
AcDbEntity
  8
0
  6
Continuous
 62
     7
370
    25
100
AcDbCircle
 10
743.1918070161
 20
785.6578128056
 30
0.0
 40
3.000000000000114
100
AcDbArc
 50
0.0000000002
 51
9.5940682272
  0
ARC
  5
29C
330
1F
100
AcDbEntity
  8
0
  6
Continuous
 62
     7
370
    25
100
AcDbCircle
 10
560.1918070161
 20
785.6578128056
 30
0.0
 40
2.0
100
AcDbArc
 50
0.0000000001
 51
14.4775121861
  0
ARC
  5
29D
330
1F
100
AcDbEntity
  8
0
  6
Continuous
 62
     7
370
    25
100
AcDbCircle
 10
727.1918070161
 20
785.6578128056
 30
0.0
 40
3.24999999999613
100
AcDbArc
 50
171.1501169016
 51
180.0000000002
  0
ARC
  5
29E
330
1F
100
AcDbEntity
  8
0
  6
Continuous
 62
     7
370
    25
100
AcDbCircle
 10
727.1918070161
 20
785.6578128056
 30
0.0
 40
3.249999999996003
100
AcDbArc
 50
359.9999999999
 51
8.8498830984
  0
ARC
  5
29F
330
1F
100
AcDbEntity
  8
0
  6
Continuous
 62
     7
370
    25
100
AcDbCircle
 10
743.1918070161
 20
785.6578128056
 30
0.0
 40
3.000000000000413
100
AcDbArc
 50
170.405931773
 51
180.0
  0
ARC
  5
2A0
330
1F
100
AcDbEntity
  8
0
  6
Continuous
 62
     7
370
    25
100
AcDbCircle
 10
1160.1918070161
 20
785.6578128057
 30
0.0
 40
3.25
100
AcDbArc
 50
0.0000000002
 51
8.8498830987
  0
ARC
  5
2A1
330
1F
100
AcDbEntity
  8
0
  6
Continuous
 62
     7
370
    25
100
AcDbCircle
 10
1179.6918070161
 20
785.6578128057
 30
0.0
 40
2.0
100
AcDbArc
 50
165.5224878136
 51
179.9999999997
  0
ARC
  5
2A2
330
1F
100
AcDbEntity
  8
0
  6
Continuous
 62
     7
370
    25
100
AcDbCircle
 10
867.1918070161
 20
785.6578128057
 30
0.0
 40
3.0
100
AcDbArc
 50
0.0
 51
9.5940682269
  0
ARC
  5
2A3
330
1F
100
AcDbEntity
  8
0
  6
Continuous
 62
     7
370
    25
100
AcDbCircle
 10
934.1918070161
 20
785.6578128057
 30
0.0
 40
3.249999999995907
100
AcDbArc
 50
171.1501169015
 51
180.0
  0
ARC
  5
2A4
330
1F
100
AcDbEntity
  8
0
  6
Continuous
 62
     7
370
    25
100
AcDbCircle
 10
560.1918070161
 20
785.6578128056
 30
0.0
 40
2.0
100
AcDbArc
 50
165.5224878138
 51
179.9999999999
  0
ARC
  5
2A5
330
1F
100
AcDbEntity
  8
0
  6
Continuous
 62
     7
370
    25
100
AcDbCircle
 10
530.6918070161
 20
785.6578128056
 30
0.0
 40
2.0
100
AcDbArc
 50
0.0000000002
 51
14.4775121862
  0
ARC
  5
2A6
330
1F
100
AcDbEntity
  8
0
  6
Continuous
 62
     7
370
    25
100
AcDbCircle
 10
867.1918070161
 20
785.6578128057
 30
0.0
 40
3.000000000000113
100
AcDbArc
 50
180.0000000001
 51
189.5940682269
  0
ARC
  5
2A7
330
1F
100
AcDbEntity
  8
0
  6
Continuous
 62
     7
370
    25
100
AcDbCircle
 10
743.1918070161
 20
785.6578128056
 30
0.0
 40
3.000000000000114
100
AcDbArc
 50
350.4059317733
 51
0.0000000002
  0
ARC
  5
2A8
330
1F
100
AcDbEntity
  8
0
  6
Continuous
 62
     7
370
    25
100
AcDbCircle
 10
560.1918070161
 20
785.6578128056
 30
0.0
 40
2.000000000000056
100
AcDbArc
 50
179.9999999999
 51
194.4775121858
  0
ARC
  5
2A9
330
1F
100
AcDbEntity
  8
0
  6
Continuous
 62
     7
370
    25
100
AcDbCircle
 10
530.6918070161
 20
785.6578128056
 30
0.0
 40
2.0
100
AcDbArc
 50
345.5224878142
 51
0.0000000002
  0
ARC
  5
2AA
330
1F
100
AcDbEntity
  8
0
  6
Continuous
 62
     7
370
    25
100
AcDbCircle
 10
867.1918070161
 20
785.6578128057
 30
0.0
 40
3.0
100
AcDbArc
 50
350.4059317731
 51
0.0
  0
ARC
  5
2AB
330
1F
100
AcDbEntity
  8
0
  6
Continuous
 62
     7
370
    25
100
AcDbCircle
 10
934.1918070161
 20
785.6578128057
 30
0.0
 40
3.24999999999624
100
AcDbArc
 50
180.0
 51
188.8498830985
  0
ARC
  5
2AC
330
1F
100
AcDbEntity
  8
0
  6
Continuous
 62
     7
370
    25
100
AcDbCircle
 10
560.1918070161
 20
785.6578128056
 30
0.0
 40
2.000000000000175
100
AcDbArc
 50
345.5224878144
 51
0.0000000001
  0
ARC
  5
2AD
330
1F
100
AcDbEntity
  8
0
  6
Continuous
 62
     7
370
    25
100
AcDbCircle
 10
727.1918070161
 20
785.6578128056
 30
0.0
 40
3.249999999996146
100
AcDbArc
 50
180.0000000002
 51
188.8498830985
  0
ARC
  5
2AE
330
1F
100
AcDbEntity
  8
0
  6
Continuous
 62
     7
370
    25
100
AcDbCircle
 10
934.1918070161
 20
785.6578128057
 30
0.0
 40
3.249999999996031
100
AcDbArc
 50
351.1501169016
 51
0.0
  0
ARC
  5
2AF
330
1F
100
AcDbEntity
  8
0
  6
Continuous
 62
     7
370
    25
100
AcDbCircle
 10
1160.1918070161
 20
785.6578128057
 30
0.0
 40
3.25
100
AcDbArc
 50
179.9999999998
 51
188.8498830983
  0
ARC
  5
2B0
330
1F
100
AcDbEntity
  8
0
  6
Continuous
 62
     7
370
    25
100
AcDbCircle
 10
727.1918070161
 20
785.6578128056
 30
0.0
 40
3.249999999996049
100
AcDbArc
 50
351.1501169015
 51
359.9999999999
  0
ARC
  5
2B1
330
1F
100
AcDbEntity
  8
0
  6
Continuous
 62
     7
370
    25
100
AcDbCircle
 10
743.1918070161
 20
785.6578128056
 30
0.0
 40
2.999999999999952
100
AcDbArc
 50
180.0
 51
189.5940682268
  0
ARC
  5
2B2
330
1F
100
AcDbEntity
  8
0
  6
Continuous
 62
     7
370
    25
100
AcDbCircle
 10
543.1918070161
 20
842.1578128056
 30
0.0
 40
5.000000000004775
100
AcDbArc
 50
0.0000000002
 51
90.0
  0
LINE
  5
2B3
330
1F
100
AcDbEntity
  8
0
  6
Continuous
 62
     7
370
    25
100
AcDbLine
 10
520.1918070161
 20
847.1578128056
 30
0.0
 11
543.1918070161
 21
847.1578128056
 31
0.0
  0
LINE
  5
2B4
330
1F
100
AcDbEntity
  8
0
  6
Continuous
 62
     7
370
    25
100
AcDbLine
 10
1167.1918070161
 20
847.1578128057
 30
0.0
 11
1190.1918070161
 21
847.1578128057
 31
0.0
  0
ARC
  5
2B5
330
1F
100
AcDbEntity
  8
0
  6
Continuous
 62
     7
370
    25
100
AcDbCircle
 10
1167.1918070161
 20
842.1578128057
 30
0.0
 40
4.999999999999773
100
AcDbArc
 50
90.0
 51
180.0000000001
  0
LINE
  5
2B6
330
1F
100
AcDbEntity
  8
0
  6
Continuous
 62
     7
370
    25
100
AcDbLine
 10
1162.1918070161
 20
842.1578128057
 30
0.0
 11
1162.1918070161
 21
836.3539652284
 31
0.0
  0
LINE
  5
2B7
330
1F
100
AcDbEntity
  8
0
  6
Continuous
 62
     7
370
    25
100
AcDbLine
 10
548.1918070161
 20
836.3539652283
 30
0.0
 11
548.1918070161
 21
842.1578128056
 31
0.0
  0
LINE
  5
2B8
330
1F
100
AcDbEntity
  8
0
  6
Continuous
 62
     7
370
    25
100
AcDbLine
 10
1190.1918070161
 20
847.1578128057
 30
0.0
 11
1190.1918070161
 21
849.1578128057
 31
0.0
  0
LINE
  5
2B9
330
1F
100
AcDbEntity
  8
0
  6
Continuous
 62
     7
370
    25
100
AcDbLine
 10
520.1918070161
 20
849.1578128056
 30
0.0
 11
520.1918070161
 21
847.1578128056
 31
0.0
  0
LINE
  5
2BA
330
1F
100
AcDbEntity
  8
0
  6
Continuous
 62
     7
370
    25
100
AcDbLine
 10
1162.1918070161
 20
836.3539652284
 30
0.0
 11
1162.1918070161
 21
832.0238382095
 31
0.0
  0
LINE
  5
2BB
330
1F
100
AcDbEntity
  8
0
  6
Continuous
 62
     7
370
    25
100
AcDbLine
 10
548.1918070161
 20
832.0238382094
 30
0.0
 11
548.1918070161
 21
836.3539652283
 31
0.0
  0
LINE
  5
2BC
330
1F
100
AcDbEntity
  8
0
  6
Continuous
 62
     7
370
    25
100
AcDbLine
 10
1162.1918070161
 20
832.0238382095
 30
0.0
 11
1162.1918070161
 21
829.5700995655
 31
0.0
  0
LINE
  5
2BD
330
1F
100
AcDbEntity
  8
0
  6
Continuous
 62
     7
370
    25
100
AcDbLine
 10
548.1918070161
 20
829.5700995654
 30
0.0
 11
548.1918070161
 21
832.0238382094
 31
0.0
  0
LINE
  5
2BE
330
1F
100
AcDbEntity
  8
0
  6
Continuous
 62
     7
370
    25
100
AcDbLine
 10
1162.1918070161
 20
829.5700995655
 30
0.0
 11
1162.1918070161
 21
828.2710614598
 31
0.0
  0
LINE
  5
2BF
330
1F
100
AcDbEntity
  8
0
  6
Continuous
 62
     7
370
    25
100
AcDbLine
 10
548.1918070161
 20
828.2710614597
 30
0.0
 11
548.1918070161
 21
829.5700995654
 31
0.0
  0
LINE
  5
2C0
330
1F
100
AcDbEntity
  8
0
  6
Continuous
 62
     7
370
    25
100
AcDbLine
 10
520.1918070161
 20
800.1578128056
 30
0.0
 11
543.1918070161
 21
800.1578128056
 31
0.0
  0
ARC
  5
2C1
330
1F
100
AcDbEntity
  8
0
  6
Continuous
 62
     7
370
    25
100
AcDbCircle
 10
543.1918070161
 20
805.1578128056
 30
0.0
 40
5.000000000000114
100
AcDbArc
 50
270.0
 51
359.9999999999
  0
ARC
  5
2C2
330
1F
100
AcDbEntity
  8
0
  6
Continuous
 62
     7
370
    25
100
AcDbCircle
 10
1167.1918070161
 20
805.1578128057
 30
0.0
 40
5.000000000011028
100
AcDbArc
 50
180.0000000003
 51
270.0
  0
LINE
  5
2C3
330
1F
100
AcDbEntity
  8
0
  6
Continuous
 62
     7
370
    25
100
AcDbLine
 10
1167.1918070161
 20
800.1578128057
 30
0.0
 11
1190.1918070161
 21
800.1578128057
 31
0.0
  0
LINE
  5
2C4
330
1F
100
AcDbEntity
  8
0
  6
Continuous
 62
     7
370
    25
100
AcDbLine
 10
1162.1918070161
 20
828.2710614598
 30
0.0
 11
1162.1918070161
 21
805.1578128057
 31
0.0
  0
LINE
  5
2C5
330
1F
100
AcDbEntity
  8
0
  6
Continuous
 62
     7
370
    25
100
AcDbLine
 10
548.1918070161
 20
805.1578128056
 30
0.0
 11
548.1918070161
 21
828.2710614597
 31
0.0
  0
LINE
  5
2C6
330
1F
100
AcDbEntity
  8
0
  6
Continuous
 62
     7
370
    25
100
AcDbLine
 10
520.1918070161
 20
796.1578128056
 30
0.0
 11
520.1918070161
 21
800.1578128056
 31
0.0
  0
LINE
  5
2C7
330
1F
100
AcDbEntity
  8
0
  6
Continuous
 62
     7
370
    25
100
AcDbLine
 10
1190.1918070161
 20
800.1578128057
 30
0.0
 11
1190.1918070161
 21
796.1578128057
 31
0.0
  0
LINE
  5
2C8
330
1F
100
AcDbEntity
  8
0
  6
Continuous
 62
     7
370
    25
100
AcDbLine
 10
1485.1918070161
 20
770.0578128061
 30
0.0
 11
535.1918070161
 21
770.0578128061
 31
0.0
  0
LINE
  5
2C9
330
1F
100
AcDbEntity
  8
0
  6
Continuous
 62
     7
370
    25
100
AcDbLine
 10
1485.1918070161
 20
475.0578128061
 30
0.0
 11
1485.1918070161
 21
770.0578128061
 31
0.0
  0
LINE
  5
2CA
330
1F
100
AcDbEntity
  8
0
  6
Continuous
 62
     7
370
    25
100
AcDbLine
 10
535.1918070161
 20
475.0578128061
 30
0.0
 11
1485.1918070161
 21
475.0578128061
 31
0.0
  0
LINE
  5
2CB
330
1F
100
AcDbEntity
  8
0
  6
Continuous
 62
     7
370
    25
100
AcDbLine
 10
535.1918070161
 20
770.0578128061
 30
0.0
 11
535.1918070161
 21
475.0578128061
 31
0.0
  0
CIRCLE
  5
2CC
330
1F
100
AcDbEntity
  8
0
  6
Continuous
 62
     7
370
    25
100
AcDbCircle
 10
924.1918070161
 20
756.0578128061
 30
0.0
 40
2.5
  0
CIRCLE
  5
2CD
330
1F
100
AcDbEntity
  8
0
  6
Continuous
 62
     7
370
    25
100
AcDbCircle
 10
856.1918070161
 20
756.0578128061
 30
0.0
 40
2.5
  0
LINE
  5
2CE
330
1F
100
AcDbEntity
  8
0
  6
Continuous
 62
     7
370
    25
100
AcDbLine
 10
1490.1918070161
 20
475.0578128061
 30
0.0
 11
1485.1918070161
 21
475.0578128061
 31
0.0
  0
LINE
  5
2CF
330
1F
100
AcDbEntity
  8
0
  6
Continuous
 62
     7
370
    25
100
AcDbLine
 10
535.1918070161
 20
475.0578128061
 30
0.0
 11
530.1918070161
 21
475.0578128061
 31
0.0
  0
LINE
  5
2D0
330
1F
100
AcDbEntity
  8
0
  6
Continuous
 62
     7
370
    25
100
AcDbLine
 10
1490.1918070161
 20
475.0578128061
 30
0.0
 11
1490.1918070161
 21
775.0578128061
 31
0.0
  0
LINE
  5
2D1
330
1F
100
AcDbEntity
  8
0
  6
Continuous
 62
     7
370
    25
100
AcDbLine
 10
1490.1918070161
 20
775.0578128061
 30
0.0
 11
530.1918070161
 21
775.0578128061
 31
0.0
  0
LINE
  5
2D2
330
1F
100
AcDbEntity
  8
0
  6
Continuous
 62
     7
370
    25
100
AcDbLine
 10
530.1918070161
 20
775.0578128061
 30
0.0
 11
530.1918070161
 21
475.0578128061
 31
0.0
  0
LINE
  5
2D3
330
1F
100
AcDbEntity
  8
0
  6
Continuous
 62
     7
370
    25
100
AcDbLine
 10
410.1918070161
 20
475.0578128061
 30
0.0
 11
530.1918070161
 21
475.0578128061
 31
0.0
  0
CIRCLE
  5
2D4
330
1F
100
AcDbEntity
  8
0
  6
Continuous
 62
     7
370
    25
100
AcDbCircle
 10
534.1918070161
 20
836.6578128061
 30
0.0
 40
10.00000000000011
  0
CIRCLE
  5
2D5
330
1F
100
AcDbEntity
  8
0
  6
Continuous
 62
     7
370
    25
100
AcDbCircle
 10
1176.1918070161
 20
812.6578128061
 30
0.0
 40
10.00000000000023
  0
CIRCLE
  5
2D6
330
1F
100
AcDbEntity
  8
0
  6
Continuous
 62
     7
370
    25
100
AcDbCircle
 10
1176.1918070161
 20
836.6578128061
 30
0.0
 40
10.00000000000023
  0
CIRCLE
  5
2D7
330
1F
100
AcDbEntity
  8
0
  6
Continuous
 62
     7
370
    25
100
AcDbCircle
 10
534.1918070161
 20
812.6578128061
 30
0.0
 40
10.00000000000011
  0
LINE
  5
2D8
330
1F
100
AcDbEntity
  8
0
  6
Continuous
 62
     7
370
    25
100
AcDbLine
 10
1610.1918070161
 20
975.0578128061
 30
0.0
 11
410.1918070161
 21
975.0578128061
 31
0.0
  0
LINE
  5
2D9
330
1F
100
AcDbEntity
  8
0
  6
Continuous
 62
     7
370
    25
100
AcDbLine
 10
1610.1918070161
 20
475.0578128061
 30
0.0
 11
1610.1918070161
 21
975.0578128061
 31
0.0
  0
LINE
  5
2DA
330
1F
100
AcDbEntity
  8
0
  6
Continuous
 62
     7
370
    25
100
AcDbLine
 10
1490.1918070161
 20
475.0578128061
 30
0.0
 11
1610.1918070161
 21
475.0578128061
 31
0.0
  0
LINE
  5
2DB
330
1F
100
AcDbEntity
  8
0
  6
Continuous
 62
     7
370
    25
100
AcDbLine
 10
410.1918070161
 20
975.0578128061
 30
0.0
 11
410.1918070161
 21
475.0578128061
 31
0.0
  0
DIMENSION
  5
2DC
330
1F
100
AcDbEntity
  8
FORMAT
100
AcDbDimension
  2
_D_6
 10
924.1918070161
 20
621.8370711016
 30
0.0
 11
890.1918070161
 21
621.8370711016
 31
0.0
 70
   160
  1
<>
 71
     2
 42
-1.0
  3
SLDDIMSTYLE0
100
AcDbAlignedDimension
 13
856.1918070161
 23
751.0578128061
 33
0.0
 14
924.1918070161
 24
751.0578128061
 34
0.0
100
AcDbRotatedDimension
  0
DIMENSION
  5
2E6
330
1F
100
AcDbEntity
  8
FORMAT
100
AcDbDimension
  2
_D_7
 10
1253.6982674578
 20
869.1578128057
 30
0.0
 11
1253.6982674578
 21
823.6578128057
 31
0.0
 70
   160
  1
<>
 71
     2
 42
-1.0
  3
SLDDIMSTYLE0
100
AcDbAlignedDimension
 13
1190.1918070161
 23
778.1578128057
 33
0.0
 14
1190.1918070161
 24
869.1578128057
 34
0.0
 50
90.0
100
AcDbRotatedDimension
  0
DIMENSION
  5
2F0
330
1F
100
AcDbEntity
  8
FORMAT
100
AcDbDimension
  2
_D_8
 10
856.1918070161
 20
621.8370711016
 30
0.0
 11
683.1918070161
 21
621.8370711016
 31
0.0
 70
   160
  1
<>
 71
     2
 42
-1.0
  3
SLDDIMSTYLE0
100
AcDbAlignedDimension
 13
510.1918070161
 23
644.0578128061
 33
0.0
 14
856.1918070161
 24
751.0578128061
 34
0.0
100
AcDbRotatedDimension
  0
DIMENSION
  5
2F9
330
1F
100
AcDbEntity
  8
FORMAT
100
AcDbDimension
  2
_D_9
 10
378.7757142767
 20
778.1578128056
 30
0.0
 11
378.7757142767
 21
722.6176856052
 31
0.0
 70
   160
  1
<>
 71
     2
 42
-1.0
  3
SLDDIMSTYLE1
100
AcDbAlignedDimension
 13
530.1918070161
 23
775.0578128061
 33
0.0
 14
520.1918070161
 24
778.1578128056
 34
0.0
 50
90.0
100
AcDbRotatedDimension
  0
DIMENSION
  5
305
330
1F
100
AcDbEntity
  8
FORMAT
100
AcDbDimension
  2
_D_10
 10
340.1918070161
 20
812.6578128061
 30
0.0
 11
340.1918070161
 21
722.6176856052
 31
0.0
 70
   160
  1
<>
 71
     2
 42
-1.0
  3
SLDDIMSTYLE1
100
AcDbAlignedDimension
 13
520.1918070161
 23
778.1578128056
 33
0.0
 14
521.6918070161
 24
812.6578128061
 34
0.0
 50
90.0
100
AcDbRotatedDimension
  0
DIMENSION
  5
312
330
1F
100
AcDbEntity
  8
FORMAT
100
AcDbDimension
  2
_D_11
 10
298.1918070161
 20
836.6578128061
 30
0.0
 11
298.1918070161
 21
722.6176856052
 31
0.0
 70
   160
  1
<>
 71
     2
 42
-1.0
  3
SLDDIMSTYLE2
100
AcDbAlignedDimension
 13
521.6918070161
 23
812.6578128061
 33
0.0
 14
521.6918070161
 24
836.6578128061
 34
0.0
 50
90.0
100
AcDbRotatedDimension
  0
DIMENSION
  5
321
330
1F
100
AcDbEntity
  8
FORMAT
100
AcDbDimension
  2
_D_12
 10
520.1918070161
 20
994.5597297139
 30
0.0
 11
460.9034481973
 21
994.5597297139
 31
0.0
 70
   160
  1
<>
 71
     2
 42
-1.0
  3
SLDDIMSTYLE2
100
AcDbAlignedDimension
 13
510.1918070161
 23
644.0578128061
 33
0.0
 14
520.1918070161
 24
796.1578128056
 34
0.0
100
AcDbRotatedDimension
  0
DIMENSION
  5
32D
330
1F
100
AcDbEntity
  8
FORMAT
100
AcDbDimension
  2
_D_13
 10
534.1918070161
 20
1036.3709321528
 30
0.0
 11
460.9034481973
 21
1036.3709321528
 31
0.0
 70
   160
  1
<>
 71
     2
 42
-1.0
  3
SLDDIMSTYLE2
100
AcDbAlignedDimension
 13
510.1918070161
 23
644.0578128061
 33
0.0
 14
534.1918070161
 24
825.1578128061
 34
0.0
100
AcDbRotatedDimension
  0
DIMENSION
  5
339
330
1F
100
AcDbEntity
  8
FORMAT
100
AcDbDimension
  2
_D_14
 10
727.1918070161
 20
1076.1693651158
 30
0.0
 11
618.6918070161
 21
1076.1693651158
 31
0.0
 70
   160
  1
<>
 71
     2
 42
-1.0
  3
SLDDIMSTYLE0
100
AcDbAlignedDimension
 13
510.1918070161
 23
644.0578128061
 33
0.0
 14
727.1918070161
 24
867.4078128056
 34
0.0
100
AcDbRotatedDimension
  0
DIMENSION
  5
343
330
1F
100
AcDbEntity
  8
FORMAT
100
AcDbDimension
  2
_D_15
 10
934.1918070161
 20
1076.1693651158
 30
0.0
 11
830.6918070161
 21
1076.1693651158
 31
0.0
 70
   160
  1
<>
 71
     2
 42
-1.0
  3
SLDDIMSTYLE0
100
AcDbAlignedDimension
 13
727.1918070161
 23
867.4078128056
 33
0.0
 14
934.1918070161
 24
867.4078128057
 34
0.0
100
AcDbRotatedDimension
  0
DIMENSION
  5
34D
330
1F
100
AcDbEntity
  8
FORMAT
100
AcDbDimension
  2
_D_16
 10
1160.1918070161
 20
1076.1693651158
 30
0.0
 11
1047.1918070161
 21
1076.1693651158
 31
0.0
 70
   160
  1
<>
 71
     2
 42
-1.0
  3
SLDDIMSTYLE0
100
AcDbAlignedDimension
 13
934.1918070161
 23
867.4078128057
 33
0.0
 14
1160.1918070161
 24
867.4078128057
 34
0.0
100
AcDbRotatedDimension
  0
DIMENSION
  5
357
330
1F
100
AcDbEntity
  8
FORMAT
100
AcDbDimension
  2
_D_17
 10
1176.1918070161
 20
1117.0966186619
 30
0.0
 11
843.1918070161
 21
1117.0966186619
 31
0.0
 70
   160
  1
<>
 71
     2
 42
-1.0
  3
SLDDIMSTYLE0
100
AcDbAlignedDimension
 13
510.1918070161
 23
644.0578128061
 33
0.0
 14
1176.1918070161
 24
849.1578128061
 34
0.0
100
AcDbRotatedDimension
  0
DIMENSION
  5
361
330
1F
100
AcDbEntity
  8
FORMAT
100
AcDbDimension
  2
_D_18
 10
1190.1918070161
 20
1156.7214327288
 30
0.0
 11
850.1918070161
 21
1156.7214327288
 31
0.0
 70
   160
  1
<>
 71
     2
 42
-1.0
  3
SLDDIMSTYLE0
100
AcDbAlignedDimension
 13
510.1918070161
 23
644.0578128061
 33
0.0
 14
1190.1918070161
 24
861.6578128057
 34
0.0
100
AcDbRotatedDimension
  0
DIMENSION
  5
36B
330
1F
100
AcDbEntity
  8
FORMAT
100
AcDbDimension
  2
_D_19
 10
1284.5522520872
 20
756.0578128061
 30
0.0
 11
1284.5522520872
 21
706.9171426006
 31
0.0
 70
   160
  1
<>
 71
     2
 42
-1.0
  3
SLDDIMSTYLE2
100
AcDbAlignedDimension
 13
1490.1918070161
 23
775.0578128061
 33
0.0
 14
929.1918070161
 24
756.0578128061
 34
0.0
 50
90.0
100
AcDbRotatedDimension
  0
DIMENSION
  5
376
330
1F
100
AcDbEntity
  8
FORMAT
100
AcDbDimension
  2
_D_20
 10
659.7617800644
 20
785.6578128056
 30
0.0
 11
659.7617800644
 21
722.6176856052
 31
0.0
 70
   160
  1
<>
 71
     2
 42
-1.0
  3
SLDDIMSTYLE1
100
AcDbAlignedDimension
 13
530.1918070161
 23
775.0578128061
 33
0.0
 14
727.1918070161
 24
785.6578128056
 34
0.0
 50
90.0
100
AcDbRotatedDimension
  0
MTEXT
  5
381
330
1F
100
AcDbEntity
  8
FORMAT
100
AcDbMText
 10
1352.20891178
 20
875.2389560428
 30
0.0
 40
18.5208333333
 41
0.0
 71
     1
 72
     1
  1
Unterkante Türrahmen
  7
SLDTEXTSTYLE0
 73
     1
 44
1.0
  0
LEADER
  5
383
330
1F
100
AcDbEntity
  8
FORMAT
100
AcDbLeader
  3
SLDDIMSTYLE3
 76
     3
 10
1304.7191410341
 20
775.0578128061
 30
0.0
 10
1304.229379715
 20
866.3033856506
 30
0.0
 10
1348.679379715
 20
866.3033856506
 30
0.0
  0
MTEXT
  5
384
330
1F
100
AcDbEntity
  8
FORMAT
100
AcDbMText
 10
1361.378535087
 20
1017.7130394909
 30
0.0
 40
18.5208333333
 41
0.0
 71
     1
 72
     1
  1
ø20 (optional)
  7
SLDTEXTSTYLE0
 73
     1
 44
1.0
  0
LEADER
  5
385
330
1F
100
AcDbEntity
  8
FORMAT
100
AcDbLeader
  3
SLDDIMSTYLE3
 76
     3
 10
1185.411094238
 20
840.5314084381
 30
0.0
 10
1313.0307208718
 20
1008.2983563128
 30
0.0
 10
1357.4807208718
 20
1008.2983563128
 30
0.0
  0
INSERT
  5
38B
102
{ACAD_REACTORS
330
38C
102
}
330
1F
100
AcDbEntity
  8
FORMAT
100
AcDbBlockReference
  2
SW_NOTE_0_5
 10
402.040716459
 20
985.4257888801
 30
0.0
  0
LEADER
  5
38C
330
1F
100
AcDbEntity
  8
FORMAT
100
AcDbLeader
  3
SLDDIMSTYLE3
 73
     2
 76
     3
 10
524.763796671
 20
839.9913726049
 30
0.0
 10
446.490716459
 20
985.4257888801
 30
0.0
 10
402.040716459
 20
985.4257888801
 30
0.0
340
38B
  0
INSERT
  5
398
330
1F
100
AcDbEntity
  8
FORMAT
100
AcDbBlockReference
  2
SW_CENTERMARKSYMBOL_0
 10
856.1918070161
 20
756.0578128061
 30
0.0
  0
INSERT
  5
3A4
330
1F
100
AcDbEntity
  8
FORMAT
100
AcDbBlockReference
  2
SW_CENTERMARKSYMBOL_1
 10
924.1918070161
 20
756.0578128061
 30
0.0
  0
INSERT
  5
3B0
330
1F
100
AcDbEntity
  8
FORMAT
100
AcDbBlockReference
  2
SW_CENTERMARKSYMBOL_2
 10
934.1918070161
 20
785.6578128057
 30
0.0
  0
INSERT
  5
3BC
330
1F
100
AcDbEntity
  8
FORMAT
100
AcDbBlockReference
  2
SW_CENTERMARKSYMBOL_3
 10
934.1918070161
 20
861.6578128057
 30
0.0
  0
INSERT
  5
3C8
330
1F
100
AcDbEntity
  8
FORMAT
100
AcDbBlockReference
  2
SW_CENTERMARKSYMBOL_4
 10
1160.1918070161
 20
785.6578128057
 30
0.0
  0
INSERT
  5
3D4
330
1F
100
AcDbEntity
  8
FORMAT
100
AcDbBlockReference
  2
SW_CENTERMARKSYMBOL_5
 10
1160.1918070161
 20
861.6578128057
 30
0.0
  0
INSERT
  5
3E0
330
1F
100
AcDbEntity
  8
FORMAT
100
AcDbBlockReference
  2
SW_CENTERMARKSYMBOL_6
 10
727.1918070161
 20
785.6578128056
 30
0.0
  0
INSERT
  5
3EC
330
1F
100
AcDbEntity
  8
FORMAT
100
AcDbBlockReference
  2
SW_CENTERMARKSYMBOL_7
 10
727.1918070161
 20
861.6578128056
 30
0.0
  0
INSERT
  5
3F8
330
1F
100
AcDbEntity
  8
FORMAT
100
AcDbBlockReference
  2
SW_CENTERMARKSYMBOL_8
 10
1176.1918070161
 20
812.6578128061
 30
0.0
  0
INSERT
  5
404
330
1F
100
AcDbEntity
  8
FORMAT
100
AcDbBlockReference
  2
SW_CENTERMARKSYMBOL_9
 10
1176.1918070161
 20
836.6578128061
 30
0.0
  0
INSERT
  5
410
330
1F
100
AcDbEntity
  8
FORMAT
100
AcDbBlockReference
  2
SW_CENTERMARKSYMBOL_10
 10
534.1918070161
 20
812.6578128061
 30
0.0
  0
INSERT
  5
41C
330
1F
100
AcDbEntity
  8
FORMAT
100
AcDbBlockReference
  2
SW_CENTERMARKSYMBOL_11
 10
534.1918070161
 20
836.6578128061
 30
0.0
  0
CIRCLE
  5
41D
330
1F
100
AcDbEntity
  8
0
  6
Continuous
 62
     7
370
    18
100
AcDbCircle
 10
730.8475804392
 20
822.6154424644
 30
0.0
 40
55.63709269942626
  0
MTEXT
  5
41E
330
1F
100
AcDbEntity
  8
0
  6
Continuous
 62
     7
370
    18
100
AcDbMText
 10
766.9682618436
 20
929.6473645666
 30
0.0
 40
35.0
 41
0.0
 71
     1
 72
     1
  1
C
  7
SLDTEXTSTYLE0
 73
     1
 44
1.0
  0
LINE
  5
41F
330
1F
100
AcDbEntity
  8
FORMAT
  6
CENTERX2
370
    18
100
AcDbLine
 10
510.1918070161
 20
644.0578128061
 30
0.0
 11
510.1918070161
 21
531.4463919725
 31
0.0
  0
LINE
  5
420
330
1F
100
AcDbEntity
  8
0
  6
Continuous
 62
     7
370
    25
100
AcDbLine
 10
2269.6358063593
 20
1707.7943081803
 30
0.0
 11
2269.6358063593
 21
1708.7943081803
 31
0.0
  0
LINE
  5
421
330
1F
100
AcDbEntity
  8
0
  6
Continuous
 62
     7
370
    25
100
AcDbLine
 10
2519.9414978217
 20
1600.2943166234
 30
0.0
 11
2519.7414978217
 21
1600.0943166234
 31
0.0
  0
LINE
  5
422
330
1F
100
AcDbEntity
  8
0
  6
Continuous
 62
     7
370
    25
100
AcDbLine
 10
2533.7414978217
 20
1598.9943166234
 30
0.0
 11
2533.7414978217
 21
1600.0943166234
 31
0.0
  0
LINE
  5
423
330
1F
100
AcDbEntity
  8
0
  6
Continuous
 62
     7
370
    25
100
AcDbLine
 10
2519.7414978217
 20
1600.0943166234
 30
0.0
 11
2519.7414978217
 21
1598.9943166234
 31
0.0
  0
LINE
  5
424
330
1F
100
AcDbEntity
  8
0
  6
Continuous
 62
     7
370
    25
100
AcDbLine
 10
2519.7414978218
 20
1598.9943166234
 30
0.0
 11
2519.9414978217
 21
1598.7943166235
 31
0.0
  0
LINE
  5
425
330
1F
100
AcDbEntity
  8
0
  6
Continuous
 62
     7
370
    25
100
AcDbLine
 10
2533.5414978216
 20
1598.7943166235
 30
0.0
 11
2533.7414978216
 21
1598.9943166234
 31
0.0
  0
LINE
  5
426
330
1F
100
AcDbEntity
  8
0
  6
Continuous
 62
     7
370
    25
100
AcDbLine
 10
2231.6358063592
 20
1611.7943081804
 30
0.0
 11
2231.6358063592
 21
1601.2943081807
 31
0.0
  0
LINE
  5
427
330
1F
100
AcDbEntity
  8
0
  6
Continuous
 62
     7
370
    25
100
AcDbLine
 10
2261.6358063591
 20
1610.2943081807
 30
0.0
 11
2261.6358063591
 21
1612.7943081803
 31
0.0
  0
LINE
  5
428
330
1F
100
AcDbEntity
  8
0
  6
Continuous
 62
     7
370
    25
100
AcDbLine
 10
2231.6358063592
 20
1601.2943081807
 30
0.0
 11
2232.6358063592
 21
1600.2943081807
 31
0.0
  0
ARC
  5
429
330
1F
100
AcDbEntity
  8
0
  6
Continuous
 62
     7
370
    25
100
AcDbCircle
 10
2264.6358063591
 20
1610.2943081807
 30
0.0
 40
3.0
100
AcDbArc
 50
180.0000000002
 51
269.9999999999
  0
LINE
  5
42A
330
1F
100
AcDbEntity
  8
0
  6
Continuous
 62
     7
370
    25
100
AcDbLine
 10
2541.7414978216
 20
1601.2943081804
 30
0.0
 11
2541.7414978216
 21
1606.2943081804
 31
0.0
  0
LINE
  5
42B
330
1F
100
AcDbEntity
  8
0
  6
Continuous
 62
     7
370
    25
100
AcDbLine
 10
2541.7414978217
 20
1606.2943081804
 30
0.0
 11
2540.7414978216
 21
1607.2943081804
 31
0.0
  0
LINE
  5
42C
330
1F
100
AcDbEntity
  8
0
  6
Continuous
 62
     7
370
    25
100
AcDbLine
 10
2540.7414978216
 20
1600.2943081804
 30
0.0
 11
2541.7414978216
 21
1601.2943081804
 31
0.0
  0
ARC
  5
42D
330
1F
100
AcDbEntity
  8
0
  6
Continuous
 62
     7
370
    25
100
AcDbCircle
 10
2112.135806357
 20
1596.6943081804
 30
0.0
 40
0.5000000000002274
100
AcDbArc
 50
90.0000000001
 51
180.0
  0
ARC
  5
42E
330
1F
100
AcDbEntity
  8
0
  6
Continuous
 62
     7
370
    25
100
AcDbCircle
 10
2140.635806357
 20
1589.1943081804
 30
0.0
 40
1.0
100
AcDbArc
 50
270.0
 51
0.0
  0
ARC
  5
42F
330
1F
100
AcDbEntity
  8
0
  6
Continuous
 62
     7
370
    25
100
AcDbCircle
 10
2112.635806357
 20
1589.1943081804
 30
0.0
 40
1.0
100
AcDbArc
 50
180.0000000001
 51
270.0
  0
LINE
  5
430
330
1F
100
AcDbEntity
  8
0
  6
Continuous
 62
     7
370
    25
100
AcDbLine
 10
2141.635806357
 20
1589.1943081804
 30
0.0
 11
2141.635806357
 21
1591.1943081804
 31
0.0
  0
LINE
  5
431
330
1F
100
AcDbEntity
  8
0
  6
Continuous
 62
     7
370
    25
100
AcDbLine
 10
2111.635806357
 20
1596.6943081804
 30
0.0
 11
2111.635806357
 21
1589.1943081804
 31
0.0
  0
LINE
  5
432
330
1F
100
AcDbEntity
  8
0
  6
Continuous
 62
     7
370
    25
100
AcDbLine
 10
2443.6717184537
 20
1591.6943081806
 30
0.0
 11
2443.6717184537
 21
1596.6943081806
 31
0.0
  0
ARC
  5
433
330
1F
100
AcDbEntity
  8
0
  6
Continuous
 62
     7
370
    25
100
AcDbCircle
 10
2443.199773907
 20
1596.7141221664
 30
0.0
 40
0.4723602959175573
100
AcDbArc
 50
357.5959220995
 51
93.344589092
  0
ARC
  5
434
330
1F
100
AcDbEntity
  8
0
  6
Continuous
 62
     7
370
    25
100
AcDbCircle
 10
2443.2008715206
 20
1591.671258438
 30
0.0
 40
0.4714107816671209
100
AcDbArc
 50
269.1073965728
 51
2.8026082732
  0
ARC
  5
435
330
1F
100
AcDbEntity
  8
0
  6
Continuous
 62
     7
370
    25
100
AcDbCircle
 10
2213.1498506153
 20
1588.6744919903
 30
0.0
 40
0.4723578507301743
100
AcDbArc
 50
177.5956420462
 51
273.3430070491
  0
LINE
  5
436
330
1F
100
AcDbEntity
  8
0
  6
Continuous
 62
     7
370
    25
100
AcDbLine
 10
2212.6779086091
 20
1590.6943081804
 30
0.0
 11
2212.6779086091
 21
1588.6943081804
 31
0.0
  0
ARC
  5
437
330
1F
100
AcDbEntity
  8
0
  6
Continuous
 62
     7
370
    25
100
AcDbCircle
 10
2213.1764164652
 20
1590.694878724
 30
0.0
 40
0.4985081837892046
100
AcDbArc
 50
102.9617015467
 51
180.0655751477
  0
LINE
  5
438
330
1F
100
AcDbEntity
  8
0
  6
Continuous
 62
     7
370
    25
100
AcDbLine
 10
2511.7414978217
 20
1597.1943081804
 30
0.0
 11
2511.7414978217
 21
1595.194308175
 31
0.0
  0
LINE
  5
439
330
1F
100
AcDbEntity
  8
0
  6
Continuous
 62
     7
370
    25
100
AcDbLine
 10
2541.7414978217
 20
1588.6943081804
 30
0.0
 11
2541.7414978217
 21
1597.1943081804
 31
0.0
  0
ARC
  5
43A
330
1F
100
AcDbEntity
  8
0
  6
Continuous
 62
     7
370
    25
100
AcDbCircle
 10
2512.7414978217
 20
1597.1943081804
 30
0.0
 40
1.000000000000227
100
AcDbArc
 50
90.0
 51
180.0
  0
ARC
  5
43B
330
1F
100
AcDbEntity
  8
0
  6
Continuous
 62
     7
370
    25
100
AcDbCircle
 10
2540.7414978217
 20
1597.1943081804
 30
0.0
 40
1.0
100
AcDbArc
 50
360.0
 51
90.0
  0
ARC
  5
43C
330
1F
100
AcDbEntity
  8
0
  6
Continuous
 62
     7
370
    25
100
AcDbCircle
 10
2541.2414978217
 20
1588.6943081804
 30
0.0
 40
0.5
100
AcDbArc
 50
270.0
 51
0.0
  0
ARC
  5
43D
330
1F
100
AcDbEntity
  8
0
  6
Continuous
 62
     7
370
    25
100
AcDbCircle
 10
2510.7414978217
 20
1595.1943081804
 30
0.0
 40
1.0
100
AcDbArc
 50
270.0
 51
359.9999996895
  0
LINE
  5
43E
330
1F
100
AcDbEntity
  8
0
  6
Continuous
 62
     7
370
    25
100
AcDbLine
 10
2134.6358063568
 20
1584.9443081804
 30
0.0
 11
2134.6358063568
 21
1586.5443081804
 31
0.0
  0
LINE
  5
43F
330
1F
100
AcDbEntity
  8
0
  6
Continuous
 62
     7
370
    25
100
AcDbLine
 10
2118.6358063568
 20
1586.5443081804
 30
0.0
 11
2118.6358063568
 21
1584.9443081804
 31
0.0
  0
LINE
  5
440
330
1F
100
AcDbEntity
  8
0
  6
Continuous
 62
     7
370
    25
100
AcDbLine
 10
2134.6358063568
 20
1598.8443081804
 30
0.0
 11
2134.6358063569
 21
1600.4443081804
 31
0.0
  0
LINE
  5
441
330
1F
100
AcDbEntity
  8
0
  6
Continuous
 62
     7
370
    25
100
AcDbLine
 10
2118.6358063568
 20
1600.4443081804
 30
0.0
 11
2118.6358063568
 21
1598.8443081804
 31
0.0
  0
LINE
  5
442
330
1F
100
AcDbEntity
  8
0
  6
Continuous
 62
     7
370
    25
100
AcDbLine
 10
2521.7414978216
 20
1587.1943081804
 30
0.0
 11
2521.7414978216
 21
1585.5943081804
 31
0.0
  0
LINE
  5
443
330
1F
100
AcDbEntity
  8
0
  6
Continuous
 62
     7
370
    25
100
AcDbLine
 10
2531.7414978216
 20
1585.5943081804
 30
0.0
 11
2531.7414978216
 21
1587.1943081804
 31
0.0
  0
LINE
  5
444
330
1F
100
AcDbEntity
  8
0
  6
Continuous
 62
     7
370
    25
100
AcDbLine
 10
2275.992569904
 20
1598.2443081806
 30
0.0
 11
2275.992569904
 21
1597.1943081806
 31
0.0
  0
LINE
  5
445
330
1F
100
AcDbEntity
  8
0
  6
Continuous
 62
     7
370
    25
100
AcDbLine
 10
2293.9925699019
 20
1597.1943081806
 30
0.0
 11
2293.9925699019
 21
1598.2443081806
 31
0.0
  0
LINE
  5
446
330
1F
100
AcDbEntity
  8
0
  6
Continuous
 62
     7
370
    25
100
AcDbLine
 10
2293.9925699019
 20
1598.2443081806
 30
0.0
 11
2291.9425699018
 21
1600.2943081807
 31
0.0
  0
LINE
  5
447
330
1F
100
AcDbEntity
  8
0
  6
Continuous
 62
     7
370
    25
100
AcDbLine
 10
2278.0425699041
 20
1600.2943081807
 30
0.0
 11
2275.992569904
 21
1598.2443081806
 31
0.0
  0
LINE
  5
448
330
1F
100
AcDbEntity
  8
0
  6
Continuous
 62
     7
370
    25
100
AcDbLine
 10
2420.8116796296
 20
1598.244308181
 30
0.0
 11
2418.76167963
 21
1600.2943081805
 31
0.0
  0
LINE
  5
449
330
1F
100
AcDbEntity
  8
0
  6
Continuous
 62
     7
370
    25
100
AcDbLine
 10
2404.8616796313
 20
1600.2943081805
 30
0.0
 11
2402.8116796317
 21
1598.244308181
 31
0.0
  0
LINE
  5
44A
330
1F
100
AcDbEntity
  8
0
  6
Continuous
 62
     7
370
    25
100
AcDbLine
 10
2402.8116796317
 20
1598.244308181
 30
0.0
 11
2402.8116796317
 21
1597.194308181
 31
0.0
  0
LINE
  5
44B
330
1F
100
AcDbEntity
  8
0
  6
Continuous
 62
     7
370
    25
100
AcDbLine
 10
2420.8116796296
 20
1597.194308181
 30
0.0
 11
2420.8116796296
 21
1598.244308181
 31
0.0
  0
LWPOLYLINE
  5
44C
330
1F
100
AcDbEntity
  8
0
  6
Continuous
 62
     7
370
    25
100
AcDbPolyline
 90
        3
 70
   128
 43
0.0
 10
2131.8660924788
 20
1586.6837754573
 10
2132.7121526021
 20
1587.4906540497
 10
2133.199305788
 20
1588.1943081802
  0
ARC
  5
44D
330
1F
100
AcDbEntity
  8
0
  6
Continuous
 62
     7
370
    25
100
AcDbCircle
 10
2124.200921711
 20
1590.4709659542
 30
0.0
 40
4.730823413588246
100
AcDbArc
 50
208.7663688044
 51
233.0989203769
  0
LWPOLYLINE
  5
44E
330
1F
100
AcDbEntity
  8
0
  6
Continuous
 62
     7
370
    25
100
AcDbPolyline
 90
        3
 70
   128
 43
0.0
 10
2121.4013812018
 20
1598.7008935508
 10
2120.5594601119
 20
1597.8979623107
 10
2120.072306926
 20
1597.1943081802
  0
ARC
  5
44F
330
1F
100
AcDbEntity
  8
0
  6
Continuous
 62
     7
370
    25
100
AcDbCircle
 10
2129.079084648
 20
1594.9255798417
 30
0.0
 40
4.719650576817323
100
AcDbArc
 50
28.7310235853
 51
52.9503400158
  0
LINE
  5
450
330
1F
100
AcDbEntity
  8
0
  6
Continuous
 62
     7
370
    25
100
AcDbLine
 10
2521.0399520824
 20
1598.7943166235
 30
0.0
 11
2520.5400233015
 21
1598.1943081804
 31
0.0
  0
LINE
  5
451
330
1F
100
AcDbEntity
  8
0
  6
Continuous
 62
     7
370
    25
100
AcDbLine
 10
2532.9470716737
 20
1598.1943081804
 30
0.0
 11
2532.4544302031
 21
1598.7943166235
 31
0.0
  0
LWPOLYLINE
  5
452
330
1F
100
AcDbEntity
  8
0
  6
Continuous
 62
     7
370
    25
100
AcDbPolyline
 90
        3
 70
   128
 43
0.0
 10
2531.9655031602
 20
1587.1851623622
 10
2532.3825489203
 20
1587.5216948054
 10
2532.9429723418
 20
1588.1943081804
  0
LWPOLYLINE
  5
453
330
1F
100
AcDbEntity
  8
0
  6
Continuous
 62
     7
370
    25
100
AcDbPolyline
 90
        3
 70
   128
 43
0.0
 10
2520.535923969
 20
1588.1943081804
 10
2521.0296066334
 20
1587.5930316243
 10
2521.5008405238
 20
1587.1941218091
  0
ARC
  5
454
330
1F
100
AcDbEntity
  8
0
  6
Continuous
 62
     7
370
    25
100
AcDbCircle
 10
2117.610806357
 20
1596.7193081802
 30
0.0
 40
0.4750000000001364
100
AcDbArc
 50
89.9999999999
 51
180.0000000004
  0
ARC
  5
455
330
1F
100
AcDbEntity
  8
0
  6
Continuous
 62
     7
370
    25
100
AcDbCircle
 10
2117.610806357
 20
1588.6693081802
 30
0.0
 40
0.4749999999999091
100
AcDbArc
 50
180.0000000004
 51
270.0
  0
ARC
  5
456
330
1F
100
AcDbEntity
  8
0
  6
Continuous
 62
     7
370
    25
100
AcDbCircle
 10
2135.660806357
 20
1588.6693081802
 30
0.0
 40
0.4749999999999091
100
AcDbArc
 50
269.9999999999
 51
359.9999999993
  0
LINE
  5
457
330
1F
100
AcDbEntity
  8
0
  6
Continuous
 62
     7
370
    25
100
AcDbLine
 10
2132.6358063561
 20
1581.4443081804
 30
0.0
 11
2132.6358063561
 21
1582.4443081804
 31
0.0
  0
LINE
  5
458
330
1F
100
AcDbEntity
  8
0
  6
Continuous
 62
     7
370
    25
100
AcDbLine
 10
2120.6358063575
 20
1582.4443081804
 30
0.0
 11
2120.6358063575
 21
1581.4443081804
 31
0.0
  0
LINE
  5
459
330
1F
100
AcDbEntity
  8
0
  6
Continuous
 62
     7
370
    25
100
AcDbLine
 10
2122.6358063568
 20
1598.8443081804
 30
0.0
 11
2122.6358063568
 21
1598.6943081802
 31
0.0
  0
LINE
  5
45A
330
1F
100
AcDbEntity
  8
0
  6
Continuous
 62
     7
370
    25
100
AcDbLine
 10
2122.6358063568
 20
1586.6943081802
 30
0.0
 11
2122.6358063568
 21
1586.5443081804
 31
0.0
  0
LINE
  5
45B
330
1F
100
AcDbEntity
  8
0
  6
Continuous
 62
     7
370
    25
100
AcDbLine
 10
2130.6358063568
 20
1586.5443081804
 30
0.0
 11
2130.6358063568
 21
1586.6943081802
 31
0.0
  0
LINE
  5
45C
330
1F
100
AcDbEntity
  8
0
  6
Continuous
 62
     7
370
    25
100
AcDbLine
 10
2130.6358063568
 20
1598.6943081802
 30
0.0
 11
2130.6358063568
 21
1598.8443081804
 31
0.0
  0
LINE
  5
45D
330
1F
100
AcDbEntity
  8
0
  6
Continuous
 62
     7
370
    25
100
AcDbLine
 10
2123.6358063568
 20
1603.4443081804
 30
0.0
 11
2123.6358063568
 21
1602.9443081804
 31
0.0
  0
LINE
  5
45E
330
1F
100
AcDbEntity
  8
0
  6
Continuous
 62
     7
370
    25
100
AcDbLine
 10
2129.6358063568
 20
1602.9443081804
 30
0.0
 11
2129.6358063568
 21
1603.4443081804
 31
0.0
  0
LINE
  5
45F
330
1F
100
AcDbEntity
  8
0
  6
Continuous
 62
     7
370
    25
100
AcDbLine
 10
2076.6358063594
 20
1606.6943081804
 30
0.0
 11
2076.6358063594
 21
1631.6943081804
 31
0.0
  0
LINE
  5
460
330
1F
100
AcDbEntity
  8
0
  6
Continuous
 62
     7
370
    25
100
AcDbLine
 10
2076.6358063594
 20
1606.6943081804
 30
0.0
 11
2106.6358063594
 21
1606.6943081804
 31
0.0
  0
LINE
  5
461
330
1F
100
AcDbEntity
  8
0
  6
Continuous
 62
     7
370
    25
100
AcDbLine
 10
2106.6358063594
 20
1606.6943081804
 30
0.0
 11
2106.6358063594
 21
1311.6943081804
 31
0.0
  0
LINE
  5
462
330
1F
100
AcDbEntity
  8
0
  6
Continuous
 62
     7
370
    25
100
AcDbLine
 10
2106.6358063594
 20
1311.6943081804
 30
0.0
 11
2036.6358063594
 21
1311.6943081804
 31
0.0
  0
LINE
  5
463
330
1F
100
AcDbEntity
  8
0
  6
Continuous
 62
     7
370
    25
100
AcDbLine
 10
2036.6358063594
 20
1631.6943081804
 30
0.0
 11
2076.6358063594
 21
1631.6943081804
 31
0.0
  0
LINE
  5
464
330
1F
100
AcDbEntity
  8
0
  6
Continuous
 62
     7
370
    25
100
AcDbLine
 10
2036.6358063594
 20
1311.6943081804
 30
0.0
 11
2036.6358063594
 21
1631.6943081804
 31
0.0
  0
LINE
  5
465
330
1F
100
AcDbEntity
  8
0
  6
Continuous
 62
     7
370
    25
100
AcDbLine
 10
2186.6358063594
 20
1811.6943081804
 30
0.0
 11
2186.6358063594
 21
1707.7943081803
 31
0.0
  0
LINE
  5
466
330
1F
100
AcDbEntity
  8
0
  6
Continuous
 62
     7
370
    25
100
AcDbLine
 10
2186.6358063594
 20
1612.7943081803
 30
0.0
 11
2186.6358063594
 21
1611.6943081804
 31
0.0
  0
LINE
  5
467
330
1F
100
AcDbEntity
  8
0
  6
Continuous
 62
     7
370
    25
100
AcDbLine
 10
2186.6358063594
 20
1611.6943081804
 30
0.0
 11
2076.6358063594
 21
1611.6943081804
 31
0.0
  0
LINE
  5
468
330
1F
100
AcDbEntity
  8
0
  6
Continuous
 62
     7
370
    25
100
AcDbLine
 10
2076.6358063594
 20
1611.6943081804
 30
0.0
 11
2076.6358063594
 21
1636.6943081804
 31
0.0
  0
LINE
  5
469
330
1F
100
AcDbEntity
  8
0
  6
Continuous
 62
     7
370
    25
100
AcDbLine
 10
2036.6358063594
 20
1811.6943081804
 30
0.0
 11
2186.6358063594
 21
1811.6943081804
 31
0.0
  0
LINE
  5
46A
330
1F
100
AcDbEntity
  8
0
  6
Continuous
 62
     7
370
    25
100
AcDbLine
 10
2036.6358063594
 20
1811.6943081804
 30
0.0
 11
2036.6358063594
 21
1636.6943081804
 31
0.0
  0
LINE
  5
46B
330
1F
100
AcDbEntity
  8
0
  6
Continuous
 62
     7
370
    25
100
AcDbLine
 10
2076.6358063594
 20
1636.6943081804
 30
0.0
 11
2036.6358063594
 21
1636.6943081804
 31
0.0
  0
LINE
  5
46C
330
1F
100
AcDbEntity
  8
0
  6
Continuous
 62
     7
370
    25
100
AcDbLine
 10
2106.6358063594
 20
1311.6943081804
 30
0.0
 11
2186.6358063594
 21
1311.6943081804
 31
0.0
  0
LINE
  5
46D
330
1F
100
AcDbEntity
  8
0
  6
Continuous
 62
     7
370
    25
100
AcDbLine
 10
2186.6358063594
 20
1311.6943081804
 30
0.0
 11
2186.6358063594
 21
1591.1943081804
 31
0.0
  0
LINE
  5
46E
330
1F
100
AcDbEntity
  8
0
  6
Continuous
 62
     7
370
    25
100
AcDbLine
 10
2186.6358063594
 20
1597.1943081804
 30
0.0
 11
2186.6358063594
 21
1611.6943081804
 31
0.0
  0
LINE
  5
46F
330
1F
100
AcDbEntity
  8
0
  6
Continuous
 62
     7
370
    25
100
AcDbLine
 10
2036.6358063594
 20
1636.6943081804
 30
0.0
 11
2036.6358063594
 21
1631.6943081804
 31
0.0
  0
LINE
  5
470
330
1F
100
AcDbEntity
  8
0
  6
Continuous
 62
     7
370
    25
100
AcDbLine
 10
2187.6358063593
 20
1708.7943081804
 30
0.0
 11
2246.6358063593
 21
1708.7943081803
 31
0.0
  0
LINE
  5
471
330
1F
100
AcDbEntity
  8
0
  6
Continuous
 62
     7
370
    25
100
AcDbLine
 10
2246.6358063593
 20
1708.7943081803
 30
0.0
 11
2246.6358063593
 21
1707.7943081803
 31
0.0
  0
LINE
  5
472
330
1F
100
AcDbEntity
  8
0
  6
Continuous
 62
     7
370
    25
100
AcDbLine
 10
2187.6358063593
 20
1707.7943081804
 30
0.0
 11
2187.6358063593
 21
1708.7943081804
 31
0.0
  0
LINE
  5
473
330
1F
100
AcDbEntity
  8
0
  6
Continuous
 62
     7
370
    25
100
AcDbLine
 10
2246.6358063593
 20
1708.7943081803
 30
0.0
 11
2269.6358063593
 21
1708.7943081803
 31
0.0
  0
LINE
  5
474
330
1F
100
AcDbEntity
  8
0
  6
Continuous
 62
     7
370
    25
100
AcDbLine
 10
2243.6358063593
 20
1612.7943081803
 30
0.0
 11
2243.6358063593
 21
1611.7943081803
 31
0.0
  0
LINE
  5
475
330
1F
100
AcDbEntity
  8
0
  6
Continuous
 62
     7
370
    25
100
AcDbLine
 10
2243.6358063593
 20
1611.7943081803
 30
0.0
 11
2187.6358063593
 21
1611.7943081804
 31
0.0
  0
LINE
  5
476
330
1F
100
AcDbEntity
  8
0
  6
Continuous
 62
     7
370
    25
100
AcDbLine
 10
2187.6358063593
 20
1611.7943081804
 30
0.0
 11
2187.6358063593
 21
1612.7943081804
 31
0.0
  0
LINE
  5
477
330
1F
100
AcDbEntity
  8
0
  6
Continuous
 62
     7
370
    25
100
AcDbLine
 10
2301.6358063593
 20
1705.7943081803
 30
0.0
 11
2195.1358063593
 21
1705.7943081803
 31
0.0
  0
LINE
  5
478
330
1F
100
AcDbEntity
  8
0
  6
Continuous
 62
     7
370
    25
100
AcDbLine
 10
2301.6358063593
 20
1702.7943081803
 30
0.0
 11
2301.6358063593
 21
1705.7943081803
 31
0.0
  0
LINE
  5
479
330
1F
100
AcDbEntity
  8
0
  6
Continuous
 62
     7
370
    25
100
AcDbLine
 10
2301.6358063593
 20
1702.7943081803
 30
0.0
 11
2186.6358063593
 21
1702.7943081803
 31
0.0
  0
LINE
  5
47A
330
1F
100
AcDbEntity
  8
0
  6
Continuous
 62
     7
370
    25
100
AcDbLine
 10
2186.6358063593
 20
1702.7943081803
 30
0.0
 11
2186.6358063593
 21
1705.7943081803
 31
0.0
  0
LINE
  5
47B
330
1F
100
AcDbEntity
  8
0
  6
Continuous
 62
     7
370
    25
100
AcDbLine
 10
2190.1358063593
 20
1705.7943081803
 30
0.0
 11
2186.6358063593
 21
1705.7943081803
 31
0.0
  0
ARC
  5
47C
330
1F
100
AcDbEntity
  8
0
  6
Continuous
 62
     7
370
    25
100
AcDbCircle
 10
2192.6358063593
 20
1707.1276415137
 30
0.0
 40
2.833333333334047
100
AcDbArc
 50
208.0724869358
 51
331.9275130641
  0
LINE
  5
47D
330
1F
100
AcDbEntity
  8
0
  6
Continuous
 62
     7
370
    25
100
AcDbLine
 10
2301.6358063593
 20
1617.7943081803
 30
0.0
 11
2301.6358063593
 21
1702.7943081803
 31
0.0
  0
LINE
  5
47E
330
1F
100
AcDbEntity
  8
0
  6
Continuous
 62
     7
370
    25
100
AcDbLine
 10
2186.6358063593
 20
1617.7943081803
 30
0.0
 11
2301.6358063593
 21
1617.7943081803
 31
0.0
  0
LINE
  5
47F
330
1F
100
AcDbEntity
  8
0
  6
Continuous
 62
     7
370
    25
100
AcDbLine
 10
2186.6358063593
 20
1702.7943081803
 30
0.0
 11
2186.6358063593
 21
1617.7943081803
 31
0.0
  0
LINE
  5
480
330
1F
100
AcDbEntity
  8
0
  6
Continuous
 62
     7
370
    25
100
AcDbLine
 10
2198.6358063593
 20
1689.7943081803
 30
0.0
 11
2198.6358063593
 21
1630.7943081803
 31
0.0
  0
ARC
  5
481
330
1F
100
AcDbEntity
  8
0
  6
Continuous
 62
     7
370
    25
100
AcDbCircle
 10
2201.6358063593
 20
1630.7943081803
 30
0.0
 40
3.0
100
AcDbArc
 50
180.0
 51
270.0
  0
LINE
  5
482
330
1F
100
AcDbEntity
  8
0
  6
Continuous
 62
     7
370
    25
100
AcDbLine
 10
2201.6358063593
 20
1627.7943081803
 30
0.0
 11
2287.6358063593
 21
1627.7943081803
 31
0.0
  0
ARC
  5
483
330
1F
100
AcDbEntity
  8
0
  6
Continuous
 62
     7
370
    25
100
AcDbCircle
 10
2287.6358063593
 20
1630.7943081803
 30
0.0
 40
3.000000000000227
100
AcDbArc
 50
270.0
 51
360.0
  0
LINE
  5
484
330
1F
100
AcDbEntity
  8
0
  6
Continuous
 62
     7
370
    25
100
AcDbLine
 10
2290.6358063593
 20
1630.7943081803
 30
0.0
 11
2290.6358063593
 21
1689.7943081803
 31
0.0
  0
ARC
  5
485
330
1F
100
AcDbEntity
  8
0
  6
Continuous
 62
     7
370
    25
100
AcDbCircle
 10
2287.6358063593
 20
1689.7943081803
 30
0.0
 40
2.999999999999773
100
AcDbArc
 50
360.0
 51
90.0
  0
LINE
  5
486
330
1F
100
AcDbEntity
  8
0
  6
Continuous
 62
     7
370
    25
100
AcDbLine
 10
2287.6358063593
 20
1692.7943081803
 30
0.0
 11
2201.6358063593
 21
1692.7943081803
 31
0.0
  0
ARC
  5
487
330
1F
100
AcDbEntity
  8
0
  6
Continuous
 62
     7
370
    25
100
AcDbCircle
 10
2201.6358063593
 20
1689.7943081803
 30
0.0
 40
3.0
100
AcDbArc
 50
90.0
 51
180.0
  0
LINE
  5
488
330
1F
100
AcDbEntity
  8
0
  6
Continuous
 62
     7
370
    25
100
AcDbLine
 10
2304.6358063593
 20
1617.7943081803
 30
0.0
 11
2304.6358063593
 21
1702.794308185
 31
0.0
  0
LINE
  5
489
330
1F
100
AcDbEntity
  8
0
  6
Continuous
 62
     7
370
    25
100
AcDbLine
 10
2301.6358063593
 20
1617.7943081803
 30
0.0
 11
2304.6358063593
 21
1617.7943081803
 31
0.0
  0
LINE
  5
48A
330
1F
100
AcDbEntity
  8
0
  6
Continuous
 62
     7
370
    25
100
AcDbLine
 10
2304.6358063593
 20
1702.7943081803
 30
0.0
 11
2301.6358063593
 21
1702.7943081803
 31
0.0
  0
LINE
  5
48B
330
1F
100
AcDbEntity
  8
0
  6
Continuous
 62
     7
370
    25
100
AcDbLine
 10
2186.6358063593
 20
1614.7943081803
 30
0.0
 11
2190.1358063593
 21
1614.7943081803
 31
0.0
  0
LINE
  5
48C
330
1F
100
AcDbEntity
  8
0
  6
Continuous
 62
     7
370
    25
100
AcDbLine
 10
2186.6358063593
 20
1614.7943081803
 30
0.0
 11
2186.6358063593
 21
1617.7943081803
 31
0.0
  0
LINE
  5
48D
330
1F
100
AcDbEntity
  8
0
  6
Continuous
 62
     7
370
    25
100
AcDbLine
 10
2301.6358063593
 20
1614.7943081803
 30
0.0
 11
2301.6358063593
 21
1617.7943081803
 31
0.0
  0
LINE
  5
48E
330
1F
100
AcDbEntity
  8
0
  6
Continuous
 62
     7
370
    25
100
AcDbLine
 10
2195.1358063593
 20
1614.7943081803
 30
0.0
 11
2301.6358063593
 21
1614.7943081803
 31
0.0
  0
ARC
  5
48F
330
1F
100
AcDbEntity
  8
0
  6
Continuous
 62
     7
370
    25
100
AcDbCircle
 10
2192.6358063593
 20
1613.460974847
 30
0.0
 40
2.833333333334608
100
AcDbArc
 50
28.0724869358
 51
151.9275130641
  0
ARC
  5
490
330
1F
100
AcDbEntity
  8
0
  6
Continuous
 62
     7
370
    25
100
AcDbCircle
 10
2301.6358063593
 20
1617.7943081803
 30
0.0
 40
3.0
100
AcDbArc
 50
269.9999996401
 51
360.0
  0
ARC
  5
491
330
1F
100
AcDbEntity
  8
0
  6
Continuous
 62
     7
370
    25
100
AcDbCircle
 10
2301.6358063593
 20
1702.7943081803
 30
0.0
 40
3.0
100
AcDbArc
 50
0.0000001799
 51
90.0
  0
ARC
  5
492
330
1F
100
AcDbEntity
  8
0
  6
Continuous
 62
     7
370
    25
100
AcDbCircle
 10
2301.6358063593
 20
1702.7943081803
 30
0.0
 40
5.0
100
AcDbArc
 50
360.0
 51
90.0
  0
LINE
  5
493
330
1F
100
AcDbEntity
  8
0
  6
Continuous
 62
     7
370
    25
100
AcDbLine
 10
2306.6358063593
 20
1702.7943081803
 30
0.0
 11
2306.6358063593
 21
1617.7943081803
 31
0.0
  0
ARC
  5
494
330
1F
100
AcDbEntity
  8
0
  6
Continuous
 62
     7
370
    25
100
AcDbCircle
 10
2301.6358063593
 20
1617.7943081803
 30
0.0
 40
5.0
100
AcDbArc
 50
270.0
 51
360.0
  0
LINE
  5
495
330
1F
100
AcDbEntity
  8
0
  6
Continuous
 62
     7
370
    25
100
AcDbLine
 10
2301.6358063593
 20
1612.7943081803
 30
0.0
 11
2186.6358063593
 21
1612.7943081803
 31
0.0
  0
LINE
  5
496
330
1F
100
AcDbEntity
  8
0
  6
Continuous
 62
     7
370
    25
100
AcDbLine
 10
2186.6358063593
 20
1707.7943081803
 30
0.0
 11
2301.6358063593
 21
1707.7943081803
 31
0.0
  0
LINE
  5
497
330
1F
100
AcDbEntity
  8
0
  6
Continuous
 62
     7
370
    25
100
AcDbLine
 10
2186.6358063593
 20
1705.7943081803
 30
0.0
 11
2186.6358063593
 21
1707.7943081803
 31
0.0
  0
LINE
  5
498
330
1F
100
AcDbEntity
  8
0
  6
Continuous
 62
     7
370
    25
100
AcDbLine
 10
2186.6358063593
 20
1612.7943081803
 30
0.0
 11
2186.6358063593
 21
1614.7943081803
 31
0.0
  0
LINE
  5
499
330
1F
100
AcDbEntity
  8
0
  6
Continuous
 62
     7
370
    25
100
AcDbLine
 10
2533.7414978216
 20
1600.0943166234
 30
0.0
 11
2519.7414978217
 21
1600.0943166234
 31
0.0
  0
LINE
  5
49A
330
1F
100
AcDbEntity
  8
0
  6
Continuous
 62
     7
370
    25
100
AcDbLine
 10
2533.7414978216
 20
1598.9943166234
 30
0.0
 11
2519.7414978218
 21
1598.9943166234
 31
0.0
  0
LINE
  5
49B
330
1F
100
AcDbEntity
  8
0
  6
Continuous
 62
     7
370
    25
100
AcDbLine
 10
2533.5414978216
 20
1598.7943166235
 30
0.0
 11
2519.9414978217
 21
1598.7943166235
 31
0.0
  0
LINE
  5
49C
330
1F
100
AcDbEntity
  8
0
  6
Continuous
 62
     7
370
    25
100
AcDbLine
 10
2253.8886885733
 20
1601.2943081807
 30
0.0
 11
2253.8886885733
 21
1610.2943081807
 31
0.0
  0
LINE
  5
49D
330
1F
100
AcDbEntity
  8
0
  6
Continuous
 62
     7
370
    25
100
AcDbLine
 10
2253.8886885733
 20
1601.2943081807
 30
0.0
 11
2231.6358063592
 21
1601.2943081807
 31
0.0
  0
LINE
  5
49E
330
1F
100
AcDbEntity
  8
0
  6
Continuous
 62
     7
370
    25
100
AcDbLine
 10
2253.4051630923
 20
1600.2943081807
 30
0.0
 11
2253.8886885733
 21
1601.2943081807
 31
0.0
  0
LINE
  5
49F
330
1F
100
AcDbEntity
  8
0
  6
Continuous
 62
     7
370
    25
100
AcDbLine
 10
2253.4051630923
 20
1600.2943081807
 30
0.0
 11
2232.6358063592
 21
1600.2943081807
 31
0.0
  0
LWPOLYLINE
  5
4A0
330
1F
100
AcDbEntity
  8
0
  6
Continuous
 62
     7
370
    25
100
AcDbPolyline
 90
       16
 70
   128
 43
0.0
 10
2263.3083947864
 20
1607.2943081807
 10
2261.8111272426
 20
1607.4305659817
 10
2260.2707975047
 20
1607.7899244
 10
2258.677702228
 20
1608.3156225261
 10
2257.5707492634
 20
1608.7399403222
 10
2256.3149999694
 20
1609.256575635
 10
2256.0239856928
 20
1609.3796005399
 10
2255.7264234406
 20
1609.5062442119
 10
2255.4221338757
 20
1609.6363348205
 10
2255.1109072633
 20
1609.7696761018
 10
2254.2103564863
 20
1610.1572096861
 10
2253.9766427957
 20
1610.257367372
 10
2253.9144006745
 20
1610.2837451783
 10
2253.8969749518
 20
1610.291003631
 10
2253.8916890731
 20
1610.293150146
 10
2253.8886885733
 20
1610.2943081807
  0
LINE
  5
4A1
330
1F
100
AcDbEntity
  8
0
  6
Continuous
 62
     7
370
    25
100
AcDbLine
 10
2263.7919202674
 20
1606.2943081807
 30
0.0
 11
2263.3083947864
 21
1607.2943081807
 31
0.0
  0
LWPOLYLINE
  5
4A2
330
1F
100
AcDbEntity
  8
0
  6
Continuous
 62
     7
370
    25
100
AcDbPolyline
 90
       16
 70
   128
 43
0.0
 10
2263.7919202674
 20
1606.2943081807
 10
2262.0426287161
 20
1606.4735762768
 10
2260.3035695413
 20
1606.9524455702
 10
2258.5863628857
 20
1607.6560682185
 10
2257.8464112905
 20
1608.0167379115
 10
2257.0511119964
 20
1608.4349366114
 10
2256.2004650036
 20
1608.9106643183
 10
2255.0398379088
 20
1609.5947974581
 10
2254.8294298197
 20
1609.721474011
 10
2254.6373966765
 20
1609.8378547528
 10
2254.4637384792
 20
1609.9439396836
 10
2254.0447724797
 20
1610.200426455
 10
2253.9338702648
 20
1610.2676929486
 10
2253.9030643536
 20
1610.2860819723
 10
2253.8938226971
 20
1610.2914654284
 10
2253.8886885733
 20
1610.2943081807
  0
LINE
  5
4A3
330
1F
100
AcDbEntity
  8
0
  6
Continuous
 62
     7
370
    25
100
AcDbLine
 10
2533.9943800358
 20
1606.2943081804
 30
0.0
 11
2263.7919202674
 21
1606.2943081807
 31
0.0
  0
LINE
  5
4A4
330
1F
100
AcDbEntity
  8
0
  6
Continuous
 62
     7
370
    25
100
AcDbLine
 10
2533.9943800358
 20
1601.2943081804
 30
0.0
 11
2533.9943800358
 21
1606.2943081804
 31
0.0
  0
LINE
  5
4A5
330
1F
100
AcDbEntity
  8
0
  6
Continuous
 62
     7
370
    25
100
AcDbLine
 10
2533.9943800358
 20
1601.2943081804
 30
0.0
 11
2253.8886885733
 21
1601.2943081807
 31
0.0
  0
LINE
  5
4A6
330
1F
100
AcDbEntity
  8
0
  6
Continuous
 62
     7
370
    25
100
AcDbLine
 10
2533.5108545548
 20
1600.2943081804
 30
0.0
 11
2533.9943800358
 21
1601.2943081804
 31
0.0
  0
LINE
  5
4A7
330
1F
100
AcDbEntity
  8
0
  6
Continuous
 62
     7
370
    25
100
AcDbLine
 10
2533.5108545548
 20
1600.2943081804
 30
0.0
 11
2253.4051630923
 21
1600.2943081807
 31
0.0
  0
LINE
  5
4A8
330
1F
100
AcDbEntity
  8
0
  6
Continuous
 62
     7
370
    25
100
AcDbLine
 10
2263.3083947864
 20
1607.2943081807
 30
0.0
 11
2533.5108545549
 21
1607.2943081804
 31
0.0
  0
LINE
  5
4A9
330
1F
100
AcDbEntity
  8
0
  6
Continuous
 62
     7
370
    25
100
AcDbLine
 10
2533.9943800358
 20
1606.2943081804
 30
0.0
 11
2533.5108545549
 21
1607.2943081804
 31
0.0
  0
LINE
  5
4AA
330
1F
100
AcDbEntity
  8
0
  6
Continuous
 62
     7
370
    25
100
AcDbLine
 10
2541.7414978216
 20
1606.2943081804
 30
0.0
 11
2533.9943800358
 21
1606.2943081804
 31
0.0
  0
LINE
  5
4AB
330
1F
100
AcDbEntity
  8
0
  6
Continuous
 62
     7
370
    25
100
AcDbLine
 10
2541.7414978216
 20
1601.2943081804
 30
0.0
 11
2533.9943800358
 21
1601.2943081804
 31
0.0
  0
LINE
  5
4AC
330
1F
100
AcDbEntity
  8
0
  6
Continuous
 62
     7
370
    25
100
AcDbLine
 10
2533.5108545549
 20
1607.2943081804
 30
0.0
 11
2540.7414978216
 21
1607.2943081804
 31
0.0
  0
LINE
  5
4AD
330
1F
100
AcDbEntity
  8
0
  6
Continuous
 62
     7
370
    25
100
AcDbLine
 10
2540.7414978216
 20
1600.2943081804
 30
0.0
 11
2533.5108545548
 21
1600.2943081804
 31
0.0
  0
LINE
  5
4AE
330
1F
100
AcDbEntity
  8
0
  6
Continuous
 62
     7
370
    25
100
AcDbLine
 10
2112.1820836493
 20
1597.1943081804
 30
0.0
 11
2128.6008798711
 21
1597.1943081804
 31
0.0
  0
ARC
  5
4AF
330
1F
100
AcDbEntity
  8
0
  6
Continuous
 62
     7
370
    25
100
AcDbCircle
 10
2127.6954628095
 20
1596.8170123933
 30
0.0
 40
0.980883360258583
100
AcDbArc
 50
352.8137222063
 51
22.6219504394
  0
LINE
  5
4B0
330
1F
100
AcDbEntity
  8
0
  6
Continuous
 62
     7
370
    25
100
AcDbLine
 10
2112.6804878806
 20
1588.1943081804
 30
0.0
 11
2140.6203186659
 21
1588.1943081804
 31
0.0
  0
LINE
  5
4B1
330
1F
100
AcDbEntity
  8
0
  6
Continuous
 62
     7
370
    25
100
AcDbLine
 10
2128.6686410268
 20
1596.6943081804
 30
0.0
 11
2128.6686410268
 21
1591.6943081804
 31
0.0
  0
ARC
  5
4B2
330
1F
100
AcDbEntity
  8
0
  6
Continuous
 62
     7
370
    25
100
AcDbCircle
 10
2134.2800532291
 20
1619.4202573585
 30
0.0
 40
28.28809298499925
100
AcDbArc
 50
258.5585428105
 51
266.201481379
  0
ARC
  5
4B3
330
1F
100
AcDbEntity
  8
0
  6
Continuous
 62
     7
370
    25
100
AcDbCircle
 10
2442.2663013921
 20
1596.8170123934
 30
0.0
 40
0.9808833602590342
100
AcDbArc
 50
352.8137222063
 51
22.6219504393
  0
LINE
  5
4B4
330
1F
100
AcDbEntity
  8
0
  6
Continuous
 62
     7
370
    25
100
AcDbLine
 10
2128.6686410268
 20
1596.6943081804
 30
0.0
 11
2443.2394796094
 21
1596.6943081806
 31
0.0
  0
LINE
  5
4B5
330
1F
100
AcDbEntity
  8
0
  6
Continuous
 62
     7
370
    25
100
AcDbLine
 10
2128.6008798711
 20
1597.1943081804
 30
0.0
 11
2443.1717184537
 21
1597.1943081806
 31
0.0
  0
LINE
  5
4B6
330
1F
100
AcDbEntity
  8
0
  6
Continuous
 62
     7
370
    25
100
AcDbLine
 10
2128.6686410268
 20
1591.6943081804
 30
0.0
 11
2443.2394796094
 21
1591.6943081806
 31
0.0
  0
LINE
  5
4B7
330
1F
100
AcDbEntity
  8
0
  6
Continuous
 62
     7
370
    25
100
AcDbLine
 10
2443.2394796094
 20
1591.6943081806
 30
0.0
 11
2443.2394796094
 21
1596.6943081806
 31
0.0
  0
ARC
  5
4B8
330
1F
100
AcDbEntity
  8
0
  6
Continuous
 62
     7
370
    25
100
AcDbCircle
 10
2442.2663013922
 20
1591.5716039677
 30
0.0
 40
0.9808833601881907
100
AcDbArc
 50
337.3780495593
 51
7.1862777946
  0
LINE
  5
4B9
330
1F
100
AcDbEntity
  8
0
  6
Continuous
 62
     7
370
    25
100
AcDbLine
 10
2132.4060207517
 20
1591.1943081804
 30
0.0
 11
2443.1717184537
 21
1591.1943081806
 31
0.0
  0
LINE
  5
4BA
330
1F
100
AcDbEntity
  8
0
  6
Continuous
 62
     7
370
    25
100
AcDbLine
 10
2217.1758167931
 20
1590.6943081804
 30
0.0
 11
2216.6126684904
 21
1590.6943081804
 31
0.0
  0
LINE
  5
4BB
330
1F
100
AcDbEntity
  8
0
  6
Continuous
 62
     7
370
    25
100
AcDbLine
 10
2217.1758167931
 20
1590.6943081804
 30
0.0
 11
2217.1758167931
 21
1588.6943081804
 31
0.0
  0
LINE
  5
4BC
330
1F
100
AcDbEntity
  8
0
  6
Continuous
 62
     7
370
    25
100
AcDbLine
 10
2216.6126684901
 20
1588.6943081804
 30
0.0
 11
2217.1758167931
 21
1588.6943081804
 31
0.0
  0
LINE
  5
4BD
330
1F
100
AcDbEntity
  8
0
  6
Continuous
 62
     7
370
    25
100
AcDbLine
 10
2216.6126684901
 20
1588.6943081804
 30
0.0
 11
2216.6126684904
 21
1590.6943081804
 31
0.0
  0
ARC
  5
4BE
330
1F
100
AcDbEntity
  8
0
  6
Continuous
 62
     7
370
    25
100
AcDbCircle
 10
2216.2026385758
 20
1588.5716039675
 30
0.0
 40
0.9808833603689758
100
AcDbArc
 50
337.3780495637
 51
7.1862777912
  0
ARC
  5
4BF
330
1F
100
AcDbEntity
  8
0
  6
Continuous
 62
     7
370
    25
100
AcDbCircle
 10
2217.1103728021
 20
1588.6920123933
 30
0.0
 40
0.4977096068779934
100
AcDbArc
 50
179.7357105899
 51
269.7332496125
  0
ARC
  5
4C0
330
1F
100
AcDbEntity
  8
0
  6
Continuous
 62
     7
370
    25
100
AcDbCircle
 10
2217.1103728024
 20
1590.6966039674
 30
0.0
 40
0.4977096069581508
100
AcDbArc
 50
90.2667503624
 51
180.2642893971
  0
ARC
  5
4C1
330
1F
100
AcDbEntity
  8
0
  6
Continuous
 62
     7
370
    25
100
AcDbCircle
 10
2216.2026385574
 20
1590.8170123919
 30
0.0
 40
0.9808833783737722
100
AcDbArc
 50
352.8137224249
 51
22.6219500878
  0
LINE
  5
4C2
330
1F
100
AcDbEntity
  8
0
  6
Continuous
 62
     7
370
    25
100
AcDbLine
 10
2523.3476382364
 20
1590.6943081804
 30
0.0
 11
2217.1758167931
 21
1590.6943081804
 31
0.0
  0
ARC
  5
4C3
330
1F
100
AcDbEntity
  8
0
  6
Continuous
 62
     7
370
    25
100
AcDbCircle
 10
2521.0457637082
 20
1618.4103827275
 30
0.0
 40
27.81149788563838
100
AcDbArc
 50
274.747631435
 51
286.1343814439
  0
LINE
  5
4C4
330
1F
100
AcDbEntity
  8
0
  6
Continuous
 62
     7
370
    25
100
AcDbLine
 10
2528.7743324915
 20
1588.6943081804
 30
0.0
 11
2528.7743324915
 21
1591.6943081804
 31
0.0
  0
LINE
  5
4C5
330
1F
100
AcDbEntity
  8
0
  6
Continuous
 62
     7
370
    25
100
AcDbLine
 10
2528.7743324915
 20
1588.6943081804
 30
0.0
 11
2217.1758167931
 21
1588.6943081803
 31
0.0
  0
ARC
  5
4C6
330
1F
100
AcDbEntity
  8
0
  6
Continuous
 62
     7
370
    25
100
AcDbCircle
 10
2522.3744599819
 20
1590.8170123904
 30
0.0
 40
0.9808833967536162
100
AcDbArc
 50
352.8137226475
 51
22.6219497319
  0
LINE
  5
4C7
330
1F
100
AcDbEntity
  8
0
  6
Continuous
 62
     7
370
    25
100
AcDbLine
 10
2523.2798770819
 20
1591.1943081804
 30
0.0
 11
2217.1080556381
 21
1591.1943081804
 31
0.0
  0
ARC
  5
4C8
330
1F
100
AcDbEntity
  8
0
  6
Continuous
 62
     7
370
    25
100
AcDbCircle
 10
2527.8011542744
 20
1588.5716039675
 30
0.0
 40
0.9808833600902015
100
AcDbArc
 50
337.3780495583
 51
7.1862777945
  0
LINE
  5
4C9
330
1F
100
AcDbEntity
  8
0
  6
Continuous
 62
     7
370
    25
100
AcDbLine
 10
2528.7065713358
 20
1588.1943081804
 30
0.0
 11
2217.1080556375
 21
1588.1943081804
 31
0.0
  0
LINE
  5
4CA
330
1F
100
AcDbEntity
  8
0
  6
Continuous
 62
     7
370
    25
100
AcDbLine
 10
2216.6126684904
 20
1590.6943081804
 30
0.0
 11
2216.1774623219
 21
1590.6943081804
 31
0.0
  0
ARC
  5
4CB
330
1F
100
AcDbEntity
  8
0
  6
Continuous
 62
     7
370
    25
100
AcDbCircle
 10
2216.6751666339
 20
1590.6966039675
 30
0.0
 40
0.497709606882496
100
AcDbArc
 50
90.2667503881
 51
180.26428941
  0
LINE
  5
4CC
330
1F
100
AcDbEntity
  8
0
  6
Continuous
 62
     7
370
    25
100
AcDbLine
 10
2213.1177276299
 20
1590.6943081804
 30
0.0
 11
2212.6825214606
 21
1590.6943081804
 31
0.0
  0
ARC
  5
4CD
330
1F
100
AcDbEntity
  8
0
  6
Continuous
 62
     7
370
    25
100
AcDbCircle
 10
2212.4384567334
 20
1591.1175291991
 30
0.0
 40
0.8003280462064406
100
AcDbArc
 50
328.0749518875
 51
5.5051019506
  0
ARC
  5
4CE
330
1F
100
AcDbEntity
  8
0
  6
Continuous
 62
     7
370
    25
100
AcDbCircle
 10
2216.8564855122
 20
1591.1174710546
 30
0.0
 40
0.8000870646332708
100
AcDbArc
 50
174.4890516606
 51
211.9308944998
  0
LINE
  5
4CF
330
1F
100
AcDbEntity
  8
0
  6
Continuous
 62
     7
370
    25
100
AcDbLine
 10
2216.6126684901
 20
1588.6943081804
 30
0.0
 11
2212.6825214612
 21
1588.6943081804
 31
0.0
  0
LINE
  5
4D0
330
1F
100
AcDbEntity
  8
0
  6
Continuous
 62
     7
370
    25
100
AcDbLine
 10
2212.6825214606
 20
1590.6943081804
 30
0.0
 11
2212.6825214612
 21
1588.6943081804
 31
0.0
  0
ARC
  5
4D1
330
1F
100
AcDbEntity
  8
0
  6
Continuous
 62
     7
370
    25
100
AcDbCircle
 10
2213.1802257729
 20
1588.692012393
 30
0.0
 40
0.4977096066068825
100
AcDbArc
 50
179.7357105568
 51
269.7332496436
  0
LINE
  5
4D2
330
1F
100
AcDbEntity
  8
0
  6
Continuous
 62
     7
370
    25
100
AcDbLine
 10
2217.1080556375
 20
1588.1943081804
 30
0.0
 11
2213.1779086086
 21
1588.1943081804
 31
0.0
  0
ARC
  5
4D3
330
1F
100
AcDbEntity
  8
0
  6
Continuous
 62
     7
370
    25
100
AcDbCircle
 10
2518.0895655965
 20
1591.4064007815
 30
0.0
 40
0.4021620381057965
100
AcDbArc
 50
174.5913195522
 51
211.8286418524
  0
ARC
  5
4D4
330
1F
100
AcDbEntity
  8
0
  6
Continuous
 62
     7
370
    25
100
AcDbCircle
 10
2514.8455756301
 20
1595.4502747046
 30
0.0
 40
1.759997247671847
100
AcDbArc
 50
266.1215690919
 51
312.7349626765
  0
LINE
  5
4D5
330
1F
100
AcDbEntity
  8
0
  6
Continuous
 62
     7
370
    25
100
AcDbLine
 10
2516.0399238399
 20
1594.1575556069
 30
0.0
 11
2517.6891941062
 21
1591.4443082303
 31
0.0
  0
ARC
  5
4D6
330
1F
100
AcDbEntity
  8
0
  6
Continuous
 62
     7
370
    25
100
AcDbCircle
 10
2513.925785319
 20
1593.7701228956
 30
0.0
 40
0.8043256854572602
100
AcDbArc
 50
354.5913434527
 51
31.828602709
  0
LINE
  5
4D7
330
1F
100
AcDbEntity
  8
0
  6
Continuous
 62
     7
370
    25
100
AcDbLine
 10
2443.6717184537
 20
1594.1943081804
 30
0.0
 11
2514.6091641693
 21
1594.1943081804
 31
0.0
  0
ARC
  5
4D8
330
1F
100
AcDbEntity
  8
0
  6
Continuous
 62
     7
370
    25
100
AcDbCircle
 10
2213.6154319419
 20
1590.6966039675
 30
0.0
 40
0.4977096068811381
100
AcDbArc
 50
90.2667503881
 51
180.2642894102
  0
ARC
  5
4D9
330
1F
100
AcDbEntity
  8
0
  6
Continuous
 62
     7
370
    25
100
AcDbCircle
 10
2213.1802257725
 20
1590.6966039675
 30
0.0
 40
0.497709606881137
100
AcDbArc
 50
90.2667503881
 51
180.2642894102
  0
LINE
  5
4DA
330
1F
100
AcDbEntity
  8
0
  6
Continuous
 62
     7
370
    25
100
AcDbLine
 10
2518.0379936548
 20
1591.6943081305
 30
0.0
 11
2528.7743324915
 21
1591.6943081305
 31
0.0
  0
LINE
  5
4DB
330
1F
100
AcDbEntity
  8
0
  6
Continuous
 62
     7
370
    25
100
AcDbLine
 10
2516.4419256661
 20
1594.4075554467
 30
0.0
 11
2518.0379936548
 21
1591.6943081305
 31
0.0
  0
ARC
  5
4DC
330
1F
100
AcDbEntity
  8
0
  6
Continuous
 62
     7
370
    25
100
AcDbCircle
 10
2514.8075878712
 20
1593.2643707079
 30
0.0
 40
1.994475212929423
100
AcDbArc
 50
34.9719756372
 51
75.3846816089
  0
LINE
  5
4DD
330
1F
100
AcDbEntity
  8
0
  6
Continuous
 62
     7
370
    25
100
AcDbLine
 10
2512.7861793453
 20
1598.1943081804
 30
0.0
 11
2540.7260101306
 21
1598.1943081804
 31
0.0
  0
LWPOLYLINE
  5
4DE
330
1F
100
AcDbEntity
  8
0
  6
Continuous
 62
     7
370
    25
100
AcDbPolyline
 90
        9
 70
   128
 43
0.0
 10
2517.7478769965
 20
1591.1943081804
 10
2517.8044759727
 20
1591.2039155398
 10
2517.8588998821
 20
1591.2323684107
 10
2517.9090572448
 20
1591.2785733655
 10
2517.9530205418
 20
1591.3407547739
 10
2517.9891002883
 20
1591.4165230395
 10
2518.0159099601
 20
1591.5029664308
 10
2518.0324192768
 20
1591.5967629772
 10
2518.0379937947
 20
1591.6943081305
  0
ARC
  5
4DF
330
1F
100
AcDbEntity
  8
0
  6
Continuous
 62
     7
370
    25
100
AcDbCircle
 10
2520.7860050922
 20
1649.0382853263
 30
0.0
 40
57.89771229975825
100
AcDbArc
 50
272.4687082689
 51
277.9305757591
  0
LINE
  5
4E0
330
1F
100
AcDbEntity
  8
0
  6
Continuous
 62
     7
370
    25
100
AcDbLine
 10
2528.7065713358
 20
1588.1943081804
 30
0.0
 11
2541.2254569988
 21
1588.1943081804
 31
0.0
  0
ARC
  5
4E1
330
1F
100
AcDbEntity
  8
0
  6
Continuous
 62
     7
370
    25
100
AcDbCircle
 10
2517.1255376698
 20
1592.5990432837
 30
0.0
 40
1.284959774450242
100
AcDbArc
 50
296.0182157043
 51
315.2434352691
  0
ARC
  5
4E2
330
1F
100
AcDbEntity
  8
0
  6
Continuous
 62
     7
370
    25
100
AcDbCircle
 10
2515.6639268474
 20
1595.2103726649
 30
0.0
 40
1.117943490453893
100
AcDbArc
 50
289.6533853916
 51
314.1005451
  0
LWPOLYLINE
  5
4E3
330
1F
100
AcDbEntity
  8
0
  6
Continuous
 62
     7
370
    25
100
AcDbPolyline
 90
        9
 70
   128
 43
0.0
 10
2515.3108499572
 20
1595.1943081804
 10
2515.5407014774
 20
1594.8564130534
 10
2515.5721635684
 20
1594.6627062889
 10
2515.5535697476
 20
1594.5752893869
 10
2515.5125283412
 20
1594.4953838148
 10
2515.4500620328
 20
1594.4240979816
 10
2515.3648816181
 20
1594.359918188
 10
2515.127299465
 20
1594.25852895
 10
2514.6091641693
 20
1594.1943081804
  0
ARC
  5
4E4
330
1F
100
AcDbEntity
  8
0
  6
Continuous
 62
     7
370
    25
100
AcDbCircle
 10
2513.8774641501
 20
1593.4115815052
 30
0.0
 40
2.287511589148073
100
AcDbArc
 50
19.0326705727
 51
51.1992824334
  0
LINE
  5
4E5
330
1F
100
AcDbEntity
  8
0
  6
Continuous
 62
     7
370
    25
100
AcDbLine
 10
2126.6357592215
 20
1586.5443081804
 30
0.0
 11
2134.6358063568
 21
1586.5443081804
 31
0.0
  0
LINE
  5
4E6
330
1F
100
AcDbEntity
  8
0
  6
Continuous
 62
     7
370
    25
100
AcDbLine
 10
2118.6358063568
 20
1586.5443081804
 30
0.0
 11
2126.6357592215
 21
1586.5443081804
 31
0.0
  0
LINE
  5
4E7
330
1F
100
AcDbEntity
  8
0
  6
Continuous
 62
     7
370
    25
100
AcDbLine
 10
2122.2892155756
 20
1598.8443081804
 30
0.0
 11
2134.6358063568
 21
1598.8443081804
 31
0.0
  0
LINE
  5
4E8
330
1F
100
AcDbEntity
  8
0
  6
Continuous
 62
     7
370
    25
100
AcDbLine
 10
2118.6358063568
 20
1598.8443081804
 30
0.0
 11
2122.2892155756
 21
1598.8443081804
 31
0.0
  0
LINE
  5
4E9
330
1F
100
AcDbEntity
  8
0
  6
Continuous
 62
     7
370
    25
100
AcDbLine
 10
2521.7643513749
 20
1587.1943081804
 30
0.0
 11
2526.7414978216
 21
1587.1943081804
 31
0.0
  0
LINE
  5
4EA
330
1F
100
AcDbEntity
  8
0
  6
Continuous
 62
     7
370
    25
100
AcDbLine
 10
2521.7414978216
 20
1585.5943081804
 30
0.0
 11
2531.7414978216
 21
1585.5943081804
 31
0.0
  0
LINE
  5
4EB
330
1F
100
AcDbEntity
  8
0
  6
Continuous
 62
     7
370
    25
100
AcDbLine
 10
2293.9925699019
 20
1598.2443081806
 30
0.0
 11
2275.992569904
 21
1598.2443081806
 31
0.0
  0
LINE
  5
4EC
330
1F
100
AcDbEntity
  8
0
  6
Continuous
 62
     7
370
    25
100
AcDbLine
 10
2420.8116796296
 20
1598.244308181
 30
0.0
 11
2402.8116796317
 21
1598.244308181
 31
0.0
  0
LINE
  5
4ED
330
1F
100
AcDbEntity
  8
0
  6
Continuous
 62
     7
370
    25
100
AcDbLine
 10
2121.3716536479
 20
1598.6943081802
 30
0.0
 11
2131.9272755429
 21
1598.6943081802
 31
0.0
  0
LINE
  5
4EE
330
1F
100
AcDbEntity
  8
0
  6
Continuous
 62
     7
370
    25
100
AcDbLine
 10
2521.500998291
 20
1587.1943081802
 30
0.0
 11
2531.958123
 21
1587.1943081802
 31
0.0
  0
LINE
  5
4EF
330
1F
100
AcDbEntity
  8
0
  6
Continuous
 62
     7
370
    25
100
AcDbLine
 10
2120.6358063575
 20
1581.4443081804
 30
0.0
 11
2132.6358063561
 21
1581.4443081804
 31
0.0
  0
LINE
  5
4F0
330
1F
100
AcDbEntity
  8
0
  6
Continuous
 62
     7
370
    25
100
AcDbLine
 10
2129.6358063568
 20
1603.4443081804
 30
0.0
 11
2123.6358063568
 21
1603.4443081804
 31
0.0
  0
LINE
  5
4F1
330
1F
100
AcDbEntity
  8
0
  6
Continuous
 62
     7
370
    25
100
AcDbLine
 10
2110.1358063594
 20
1600.4443081804
 30
0.0
 11
2110.1358063594
 21
1602.9443081804
 31
0.0
  0
LINE
  5
4F2
330
1F
100
AcDbEntity
  8
0
  6
Continuous
 62
     7
370
    25
100
AcDbLine
 10
2111.5647385469
 20
1602.9443081804
 30
0.0
 11
2110.1358063594
 21
1602.9443081804
 31
0.0
  0
LINE
  5
4F3
330
1F
100
AcDbEntity
  8
0
  6
Continuous
 62
     7
370
    25
100
AcDbLine
 10
2111.5647385469
 20
1602.9443081804
 30
0.0
 11
2111.5647385469
 21
1600.4443081804
 31
0.0
  0
LINE
  5
4F4
330
1F
100
AcDbEntity
  8
0
  6
Continuous
 62
     7
370
    25
100
AcDbLine
 10
2110.1358063594
 20
1600.4443081804
 30
0.0
 11
2111.5647385469
 21
1600.4443081804
 31
0.0
  0
LINE
  5
4F5
330
1F
100
AcDbEntity
  8
0
  6
Continuous
 62
     7
370
    25
100
AcDbLine
 10
2115.1002724529
 20
1600.4443081804
 30
0.0
 11
2115.1002724529
 21
1602.9443081804
 31
0.0
  0
LINE
  5
4F6
330
1F
100
AcDbEntity
  8
0
  6
Continuous
 62
     7
370
    25
100
AcDbLine
 10
2115.1002724529
 20
1602.9443081804
 30
0.0
 11
2111.5647385469
 21
1602.9443081804
 31
0.0
  0
LINE
  5
4F7
330
1F
100
AcDbEntity
  8
0
  6
Continuous
 62
     7
370
    25
100
AcDbLine
 10
2115.1002724529
 20
1600.4443081804
 30
0.0
 11
2111.5647385469
 21
1600.4443081804
 31
0.0
  0
LINE
  5
4F8
330
1F
100
AcDbEntity
  8
0
  6
Continuous
 62
     7
370
    25
100
AcDbLine
 10
2141.1713402653
 20
1600.4443081804
 30
0.0
 11
2141.1713402653
 21
1602.9443081804
 31
0.0
  0
LINE
  5
4F9
330
1F
100
AcDbEntity
  8
0
  6
Continuous
 62
     7
370
    25
100
AcDbLine
 10
2141.1713402653
 20
1602.9443081804
 30
0.0
 11
2115.1002724529
 21
1602.9443081804
 31
0.0
  0
LINE
  5
4FA
330
1F
100
AcDbEntity
  8
0
  6
Continuous
 62
     7
370
    25
100
AcDbLine
 10
2141.1713402653
 20
1600.4443081804
 30
0.0
 11
2115.1002724529
 21
1600.4443081804
 31
0.0
  0
LINE
  5
4FB
330
1F
100
AcDbEntity
  8
0
  6
Continuous
 62
     7
370
    25
100
AcDbLine
 10
2142.6358063594
 20
1600.4443081804
 30
0.0
 11
2142.6358063594
 21
1602.9443081804
 31
0.0
  0
LINE
  5
4FC
330
1F
100
AcDbEntity
  8
0
  6
Continuous
 62
     7
370
    25
100
AcDbLine
 10
2142.6358063594
 20
1602.9443081804
 30
0.0
 11
2141.1713402653
 21
1602.9443081804
 31
0.0
  0
LINE
  5
4FD
330
1F
100
AcDbEntity
  8
0
  6
Continuous
 62
     7
370
    25
100
AcDbLine
 10
2142.6358063594
 20
1600.4443081804
 30
0.0
 11
2141.1713402653
 21
1600.4443081804
 31
0.0
  0
LINE
  5
4FE
330
1F
100
AcDbEntity
  8
0
  6
Continuous
 62
     7
370
    25
100
AcDbLine
 10
2106.6358063594
 20
1599.4443081804
 30
0.0
 11
2109.1358063594
 21
1599.4443081804
 31
0.0
  0
ARC
  5
4FF
330
1F
100
AcDbEntity
  8
0
  6
Continuous
 62
     7
370
    25
100
AcDbCircle
 10
2110.1358063594
 20
1599.4443081804
 30
0.0
 40
1.0
100
AcDbArc
 50
90.0
 51
179.9999999999
  0
ARC
  5
500
330
1F
100
AcDbEntity
  8
0
  6
Continuous
 62
     7
370
    25
100
AcDbCircle
 10
2110.1358063594
 20
1599.4443081804
 30
0.0
 40
3.5
100
AcDbArc
 50
90.0
 51
180.0000000002
  0
LINE
  5
501
330
1F
100
AcDbEntity
  8
0
  6
Continuous
 62
     7
370
    25
100
AcDbLine
 10
2109.1358063594
 20
1599.4443081804
 30
0.0
 11
2109.1358063594
 21
1585.9443081804
 31
0.0
  0
LINE
  5
502
330
1F
100
AcDbEntity
  8
0
  6
Continuous
 62
     7
370
    25
100
AcDbLine
 10
2109.1358063594
 20
1585.9443081804
 30
0.0
 11
2106.6358063594
 21
1585.9443081804
 31
0.0
  0
LINE
  5
503
330
1F
100
AcDbEntity
  8
0
  6
Continuous
 62
     7
370
    25
100
AcDbLine
 10
2110.1358063594
 20
1582.4443081804
 30
0.0
 11
2110.1358063594
 21
1584.9443081804
 31
0.0
  0
ARC
  5
504
330
1F
100
AcDbEntity
  8
0
  6
Continuous
 62
     7
370
    25
100
AcDbCircle
 10
2110.1358063594
 20
1585.9443081804
 30
0.0
 40
1.0
100
AcDbArc
 50
180.0
 51
270.0
  0
ARC
  5
505
330
1F
100
AcDbEntity
  8
0
  6
Continuous
 62
     7
370
    25
100
AcDbCircle
 10
2110.1358063594
 20
1585.9443081804
 30
0.0
 40
3.499999999999545
100
AcDbArc
 50
179.9999999999
 51
270.0
  0
LINE
  5
506
330
1F
100
AcDbEntity
  8
0
  6
Continuous
 62
     7
370
    25
100
AcDbLine
 10
2111.5647385469
 20
1582.4443081804
 30
0.0
 11
2110.1358063594
 21
1582.4443081804
 31
0.0
  0
LINE
  5
507
330
1F
100
AcDbEntity
  8
0
  6
Continuous
 62
     7
370
    25
100
AcDbLine
 10
2111.5647385469
 20
1584.9443081804
 30
0.0
 11
2110.1358063594
 21
1584.9443081804
 31
0.0
  0
LINE
  5
508
330
1F
100
AcDbEntity
  8
0
  6
Continuous
 62
     7
370
    25
100
AcDbLine
 10
2111.5647385469
 20
1584.9443081804
 30
0.0
 11
2111.5647385469
 21
1582.4443081804
 31
0.0
  0
LINE
  5
509
330
1F
100
AcDbEntity
  8
0
  6
Continuous
 62
     7
370
    25
100
AcDbLine
 10
2115.1002724529
 20
1584.9443081804
 30
0.0
 11
2115.1002724529
 21
1582.4443081804
 31
0.0
  0
LINE
  5
50A
330
1F
100
AcDbEntity
  8
0
  6
Continuous
 62
     7
370
    25
100
AcDbLine
 10
2111.5647385469
 20
1584.9443081804
 30
0.0
 11
2115.1002724529
 21
1584.9443081804
 31
0.0
  0
LINE
  5
50B
330
1F
100
AcDbEntity
  8
0
  6
Continuous
 62
     7
370
    25
100
AcDbLine
 10
2111.5647385469
 20
1582.4443081804
 30
0.0
 11
2115.1002724529
 21
1582.4443081804
 31
0.0
  0
LINE
  5
50C
330
1F
100
AcDbEntity
  8
0
  6
Continuous
 62
     7
370
    25
100
AcDbLine
 10
2141.1713402653
 20
1584.9443081804
 30
0.0
 11
2141.1713402653
 21
1582.4443081804
 31
0.0
  0
LINE
  5
50D
330
1F
100
AcDbEntity
  8
0
  6
Continuous
 62
     7
370
    25
100
AcDbLine
 10
2115.1002724529
 20
1584.9443081804
 30
0.0
 11
2141.1713402653
 21
1584.9443081804
 31
0.0
  0
LINE
  5
50E
330
1F
100
AcDbEntity
  8
0
  6
Continuous
 62
     7
370
    25
100
AcDbLine
 10
2115.1002724529
 20
1582.4443081804
 30
0.0
 11
2141.1713402653
 21
1582.4443081804
 31
0.0
  0
LINE
  5
50F
330
1F
100
AcDbEntity
  8
0
  6
Continuous
 62
     7
370
    25
100
AcDbLine
 10
2142.6358063594
 20
1582.4443081804
 30
0.0
 11
2142.6358063594
 21
1584.9443081804
 31
0.0
  0
LINE
  5
510
330
1F
100
AcDbEntity
  8
0
  6
Continuous
 62
     7
370
    25
100
AcDbLine
 10
2141.1713402653
 20
1584.9443081804
 30
0.0
 11
2142.6358063594
 21
1584.9443081804
 31
0.0
  0
LINE
  5
511
330
1F
100
AcDbEntity
  8
0
  6
Continuous
 62
     7
370
    25
100
AcDbLine
 10
2141.1713402653
 20
1582.4443081804
 30
0.0
 11
2142.6358063594
 21
1582.4443081804
 31
0.0
  0
LINE
  5
512
330
1F
100
AcDbEntity
  8
0
  6
Continuous
 62
     7
370
    25
100
AcDbLine
 10
2253.8886885733
 20
1610.2943081807
 30
0.0
 11
2261.6358063591
 21
1610.2943081807
 31
0.0
  0
LINE
  5
513
330
1F
100
AcDbEntity
  8
0
  6
Continuous
 62
     7
370
    25
100
AcDbLine
 10
2111.635806357
 20
1596.6943081804
 30
0.0
 11
2128.6686410268
 21
1596.6943081804
 31
0.0
  0
LINE
  5
514
330
1F
100
AcDbEntity
  8
0
  6
Continuous
 62
     7
370
    25
100
AcDbLine
 10
2111.635806357
 20
1589.1943081804
 30
0.0
 11
2141.635806357
 21
1589.1943081804
 31
0.0
  0
LINE
  5
515
330
1F
100
AcDbEntity
  8
0
  6
Continuous
 62
     7
370
    25
100
AcDbLine
 10
2443.2394796094
 20
1591.6943081806
 30
0.0
 11
2443.6717184537
 21
1591.6943081806
 31
0.0
  0
LINE
  5
516
330
1F
100
AcDbEntity
  8
0
  6
Continuous
 62
     7
370
    25
100
AcDbLine
 10
2443.6717184537
 20
1596.6943081806
 30
0.0
 11
2443.2394796094
 21
1596.6943081806
 31
0.0
  0
LINE
  5
517
330
1F
100
AcDbEntity
  8
0
  6
Continuous
 62
     7
370
    25
100
AcDbLine
 10
2443.5939940657
 20
1591.4443081804
 30
0.0
 11
2517.6891941062
 21
1591.4443082303
 31
0.0
  0
LINE
  5
518
330
1F
100
AcDbEntity
  8
0
  6
Continuous
 62
     7
370
    25
100
AcDbLine
 10
2443.6717184537
 20
1593.6943081805
 30
0.0
 11
2514.7265299338
 21
1593.6943081805
 31
0.0
  0
LINE
  5
519
330
1F
100
AcDbEntity
  8
0
  6
Continuous
 62
     7
370
    25
100
AcDbLine
 10
2212.6779086221
 20
1588.6943081804
 30
0.0
 11
2212.6825214612
 21
1588.6943081804
 31
0.0
  0
LINE
  5
51A
330
1F
100
AcDbEntity
  8
0
  6
Continuous
 62
     7
370
    25
100
AcDbLine
 10
2212.6825214606
 20
1590.6943081804
 30
0.0
 11
2212.6779086091
 21
1590.6943081804
 31
0.0
  0
LINE
  5
51B
330
1F
100
AcDbEntity
  8
0
  6
Continuous
 62
     7
370
    25
100
AcDbLine
 10
2541.7414978217
 20
1597.1943081804
 30
0.0
 11
2511.7414978217
 21
1597.1943081804
 31
0.0
  0
LINE
  5
51C
330
1F
100
AcDbEntity
  8
0
  6
Continuous
 62
     7
370
    25
100
AcDbLine
 10
2541.7414978217
 20
1588.6943081804
 30
0.0
 11
2528.7743324915
 21
1588.6943081804
 31
0.0
  0
LINE
  5
51D
330
1F
100
AcDbEntity
  8
0
  6
Continuous
 62
     7
370
    25
100
AcDbLine
 10
2511.7414978217
 20
1595.194308175
 30
0.0
 11
2515.3108499572
 21
1595.1943081804
 31
0.0
  0
DIMENSION
  5
51E
330
1F
100
AcDbEntity
  8
FORMAT
100
AcDbDimension
  2
_D_21
 10
2306.6358063593
 20
1473.787873556
 30
0.0
 11
2246.6358063594
 21
1473.787873556
 31
0.0
 70
   160
  1
<>
 71
     2
 42
-1.0
  3
SLDDIMSTYLE0
100
AcDbAlignedDimension
 13
2186.6358063594
 23
1311.6943081804
 33
0.0
 14
2306.6358063593
 24
1617.7943081803
 34
0.0
 50
0.0
100
AcDbRotatedDimension
  0
DIMENSION
  5
527
330
1F
100
AcDbEntity
  8
FORMAT
100
AcDbDimension
  2
_D_22
 10
2608.1540998157
 20
1707.7943081801
 30
0.0
 11
2608.1540998157
 21
1645.1193081801
 31
0.0
 70
   160
  1
<>
 71
     2
 42
-1.0
  3
SLDDIMSTYLE4
100
AcDbAlignedDimension
 13
2141.1713402653
 23
1582.4443081804
 33
0.0
 14
2301.6358063593
 24
1707.7943081803
 34
0.0
 50
90.0
100
AcDbRotatedDimension
  0
DIMENSION
  5
532
330
1F
100
AcDbEntity
  8
FORMAT
100
AcDbDimension
  2
_D_23
 10
1924.6358063594
 20
1708.7943081804
 30
0.0
 11
1924.6358063594
 21
1660.2443081804
 31
0.0
 70
   160
  1
<>
 71
     2
 42
-1.0
  3
SLDDIMSTYLE4
100
AcDbAlignedDimension
 13
2076.6358063594
 23
1611.6943081804
 33
0.0
 14
2187.6358063593
 24
1708.7943081804
 34
0.0
 50
90.0
100
AcDbRotatedDimension
  0
DIMENSION
  5
53C
330
1F
100
AcDbEntity
  8
FORMAT
100
AcDbDimension
  2
_D_24
 10
2186.6358063594
 20
1857.8902535167
 30
0.0
 11
2032.5454152023
 21
1857.8902535167
 31
0.0
 70
   160
  1
<>
 71
     2
 42
-1.0
  3
SLDDIMSTYLE5
100
AcDbAlignedDimension
 13
2106.6358063594
 23
1606.6943081804
 33
0.0
 14
2186.6358063594
 24
1811.6943081804
 34
0.0
 50
0.0
100
AcDbRotatedDimension
  0
MTEXT
  5
54D
330
1F
100
AcDbEntity
  8
FORMAT
100
AcDbMText
 10
2127.8903350199
 20
1948.6432222886
 30
0.0
 40
35.0
 41
0.0
 71
     2
 72
     1
  1
A-A
  7
SLDTEXTSTYLE0
 73
     1
 44
1.0
  0
MTEXT
  5
54E
330
1F
100
AcDbEntity
  8
FORMAT
100
AcDbMText
 10
2038.3432556653
 20
1289.545681287
 30
0.0
 40
18.5208333333
 41
0.0
 71
     1
 72
     1
  1
** Sturztiefe (optional 400mm mit Sondergestänge auf Anfrage)
  7
SLDTEXTSTYLE0
 73
     1
 44
1.0
  0
CIRCLE
  5
54F
330
1F
100
AcDbEntity
  8
0
  6
Continuous
 62
     7
370
    18
100
AcDbCircle
 10
2144.2188827896
 20
1665.7028871055
 30
0.0
 40
172.842496041158
  0
MTEXT
  5
550
330
1F
100
AcDbEntity
  8
0
  6
Continuous
 62
     7
370
    18
100
AcDbMText
 10
2274.9599571975
 20
1847.1279552522
 30
0.0
 40
35.0
 41
0.0
 71
     1
 72
     1
  1
B
  7
SLDTEXTSTYLE0
 73
     1
 44
1.0
  0
LINE
  5
551
330
1F
100
AcDbEntity
  8
0
  6
Continuous
 62
     7
370
    25
100
AcDbLine
 10
2534.0492763976
 20
865.0463587464
 30
0.0
 11
2534.0492763976
 21
866.4463615835
 31
0.0
  0
LINE
  5
552
330
1F
100
AcDbEntity
  8
0
  6
Continuous
 62
     7
370
    25
100
AcDbLine
 10
2480.8492755006
 20
730.6463575781
 30
0.0
 11
2480.8492755006
 21
715.9463590802
 31
0.0
  0
LINE
  5
553
330
1F
100
AcDbEntity
  8
0
  6
Continuous
 62
     7
370
    25
100
AcDbLine
 10
2522.8492771695
 20
728.5463585377
 30
0.0
 11
2522.8492771695
 21
732.0463604153
 31
0.0
  0
LINE
  5
554
330
1F
100
AcDbEntity
  8
0
  6
Continuous
 62
     7
370
    25
100
AcDbLine
 10
2480.8492755006
 20
715.9463590802
 30
0.0
 11
2482.2492783378
 21
714.5463614584
 31
0.0
  0
ARC
  5
555
330
1F
100
AcDbEntity
  8
0
  6
Continuous
 62
     7
370
    25
100
AcDbCircle
 10
2527.0492811893
 20
728.5463644768
 30
0.0
 40
4.200004019749443
100
AcDbArc
 50
180.0000810191
 51
269.9999545548
  0
ARC
  5
556
330
1F
100
AcDbEntity
  8
0
  6
Continuous
 62
     7
370
    25
100
AcDbCircle
 10
2313.5492888294
 20
709.5063514343
 30
0.0
 40
0.7000095737145459
100
AcDbArc
 50
90.0015212549
 51
179.9993325233
  0
ARC
  5
557
330
1F
100
AcDbEntity
  8
0
  6
Continuous
 62
     7
370
    25
100
AcDbCircle
 10
2353.4492706814
 20
699.0063691857
 30
0.0
 40
1.400010243252269
100
AcDbArc
 50
270.0003030939
 51
359.9995901845
  0
ARC
  5
558
330
1F
100
AcDbEntity
  8
0
  6
Continuous
 62
     7
370
    25
100
AcDbCircle
 10
2314.2492894989
 20
699.0063691857
 30
0.0
 40
1.400010243251814
100
AcDbArc
 50
180.0004098155
 51
269.9996969061
  0
LINE
  5
559
330
1F
100
AcDbEntity
  8
0
  6
Continuous
 62
     7
370
    25
100
AcDbLine
 10
2354.8492809246
 20
699.0063591719
 30
0.0
 11
2354.8492809246
 21
701.8063596309
 31
0.0
  0
LINE
  5
55A
330
1F
100
AcDbEntity
  8
0
  6
Continuous
 62
     7
370
    25
100
AcDbLine
 10
2312.8492792557
 20
709.5063595892
 30
0.0
 11
2312.8492792557
 21
699.0063591719
 31
0.0
  0
ARC
  5
55B
330
1F
100
AcDbEntity
  8
0
  6
Continuous
 62
     7
370
    25
100
AcDbCircle
 10
2454.9689377666
 20
698.278616855
 30
0.0
 40
0.6613017112081577
100
AcDbArc
 50
177.5955718225
 51
273.3429601033
  0
LINE
  5
55C
330
1F
100
AcDbEntity
  8
0
  6
Continuous
 62
     7
370
    25
100
AcDbLine
 10
2454.3082182716
 20
701.1063582123
 30
0.0
 11
2454.3082182716
 21
698.3063603611
 31
0.0
  0
ARC
  5
55D
330
1F
100
AcDbEntity
  8
0
  6
Continuous
 62
     7
370
    25
100
AcDbCircle
 10
2455.0061383979
 20
701.1071508231
 30
0.0
 40
0.6979205763867125
100
AcDbArc
 50
102.9623023621
 51
180.0650693865
  0
LINE
  5
55E
330
1F
100
AcDbEntity
  8
0
  6
Continuous
 62
     7
370
    25
100
AcDbLine
 10
2345.049281926
 20
693.0563601524
 30
0.0
 11
2345.049281926
 21
695.296358955
 31
0.0
  0
LINE
  5
55F
330
1F
100
AcDbEntity
  8
0
  6
Continuous
 62
     7
370
    25
100
AcDbLine
 10
2322.6492782543
 20
695.296358955
 30
0.0
 11
2322.6492782543
 21
693.0563601524
 31
0.0
  0
LINE
  5
560
330
1F
100
AcDbEntity
  8
0
  6
Continuous
 62
     7
370
    25
100
AcDbLine
 10
2345.049281926
 20
712.5163583875
 30
0.0
 11
2345.049281926
 21
714.7563597978
 31
0.0
  0
LINE
  5
561
330
1F
100
AcDbEntity
  8
0
  6
Continuous
 62
     7
370
    25
100
AcDbLine
 10
2322.6492782543
 20
714.7563597978
 30
0.0
 11
2322.6492782543
 21
712.5163583875
 31
0.0
  0
LINE
  5
562
330
1F
100
AcDbEntity
  8
0
  6
Continuous
 62
     7
370
    25
100
AcDbLine
 10
2542.9487468163
 20
711.6763598145
 30
0.0
 11
2542.9487468163
 21
710.2063610078
 31
0.0
  0
LINE
  5
563
330
1F
100
AcDbEntity
  8
0
  6
Continuous
 62
     7
370
    25
100
AcDbLine
 10
2568.1487465464
 20
710.2063610078
 30
0.0
 11
2568.1487465464
 21
711.6763598145
 31
0.0
  0
LINE
  5
564
330
1F
100
AcDbEntity
  8
0
  6
Continuous
 62
     7
370
    25
100
AcDbLine
 10
2568.1487465464
 20
711.6763598145
 30
0.0
 11
2565.2787465324
 21
714.5463614584
 31
0.0
  0
LINE
  5
565
330
1F
100
AcDbEntity
  8
0
  6
Continuous
 62
     7
370
    25
100
AcDbLine
 10
2545.8187471564
 20
714.5463614584
 30
0.0
 11
2542.9487468163
 21
711.6763598145
 31
0.0
  0
LWPOLYLINE
  5
566
330
1F
100
AcDbEntity
  8
0
  6
Continuous
 62
     7
370
    25
100
AcDbPolyline
 90
        3
 70
   128
 43
0.0
 10
2341.1716689776
 20
695.4916133405
 10
2342.3561712216
 20
696.6212442935
 10
2343.038179488
 20
697.6063589425
  0
ARC
  5
567
330
1F
100
AcDbEntity
  8
0
  6
Continuous
 62
     7
370
    25
100
AcDbCircle
 10
2330.4410724268
 20
700.7942099811
 30
0.0
 40
6.623959477913586
100
AcDbArc
 50
208.7677694114
 51
233.0972572233
  0
LWPOLYLINE
  5
568
330
1F
100
AcDbEntity
  8
0
  6
Continuous
 62
     7
370
    25
100
AcDbPolyline
 90
        3
 70
   128
 43
0.0
 10
2326.5210916708
 20
712.3155808867
 10
2325.3423889588
 20
711.191473049
 10
2324.6603806923
 20
710.2063610078
  0
ARC
  5
569
330
1F
100
AcDbEntity
  8
0
  6
Continuous
 62
     7
370
    25
100
AcDbCircle
 10
2337.2692885841
 20
707.029644639
 30
0.0
 40
6.608257716578876
100
AcDbArc
 50
28.7323846958
 51
52.9488946261
  0
ARC
  5
56A
330
1F
100
AcDbEntity
  8
0
  6
Continuous
 62
     7
370
    25
100
AcDbCircle
 10
2321.2142685949
 20
709.5413768421
 30
0.0
 40
0.664984165694907
100
AcDbArc
 50
89.9999125968
 51
180.001435481
  0
ARC
  5
56B
330
1F
100
AcDbEntity
  8
0
  6
Continuous
 62
     7
370
    25
100
AcDbCircle
 10
2321.2142685949
 20
698.2713431082
 30
0.0
 40
0.664984165694907
100
AcDbArc
 50
179.998564519
 51
270.0000874032
  0
ARC
  5
56C
330
1F
100
AcDbEntity
  8
0
  6
Continuous
 62
     7
370
    25
100
AcDbCircle
 10
2346.4842915848
 20
698.2713431084
 30
0.0
 40
0.6649841663079001
100
AcDbArc
 50
269.9981151887
 51
0.0014354591
  0
LINE
  5
56D
330
1F
100
AcDbEntity
  8
0
  6
Continuous
 62
     7
370
    25
100
AcDbLine
 10
2342.2492762516
 20
688.1563606531
 30
0.0
 11
2342.2492762516
 21
689.5563582749
 31
0.0
  0
LINE
  5
56E
330
1F
100
AcDbEntity
  8
0
  6
Continuous
 62
     7
370
    25
100
AcDbLine
 10
2325.4492839287
 20
689.5563582749
 30
0.0
 11
2325.4492839287
 21
688.1563606531
 31
0.0
  0
LINE
  5
56F
330
1F
100
AcDbEntity
  8
0
  6
Continuous
 62
     7
370
    25
100
AcDbLine
 10
2328.2492687414
 20
712.5163583875
 30
0.0
 11
2328.2492687414
 21
712.3063600481
 31
0.0
  0
LINE
  5
570
330
1F
100
AcDbEntity
  8
0
  6
Continuous
 62
     7
370
    25
100
AcDbLine
 10
2328.2492687414
 20
695.5063599021
 30
0.0
 11
2328.2492687414
 21
695.296358955
 31
0.0
  0
LINE
  5
571
330
1F
100
AcDbEntity
  8
0
  6
Continuous
 62
     7
370
    25
100
AcDbLine
 10
2339.4492705773
 20
695.296358955
 30
0.0
 11
2339.4492705773
 21
695.5063599021
 31
0.0
  0
LINE
  5
572
330
1F
100
AcDbEntity
  8
0
  6
Continuous
 62
     7
370
    25
100
AcDbLine
 10
2339.4492705773
 20
712.3063600481
 30
0.0
 11
2339.4492705773
 21
712.5163583875
 31
0.0
  0
LINE
  5
573
330
1F
100
AcDbEntity
  8
0
  6
Continuous
 62
     7
370
    25
100
AcDbLine
 10
2329.6492715786
 20
718.9563578785
 30
0.0
 11
2329.6492715786
 21
718.2563616753
 31
0.0
  0
LINE
  5
574
330
1F
100
AcDbEntity
  8
0
  6
Continuous
 62
     7
370
    25
100
AcDbLine
 10
2338.0492677401
 20
718.2563616753
 30
0.0
 11
2338.0492677401
 21
718.9563578785
 31
0.0
  0
ARC
  5
575
330
1F
100
AcDbEntity
  8
0
  6
Continuous
 62
     7
370
    18
100
AcDbCircle
 10
2358.4693506509
 20
806.1130918294
 30
0.0
 40
241.9859719797479
100
AcDbArc
 50
122.3656255976
 51
128.4940235847
  0
ARC
  5
576
330
1F
100
AcDbEntity
  8
0
  6
Continuous
 62
     7
370
    18
100
AcDbCircle
 10
2358.4655905107
 20
806.1183864884
 30
0.0
 40
241.9795120246269
100
AcDbArc
 50
231.5058975317
 51
284.2059402816
  0
ARC
  5
577
330
1F
100
AcDbEntity
  8
0
  6
Continuous
 62
     7
370
    18
100
AcDbCircle
 10
2358.4665935668
 20
806.1179077731
 30
0.0
 40
241.978385421831
100
AcDbArc
 50
333.3566881046
 51
336.6489228562
  0
ARC
  5
578
330
1F
100
AcDbEntity
  8
0
  6
Continuous
 62
     7
370
    18
100
AcDbCircle
 10
2358.4692043705
 20
806.1169705091
 30
0.0
 40
241.9756141465019
100
AcDbArc
 50
337.763589845
 51
340.249244073
  0
LINE
  5
579
330
1F
100
AcDbEntity
  8
0
  6
Continuous
 62
     7
370
    25
100
AcDbLine
 10
2263.8492842625
 20
723.506361884
 30
0.0
 11
2263.8492842625
 21
758.5063597978
 31
0.0
  0
LINE
  5
57A
330
1F
100
AcDbEntity
  8
0
  6
Continuous
 62
     7
370
    25
100
AcDbLine
 10
2263.8492842625
 20
723.506361884
 30
0.0
 11
2305.8492859314
 21
723.506361884
 31
0.0
  0
LINE
  5
57B
330
1F
100
AcDbEntity
  8
0
  6
Continuous
 62
     7
370
    25
100
AcDbLine
 10
2305.8492859314
 20
723.506361884
 30
0.0
 11
2305.8492859314
 21
569.9286124528
 31
0.0
  0
LINE
  5
57C
330
1F
100
AcDbEntity
  8
0
  6
Continuous
 62
     7
370
    25
100
AcDbLine
 10
2207.849295945
 20
758.5063597978
 30
0.0
 11
2263.8492842625
 21
758.5063597978
 31
0.0
  0
LINE
  5
57D
330
1F
100
AcDbEntity
  8
0
  6
Continuous
 62
     7
370
    25
100
AcDbLine
 10
2207.849295945
 20
616.7277424455
 30
0.0
 11
2207.849295945
 21
758.5063597978
 31
0.0
  0
LINE
  5
57E
330
1F
100
AcDbEntity
  8
0
  6
Continuous
 62
     7
370
    25
100
AcDbLine
 10
2417.8492729972
 20
1010.5063593806
 30
0.0
 11
2417.8492729972
 21
865.0463587464
 31
0.0
  0
LINE
  5
57F
330
1F
100
AcDbEntity
  8
0
  6
Continuous
 62
     7
370
    25
100
AcDbLine
 10
2417.8492729972
 20
732.0463604153
 30
0.0
 11
2417.8492729972
 21
730.5063604236
 31
0.0
  0
LINE
  5
580
330
1F
100
AcDbEntity
  8
0
  6
Continuous
 62
     7
370
    25
100
AcDbLine
 10
2417.8492729972
 20
730.5063604236
 30
0.0
 11
2263.8492842625
 21
730.5063604236
 31
0.0
  0
LINE
  5
581
330
1F
100
AcDbEntity
  8
0
  6
Continuous
 62
     7
370
    25
100
AcDbLine
 10
2263.8492842625
 20
730.5063604236
 30
0.0
 11
2263.8492842625
 21
765.5063635529
 31
0.0
  0
LINE
  5
582
330
1F
100
AcDbEntity
  8
0
  6
Continuous
 62
     7
370
    25
100
AcDbLine
 10
2228.9293845604
 20
1010.5063593806
 30
0.0
 11
2417.8492729972
 21
1010.5063593806
 31
0.0
  0
LINE
  5
583
330
1F
100
AcDbEntity
  8
0
  6
Continuous
 62
     7
370
    25
100
AcDbLine
 10
2207.849295945
 20
995.5089992703
 30
0.0
 11
2207.849295945
 21
765.5063635529
 31
0.0
  0
LINE
  5
584
330
1F
100
AcDbEntity
  8
0
  6
Continuous
 62
     7
370
    25
100
AcDbLine
 10
2263.8492842625
 20
765.5063635529
 30
0.0
 11
2207.849295945
 21
765.5063635529
 31
0.0
  0
LINE
  5
585
330
1F
100
AcDbEntity
  8
0
  6
Continuous
 62
     7
370
    25
100
AcDbLine
 10
2417.8492729972
 20
571.5386292756
 30
0.0
 11
2417.8492729972
 21
701.8063596309
 31
0.0
  0
LINE
  5
586
330
1F
100
AcDbEntity
  8
0
  6
Continuous
 62
     7
370
    25
100
AcDbLine
 10
2417.8492729972
 20
710.2063610078
 30
0.0
 11
2417.8492729972
 21
730.5063604236
 31
0.0
  0
LINE
  5
587
330
1F
100
AcDbEntity
  8
0
  6
Continuous
 62
     7
370
    25
100
AcDbLine
 10
2207.849295945
 20
765.5063635529
 30
0.0
 11
2207.849295945
 21
758.5063597978
 31
0.0
  0
LINE
  5
588
330
1F
100
AcDbEntity
  8
0
  6
Continuous
 62
     7
370
    25
100
AcDbLine
 10
2419.2492758344
 20
866.4463615835
 30
0.0
 11
2501.8492763351
 21
866.4463615835
 31
0.0
  0
LINE
  5
589
330
1F
100
AcDbEntity
  8
0
  6
Continuous
 62
     7
370
    25
100
AcDbLine
 10
2501.8492763351
 20
866.4463615835
 30
0.0
 11
2501.8492763351
 21
865.0463587464
 31
0.0
  0
LINE
  5
58A
330
1F
100
AcDbEntity
  8
0
  6
Continuous
 62
     7
370
    25
100
AcDbLine
 10
2419.2492758344
 20
865.0463587464
 30
0.0
 11
2419.2492758344
 21
866.4463615835
 31
0.0
  0
LINE
  5
58B
330
1F
100
AcDbEntity
  8
0
  6
Continuous
 62
     7
370
    25
100
AcDbLine
 10
2501.8492763351
 20
866.4463615835
 30
0.0
 11
2534.0492763976
 21
866.4463615835
 31
0.0
  0
LINE
  5
58C
330
1F
100
AcDbEntity
  8
0
  6
Continuous
 62
     7
370
    25
100
AcDbLine
 10
2497.6492782543
 20
732.0463604153
 30
0.0
 11
2497.6492782543
 21
730.6463575781
 31
0.0
  0
LINE
  5
58D
330
1F
100
AcDbEntity
  8
0
  6
Continuous
 62
     7
370
    25
100
AcDbLine
 10
2497.6492782543
 20
730.6463575781
 30
0.0
 11
2419.2492758344
 21
730.6463575781
 31
0.0
  0
LINE
  5
58E
330
1F
100
AcDbEntity
  8
0
  6
Continuous
 62
     7
370
    25
100
AcDbLine
 10
2419.2492758344
 20
730.6463575781
 30
0.0
 11
2419.2492758344
 21
732.0463604153
 31
0.0
  0
LINE
  5
58F
330
1F
100
AcDbEntity
  8
0
  6
Continuous
 62
     7
370
    25
100
AcDbLine
 10
2578.8492772217
 20
862.246353072
 30
0.0
 11
2429.7492762516
 21
862.246353072
 31
0.0
  0
LINE
  5
590
330
1F
100
AcDbEntity
  8
0
  6
Continuous
 62
     7
370
    25
100
AcDbLine
 10
2578.8492772217
 20
858.0463654221
 30
0.0
 11
2578.8492772217
 21
862.246353072
 31
0.0
  0
LINE
  5
591
330
1F
100
AcDbEntity
  8
0
  6
Continuous
 62
     7
370
    25
100
AcDbLine
 10
2578.8492772217
 20
858.0463654221
 30
0.0
 11
2417.8492729972
 21
858.0463654221
 31
0.0
  0
LINE
  5
592
330
1F
100
AcDbEntity
  8
0
  6
Continuous
 62
     7
370
    25
100
AcDbLine
 10
2417.8492729972
 20
858.0463654221
 30
0.0
 11
2417.8492729972
 21
862.246353072
 31
0.0
  0
LINE
  5
593
330
1F
100
AcDbEntity
  8
0
  6
Continuous
 62
     7
370
    25
100
AcDbLine
 10
2422.7492724965
 20
862.246353072
 30
0.0
 11
2417.8492729972
 21
862.246353072
 31
0.0
  0
ARC
  5
594
330
1F
100
AcDbEntity
  8
0
  6
Continuous
 62
     7
370
    25
100
AcDbCircle
 10
2426.2492743741
 20
864.1130271014
 30
0.0
 40
3.966671788126711
100
AcDbArc
 50
208.0725680109
 51
331.9274319891
  0
LINE
  5
595
330
1F
100
AcDbEntity
  8
0
  6
Continuous
 62
     7
370
    25
100
AcDbLine
 10
2578.8492772217
 20
739.046358955
 30
0.0
 11
2578.8492772217
 21
858.0463654221
 31
0.0
  0
LINE
  5
596
330
1F
100
AcDbEntity
  8
0
  6
Continuous
 62
     7
370
    25
100
AcDbLine
 10
2417.8492729972
 20
739.046358955
 30
0.0
 11
2578.8492772217
 21
739.046358955
 31
0.0
  0
LINE
  5
597
330
1F
100
AcDbEntity
  8
0
  6
Continuous
 62
     7
370
    25
100
AcDbLine
 10
2417.8492729972
 20
858.0463654221
 30
0.0
 11
2417.8492729972
 21
739.046358955
 31
0.0
  0
LINE
  5
598
330
1F
100
AcDbEntity
  8
0
  6
Continuous
 62
     7
370
    25
100
AcDbLine
 10
2434.6492757509
 20
839.8463494004
 30
0.0
 11
2434.6492757509
 21
757.2463593305
 31
0.0
  0
ARC
  5
599
330
1F
100
AcDbEntity
  8
0
  6
Continuous
 62
     7
370
    25
100
AcDbCircle
 10
2438.8492797707
 20
757.2463652695
 30
0.0
 40
4.200004019738792
100
AcDbArc
 50
180.0000810189
 51
269.9999189811
  0
LINE
  5
59A
330
1F
100
AcDbEntity
  8
0
  6
Continuous
 62
     7
370
    25
100
AcDbLine
 10
2438.8492738317
 20
753.0463612498
 30
0.0
 11
2559.2492772686
 21
753.0463612498
 31
0.0
  0
ARC
  5
59B
330
1F
100
AcDbEntity
  8
0
  6
Continuous
 62
     7
370
    25
100
AcDbCircle
 10
2559.249284184
 20
757.2463546969
 30
0.0
 40
4.199993447135407
100
AcDbArc
 50
269.9999056618
 51
0.000063211
  0
LINE
  5
59C
330
1F
100
AcDbEntity
  8
0
  6
Continuous
 62
     7
370
    25
100
AcDbLine
 10
2563.4492776311
 20
757.2463593305
 30
0.0
 11
2563.4492776311
 21
839.8463494004
 31
0.0
  0
ARC
  5
59D
330
1F
100
AcDbEntity
  8
0
  6
Continuous
 62
     7
370
    25
100
AcDbCircle
 10
2559.2492841839
 20
839.8463644647
 30
0.0
 40
4.19999344717713
100
AcDbArc
 50
359.9997944937
 51
90.0000943379
  0
LINE
  5
59E
330
1F
100
AcDbEntity
  8
0
  6
Continuous
 62
     7
370
    25
100
AcDbLine
 10
2559.2492772686
 20
844.0463579119
 30
0.0
 11
2438.8492738317
 21
844.0463579119
 31
0.0
  0
ARC
  5
59F
330
1F
100
AcDbEntity
  8
0
  6
Continuous
 62
     7
370
    25
100
AcDbCircle
 10
2438.8492797707
 20
839.8463538922
 30
0.0
 40
4.200004019735722
100
AcDbArc
 50
90.0000810189
 51
180.0000612766
  0
LINE
  5
5A0
330
1F
100
AcDbEntity
  8
0
  6
Continuous
 62
     7
370
    25
100
AcDbLine
 10
2583.0492779101
 20
739.046358955
 30
0.0
 11
2583.0492779101
 21
858.0463654221
 31
0.0
  0
LINE
  5
5A1
330
1F
100
AcDbEntity
  8
0
  6
Continuous
 62
     7
370
    25
100
AcDbLine
 10
2578.8492772217
 20
739.046358955
 30
0.0
 11
2583.0492779101
 21
739.046358955
 31
0.0
  0
LINE
  5
5A2
330
1F
100
AcDbEntity
  8
0
  6
Continuous
 62
     7
370
    25
100
AcDbLine
 10
2583.0492779101
 20
858.0463654221
 30
0.0
 11
2578.8492772217
 21
858.0463654221
 31
0.0
  0
LINE
  5
5A3
330
1F
100
AcDbEntity
  8
0
  6
Continuous
 62
     7
370
    25
100
AcDbLine
 10
2417.8492729972
 20
734.8463608743
 30
0.0
 11
2422.7492724965
 21
734.8463608743
 31
0.0
  0
LINE
  5
5A4
330
1F
100
AcDbEntity
  8
0
  6
Continuous
 62
     7
370
    25
100
AcDbLine
 10
2417.8492729972
 20
734.8463608743
 30
0.0
 11
2417.8492729972
 21
739.046358955
 31
0.0
  0
LINE
  5
5A5
330
1F
100
AcDbEntity
  8
0
  6
Continuous
 62
     7
370
    25
100
AcDbLine
 10
2578.8492772217
 20
734.8463608743
 30
0.0
 11
2578.8492772217
 21
739.046358955
 31
0.0
  0
LINE
  5
5A6
330
1F
100
AcDbEntity
  8
0
  6
Continuous
 62
     7
370
    25
100
AcDbLine
 10
2429.7492762516
 20
734.8463608743
 30
0.0
 11
2578.8492772217
 21
734.8463608743
 31
0.0
  0
ARC
  5
5A7
330
1F
100
AcDbEntity
  8
0
  6
Continuous
 62
     7
370
    25
100
AcDbCircle
 10
2426.2492743741
 20
732.9796858842
 30
0.0
 40
3.966672240199217
100
AcDbArc
 50
28.0725802543
 51
151.9274197457
  0
ARC
  5
5A8
330
1F
100
AcDbEntity
  8
0
  6
Continuous
 62
     7
370
    25
100
AcDbCircle
 10
2578.8492850194
 20
739.0463537649
 30
0.0
 40
4.199992890686214
100
AcDbArc
 50
269.9998936241
 51
0.000070802
  0
ARC
  5
5A9
330
1F
100
AcDbEntity
  8
0
  6
Continuous
 62
     7
370
    25
100
AcDbCircle
 10
2578.8492850194
 20
858.0463601813
 30
0.0
 40
4.199992890686277
100
AcDbArc
 50
0.0000714938
 51
90.0001063759
  0
ARC
  5
5AA
330
1F
100
AcDbEntity
  8
0
  6
Continuous
 62
     7
370
    25
100
AcDbCircle
 10
2578.849265914
 20
858.0463475951
 30
0.0
 40
7.000011151243409
100
AcDbArc
 50
0.0001459154
 51
89.9999074455
  0
LINE
  5
5AB
330
1F
100
AcDbEntity
  8
0
  6
Continuous
 62
     7
370
    25
100
AcDbLine
 10
2585.8492770652
 20
858.0463654221
 30
0.0
 11
2585.8492770652
 21
739.046358955
 31
0.0
  0
ARC
  5
5AC
330
1F
100
AcDbEntity
  8
0
  6
Continuous
 62
     7
370
    25
100
AcDbCircle
 10
2578.8492837205
 20
739.04635376
 30
0.0
 40
6.99999334469084
100
AcDbArc
 50
269.9999468062
 51
0.0000425217
  0
LINE
  5
5AD
330
1F
100
AcDbEntity
  8
0
  6
Continuous
 62
     7
370
    25
100
AcDbLine
 10
2578.8492772217
 20
732.0463604153
 30
0.0
 11
2417.8492729972
 21
732.0463604153
 31
0.0
  0
LINE
  5
5AE
330
1F
100
AcDbEntity
  8
0
  6
Continuous
 62
     7
370
    25
100
AcDbLine
 10
2417.8492729972
 20
865.0463587464
 30
0.0
 11
2578.8492772217
 21
865.0463587464
 31
0.0
  0
LINE
  5
5AF
330
1F
100
AcDbEntity
  8
0
  6
Continuous
 62
     7
370
    25
100
AcDbLine
 10
2417.8492729972
 20
862.246353072
 30
0.0
 11
2417.8492729972
 21
865.0463587464
 31
0.0
  0
LINE
  5
5B0
330
1F
100
AcDbEntity
  8
0
  6
Continuous
 62
     7
370
    25
100
AcDbLine
 10
2417.8492729972
 20
732.0463604153
 30
0.0
 11
2417.8492729972
 21
734.8463608743
 31
0.0
  0
LINE
  5
5B1
330
1F
100
AcDbEntity
  8
0
  6
Continuous
 62
     7
370
    25
100
AcDbLine
 10
2512.0033127676
 20
715.9463590802
 30
0.0
 11
2512.0033127676
 21
728.5463585377
 31
0.0
  0
LINE
  5
5B2
330
1F
100
AcDbEntity
  8
0
  6
Continuous
 62
     7
370
    25
100
AcDbLine
 10
2512.0033127676
 20
715.9463590802
 30
0.0
 11
2480.8492755006
 21
715.9463590802
 31
0.0
  0
LINE
  5
5B3
330
1F
100
AcDbEntity
  8
0
  6
Continuous
 62
     7
370
    25
100
AcDbLine
 10
2511.3263790916
 20
714.5463614584
 30
0.0
 11
2512.0033127676
 21
715.9463590802
 31
0.0
  0
LINE
  5
5B4
330
1F
100
AcDbEntity
  8
0
  6
Continuous
 62
     7
370
    25
100
AcDbLine
 10
2511.3263790916
 20
714.5463614584
 30
0.0
 11
2482.2492783378
 21
714.5463614584
 31
0.0
  0
LWPOLYLINE
  5
5B5
330
1F
100
AcDbEntity
  8
0
  6
Continuous
 62
     7
370
    25
100
AcDbPolyline
 90
       16
 70
   128
 43
0.0
 10
2525.1909007738
 20
724.346360457
 10
2523.0947272341
 20
724.5371191622
 10
2520.9382635961
 20
725.0402233423
 10
2518.7079315494
 20
725.7762006343
 10
2517.1581996093
 20
726.3702458561
 10
2515.4001486908
 20
727.0935340644
 10
2514.9927263568
 20
727.2657676459
 10
2514.5761405538
 20
727.4430706025
 10
2514.1501357268
 20
727.62519781
 10
2513.714419813
 20
727.8118728519
 10
2512.4536474655
 20
728.3544211508
 10
2512.1264485131
 20
728.4946425677
 10
2512.0393095027
 20
728.5315728606
 10
2512.0149118314
 20
728.5417324723
 10
2512.0075111697
 20
728.5447365464
 10
2512.0033127676
 20
728.5463585377
  0
LINE
  5
5B6
330
1F
100
AcDbEntity
  8
0
  6
Continuous
 62
     7
370
    25
100
AcDbLine
 10
2525.8678370575
 20
722.9463576198
 30
0.0
 11
2525.1909007738
 21
724.346360457
 31
0.0
  0
LWPOLYLINE
  5
5B7
330
1F
100
AcDbEntity
  8
0
  6
Continuous
 62
     7
370
    25
100
AcDbPolyline
 90
       16
 70
   128
 43
0.0
 10
2525.8678370575
 20
722.9463576198
 10
2523.4188282351
 20
723.1973334075
 10
2520.9841435264
 20
723.8677530409
 10
2518.5800549994
 20
724.8528233588
 10
2517.544124038
 20
725.357763362
 10
2516.4307077835
 20
725.9432396711
 10
2515.2398010204
 20
726.6092575014
 10
2513.6149202893
 20
727.5670460285
 10
2513.3203489195
 20
727.7443907083
 10
2513.0515051494
 20
727.9073252202
 10
2512.8083837639
 20
728.0558443487
 10
2512.2218278657
 20
728.4149250806
 10
2512.0665652166
 20
728.5090996743
 10
2512.0234390209
 20
728.5348429204
 10
2512.0104995976
 20
728.5423791827
 10
2512.0033127676
 20
728.5463585377
  0
LINE
  5
5B8
330
1F
100
AcDbEntity
  8
0
  6
Continuous
 62
     7
370
    25
100
AcDbLine
 10
2585.7022273774
 20
722.9463576198
 30
0.0
 11
2525.8678370575
 21
722.9463576198
 31
0.0
  0
LINE
  5
5B9
330
1F
100
AcDbEntity
  8
0
  6
Continuous
 62
     7
370
    25
100
AcDbLine
 10
2583.0164338882
 20
715.9463590802
 30
0.0
 11
2512.0033127676
 21
715.9463590802
 31
0.0
  0
LINE
  5
5BA
330
1F
100
AcDbEntity
  8
0
  6
Continuous
 62
     7
370
    25
100
AcDbLine
 10
2582.4491619552
 20
714.5463614584
 30
0.0
 11
2511.3263790916
 21
714.5463614584
 31
0.0
  0
LINE
  5
5BB
330
1F
100
AcDbEntity
  8
0
  6
Continuous
 62
     7
370
    25
100
AcDbLine
 10
2525.1909007738
 20
724.346360457
 30
0.0
 11
2586.2097698684
 21
724.346360457
 31
0.0
  0
LINE
  5
5BC
330
1F
100
AcDbEntity
  8
0
  6
Continuous
 62
     7
370
    25
100
AcDbLine
 10
2313.6140664528
 20
710.2063610078
 30
0.0
 11
2336.6003861139
 21
710.2063610078
 31
0.0
  0
ARC
  5
5BD
330
1F
100
AcDbEntity
  8
0
  6
Continuous
 62
     7
370
    25
100
AcDbCircle
 10
2335.3326748424
 20
709.6781444888
 30
0.0
 40
1.373355219464638
100
AcDbArc
 50
352.8143876104
 51
22.619999319
  0
LINE
  5
5BE
330
1F
100
AcDbEntity
  8
0
  6
Continuous
 62
     7
370
    25
100
AcDbLine
 10
2314.3118252466
 20
697.6063589425
 30
0.0
 11
2353.4276028584
 21
697.6063589425
 31
0.0
  0
LINE
  5
5BF
330
1F
100
AcDbEntity
  8
0
  6
Continuous
 62
     7
370
    25
100
AcDbLine
 10
2336.6952439259
 20
709.5063595892
 30
0.0
 11
2336.6952439259
 21
702.5063584418
 31
0.0
  0
ARC
  5
5C0
330
1F
100
AcDbEntity
  8
0
  6
Continuous
 62
     7
370
    25
100
AcDbCircle
 10
2344.5506515256
 20
741.3184736072
 30
0.0
 40
39.59908726435148
100
AcDbArc
 50
258.5581410255
 51
266.2018902727
  0
LINE
  5
5C1
330
1F
100
AcDbEntity
  8
0
  6
Continuous
 62
     7
370
    25
100
AcDbLine
 10
2336.6952439259
 20
709.5063595892
 30
0.0
 11
2580.3218328814
 21
709.5063595892
 31
0.0
  0
LINE
  5
5C2
330
1F
100
AcDbEntity
  8
0
  6
Continuous
 62
     7
370
    25
100
AcDbLine
 10
2336.6003861139
 20
710.2063610078
 30
0.0
 11
2580.6253525848
 21
710.2063610078
 31
0.0
  0
LINE
  5
5C3
330
1F
100
AcDbEntity
  8
0
  6
Continuous
 62
     7
370
    25
100
AcDbLine
 10
2336.6952439259
 20
702.5063584418
 30
0.0
 11
2577.140290239
 21
702.5063584418
 31
0.0
  0
LINE
  5
5C4
330
1F
100
AcDbEntity
  8
0
  6
Continuous
 62
     7
370
    25
100
AcDbLine
 10
2341.9275691221
 20
701.8063596309
 30
0.0
 11
2576.807244164
 21
701.8063596309
 31
0.0
  0
LINE
  5
5C5
330
1F
100
AcDbEntity
  8
0
  6
Continuous
 62
     7
370
    25
100
AcDbLine
 10
2460.6052895497
 20
701.1063582123
 30
0.0
 11
2459.8168869923
 21
701.1063582123
 31
0.0
  0
LINE
  5
5C6
330
1F
100
AcDbEntity
  8
0
  6
Continuous
 62
     7
370
    25
100
AcDbLine
 10
2460.6052895497
 20
701.1063582123
 30
0.0
 11
2460.6052895497
 21
698.3063603611
 31
0.0
  0
LINE
  5
5C7
330
1F
100
AcDbEntity
  8
0
  6
Continuous
 62
     7
370
    25
100
AcDbLine
 10
2459.8168869923
 20
698.3063603611
 30
0.0
 11
2460.6052895497
 21
698.3063603611
 31
0.0
  0
LINE
  5
5C8
330
1F
100
AcDbEntity
  8
0
  6
Continuous
 62
     7
370
    25
100
AcDbLine
 10
2459.8168869923
 20
698.3063603611
 30
0.0
 11
2459.8168869923
 21
701.1063582123
 31
0.0
  0
ARC
  5
5C9
330
1F
100
AcDbEntity
  8
0
  6
Continuous
 62
     7
370
    25
100
AcDbCircle
 10
2459.2427276174
 20
698.1345744924
 30
0.0
 40
1.373348245715775
100
AcDbArc
 50
337.3799232517
 51
7.1856898188
  0
ARC
  5
5CA
330
1F
100
AcDbEntity
  8
0
  6
Continuous
 62
     7
370
    25
100
AcDbCircle
 10
2460.5136692679
 20
698.3031411333
 30
0.0
 40
0.6967897122314599
100
AcDbArc
 50
179.7352876823
 51
269.7337826889
  0
ARC
  5
5CB
330
1F
100
AcDbEntity
  8
0
  6
Continuous
 62
     7
370
    25
100
AcDbCircle
 10
2460.5136692679
 20
701.1095774401
 30
0.0
 40
0.6967897122314599
100
AcDbArc
 50
90.2662173111
 51
180.2647123177
  0
ARC
  5
5CC
330
1F
100
AcDbEntity
  8
0
  6
Continuous
 62
     7
370
    25
100
AcDbCircle
 10
2459.2427276174
 20
701.2781440809
 30
0.0
 40
1.37334824571624
100
AcDbArc
 50
352.8143101812
 51
22.6200767483
  0
LINE
  5
5CD
330
1F
100
AcDbEntity
  8
0
  6
Continuous
 62
     7
370
    25
100
AcDbLine
 10
2576.4714404429
 20
701.1063582123
 30
0.0
 11
2460.6052895497
 21
701.1063582123
 31
0.0
  0
LINE
  5
5CE
330
1F
100
AcDbEntity
  8
0
  6
Continuous
 62
     7
370
    25
100
AcDbLine
 10
2575.1004072326
 20
698.3063603611
 30
0.0
 11
2460.6052895497
 21
698.3063603611
 31
0.0
  0
LINE
  5
5CF
330
1F
100
AcDbEntity
  8
0
  6
Continuous
 62
     7
370
    25
100
AcDbLine
 10
2576.807244164
 20
701.8063596309
 30
0.0
 11
2460.5104317377
 21
701.8063596309
 31
0.0
  0
LINE
  5
5D0
330
1F
100
AcDbEntity
  8
0
  6
Continuous
 62
     7
370
    25
100
AcDbLine
 10
2574.7506262223
 20
697.6063589425
 30
0.0
 11
2460.5104317377
 21
697.6063589425
 31
0.0
  0
LINE
  5
5D1
330
1F
100
AcDbEntity
  8
0
  6
Continuous
 62
     7
370
    25
100
AcDbLine
 10
2459.8168869923
 20
701.1063582123
 30
0.0
 11
2459.2075919221
 21
701.1063582123
 31
0.0
  0
ARC
  5
5D2
330
1F
100
AcDbEntity
  8
0
  6
Continuous
 62
     7
370
    25
100
AcDbCircle
 10
2459.9043950975
 20
701.109556733
 30
0.0
 40
0.6968105164465532
100
AcDbArc
 50
90.2679278832
 51
180.2630017457
  0
LINE
  5
5D3
330
1F
100
AcDbEntity
  8
0
  6
Continuous
 62
     7
370
    25
100
AcDbLine
 10
2454.9239700149
 20
701.1063582123
 30
0.0
 11
2454.3146749447
 21
701.1063582123
 31
0.0
  0
ARC
  5
5D4
330
1F
100
AcDbEntity
  8
0
  6
Continuous
 62
     7
370
    25
100
AcDbCircle
 10
2453.9730016138
 20
701.6988558982
 30
0.0
 40
1.120443843997509
100
AcDbArc
 50
328.0751679225
 51
5.5058539711
  0
ARC
  5
5D5
330
1F
100
AcDbEntity
  8
0
  6
Continuous
 62
     7
370
    25
100
AcDbCircle
 10
2460.1582937717
 20
701.6987933325
 30
0.0
 40
1.120184528720301
100
AcDbArc
 50
174.4896525317
 51
211.9293255746
  0
LINE
  5
5D6
330
1F
100
AcDbEntity
  8
0
  6
Continuous
 62
     7
370
    25
100
AcDbLine
 10
2459.8168869923
 20
698.3063603611
 30
0.0
 11
2454.3146749447
 21
698.3063603611
 31
0.0
  0
LINE
  5
5D7
330
1F
100
AcDbEntity
  8
0
  6
Continuous
 62
     7
370
    25
100
AcDbLine
 10
2454.3146749447
 20
701.1063582123
 30
0.0
 11
2454.3146749447
 21
698.3063603611
 31
0.0
  0
ARC
  5
5D8
330
1F
100
AcDbEntity
  8
0
  6
Continuous
 62
     7
370
    25
100
AcDbCircle
 10
2455.0114781201
 20
698.3031618403
 30
0.0
 40
0.6968105164453293
100
AcDbArc
 50
179.7369982543
 51
269.732072117
  0
LINE
  5
5D9
330
1F
100
AcDbEntity
  8
0
  6
Continuous
 62
     7
370
    25
100
AcDbLine
 10
2460.5104317377
 20
697.6063589425
 30
0.0
 11
2455.0082196901
 21
697.6063589425
 31
0.0
  0
ARC
  5
5DA
330
1F
100
AcDbEntity
  8
0
  6
Continuous
 62
     7
370
    25
100
AcDbCircle
 10
2455.6207523721
 20
701.1095774076
 30
0.0
 40
0.6967897936226969
100
AcDbArc
 50
90.2670817014
 51
180.264709617
  0
ARC
  5
5DB
330
1F
100
AcDbEntity
  8
0
  6
Continuous
 62
     7
370
    25
100
AcDbCircle
 10
2455.0114781201
 20
701.109556733
 30
0.0
 40
0.6968105164453293
100
AcDbArc
 50
90.267927883
 51
180.2630017457
  0
LINE
  5
5DC
330
1F
100
AcDbEntity
  8
0
  6
Continuous
 62
     7
370
    25
100
AcDbLine
 10
2333.8492175053
 20
695.296358955
 30
0.0
 11
2345.049281926
 21
695.296358955
 31
0.0
  0
LINE
  5
5DD
330
1F
100
AcDbEntity
  8
0
  6
Continuous
 62
     7
370
    25
100
AcDbLine
 10
2322.6492782543
 20
695.296358955
 30
0.0
 11
2333.8492175053
 21
695.296358955
 31
0.0
  0
LINE
  5
5DE
330
1F
100
AcDbEntity
  8
0
  6
Continuous
 62
     7
370
    25
100
AcDbLine
 10
2327.7640481899
 20
712.5163583875
 30
0.0
 11
2345.049281926
 21
712.5163583875
 31
0.0
  0
LINE
  5
5DF
330
1F
100
AcDbEntity
  8
0
  6
Continuous
 62
     7
370
    25
100
AcDbLine
 10
2322.6492782543
 20
712.5163583875
 30
0.0
 11
2327.7640481899
 21
712.5163583875
 31
0.0
  0
LINE
  5
5E0
330
1F
100
AcDbEntity
  8
0
  6
Continuous
 62
     7
370
    25
100
AcDbLine
 10
2568.1487465464
 20
711.6763598145
 30
0.0
 11
2542.9487468163
 21
711.6763598145
 31
0.0
  0
LINE
  5
5E1
330
1F
100
AcDbEntity
  8
0
  6
Continuous
 62
     7
370
    25
100
AcDbLine
 10
2326.4794727276
 20
712.3063600481
 30
0.0
 11
2341.2573268126
 21
712.3063600481
 31
0.0
  0
LINE
  5
5E2
330
1F
100
AcDbEntity
  8
0
  6
Continuous
 62
     7
370
    25
100
AcDbLine
 10
2325.4492839287
 20
688.1563606531
 30
0.0
 11
2342.2492762516
 21
688.1563606531
 31
0.0
  0
LINE
  5
5E3
330
1F
100
AcDbEntity
  8
0
  6
Continuous
 62
     7
370
    25
100
AcDbLine
 10
2338.0492677401
 20
718.9563578785
 30
0.0
 11
2329.6492715786
 21
718.9563578785
 31
0.0
  0
LINE
  5
5E4
330
1F
100
AcDbEntity
  8
0
  6
Continuous
 62
     7
370
    25
100
AcDbLine
 10
2310.7492854307
 20
714.7563597978
 30
0.0
 11
2310.7492854307
 21
718.2563616753
 31
0.0
  0
LINE
  5
5E5
330
1F
100
AcDbEntity
  8
0
  6
Continuous
 62
     7
370
    25
100
AcDbLine
 10
2312.7497901629
 20
718.2563616753
 30
0.0
 11
2310.7492854307
 21
718.2563616753
 31
0.0
  0
LINE
  5
5E6
330
1F
100
AcDbEntity
  8
0
  6
Continuous
 62
     7
370
    25
100
AcDbLine
 10
2312.7497901629
 20
718.2563616753
 30
0.0
 11
2312.7497901629
 21
714.7563597978
 31
0.0
  0
LINE
  5
5E7
330
1F
100
AcDbEntity
  8
0
  6
Continuous
 62
     7
370
    25
100
AcDbLine
 10
2310.7492854307
 20
714.7563597978
 30
0.0
 11
2312.7497901629
 21
714.7563597978
 31
0.0
  0
LINE
  5
5E8
330
1F
100
AcDbEntity
  8
0
  6
Continuous
 62
     7
370
    25
100
AcDbLine
 10
2317.6995237778
 20
714.7563597978
 30
0.0
 11
2317.6995237778
 21
718.2563616753
 31
0.0
  0
LINE
  5
5E9
330
1F
100
AcDbEntity
  8
0
  6
Continuous
 62
     7
370
    25
100
AcDbLine
 10
2317.6995237778
 20
718.2563616753
 30
0.0
 11
2312.7497901629
 21
718.2563616753
 31
0.0
  0
LINE
  5
5EA
330
1F
100
AcDbEntity
  8
0
  6
Continuous
 62
     7
370
    25
100
AcDbLine
 10
2317.6995237778
 20
714.7563597978
 30
0.0
 11
2312.7497901629
 21
714.7563597978
 31
0.0
  0
LINE
  5
5EB
330
1F
100
AcDbEntity
  8
0
  6
Continuous
 62
     7
370
    25
100
AcDbLine
 10
2354.1990240524
 20
714.7563597978
 30
0.0
 11
2354.1990240524
 21
718.2563616753
 31
0.0
  0
LINE
  5
5EC
330
1F
100
AcDbEntity
  8
0
  6
Continuous
 62
     7
370
    25
100
AcDbLine
 10
2354.1990240524
 20
718.2563616753
 30
0.0
 11
2317.6995237778
 21
718.2563616753
 31
0.0
  0
LINE
  5
5ED
330
1F
100
AcDbEntity
  8
0
  6
Continuous
 62
     7
370
    25
100
AcDbLine
 10
2354.1990240524
 20
714.7563597978
 30
0.0
 11
2317.6995237778
 21
714.7563597978
 31
0.0
  0
LINE
  5
5EE
330
1F
100
AcDbEntity
  8
0
  6
Continuous
 62
     7
370
    25
100
AcDbLine
 10
2356.2492837618
 20
714.7563597978
 30
0.0
 11
2356.2492837618
 21
718.2563616753
 31
0.0
  0
LINE
  5
5EF
330
1F
100
AcDbEntity
  8
0
  6
Continuous
 62
     7
370
    25
100
AcDbLine
 10
2356.2492837618
 20
718.2563616753
 30
0.0
 11
2354.1990240524
 21
718.2563616753
 31
0.0
  0
LINE
  5
5F0
330
1F
100
AcDbEntity
  8
0
  6
Continuous
 62
     7
370
    25
100
AcDbLine
 10
2356.2492837618
 20
714.7563597978
 30
0.0
 11
2354.1990240524
 21
714.7563597978
 31
0.0
  0
LINE
  5
5F1
330
1F
100
AcDbEntity
  8
0
  6
Continuous
 62
     7
370
    25
100
AcDbLine
 10
2305.8492859314
 20
713.3563569606
 30
0.0
 11
2309.3492825935
 21
713.3563569606
 31
0.0
  0
ARC
  5
5F2
330
1F
100
AcDbEntity
  8
0
  6
Continuous
 62
     7
370
    25
100
AcDbCircle
 10
2310.7492572243
 20
713.3563851671
 30
0.0
 40
1.399974631011378
100
AcDbArc
 50
89.9988456142
 51
180.0011543858
  0
ARC
  5
5F3
330
1F
100
AcDbEntity
  8
0
  6
Continuous
 62
     7
370
    25
100
AcDbCircle
 10
2310.7492906211
 20
713.3563569856
 30
0.0
 40
4.900004689698014
100
AcDbArc
 50
90.0000606911
 51
180.0000002927
  0
LINE
  5
5F4
330
1F
100
AcDbEntity
  8
0
  6
Continuous
 62
     7
370
    25
100
AcDbLine
 10
2309.3492825935
 20
713.3563569606
 30
0.0
 11
2309.3492825935
 21
694.4563603819
 31
0.0
  0
LINE
  5
5F5
330
1F
100
AcDbEntity
  8
0
  6
Continuous
 62
     7
370
    25
100
AcDbLine
 10
2309.3492825935
 20
694.4563603819
 30
0.0
 11
2305.8492859314
 21
694.4563603819
 31
0.0
  0
LINE
  5
5F6
330
1F
100
AcDbEntity
  8
0
  6
Continuous
 62
     7
370
    25
100
AcDbLine
 10
2310.7492854307
 20
689.5563582749
 30
0.0
 11
2310.7492854307
 21
693.0563601524
 31
0.0
  0
ARC
  5
5F7
330
1F
100
AcDbEntity
  8
0
  6
Continuous
 62
     7
370
    25
100
AcDbCircle
 10
2310.7492572242
 20
694.4563347831
 30
0.0
 40
1.399974630925432
100
AcDbArc
 50
179.9989523344
 51
270.0011543872
  0
ARC
  5
5F8
330
1F
100
AcDbEntity
  8
0
  6
Continuous
 62
     7
370
    25
100
AcDbCircle
 10
2310.7492861695
 20
694.456358513
 30
0.0
 40
4.900000238068684
100
AcDbArc
 50
179.9999781463
 51
269.9999913618
  0
LINE
  5
5F9
330
1F
100
AcDbEntity
  8
0
  6
Continuous
 62
     7
370
    25
100
AcDbLine
 10
2312.7497901629
 20
689.5563582749
 30
0.0
 11
2310.7492854307
 21
689.5563582749
 31
0.0
  0
LINE
  5
5FA
330
1F
100
AcDbEntity
  8
0
  6
Continuous
 62
     7
370
    25
100
AcDbLine
 10
2312.7497901629
 20
693.0563601524
 30
0.0
 11
2310.7492854307
 21
693.0563601524
 31
0.0
  0
LINE
  5
5FB
330
1F
100
AcDbEntity
  8
0
  6
Continuous
 62
     7
370
    25
100
AcDbLine
 10
2312.7497901629
 20
693.0563601524
 30
0.0
 11
2312.7497901629
 21
689.5563582749
 31
0.0
  0
LINE
  5
5FC
330
1F
100
AcDbEntity
  8
0
  6
Continuous
 62
     7
370
    25
100
AcDbLine
 10
2317.6995237778
 20
693.0563601524
 30
0.0
 11
2317.6995237778
 21
689.5563582749
 31
0.0
  0
LINE
  5
5FD
330
1F
100
AcDbEntity
  8
0
  6
Continuous
 62
     7
370
    25
100
AcDbLine
 10
2312.7497901629
 20
693.0563601524
 30
0.0
 11
2317.6995237778
 21
693.0563601524
 31
0.0
  0
LINE
  5
5FE
330
1F
100
AcDbEntity
  8
0
  6
Continuous
 62
     7
370
    25
100
AcDbLine
 10
2312.7497901629
 20
689.5563582749
 30
0.0
 11
2317.6995237778
 21
689.5563582749
 31
0.0
  0
LINE
  5
5FF
330
1F
100
AcDbEntity
  8
0
  6
Continuous
 62
     7
370
    25
100
AcDbLine
 10
2354.1990240524
 20
693.0563601524
 30
0.0
 11
2354.1990240524
 21
689.5563582749
 31
0.0
  0
LINE
  5
600
330
1F
100
AcDbEntity
  8
0
  6
Continuous
 62
     7
370
    25
100
AcDbLine
 10
2317.6995237778
 20
693.0563601524
 30
0.0
 11
2354.1990240524
 21
693.0563601524
 31
0.0
  0
LINE
  5
601
330
1F
100
AcDbEntity
  8
0
  6
Continuous
 62
     7
370
    25
100
AcDbLine
 10
2317.6995237778
 20
689.5563582749
 30
0.0
 11
2354.1990240524
 21
689.5563582749
 31
0.0
  0
LINE
  5
602
330
1F
100
AcDbEntity
  8
0
  6
Continuous
 62
     7
370
    25
100
AcDbLine
 10
2356.2492837618
 20
689.5563582749
 30
0.0
 11
2356.2492837618
 21
693.0563601524
 31
0.0
  0
LINE
  5
603
330
1F
100
AcDbEntity
  8
0
  6
Continuous
 62
     7
370
    25
100
AcDbLine
 10
2354.1990240524
 20
693.0563601524
 30
0.0
 11
2356.2492837618
 21
693.0563601524
 31
0.0
  0
LINE
  5
604
330
1F
100
AcDbEntity
  8
0
  6
Continuous
 62
     7
370
    25
100
AcDbLine
 10
2354.1990240524
 20
689.5563582749
 30
0.0
 11
2356.2492837618
 21
689.5563582749
 31
0.0
  0
LINE
  5
605
330
1F
100
AcDbEntity
  8
0
  6
Continuous
 62
     7
370
    25
100
AcDbLine
 10
2512.0033127676
 20
728.5463585377
 30
0.0
 11
2522.8492771695
 21
728.5463585377
 31
0.0
  0
LINE
  5
606
330
1F
100
AcDbEntity
  8
0
  6
Continuous
 62
     7
370
    25
100
AcDbLine
 10
2312.8492792557
 20
709.5063595892
 30
0.0
 11
2336.6952439259
 21
709.5063595892
 31
0.0
  0
LINE
  5
607
330
1F
100
AcDbEntity
  8
0
  6
Continuous
 62
     7
370
    25
100
AcDbLine
 10
2312.8492792557
 20
699.0063591719
 30
0.0
 11
2354.8492809246
 21
699.0063591719
 31
0.0
  0
LINE
  5
608
330
1F
100
AcDbEntity
  8
0
  6
Continuous
 62
     7
370
    25
100
AcDbLine
 10
2454.3082182716
 20
698.3063603611
 30
0.0
 11
2454.3146749447
 21
698.3063603611
 31
0.0
  0
LINE
  5
609
330
1F
100
AcDbEntity
  8
0
  6
Continuous
 62
     7
370
    25
100
AcDbLine
 10
2454.3146749447
 20
701.1063582123
 30
0.0
 11
2454.3082182716
 21
701.1063582123
 31
0.0
  0
LINE
  5
60A
330
1F
100
AcDbEntity
  8
FORMAT
370
    25
100
AcDbLine
 10
2417.8492775499
 20
758.6463593805
 30
0.0
 11
2422.0492775499
 21
758.6463593805
 31
0.0
  0
LINE
  5
60B
330
1F
100
AcDbEntity
  8
FORMAT
370
    25
100
AcDbLine
 10
2422.0492775499
 20
768.4463593805
 30
0.0
 11
2417.8492775499
 21
768.4463593805
 31
0.0
  0
LINE
  5
60C
330
1F
100
AcDbEntity
  8
FORMAT
370
    25
100
AcDbLine
 10
2417.8492775499
 20
770.5463593805
 30
0.0
 11
2422.0492775499
 21
770.5463593805
 31
0.0
  0
LINE
  5
60D
330
1F
100
AcDbEntity
  8
FORMAT
370
    25
100
AcDbLine
 10
2422.0492775499
 20
784.5463593805
 30
0.0
 11
2417.8492775499
 21
784.5463593805
 31
0.0
  0
LINE
  5
60E
330
1F
100
AcDbEntity
  8
FORMAT
370
    25
100
AcDbLine
 10
2417.8492775499
 20
786.6463593805
 30
0.0
 11
2422.0492775499
 21
786.6463593805
 31
0.0
  0
LINE
  5
60F
330
1F
100
AcDbEntity
  8
FORMAT
370
    25
100
AcDbLine
 10
2422.0492775499
 20
796.4463593805
 30
0.0
 11
2417.8492775499
 21
796.4463593805
 31
0.0
  0
LINE
  5
610
330
1F
100
AcDbEntity
  8
FORMAT
370
    25
100
AcDbLine
 10
2417.8492775499
 20
800.6463593805
 30
0.0
 11
2422.0492775499
 21
800.6463593805
 31
0.0
  0
LINE
  5
611
330
1F
100
AcDbEntity
  8
FORMAT
370
    25
100
AcDbLine
 10
2422.0492775499
 20
810.4463593805
 30
0.0
 11
2417.8492775499
 21
810.4463593805
 31
0.0
  0
LINE
  5
612
330
1F
100
AcDbEntity
  8
FORMAT
370
    25
100
AcDbLine
 10
2417.8492775499
 20
812.5463593805
 30
0.0
 11
2422.0492775499
 21
812.5463593805
 31
0.0
  0
LINE
  5
613
330
1F
100
AcDbEntity
  8
FORMAT
370
    25
100
AcDbLine
 10
2422.0492775499
 20
826.5463593805
 30
0.0
 11
2417.8492775499
 21
826.5463593805
 31
0.0
  0
LINE
  5
614
330
1F
100
AcDbEntity
  8
FORMAT
370
    25
100
AcDbLine
 10
2417.8492775499
 20
828.6463593805
 30
0.0
 11
2422.0492775499
 21
828.6463593805
 31
0.0
  0
LINE
  5
615
330
1F
100
AcDbEntity
  8
FORMAT
370
    25
100
AcDbLine
 10
2422.0492775499
 20
838.4463593805
 30
0.0
 11
2417.8492775499
 21
838.4463593805
 31
0.0
  0
LINE
  5
616
330
1F
100
AcDbEntity
  8
FORMAT
  6
CENTERX2
370
    25
100
AcDbLine
 10
2410.1791410995
 20
844.4489479483
 30
0.0
 11
2431.7450483185
 21
844.4489479483
 31
0.0
  0
LINE
  5
617
330
1F
100
AcDbEntity
  8
FORMAT
  6
CENTERX2
370
    25
100
AcDbLine
 10
2410.1791410995
 20
844.4489479483
 30
0.0
 11
2410.1791410995
 21
753.7234072339
 31
0.0
  0
LINE
  5
618
330
1F
100
AcDbEntity
  8
FORMAT
  6
CENTERX2
370
    25
100
AcDbLine
 10
2410.1791410995
 20
753.7234072339
 30
0.0
 11
2431.7450483185
 21
753.7234072339
 31
0.0
  0
LINE
  5
619
330
1F
100
AcDbEntity
  8
FORMAT
  6
CENTERX2
370
    25
100
AcDbLine
 10
2431.7450483185
 20
844.4489479483
 30
0.0
 11
2431.7450483185
 21
753.7234072339
 31
0.0
  0
ARC
  5
61A
330
1F
100
AcDbEntity
  8
FORMAT
370
    25
100
AcDbCircle
 10
2422.0492775499
 20
763.5463593805
 30
0.0
 40
4.899999999998727
100
AcDbArc
 50
270.0
 51
90.0
  0
ARC
  5
61B
330
1F
100
AcDbEntity
  8
FORMAT
370
    25
100
AcDbCircle
 10
2422.0492775499
 20
777.5463593805
 30
0.0
 40
6.999999999998636
100
AcDbArc
 50
270.0
 51
90.0
  0
ARC
  5
61C
330
1F
100
AcDbEntity
  8
FORMAT
370
    25
100
AcDbCircle
 10
2422.0492775499
 20
791.5463593805
 30
0.0
 40
4.899999999998727
100
AcDbArc
 50
270.0
 51
90.0
  0
ARC
  5
61D
330
1F
100
AcDbEntity
  8
FORMAT
370
    25
100
AcDbCircle
 10
2422.0492775499
 20
805.5463593805
 30
0.0
 40
4.899999999998613
100
AcDbArc
 50
270.0
 51
90.0
  0
ARC
  5
61E
330
1F
100
AcDbEntity
  8
FORMAT
370
    25
100
AcDbCircle
 10
2422.0492775499
 20
819.5463593805
 30
0.0
 40
6.999999999998636
100
AcDbArc
 50
270.0
 51
90.0
  0
ARC
  5
61F
330
1F
100
AcDbEntity
  8
FORMAT
370
    25
100
AcDbCircle
 10
2422.0492775499
 20
833.5463593805
 30
0.0
 40
4.899999999998613
100
AcDbArc
 50
270.0
 51
90.0
  0
DIMENSION
  5
620
330
1F
100
AcDbEntity
  8
FORMAT
100
AcDbDimension
  2
_D_25
 10
2163.6157588545
 20
730.5063593807
 30
0.0
 11
2163.6157588544
 21
669.794423757
 31
0.0
 70
   160
  1
<>*
 71
     2
 42
-1.0
  3
SLDDIMSTYLE6
100
AcDbAlignedDimension
 13
2525.1909007738
 23
724.3463593809
 33
0.0
 14
2263.8492775501
 24
730.5063593806
 34
0.0
 50
90.0
100
AcDbRotatedDimension
  0
DIMENSION
  5
62E
330
1F
100
AcDbEntity
  8
FORMAT
100
AcDbDimension
  2
_D_26
 10
2663.4072761387
 20
732.0463593803
 30
0.0
 11
2663.4072761386
 21
669.7944237569
 31
0.0
 70
   160
  1
<>
 71
     2
 42
-1.0
  3
SLDDIMSTYLE7
100
AcDbAlignedDimension
 13
2586.2097698684
 23
724.3463593809
 33
0.0
 14
2578.8492775498
 24
732.0463593804
 34
0.0
 50
90.0
100
AcDbRotatedDimension
  0
DIMENSION
  5
63B
330
1F
100
AcDbEntity
  8
FORMAT
100
AcDbDimension
  2
_D_27
 10
2108.8079736526
 20
732.0463593807
 30
0.0
 11
2108.8079736526
 21
669.1965496879
 31
0.0
 70
   160
  1
<>
 71
     2
 42
-1.0
  3
SLDDIMSTYLE8
100
AcDbAlignedDimension
 13
2263.8492775501
 23
730.5063593806
 33
0.0
 14
2417.8492775498
 24
732.0463593805
 34
0.0
 50
90.0
100
AcDbRotatedDimension
  0
MTEXT
  5
648
330
1F
100
AcDbEntity
  8
FORMAT
100
AcDbMText
 10
2327.1947177502
 20
1063.3396717617
 30
0.0
 40
35.0
 41
0.0
 71
     2
 72
     1
  1
B (1 : 5)
  7
SLDTEXTSTYLE0
 73
     1
 44
1.0
  0
MTEXT
  5
649
330
1F
100
AcDbEntity
  8
FORMAT
100
AcDbMText
 10
1772.7121854104
 20
943.2836817168
 30
0.0
 40
18.5208333333
 41
0.0
 71
     1
 72
     1
  1
aufliegende Kabelzuführung (optional)
  7
SLDTEXTSTYLE0
 73
     1
 44
1.0
  0
LEADER
  5
64A
330
1F
100
AcDbEntity
  8
FORMAT
100
AcDbLeader
  3
SLDDIMSTYLE3
 76
     3
 10
2410.1791410995
 20
831.8068643084
 30
0.0
 10
2237.3083615669
 20
934.3670905961
 30
0.0
 10
2192.8583615669
 20
934.3670905961
 30
0.0
  0
MTEXT
  5
64B
330
1F
100
AcDbEntity
  8
FORMAT
100
AcDbMText
 10
2196.63088471
 20
541.1355818809
 30
0.0
 40
18.5208333333
 41
0.0
 71
     1
 72
     1
  1
* Abstand Oberkante Hebel zu Unterkante Türrahmen
  7
SLDTEXTSTYLE0
 73
     1
 44
1.0
  0
CIRCLE
  5
64C
330
1F
100
AcDbEntity
  8
0
  6
Continuous
 62
     7
370
    18
100
AcDbCircle
 10
1853.3530566821
 20
272.9127151781
 30
0.0
 40
77.89191873205753
  0
ARC
  5
64D
330
1F
100
AcDbEntity
  8
0
  6
Continuous
 62
     7
370
    25
100
AcDbCircle
 10
1870.6349709957
 20
327.5766701717
 30
0.0
 40
4.200008151989259
100
AcDbArc
 50
9.5942083945
 51
170.4057916055
  0
ARC
  5
64E
330
1F
100
AcDbEntity
  8
0
  6
Continuous
 62
     7
370
    25
100
AcDbCircle
 10
1848.2349673241
 20
327.5767029302
 30
0.0
 40
4.549991748949874
100
AcDbArc
 50
8.8496282222
 51
171.1503717778
  0
ARC
  5
64F
330
1F
100
AcDbEntity
  8
0
  6
Continuous
 62
     7
370
    25
100
AcDbCircle
 10
1848.2349673241
 20
327.5766822101
 30
0.0
 40
4.54999554192173
100
AcDbArc
 50
188.8499349891
 51
351.1500650109
  0
ARC
  5
650
330
1F
100
AcDbEntity
  8
0
  6
Continuous
 62
     7
370
    25
100
AcDbCircle
 10
1870.6349709957
 20
327.5766903141
 30
0.0
 40
4.200008151989297
100
AcDbArc
 50
189.5942083945
 51
350.4057916055
  0
ARC
  5
651
330
1F
100
AcDbEntity
  8
0
  6
Continuous
 62
     7
370
    25
100
AcDbCircle
 10
1848.2349673241
 20
221.1766940243
 30
0.0
 40
4.549993645416538
100
AcDbArc
 50
8.8497816055
 51
171.1502183945
  0
ARC
  5
652
330
1F
100
AcDbEntity
  8
0
  6
Continuous
 62
     7
370
    25
100
AcDbCircle
 10
1870.6349709957
 20
221.17668611
 30
0.0
 40
4.20000606581224
100
AcDbArc
 50
9.5940400282
 51
170.4059599718
  0
ARC
  5
653
330
1F
100
AcDbEntity
  8
0
  6
Continuous
 62
     7
370
    25
100
AcDbCircle
 10
1848.2349673241
 20
221.1766785195
 30
0.0
 40
4.549993645416533
100
AcDbArc
 50
188.8497816055
 51
351.1502183945
  0
ARC
  5
654
330
1F
100
AcDbEntity
  8
0
  6
Continuous
 62
     7
370
    25
100
AcDbCircle
 10
1870.6349709957
 20
221.1766926923
 30
0.0
 40
4.200007108895342
100
AcDbArc
 50
189.5941242113
 51
350.4058757887
  0
LINE
  5
655
330
1F
100
AcDbEntity
  8
0
  6
Continuous
 62
     7
370
    25
100
AcDbLine
 10
1896.0311213463
 20
338.0766806601
 30
0.0
 11
1810.6750080317
 21
338.0766806601
 31
0.0
  0
LINE
  5
656
330
1F
100
AcDbEntity
  8
0
  6
Continuous
 62
     7
370
    25
100
AcDbLine
 10
1806.5209159582
 20
210.6766884624
 30
0.0
 11
1900.1852134197
 21
210.6766884624
 31
0.0
  0
ARC
  5
657
330
1F
100
AcDbEntity
  8
0
  6
Continuous
 62
     7
370
    25
100
AcDbCircle
 10
1870.631097468
 20
327.5763429305
 30
0.0
 40
4.203882053658224
100
AcDbArc
 50
0.0047394813
 51
9.5898070552
  0
ARC
  5
658
330
1F
100
AcDbEntity
  8
0
  6
Continuous
 62
     7
370
    25
100
AcDbCircle
 10
1870.6388445234
 20
327.5763429305
 30
0.0
 40
4.203882053657996
100
AcDbArc
 50
170.4101929448
 51
179.9952605187
  0
ARC
  5
659
330
1F
100
AcDbEntity
  8
0
  6
Continuous
 62
     7
370
    25
100
AcDbCircle
 10
1848.2341128579
 20
327.5764215001
 30
0.0
 40
4.550879341237435
100
AcDbArc
 50
0.0033889076
 51
8.8514742657
  0
ARC
  5
65A
330
1F
100
AcDbEntity
  8
0
  6
Continuous
 62
     7
370
    25
100
AcDbCircle
 10
1848.2280001766
 20
327.5772978972
 30
0.0
 40
4.543016036928787
100
AcDbArc
 50
171.1442682278
 51
180.0076582036
  0
ARC
  5
65B
330
1F
100
AcDbEntity
  8
0
  6
Continuous
 62
     7
370
    25
100
AcDbCircle
 10
1870.6307249802
 20
327.5770488052
 30
0.0
 40
4.20425454228099
100
AcDbArc
 50
350.4106186964
 51
359.9951193676
  0
ARC
  5
65C
330
1F
100
AcDbEntity
  8
0
  6
Continuous
 62
     7
370
    25
100
AcDbCircle
 10
1848.2284030008
 20
327.5760937717
 30
0.0
 40
4.543418859702784
100
AcDbArc
 50
179.9924726367
 51
188.85533829
  0
ARC
  5
65D
330
1F
100
AcDbEntity
  8
0
  6
Continuous
 62
     7
370
    25
100
AcDbCircle
 10
1870.6392170112
 20
327.5770488052
 30
0.0
 40
4.204254542280762
100
AcDbArc
 50
180.0048806324
 51
189.5893813036
  0
ARC
  5
65E
330
1F
100
AcDbEntity
  8
0
  6
Continuous
 62
     7
370
    25
100
AcDbCircle
 10
1848.2337098044
 20
327.5769701844
 30
0.0
 40
4.551282395277643
100
AcDbArc
 50
351.1489184094
 51
359.9964812592
  0
ARC
  5
65F
330
1F
100
AcDbEntity
  8
0
  6
Continuous
 62
     7
370
    25
100
AcDbCircle
 10
1870.6309111684
 20
221.1763307194
 30
0.0
 40
4.20406835416152
100
AcDbArc
 50
0.0048812409
 51
9.589594144
  0
ARC
  5
660
330
1F
100
AcDbEntity
  8
0
  6
Continuous
 62
     7
370
    25
100
AcDbCircle
 10
1848.2281008759
 20
221.1772935231
 30
0.0
 40
4.543116735910377
100
AcDbArc
 50
171.1443665969
 51
180.0076254965
  0
ARC
  5
661
330
1F
100
AcDbEntity
  8
0
  6
Continuous
 62
     7
370
    25
100
AcDbCircle
 10
1848.2340121012
 20
221.1764171222
 30
0.0
 40
4.550980097995797
100
AcDbArc
 50
0.0034213629
 51
8.8513760984
  0
ARC
  5
662
330
1F
100
AcDbEntity
  8
0
  6
Continuous
 62
     7
370
    25
100
AcDbCircle
 10
1870.6390308231
 20
221.1763307194
 30
0.0
 40
4.204068354161293
100
AcDbArc
 50
170.410405856
 51
179.9951187591
  0
ARC
  5
663
330
1F
100
AcDbEntity
  8
0
  6
Continuous
 62
     7
370
    25
100
AcDbCircle
 10
1870.6309112324
 20
221.1770418164
 30
0.0
 40
4.204068289654955
100
AcDbArc
 50
350.4104058184
 51
359.9951899474
  0
ARC
  5
664
330
1F
100
AcDbEntity
  8
0
  6
Continuous
 62
     7
370
    25
100
AcDbCircle
 10
1848.2281010042
 20
221.1760790351
 30
0.0
 40
4.543116864869774
100
AcDbArc
 50
179.9923089116
 51
188.8556333341
  0
ARC
  5
665
330
1F
100
AcDbEntity
  8
0
  6
Continuous
 62
     7
370
    25
100
AcDbCircle
 10
1848.234012176
 20
221.1769554138
 30
0.0
 40
4.550980022957129
100
AcDbArc
 50
351.1486238537
 51
359.9966443959
  0
ARC
  5
666
330
1F
100
AcDbEntity
  8
0
  6
Continuous
 62
     7
370
    25
100
AcDbCircle
 10
1870.639030759
 20
221.1770418164
 30
0.0
 40
4.204068289654727
100
AcDbArc
 50
180.0048100526
 51
189.5895941816
  0
LINE
  5
667
330
1F
100
AcDbEntity
  8
0
  6
Continuous
 62
     7
370
    25
100
AcDbLine
 10
1878.9076277941
 20
199.3366894721
 30
0.0
 11
1827.7984807222
 21
199.3366894721
 31
0.0
  0
DIMENSION
  5
668
330
1F
100
AcDbEntity
  8
FORMAT
100
AcDbDimension
  2
_D_28
 10
1745.6297189944
 20
221.176686968
 30
0.0
 11
1745.6297189944
 21
163.5303172353
 31
0.0
 70
   160
  1
<>
 71
     2
 42
-1.0
  3
SLDDIMSTYLE7
100
AcDbAlignedDimension
 13
1806.5209159582
 23
210.676686968
 33
0.0
 14
1840.1849775045
 24
221.176686968
 34
0.0
 50
90.0
100
AcDbRotatedDimension
  0
DIMENSION
  5
674
330
1F
100
AcDbEntity
  8
FORMAT
100
AcDbDimension
  2
_D_29
 10
1700.0644935191
 20
327.576686968
 30
0.0
 11
1700.0644935191
 21
274.376686968
 31
0.0
 70
   160
  1
<>
 71
     2
 42
-1.0
  3
SLDDIMSTYLE9
100
AcDbAlignedDimension
 13
1848.2349775045
 23
221.176686968
 33
0.0
 14
1840.1849775044
 24
327.576686968
 34
0.0
 50
90.0
100
AcDbRotatedDimension
  0
MTEXT
  5
67F
330
1F
100
AcDbEntity
  8
FORMAT
100
AcDbMText
 10
1847.0980196886
 20
437.9804180254
 30
0.0
 40
35.0
 41
0.0
 71
     2
 72
     1
  1
C (1 : 5)
  7
SLDTEXTSTYLE0
 73
     1
 44
1.0
  0
INSERT
  5
68B
330
1F
100
AcDbEntity
  8
FORMAT
100
AcDbBlockReference
  2
SW_CENTERMARKSYMBOL_12
 10
1848.2349881857
 20
221.1766888796
 30
0.0
  0
INSERT
  5
697
330
1F
100
AcDbEntity
  8
FORMAT
100
AcDbBlockReference
  2
SW_CENTERMARKSYMBOL_13
 10
1848.2349881857
 20
327.5766906737
 30
0.0
  0
ENDSEC
  0
SECTION
  2
OBJECTS
  0
DICTIONARY
  5
C
330
0
100
AcDbDictionary
281
     1
  3
ACAD_GROUP
350
D
  3
ACAD_LAYOUT
350
1A
  3
ACAD_MLINESTYLE
350
17
  3
ACAD_PLOTSETTINGS
350
19
  3
ACAD_PLOTSTYLENAME
350
E
  3
ACAD_SCALELIST
350
47
  3
DWGPROPS
350
698
  0
DICTIONARY
  5
D
102
{ACAD_REACTORS
330
C
102
}
330
C
100
AcDbDictionary
281
     1
  0
DICTIONARY
  5
1A
102
{ACAD_REACTORS
330
C
102
}
330
C
100
AcDbDictionary
281
     1
  3
Layout1
350
1E
  3
Layout2
350
26
  3
Model
350
22
  0
DICTIONARY
  5
17
102
{ACAD_REACTORS
330
C
102
}
330
C
100
AcDbDictionary
281
     1
  3
Standard
350
18
  0
DICTIONARY
  5
19
102
{ACAD_REACTORS
330
C
102
}
330
C
100
AcDbDictionary
281
     1
  0
ACDBDICTIONARYWDFLT
  5
E
102
{ACAD_REACTORS
330
C
102
}
330
C
100
AcDbDictionary
281
     1
  3
Normal
350
F
100
AcDbDictionaryWithDefault
340
F
  0
DICTIONARY
  5
47
102
{ACAD_REACTORS
330
C
102
}
330
C
100
AcDbDictionary
281
     1
  3
A0
350
48
  3
A1
350
49
  3
A2
350
4A
  3
A3
350
4B
  3
A4
350
4C
  3
A5
350
4D
  3
A6
350
4E
  3
A7
350
4F
  3
A8
350
50
  3
A9
350
51
  3
B0
350
52
  3
B1
350
53
  3
B2
350
54
  3
B3
350
55
  3
B4
350
56
  3
B5
350
57
  3
B6
350
58
  3
B7
350
59
  3
B8
350
5A
  3
B9
350
5B
  3
C0
350
5C
  3
C1
350
5D
  3
C2
350
5E
  3
C3
350
5F
  3
C4
350
60
  3
C5
350
61
  3
C6
350
62
  3
C7
350
63
  3
C8
350
64
  3
C9
350
65
  3
D0
350
66
  3
D1
350
67
  3
D2
350
68
  0
XRECORD
  5
698
102
{ACAD_REACTORS
330
C
102
}
330
C
100
AcDbXrecord
280
     1
  1
DWGPROPS COOKIE
  2

  3

  4

  6

  7

  8
l.eckardt
  9

300
=
301
=
302
=
303
=
304
=
305
=
306
=
307
=
308
=
309
=
 40
0.0
 41
2460077.385448553
 42
2460077.385452269
  1

 90
        0
  0
LAYOUT
  5
1E
102
{ACAD_REACTORS
330
1A
102
}
330
1A
100
AcDbPlotSettings
  1

  2
none_device
  4

  6

 40
0.0
 41
0.0
 42
0.0
 43
0.0
 44
0.0
 45
0.0
 46
0.0
 47
0.0
 48
0.0
 49
0.0
140
0.0
141
0.0
142
1.0
143
1.0
 70
   688
 72
     1
 73
     0
 74
     5
  7

 75
    16
147
1.0
148
0.0
149
0.0
100
AcDbLayout
  1
Layout1
 70
     1
 71
     1
 10
0.0
 20
0.0
 11
420.0
 21
297.0
 12
0.0
 22
0.0
 32
0.0
 14
1.0000000000E+20
 24
1.0000000000E+20
 34
1.0000000000E+20
 15
-1.0000000000E+20
 25
-1.0000000000E+20
 35
-1.0000000000E+20
146
0.0
 13
0.0
 23
0.0
 33
0.0
 16
1.0
 26
0.0
 36
0.0
 17
0.0
 27
1.0
 37
0.0
 76
     0
330
1B
  0
LAYOUT
  5
26
102
{ACAD_REACTORS
330
1A
102
}
330
1A
100
AcDbPlotSettings
  1

  2
none_device
  4

  6

 40
0.0
 41
0.0
 42
0.0
 43
0.0
 44
0.0
 45
0.0
 46
0.0
 47
0.0
 48
0.0
 49
0.0
140
0.0
141
0.0
142
1.0
143
1.0
 70
   688
 72
     1
 73
     0
 74
     5
  7

 75
    16
147
1.0
148
0.0
149
0.0
100
AcDbLayout
  1
Layout2
 70
     1
 71
     2
 10
0.0
 20
0.0
 11
0.0
 21
0.0
 12
0.0
 22
0.0
 32
0.0
 14
0.0
 24
0.0
 34
0.0
 15
0.0
 25
0.0
 35
0.0
146
0.0
 13
0.0
 23
0.0
 33
0.0
 16
1.0
 26
0.0
 36
0.0
 17
0.0
 27
1.0
 37
0.0
 76
     0
330
23
  0
LAYOUT
  5
22
102
{ACAD_REACTORS
330
1A
102
}
330
1A
100
AcDbPlotSettings
  1

  2
none_device
  4
Letter_(8.50_x_11.00_Inches)
  6

 40
6.35
 41
6.35
 42
6.35000508
 43
6.35000508
 44
215.9
 45
279.4
 46
0.0
 47
0.0
 48
0.0
 49
0.0
140
0.0
141
0.0
142
1.0
143
1.0
 70
  1712
 72
     1
 73
     0
 74
     0
  7

 75
     0
147
1.0
148
0.0
149
0.0
100
AcDbLayout
  1
Model
 70
     1
 71
     0
 10
0.0
 20
0.0
 11
2940.0
 21
2079.0
 12
0.0
 22
0.0
 32
0.0
 14
0.0
 24
0.0
 34
0.0
 15
2940.0
 25
2079.0
 35
0.0
146
0.0
 13
0.0
 23
0.0
 33
0.0
 16
1.0
 26
0.0
 36
0.0
 17
0.0
 27
1.0
 37
0.0
 76
     0
330
1F
331
29
  0
MLINESTYLE
  5
18
102
{ACAD_REACTORS
330
17
102
}
330
17
100
AcDbMlineStyle
  2
Standard
 70
     0
  3

 62
   256
 51
90.0
 52
90.0
 71
     2
 49
0.5
 62
   256
  6
BYLAYER
 49
-0.5
 62
   256
  6
BYLAYER
  0
ACDBPLACEHOLDER
  5
F
102
{ACAD_REACTORS
330
E
102
}
330
E
  0
SCALE
  5
48
102
{ACAD_REACTORS
330
47
102
}
330
47
100
AcDbScale
 70
     0
300
1:1
140
1.0
141
1.0
290
     1
  0
SCALE
  5
49
102
{ACAD_REACTORS
330
47
102
}
330
47
100
AcDbScale
 70
     0
300
1:2
140
1.0
141
2.0
290
     0
  0
SCALE
  5
4A
102
{ACAD_REACTORS
330
47
102
}
330
47
100
AcDbScale
 70
     0
300
1:4
140
1.0
141
4.0
290
     0
  0
SCALE
  5
4B
102
{ACAD_REACTORS
330
47
102
}
330
47
100
AcDbScale
 70
     0
300
1:5
140
1.0
141
5.0
290
     0
  0
SCALE
  5
4C
102
{ACAD_REACTORS
330
47
102
}
330
47
100
AcDbScale
 70
     0
300
1:8
140
1.0
141
8.0
290
     0
  0
SCALE
  5
4D
102
{ACAD_REACTORS
330
47
102
}
330
47
100
AcDbScale
 70
     0
300
1:10
140
1.0
141
10.0
290
     0
  0
SCALE
  5
4E
102
{ACAD_REACTORS
330
47
102
}
330
47
100
AcDbScale
 70
     0
300
1:16
140
1.0
141
16.0
290
     0
  0
SCALE
  5
4F
102
{ACAD_REACTORS
330
47
102
}
330
47
100
AcDbScale
 70
     0
300
1:20
140
1.0
141
20.0
290
     0
  0
SCALE
  5
50
102
{ACAD_REACTORS
330
47
102
}
330
47
100
AcDbScale
 70
     0
300
1:30
140
1.0
141
30.0
290
     0
  0
SCALE
  5
51
102
{ACAD_REACTORS
330
47
102
}
330
47
100
AcDbScale
 70
     0
300
1:40
140
1.0
141
40.0
290
     0
  0
SCALE
  5
52
102
{ACAD_REACTORS
330
47
102
}
330
47
100
AcDbScale
 70
     0
300
1:50
140
1.0
141
50.0
290
     0
  0
SCALE
  5
53
102
{ACAD_REACTORS
330
47
102
}
330
47
100
AcDbScale
 70
     0
300
1:100
140
1.0
141
100.0
290
     0
  0
SCALE
  5
54
102
{ACAD_REACTORS
330
47
102
}
330
47
100
AcDbScale
 70
     0
300
2:1
140
2.0
141
1.0
290
     0
  0
SCALE
  5
55
102
{ACAD_REACTORS
330
47
102
}
330
47
100
AcDbScale
 70
     0
300
4:1
140
4.0
141
1.0
290
     0
  0
SCALE
  5
56
102
{ACAD_REACTORS
330
47
102
}
330
47
100
AcDbScale
 70
     0
300
8:1
140
8.0
141
1.0
290
     0
  0
SCALE
  5
57
102
{ACAD_REACTORS
330
47
102
}
330
47
100
AcDbScale
 70
     0
300
10:1
140
10.0
141
1.0
290
     0
  0
SCALE
  5
58
102
{ACAD_REACTORS
330
47
102
}
330
47
100
AcDbScale
 70
     0
300
100:1
140
100.0
141
1.0
290
     0
  0
SCALE
  5
59
102
{ACAD_REACTORS
330
47
102
}
330
47
100
AcDbScale
 70
     0
300
1/128" = 1'-0"
140
0.0078125
141
12.0
290
     0
  0
SCALE
  5
5A
102
{ACAD_REACTORS
330
47
102
}
330
47
100
AcDbScale
 70
     0
300
1/64" = 1'-0"
140
0.015625
141
12.0
290
     0
  0
SCALE
  5
5B
102
{ACAD_REACTORS
330
47
102
}
330
47
100
AcDbScale
 70
     0
300
1/32" = 1'-0"
140
0.03125
141
12.0
290
     0
  0
SCALE
  5
5C
102
{ACAD_REACTORS
330
47
102
}
330
47
100
AcDbScale
 70
     0
300
1/16" = 1'-0"
140
0.0625
141
12.0
290
     0
  0
SCALE
  5
5D
102
{ACAD_REACTORS
330
47
102
}
330
47
100
AcDbScale
 70
     0
300
3/32" = 1'-0"
140
0.09375
141
12.0
290
     0
  0
SCALE
  5
5E
102
{ACAD_REACTORS
330
47
102
}
330
47
100
AcDbScale
 70
     0
300
1/8" = 1'-0"
140
0.125
141
12.0
290
     0
  0
SCALE
  5
5F
102
{ACAD_REACTORS
330
47
102
}
330
47
100
AcDbScale
 70
     0
300
3/16" = 1'-0"
140
0.1875
141
12.0
290
     0
  0
SCALE
  5
60
102
{ACAD_REACTORS
330
47
102
}
330
47
100
AcDbScale
 70
     0
300
1/4" = 1'-0"
140
0.25
141
12.0
290
     0
  0
SCALE
  5
61
102
{ACAD_REACTORS
330
47
102
}
330
47
100
AcDbScale
 70
     0
300
3/8" = 1'-0"
140
0.375
141
12.0
290
     0
  0
SCALE
  5
62
102
{ACAD_REACTORS
330
47
102
}
330
47
100
AcDbScale
 70
     0
300
1/2" = 1'-0"
140
0.5
141
12.0
290
     0
  0
SCALE
  5
63
102
{ACAD_REACTORS
330
47
102
}
330
47
100
AcDbScale
 70
     0
300
3/4" = 1'-0"
140
0.75
141
12.0
290
     0
  0
SCALE
  5
64
102
{ACAD_REACTORS
330
47
102
}
330
47
100
AcDbScale
 70
     0
300
1" = 1'-0"
140
1.0
141
12.0
290
     0
  0
SCALE
  5
65
102
{ACAD_REACTORS
330
47
102
}
330
47
100
AcDbScale
 70
     0
300
1-1/2" = 1'-0"
140
1.5
141
12.0
290
     0
  0
SCALE
  5
66
102
{ACAD_REACTORS
330
47
102
}
330
47
100
AcDbScale
 70
     0
300
3" = 1'-0"
140
3.0
141
12.0
290
     0
  0
SCALE
  5
67
102
{ACAD_REACTORS
330
47
102
}
330
47
100
AcDbScale
 70
     0
300
6" = 1'-0"
140
6.0
141
12.0
290
     0
  0
SCALE
  5
68
102
{ACAD_REACTORS
330
47
102
}
330
47
100
AcDbScale
 70
     0
300
1'-0" = 1'-0"
140
12.0
141
12.0
290
     0
  0
ENDSEC
  0
EOF
