  0
SECTION
  2
HEADER
  9
$ACADVER
  1
AC1015
  9
$ACADMAINTVER
 70
     6
  9
$DWGCODEPAGE
  3
ANSI_1252
  9
$INSBASE
 10
0.0
 20
0.0
 30
0.0
  9
$EXTMIN
 10
0.0
 20
0.0
 30
0.0
  9
$EXTMAX
 10
297.0
 20
210.0
 30
0.0
  9
$LIMMIN
 10
0.0
 20
0.0
  9
$LIMMAX
 10
297.0
 20
210.0
  9
$ORTHOMODE
 70
     0
  9
$REGENMODE
 70
     1
  9
$FILLMODE
 70
     1
  9
$QTEXTMODE
 70
     0
  9
$MIRRTEXT
 70
     1
  9
$LTSCALE
 40
1.0
  9
$ATTMODE
 70
     1
  9
$TEXTSIZE
 40
3.5
  9
$TRACEWID
 40
1.0
  9
$TEXTSTYLE
  7
STANDARD
  9
$CLAYER
  8
0
  9
$CELTYPE
  6
ByLayer
  9
$CECOLOR
 62
   256
  9
$CELTSCALE
 40
1.0
  9
$DISPSILH
 70
     0
  9
$DIMSCALE
 40
1.0
  9
$DIMASZ
 40
3.302
  9
$DIMEXO
 40
1.0
  9
$DIMDLI
 40
3.75
  9
$DIMRND
 40
0.0
  9
$DIMDLE
 40
0.0
  9
$DIMEXE
 40
1.0
  9
$DIMTP
 40
0.0
  9
$DIMTM
 40
0.0
  9
$DIMTXT
 40
3.5
  9
$DIMCEN
 40
2.5
  9
$DIMTSZ
 40
0.0
  9
$DIMTOL
 70
     0
  9
$DIMLIM
 70
     0
  9
$DIMTIH
 70
     1
  9
$DIMTOH
 70
     1
  9
$DIMSE1
 70
     0
  9
$DIMSE2
 70
     0
  9
$DIMTAD
 70
     1
  9
$DIMZIN
 70
     0
  9
$DIMBLK
  1

  9
$DIMASO
 70
     1
  9
$DIMSHO
 70
     1
  9
$DIMPOST
  1

  9
$DIMAPOST
  1

  9
$DIMALT
 70
     0
  9
$DIMALTD
 70
     3
  9
$DIMALTF
 40
0.0393700787
  9
$DIMLFAC
 40
1.0
  9
$DIMTOFL
 70
     1
  9
$DIMTVP
 40
0.0
  9
$DIMTIX
 70
     0
  9
$DIMSOXD
 70
     0
  9
$DIMSAH
 70
     0
  9
$DIMBLK1
  1

  9
$DIMBLK2
  1

  9
$DIMSTYLE
  2
ISO-25
  9
$DIMCLRD
 70
     0
  9
$DIMCLRE
 70
     0
  9
$DIMCLRT
 70
     0
  9
$DIMTFAC
 40
1.0
  9
$DIMGAP
 40
3.0
  9
$DIMJUST
 70
     0
  9
$DIMSD1
 70
     0
  9
$DIMSD2
 70
     0
  9
$DIMTOLJ
 70
     0
  9
$DIMTZIN
 70
     0
  9
$DIMALTZ
 70
     0
  9
$DIMALTTZ
 70
     0
  9
$DIMUPT
 70
     0
  9
$DIMDEC
 70
     2
  9
$DIMTDEC
 70
     2
  9
$DIMALTU
 70
     2
  9
$DIMALTTD
 70
     3
  9
$DIMTXSTY
  7
STANDARD
  9
$DIMAUNIT
 70
     0
  9
$DIMADEC
 70
     2
  9
$DIMALTRND
 40
0.0
  9
$DIMAZIN
 70
     0
  9
$DIMDSEP
 70
    44
  9
$DIMATFIT
 70
     3
  9
$DIMFRAC
 70
     0
  9
$DIMLDRBLK
  1

  9
$DIMLUNIT
 70
     2
  9
$DIMLWD
 70
    -2
  9
$DIMLWE
 70
    -2
  9
$DIMTMOVE
 70
     0
  9
$LUNITS
 70
     2
  9
$LUPREC
 70
     2
  9
$SKETCHINC
 40
1.0
  9
$FILLETRAD
 40
10.0
  9
$AUNITS
 70
     0
  9
$AUPREC
 70
     2
  9
$MENU
  1
.
  9
$ELEVATION
 40
0.0
  9
$PELEVATION
 40
0.0
  9
$THICKNESS
 40
0.0
  9
$LIMCHECK
 70
     0
  9
$CHAMFERA
 40
0.0
  9
$CHAMFERB
 40
0.0
  9
$CHAMFERC
 40
0.0
  9
$CHAMFERD
 40
0.0
  9
$SKPOLY
 70
     0
  9
$TDCREATE
 40
2459704.417241725
  9
$TDUCREATE
 40
2459704.333908391
  9
$TDUPDATE
 40
2459704.417245891
  9
$TDUUPDATE
 40
2459704.333912558
  9
$TDINDWG
 40
0.0000000116
  9
$TDUSRTIMER
 40
0.0000000116
  9
$USRTIMER
 70
     1
  9
$ANGBASE
 50
0.0
  9
$ANGDIR
 70
     0
  9
$PDMODE
 70
     0
  9
$PDSIZE
 40
-1.0
  9
$PLINEWID
 40
0.0
  9
$SPLFRAME
 70
     0
  9
$SPLINETYPE
 70
     6
  9
$SPLINESEGS
 70
     8
  9
$HANDSEED
  5
486
  9
$SURFTAB1
 70
     6
  9
$SURFTAB2
 70
     6
  9
$SURFTYPE
 70
     6
  9
$SURFU
 70
     6
  9
$SURFV
 70
     6
  9
$UCSBASE
  2

  9
$UCSNAME
  2

  9
$UCSORG
 10
0.0
 20
0.0
 30
0.0
  9
$UCSXDIR
 10
1.0
 20
0.0
 30
0.0
  9
$UCSYDIR
 10
0.0
 20
1.0
 30
0.0
  9
$UCSORTHOREF
  2

  9
$UCSORTHOVIEW
 70
     0
  9
$UCSORGTOP
 10
0.0
 20
0.0
 30
0.0
  9
$UCSORGBOTTOM
 10
0.0
 20
0.0
 30
0.0
  9
$UCSORGLEFT
 10
0.0
 20
0.0
 30
0.0
  9
$UCSORGRIGHT
 10
0.0
 20
0.0
 30
0.0
  9
$UCSORGFRONT
 10
0.0
 20
0.0
 30
0.0
  9
$UCSORGBACK
 10
0.0
 20
0.0
 30
0.0
  9
$PUCSBASE
  2

  9
$PUCSNAME
  2

  9
$PUCSORG
 10
0.0
 20
0.0
 30
0.0
  9
$PUCSXDIR
 10
1.0
 20
0.0
 30
0.0
  9
$PUCSYDIR
 10
0.0
 20
1.0
 30
0.0
  9
$PUCSORTHOREF
  2

  9
$PUCSORTHOVIEW
 70
     0
  9
$PUCSORGTOP
 10
0.0
 20
0.0
 30
0.0
  9
$PUCSORGBOTTOM
 10
0.0
 20
0.0
 30
0.0
  9
$PUCSORGLEFT
 10
0.0
 20
0.0
 30
0.0
  9
$PUCSORGRIGHT
 10
0.0
 20
0.0
 30
0.0
  9
$PUCSORGFRONT
 10
0.0
 20
0.0
 30
0.0
  9
$PUCSORGBACK
 10
0.0
 20
0.0
 30
0.0
  9
$USERI1
 70
     0
  9
$USERI2
 70
     0
  9
$USERI3
 70
     0
  9
$USERI4
 70
     0
  9
$USERI5
 70
     0
  9
$USERR1
 40
0.0
  9
$USERR2
 40
0.0
  9
$USERR3
 40
0.0
  9
$USERR4
 40
0.0
  9
$USERR5
 40
0.0
  9
$WORLDVIEW
 70
     1
  9
$SHADEDGE
 70
     3
  9
$SHADEDIF
 70
    70
  9
$TILEMODE
 70
     1
  9
$MAXACTVP
 70
    64
  9
$PINSBASE
 10
0.0
 20
0.0
 30
0.0
  9
$PLIMCHECK
 70
     0
  9
$PEXTMIN
 10
1.0000000000E+20
 20
1.0000000000E+20
 30
1.0000000000E+20
  9
$PEXTMAX
 10
-1.0000000000E+20
 20
-1.0000000000E+20
 30
-1.0000000000E+20
  9
$PLIMMIN
 10
0.0
 20
0.0
  9
$PLIMMAX
 10
420.0
 20
297.0
  9
$UNITMODE
 70
     0
  9
$VISRETAIN
 70
     1
  9
$PLINEGEN
 70
     0
  9
$PSLTSCALE
 70
     1
  9
$TREEDEPTH
 70
  3020
  9
$CMLSTYLE
  2
Standard
  9
$CMLJUST
 70
     0
  9
$CMLSCALE
 40
20.0
  9
$PROXYGRAPHICS
 70
     1
  9
$MEASUREMENT
 70
     1
  9
$CELWEIGHT
370
    -1
  9
$ENDCAPS
280
     0
  9
$JOINSTYLE
280
     0
  9
$LWDISPLAY
290
     1
  9
$INSUNITS
 70
     4
  9
$HYPERLINKBASE
  1

  9
$STYLESHEET
  1

  9
$XEDIT
290
     1
  9
$CEPSNTYPE
380
     0
  9
$PSTYLEMODE
290
     1
  9
$FINGERPRINTGUID
  2
{d9ce912b-5cac-4754-aeef-ac0e2422bd4d}
  9
$VERSIONGUID
  2
{FAEB1C32-E019-11D5-929B-00C0DF256EC4}
  9
$EXTNAMES
290
     1
  9
$PSVPSCALE
 40
0.0
  9
$OLESTARTUP
290
     0
  0
ENDSEC
  0
SECTION
  2
CLASSES
  0
CLASS
  1
ACDBDICTIONARYWDFLT
  2
AcDbDictionaryWithDefault
  3
ObjectDBX Classes
 90
        0
280
     0
281
     0
  0
CLASS
  1
VISUALSTYLE
  2
AcDbVisualStyle
  3
ObjectDBX Classes
 90
     4095
280
     0
281
     0
  0
CLASS
  1
MATERIAL
  2
AcDbMaterial
  3
ObjectDBX Classes
 90
     1153
280
     0
281
     0
  0
CLASS
  1
SCALE
  2
AcDbScale
  3
ObjectDBX Classes
 90
     1153
280
     0
281
     0
  0
CLASS
  1
TABLESTYLE
  2
AcDbTableStyle
  3
ObjectDBX Classes
 90
     4095
280
     0
281
     0
  0
CLASS
  1
MLEADERSTYLE
  2
AcDbMLeaderStyle
  3
ACDB_MLEADERSTYLE_CLASS
 90
     4095
280
     0
281
     0
  0
CLASS
  1
SUN
  2
AcDbSun
  3
SCENEOE
 90
     1153
280
     0
281
     0
  0
CLASS
  1
ACDBPLACEHOLDER
  2
AcDbPlaceHolder
  3
ObjectDBX Classes
 90
        0
280
     0
281
     0
  0
CLASS
  1
LAYOUT
  2
AcDbLayout
  3
ObjectDBX Classes
 90
        0
280
     0
281
     0
  0
ENDSEC
  0
SECTION
  2
TABLES
  0
TABLE
  2
VPORT
  5
8
330
0
100
AcDbSymbolTable
 70
     1
  0
VPORT
  5
29
330
8
100
AcDbSymbolTableRecord
100
AcDbViewportTableRecord
  2
*Active
 70
     0
 10
0.0
 20
0.0
 11
1.0
 21
1.0
 12
148.5
 22
105.0
 13
0.0
 23
0.0
 14
10.0
 24
10.0
 15
10.0
 25
10.0
 16
0.0
 26
0.0
 36
1.0
 17
0.0
 27
0.0
 37
0.0
 40
210.0
 41
1.4142857143
 42
50.0
 43
0.0
 44
0.0
 50
0.0
 51
0.0
 71
     0
 72
  2000
 73
     1
 74
     3
 75
     0
 76
     0
 77
     0
 78
     0
281
     0
 65
     1
110
0.0
120
0.0
130
0.0
111
1.0
121
0.0
131
0.0
112
0.0
122
1.0
132
0.0
 79
     0
146
0.0
  0
ENDTAB
  0
TABLE
  2
LTYPE
  5
5
330
0
100
AcDbSymbolTable
 70
     6
  0
LTYPE
  5
14
330
5
100
AcDbSymbolTableRecord
100
AcDbLinetypeTableRecord
  2
ByBlock
 70
     0
  3

 72
    65
 73
     0
 40
0.0
  0
LTYPE
  5
15
330
5
100
AcDbSymbolTableRecord
100
AcDbLinetypeTableRecord
  2
ByLayer
 70
     0
  3

 72
    65
 73
     0
 40
0.0
  0
LTYPE
  5
16
330
5
100
AcDbSymbolTableRecord
100
AcDbLinetypeTableRecord
  2
Continuous
 70
     0
  3
Solid line
 72
    65
 73
     0
 40
0.0
  0
LTYPE
  5
6E
330
5
100
AcDbSymbolTableRecord
100
AcDbLinetypeTableRecord
  2
HIDDEN
 70
     0
  3
Hidden __ __ __ __ __ __ __ __ __ __ __ __ __ __
 72
    65
 73
     2
 40
1.905
 49
1.27
 74
     0
 49
-0.635
 74
     0
  0
LTYPE
  5
6F
330
5
100
AcDbSymbolTableRecord
100
AcDbLinetypeTableRecord
  2
PHANTOM
 70
     0
  3
Phantom ______  __  __  ______  __  __  ______
 72
    65
 73
     6
 40
12.7
 49
6.35
 74
     0
 49
-1.27
 74
     0
 49
1.27
 74
     0
 49
-1.27
 74
     0
 49
1.27
 74
     0
 49
-1.27
 74
     0
  0
LTYPE
  5
70
330
5
100
AcDbSymbolTableRecord
100
AcDbLinetypeTableRecord
  2
CENTER
 70
     0
  3
Center ____ _ ____ _ ____ _ ____ _ ____ _ ____
 72
    65
 73
     4
 40
10.16
 49
6.35
 74
     0
 49
-1.27
 74
     0
 49
1.27
 74
     0
 49
-1.27
 74
     0
  0
LTYPE
  5
71
330
5
100
AcDbSymbolTableRecord
100
AcDbLinetypeTableRecord
  2
CENTERX2
 70
     0
  3
Center (2x) ________  __  ________  __  _____
 72
    65
 73
     4
 40
20.32
 49
12.7
 74
     0
 49
-2.54
 74
     0
 49
2.54
 74
     0
 49
-2.54
 74
     0
  0
LTYPE
  5
72
330
5
100
AcDbSymbolTableRecord
100
AcDbLinetypeTableRecord
  2
DOT2
 70
     0
  3
Dot (.5x) ........................................
 72
    65
 73
     2
 40
0.635
 49
0.0
 74
     0
 49
-0.635
 74
     0
  0
ENDTAB
  0
TABLE
  2
LAYER
  5
2
330
0
100
AcDbSymbolTable
 70
     7
  0
LAYER
  5
10
330
2
100
AcDbSymbolTableRecord
100
AcDbLayerTableRecord
  2
0
 70
     0
 62
     7
  6
Continuous
370
    -3
390
F
  0
LAYER
  5
73
330
2
100
AcDbSymbolTableRecord
100
AcDbLayerTableRecord
  2
FORMAT
 70
     0
 62
     7
  6
Continuous
370
    -3
390
F
  0
LAYER
  5
74
330
2
100
AcDbSymbolTableRecord
100
AcDbLayerTableRecord
  2
VORLAGE
 70
     0
 62
     7
  6
Continuous
370
    -3
390
F
  0
LAYER
  5
75
330
2
100
AcDbSymbolTableRecord
100
AcDbLayerTableRecord
  2
1
 70
     0
 62
   179
  6
Continuous
370
    -3
390
F
  0
LAYER
  5
76
330
2
100
AcDbSymbolTableRecord
100
AcDbLayerTableRecord
  2
LAYER0
 70
     0
 62
     7
  6
Continuous
370
    -3
390
F
  0
LAYER
  5
77
330
2
100
AcDbSymbolTableRecord
100
AcDbLayerTableRecord
  2
BEMASSUNG
 70
     0
 62
     1
  6
Continuous
370
    -3
390
F
  0
LAYER
  5
78
330
2
100
AcDbSymbolTableRecord
100
AcDbLayerTableRecord
  2
ÄNDERUNG
 70
     0
 62
     1
  6
Continuous
370
    -3
390
F
  0
ENDTAB
  0
TABLE
  2
STYLE
  5
3
330
0
100
AcDbSymbolTable
 70
     5
  0
STYLE
  5
11
330
3
100
AcDbSymbolTableRecord
100
AcDbTextStyleTableRecord
  2
STANDARD
 70
     0
 40
0.0
 41
1.0
 50
0.0
 71
     0
 42
3.5
  3
ARIAL.TTF
  4

1001
ACAD
1000
ARIAL
1071
       34
  0
STYLE
  5
91
330
3
100
AcDbSymbolTableRecord
100
AcDbTextStyleTableRecord
  2
SLDTEXTSTYLE0
 70
     0
 40
0.0
 41
0.948
 50
0.0
 71
     0
 42
3.5
  3
ARIAL.TTF
  4

1001
ACAD
1000
Arial
1071
      290
  0
STYLE
  5
DC
330
3
100
AcDbSymbolTableRecord
100
AcDbTextStyleTableRecord
  2
SLDTEXTSTYLE1
 70
     0
 40
0.0
 41
1.0
 50
0.0
 71
     0
 42
3.5
  3
ARIALUNI.TTF
  4

1001
ACAD
1000
Arial Unicode MS
1071
 33554722
  0
STYLE
  5
E2
330
3
100
AcDbSymbolTableRecord
100
AcDbTextStyleTableRecord
  2
SLDTEXTSTYLE2
 70
     0
 40
0.0
 41
0.87
 50
0.0
 71
     0
 42
3.5
  3
ARIALN.TTF
  4

1001
ACAD
1000
Arial Narrow
1071
      290
  0
STYLE
  5
145
330
3
100
AcDbSymbolTableRecord
100
AcDbTextStyleTableRecord
  2
SLDTEXTSTYLE3
 70
     0
 40
0.0
 41
0.948
 50
0.0
 71
     0
 42
3.5
  3
ARIALBD.TTF
  4

1001
ACAD
1000
Arial
1071
 33554722
  0
ENDTAB
  0
TABLE
  2
VIEW
  5
6
330
0
100
AcDbSymbolTable
 70
     0
  0
ENDTAB
  0
TABLE
  2
UCS
  5
7
330
0
100
AcDbSymbolTable
 70
     0
  0
ENDTAB
  0
TABLE
  2
APPID
  5
9
330
0
100
AcDbSymbolTable
 70
     1
  0
APPID
  5
12
330
9
100
AcDbSymbolTableRecord
100
AcDbRegAppTableRecord
  2
ACAD
 70
     0
  0
ENDTAB
  0
TABLE
  2
DIMSTYLE
  5
A
330
0
100
AcDbSymbolTable
 70
     5
100
AcDbDimStyleTable
  0
DIMSTYLE
105
27
330
A
100
AcDbSymbolTableRecord
100
AcDbDimStyleTableRecord
  2
ISO-25
 70
     0
 41
2.5
 42
0.625
 43
3.75
 44
1.25
 73
     0
 74
     0
 77
     1
 78
     8
140
2.5
141
2.5
143
0.0393700787
147
0.625
171
     3
172
     1
178
     0
271
     2
272
     2
274
     3
278
    44
283
     0
284
     8
340
11
  0
DIMSTYLE
105
1B0
102
{ACAD_REACTORS
330
1AF
330
1C9
330
1DF
330
1E9
330
1F3
330
261
330
277
330
280
330
2A2
330
2AD
330
38B
330
39F
330
3A9
330
3B3
330
3BE
330
3C8
330
3D2
330
3DC
330
3E6
330
3F0
330
3FC
330
408
102
}
330
A
100
AcDbSymbolTableRecord
100
AcDbDimStyleTableRecord
  2
SLDDIMSTYLE0
 70
     0
 41
3.302
 44
0.0
 45
0.000000001
 73
     0
 74
     0
 77
     1
 78
    12
 79
     3
140
3.5
147
0.875
173
     1
178
     0
271
     2
272
     2
276
     2
284
    12
340
91
  0
DIMSTYLE
105
1BC
102
{ACAD_REACTORS
330
1BB
330
255
330
26B
330
28B
330
380
330
394
102
}
330
A
100
AcDbSymbolTableRecord
100
AcDbDimStyleTableRecord
  2
SLDDIMSTYLE1
 70
     0
 41
3.302
 44
0.0
 45
0.000000001
 73
     0
 74
     0
 77
     1
 78
    12
 79
     3
140
3.5
147
0.875
172
     1
173
     1
178
     0
271
     2
272
     2
276
     2
284
    12
289
     0
340
91
  0
DIMSTYLE
105
1D5
102
{ACAD_REACTORS
330
1D4
330
298
102
}
330
A
100
AcDbSymbolTableRecord
100
AcDbDimStyleTableRecord
  2
SLDDIMSTYLE2
 70
     0
 41
3.302
 44
0.0
 73
     0
 74
     0
 77
     1
 78
    12
 79
     3
140
3.5
147
0.875
173
     1
178
     0
179
     2
272
     2
276
     2
284
    12
340
91
  0
DIMSTYLE
105
379
102
{ACAD_REACTORS
330
378
102
}
330
A
100
AcDbSymbolTableRecord
100
AcDbDimStyleTableRecord
  2
SLDDIMSTYLE3
 70
     0
 41
3.302
 44
0.0
 45
0.000000001
 73
     0
 74
     0
 77
     1
 78
    12
 79
     3
140
3.5
141
0.0
147
0.875
173
     1
178
     0
271
     2
272
     2
276
     2
284
    12
340
91
  0
ENDTAB
  0
TABLE
  2
BLOCK_RECORD
  5
1
330
0
100
AcDbSymbolTable
 70
    63
  0
BLOCK_RECORD
  5
1F
330
1
100
AcDbSymbolTableRecord
100
AcDbBlockTableRecord
  2
*Model_Space
340
22
  0
BLOCK_RECORD
  5
1B
330
1
100
AcDbSymbolTableRecord
100
AcDbBlockTableRecord
  2
*Paper_Space
340
1E
  0
BLOCK_RECORD
  5
23
330
1
100
AcDbSymbolTableRecord
100
AcDbBlockTableRecord
  2
*Paper_Space0
340
26
  0
BLOCK_RECORD
  5
79
330
1
100
AcDbSymbolTableRecord
100
AcDbBlockTableRecord
  2
Schleifrichtungspfeil senkrecht
340
0
  0
BLOCK_RECORD
  5
81
330
1
100
AcDbSymbolTableRecord
100
AcDbBlockTableRecord
  2
Schleifrichtung+mattiert
340
0
  0
BLOCK_RECORD
  5
8E
330
1
100
AcDbSymbolTableRecord
100
AcDbBlockTableRecord
  2
SW_NOTE_0
340
0
102
{BLKREFS
331
93
102
}
  0
BLOCK_RECORD
  5
94
330
1
100
AcDbSymbolTableRecord
100
AcDbBlockTableRecord
  2
SW_NOTE_0_1
340
0
102
{BLKREFS
331
98
102
}
  0
BLOCK_RECORD
  5
99
330
1
100
AcDbSymbolTableRecord
100
AcDbBlockTableRecord
  2
Schleifrichtungspfeil waagerecht
340
0
  0
BLOCK_RECORD
  5
A5
330
1
100
AcDbSymbolTableRecord
100
AcDbBlockTableRecord
  2
Block1_2
340
0
102
{BLKREFS
331
142
102
}
  0
BLOCK_RECORD
  5
B3
330
1
100
AcDbSymbolTableRecord
100
AcDbBlockTableRecord
  2
SW_NOTE_0_2
340
0
102
{BLKREFS
331
B8
102
}
  0
BLOCK_RECORD
  5
B9
330
1
100
AcDbSymbolTableRecord
100
AcDbBlockTableRecord
  2
Block2_2
340
0
102
{BLKREFS
331
141
102
}
  0
BLOCK_RECORD
  5
D9
330
1
100
AcDbSymbolTableRecord
100
AcDbBlockTableRecord
  2
SW_NOTE_0_3
340
0
102
{BLKREFS
331
DE
102
}
  0
BLOCK_RECORD
  5
DF
330
1
100
AcDbSymbolTableRecord
100
AcDbBlockTableRecord
  2
SW_NOTE_0_4
340
0
102
{BLKREFS
331
E6
102
}
  0
BLOCK_RECORD
  5
E7
330
1
100
AcDbSymbolTableRecord
100
AcDbBlockTableRecord
  2
Block1_3_1_1
340
0
  0
BLOCK_RECORD
  5
F5
330
1
100
AcDbSymbolTableRecord
100
AcDbBlockTableRecord
  2
SW_NOTE_0_5
340
0
102
{BLKREFS
331
FA
102
}
  0
BLOCK_RECORD
  5
FB
330
1
100
AcDbSymbolTableRecord
100
AcDbBlockTableRecord
  2
Block2_3_1_1
340
0
  0
BLOCK_RECORD
  5
11B
330
1
100
AcDbSymbolTableRecord
100
AcDbBlockTableRecord
  2
SW_NOTE_0_6
340
0
102
{BLKREFS
331
11F
102
}
  0
BLOCK_RECORD
  5
120
330
1
100
AcDbSymbolTableRecord
100
AcDbBlockTableRecord
  2
SW_NOTE_0_7
340
0
102
{BLKREFS
331
126
102
}
  0
BLOCK_RECORD
  5
127
330
1
100
AcDbSymbolTableRecord
100
AcDbBlockTableRecord
  2
rechtlicher_Hinweis_Katalogzeichnungen_1_1
340
0
  0
BLOCK_RECORD
  5
12A
330
1
100
AcDbSymbolTableRecord
100
AcDbBlockTableRecord
  2
SW_NOTE_0_8
340
0
102
{BLKREFS
331
132
102
}
  0
BLOCK_RECORD
  5
156
330
1
100
AcDbSymbolTableRecord
100
AcDbBlockTableRecord
  2
SW_NOTE_0_9
340
0
102
{BLKREFS
331
160
102
}
  0
BLOCK_RECORD
  5
1B1
330
1
100
AcDbSymbolTableRecord
100
AcDbBlockTableRecord
  2
_D
340
0
  0
BLOCK_RECORD
  5
1BD
330
1
100
AcDbSymbolTableRecord
100
AcDbBlockTableRecord
  2
_D_1
340
0
  0
BLOCK_RECORD
  5
1CA
330
1
100
AcDbSymbolTableRecord
100
AcDbBlockTableRecord
  2
_D_2
340
0
  0
BLOCK_RECORD
  5
1D6
330
1
100
AcDbSymbolTableRecord
100
AcDbBlockTableRecord
  2
_D_3
340
0
  0
BLOCK_RECORD
  5
1E0
330
1
100
AcDbSymbolTableRecord
100
AcDbBlockTableRecord
  2
_D_4
340
0
  0
BLOCK_RECORD
  5
1EA
330
1
100
AcDbSymbolTableRecord
100
AcDbBlockTableRecord
  2
_D_5
340
0
  0
BLOCK_RECORD
  5
1F4
330
1
100
AcDbSymbolTableRecord
100
AcDbBlockTableRecord
  2
_D_6
340
0
  0
BLOCK_RECORD
  5
1FD
330
1
100
AcDbSymbolTableRecord
100
AcDbBlockTableRecord
  2
SW_CENTERMARKSYMBOL_0
340
0
102
{BLKREFS
331
208
102
}
  0
BLOCK_RECORD
  5
256
330
1
100
AcDbSymbolTableRecord
100
AcDbBlockTableRecord
  2
_D_7
340
0
  0
BLOCK_RECORD
  5
262
330
1
100
AcDbSymbolTableRecord
100
AcDbBlockTableRecord
  2
_D_8
340
0
  0
BLOCK_RECORD
  5
26C
330
1
100
AcDbSymbolTableRecord
100
AcDbBlockTableRecord
  2
_D_9
340
0
  0
BLOCK_RECORD
  5
278
330
1
100
AcDbSymbolTableRecord
100
AcDbBlockTableRecord
  2
_D_10
340
0
  0
BLOCK_RECORD
  5
281
330
1
100
AcDbSymbolTableRecord
100
AcDbBlockTableRecord
  2
_D_11
340
0
  0
BLOCK_RECORD
  5
28C
330
1
100
AcDbSymbolTableRecord
100
AcDbBlockTableRecord
  2
_D_12
340
0
  0
BLOCK_RECORD
  5
299
330
1
100
AcDbSymbolTableRecord
100
AcDbBlockTableRecord
  2
_D_13
340
0
  0
BLOCK_RECORD
  5
2A3
330
1
100
AcDbSymbolTableRecord
100
AcDbBlockTableRecord
  2
_D_14
340
0
  0
BLOCK_RECORD
  5
2AE
330
1
100
AcDbSymbolTableRecord
100
AcDbBlockTableRecord
  2
_D_15
340
0
  0
BLOCK_RECORD
  5
2B7
330
1
100
AcDbSymbolTableRecord
100
AcDbBlockTableRecord
  2
SW_NOTE_0_10
340
0
102
{BLKREFS
331
2BC
102
}
  0
BLOCK_RECORD
  5
2BD
330
1
100
AcDbSymbolTableRecord
100
AcDbBlockTableRecord
  2
SW_CENTERMARKSYMBOL_1
340
0
102
{BLKREFS
331
2C8
102
}
  0
BLOCK_RECORD
  5
2C9
330
1
100
AcDbSymbolTableRecord
100
AcDbBlockTableRecord
  2
_Dot
340
0
102
{BLKREFS
331
2CE
102
}
  0
BLOCK_RECORD
  5
37A
330
1
100
AcDbSymbolTableRecord
100
AcDbBlockTableRecord
  2
_D_16
340
0
  0
BLOCK_RECORD
  5
381
330
1
100
AcDbSymbolTableRecord
100
AcDbBlockTableRecord
  2
_D_17
340
0
  0
BLOCK_RECORD
  5
38C
330
1
100
AcDbSymbolTableRecord
100
AcDbBlockTableRecord
  2
_D_18
340
0
  0
BLOCK_RECORD
  5
395
330
1
100
AcDbSymbolTableRecord
100
AcDbBlockTableRecord
  2
_D_19
340
0
  0
BLOCK_RECORD
  5
3A0
330
1
100
AcDbSymbolTableRecord
100
AcDbBlockTableRecord
  2
_D_20
340
0
  0
BLOCK_RECORD
  5
3AA
330
1
100
AcDbSymbolTableRecord
100
AcDbBlockTableRecord
  2
_D_21
340
0
  0
BLOCK_RECORD
  5
3B4
330
1
100
AcDbSymbolTableRecord
100
AcDbBlockTableRecord
  2
_D_22
340
0
  0
BLOCK_RECORD
  5
3BF
330
1
100
AcDbSymbolTableRecord
100
AcDbBlockTableRecord
  2
_D_23
340
0
  0
BLOCK_RECORD
  5
3C9
330
1
100
AcDbSymbolTableRecord
100
AcDbBlockTableRecord
  2
_D_24
340
0
  0
BLOCK_RECORD
  5
3D3
330
1
100
AcDbSymbolTableRecord
100
AcDbBlockTableRecord
  2
_D_25
340
0
  0
BLOCK_RECORD
  5
3DD
330
1
100
AcDbSymbolTableRecord
100
AcDbBlockTableRecord
  2
_D_26
340
0
  0
BLOCK_RECORD
  5
3E7
330
1
100
AcDbSymbolTableRecord
100
AcDbBlockTableRecord
  2
_D_27
340
0
  0
BLOCK_RECORD
  5
3F1
330
1
100
AcDbSymbolTableRecord
100
AcDbBlockTableRecord
  2
_D_28
340
0
  0
BLOCK_RECORD
  5
3FD
330
1
100
AcDbSymbolTableRecord
100
AcDbBlockTableRecord
  2
_D_29
340
0
  0
BLOCK_RECORD
  5
409
330
1
100
AcDbSymbolTableRecord
100
AcDbBlockTableRecord
  2
_D_30
340
0
  0
BLOCK_RECORD
  5
415
330
1
100
AcDbSymbolTableRecord
100
AcDbBlockTableRecord
  2
SW_CENTERMARKSYMBOL_2
340
0
102
{BLKREFS
331
420
102
}
  0
BLOCK_RECORD
  5
421
330
1
100
AcDbSymbolTableRecord
100
AcDbBlockTableRecord
  2
SW_CENTERMARKSYMBOL_3
340
0
102
{BLKREFS
331
42C
102
}
  0
BLOCK_RECORD
  5
42D
330
1
100
AcDbSymbolTableRecord
100
AcDbBlockTableRecord
  2
SW_CENTERMARKSYMBOL_4
340
0
102
{BLKREFS
331
438
102
}
  0
BLOCK_RECORD
  5
439
330
1
100
AcDbSymbolTableRecord
100
AcDbBlockTableRecord
  2
SW_CENTERMARKSYMBOL_5
340
0
102
{BLKREFS
331
444
102
}
  0
BLOCK_RECORD
  5
445
330
1
100
AcDbSymbolTableRecord
100
AcDbBlockTableRecord
  2
SW_CENTERMARKSYMBOL_6
340
0
102
{BLKREFS
331
450
102
}
  0
BLOCK_RECORD
  5
451
330
1
100
AcDbSymbolTableRecord
100
AcDbBlockTableRecord
  2
SW_CENTERMARKSYMBOL_7
340
0
102
{BLKREFS
331
45C
102
}
  0
BLOCK_RECORD
  5
45D
330
1
100
AcDbSymbolTableRecord
100
AcDbBlockTableRecord
  2
SW_CENTERMARKSYMBOL_8
340
0
102
{BLKREFS
331
468
102
}
  0
BLOCK_RECORD
  5
469
330
1
100
AcDbSymbolTableRecord
100
AcDbBlockTableRecord
  2
SW_CENTERMARKSYMBOL_9
340
0
102
{BLKREFS
331
474
102
}
  0
BLOCK_RECORD
  5
475
330
1
100
AcDbSymbolTableRecord
100
AcDbBlockTableRecord
  2
SW_CENTERMARKSYMBOL_10
340
0
102
{BLKREFS
331
480
102
}
  0
ENDTAB
  0
ENDSEC
  0
SECTION
  2
BLOCKS
  0
BLOCK
  5
20
330
1F
100
AcDbEntity
  8
0
100
AcDbBlockBegin
  2
*Model_Space
 70
     0
 10
0.0
 20
0.0
 30
0.0
  3
*Model_Space
  1

  0
ENDBLK
  5
21
330
1F
100
AcDbEntity
  8
0
100
AcDbBlockEnd
  0
BLOCK
  5
1C
330
1B
100
AcDbEntity
 67
     1
  8
0
100
AcDbBlockBegin
  2
*Paper_Space
 70
     0
 10
0.0
 20
0.0
 30
0.0
  3
*Paper_Space
  1

  0
ENDBLK
  5
1D
330
1B
100
AcDbEntity
 67
     1
  8
0
100
AcDbBlockEnd
  0
BLOCK
  5
24
330
23
100
AcDbEntity
  8
0
100
AcDbBlockBegin
  2
*Paper_Space0
 70
     0
 10
0.0
 20
0.0
 30
0.0
  3
*Paper_Space0
  1

  0
ENDBLK
  5
25
330
23
100
AcDbEntity
  8
0
100
AcDbBlockEnd
  0
BLOCK
  5
7A
330
79
100
AcDbEntity
  8
0
100
AcDbBlockBegin
  2
Schleifrichtungspfeil senkrecht
 70
     0
 10
0.0
 20
0.0
 30
0.0
  3
Schleifrichtungspfeil senkrecht
  1

  0
LINE
  5
7C
330
79
100
AcDbEntity
  8
0
  6
Continuous
 62
     7
370
    18
100
AcDbLine
 10
-180.2961675747
 20
161.707847149
 30
0.0
 11
-180.2961675747
 21
153.5890355268
 31
0.0
  0
HATCH
  5
7D
330
79
100
AcDbEntity
  8
FORMAT
100
AcDbHatch
 10
0.0
 20
0.0
 30
0.0
210
0.0
220
0.0
230
1.0
  2
SOLID
 70
     1
 71
     0
 91
        1
 92
        0
 93
        3
 72
     1
 10
-180.2797164503988
 20
165.1487704095346
 11
-180.7405001919547
 21
161.6487704095346
 72
     1
 10
-180.7405001919547
 20
161.6487704095346
 11
-180.2797164503988
 21
161.6487704095346
 72
     1
 10
-180.2797164503988
 20
161.6487704095346
 11
-180.2797164503988
 21
165.1487704095346
 97
        0
 75
     0
 76
     1
 98
        1
 10
0.0
 20
0.0
  0
HATCH
  5
7E
330
79
100
AcDbEntity
  8
FORMAT
100
AcDbHatch
 10
0.0
 20
0.0
 30
0.0
210
0.0
220
0.0
230
1.0
  2
SOLID
 70
     1
 71
     0
 91
        1
 92
        0
 93
        3
 72
     1
 10
-180.2797164503988
 20
161.6487704095346
 11
-179.818932708843
 21
161.6487704095346
 72
     1
 10
-179.818932708843
 20
161.6487704095346
 11
-180.2797164503988
 21
165.1487704095346
 72
     1
 10
-180.2797164503988
 20
165.1487704095346
 11
-180.2797164503988
 21
161.6487704095346
 97
        0
 75
     0
 76
     1
 98
        1
 10
0.0
 20
0.0
  0
HATCH
  5
7F
330
79
100
AcDbEntity
  8
FORMAT
100
AcDbHatch
 10
0.0
 20
0.0
 30
0.0
210
0.0
220
0.0
230
1.0
  2
SOLID
 70
     1
 71
     0
 91
        1
 92
        0
 93
        3
 72
     1
 10
-180.2797164503988
 20
153.6487704095346
 11
-180.7405001919547
 21
153.6487704095346
 72
     1
 10
-180.7405001919547
 20
153.6487704095346
 11
-180.2797164503988
 21
150.1487704095346
 72
     1
 10
-180.2797164503988
 20
150.1487704095346
 11
-180.2797164503988
 21
153.6487704095346
 97
        0
 75
     0
 76
     1
 98
        1
 10
0.0
 20
0.0
  0
HATCH
  5
80
330
79
100
AcDbEntity
  8
FORMAT
100
AcDbHatch
 10
0.0
 20
0.0
 30
0.0
210
0.0
220
0.0
230
1.0
  2
SOLID
 70
     1
 71
     0
 91
        1
 92
        0
 93
        3
 72
     1
 10
-180.2797164503988
 20
150.1487704095346
 11
-179.8189327088429
 21
153.6487704095346
 72
     1
 10
-179.8189327088429
 20
153.6487704095346
 11
-180.2797164503988
 21
153.6487704095346
 72
     1
 10
-180.2797164503988
 20
153.6487704095346
 11
-180.2797164503988
 21
150.1487704095346
 97
        0
 75
     0
 76
     1
 98
        1
 10
0.0
 20
0.0
  0
ENDBLK
  5
7B
330
79
100
AcDbEntity
  8
0
100
AcDbBlockEnd
  0
BLOCK
  5
82
330
81
100
AcDbEntity
  8
0
100
AcDbBlockBegin
  2
Schleifrichtung+mattiert
 70
     0
 10
0.0
 20
0.0
 30
0.0
  3
Schleifrichtung+mattiert
  1

  0
LINE
  5
84
330
81
100
AcDbEntity
  8
0
  6
CENTER
 62
     7
370
    25
100
AcDbLine
 10
257.5643835569
 20
128.8441861289
 30
0.0
 11
277.114664664
 21
128.8441861289
 31
0.0
  0
LINE
  5
85
330
81
100
AcDbEntity
  8
FORMAT
370
    18
100
AcDbLine
 10
204.5055437613
 20
129.9367184644
 30
0.0
 11
212.5055437613
 21
129.9367184644
 31
0.0
  0
LINE
  5
86
330
81
100
AcDbEntity
  8
FORMAT
370
    25
100
AcDbLine
 10
201.0055437613
 20
129.9367184644
 30
0.0
 11
204.5055437613
 21
130.3975022059
 31
0.0
  0
LINE
  5
87
330
81
100
AcDbEntity
  8
FORMAT
370
    25
100
AcDbLine
 10
204.5055437613
 20
130.3975022059
 30
0.0
 11
204.5055437613
 21
129.4759347228
 31
0.0
  0
LINE
  5
88
330
81
100
AcDbEntity
  8
FORMAT
370
    25
100
AcDbLine
 10
204.5055437613
 20
129.4759347228
 30
0.0
 11
201.0055437613
 21
129.9367184644
 31
0.0
  0
LINE
  5
89
330
81
100
AcDbEntity
  8
FORMAT
  6
Continuous
 62
     7
370
    25
100
AcDbLine
 10
212.5055437613
 20
130.3975022059
 30
0.0
 11
212.5055437613
 21
129.4759347228
 31
0.0
  0
LINE
  5
8A
330
81
100
AcDbEntity
  8
FORMAT
  6
Continuous
 62
     7
370
    25
100
AcDbLine
 10
212.5055437613
 20
129.4759347228
 30
0.0
 11
216.0055437613
 21
129.9367184644
 31
0.0
  0
LINE
  5
8B
330
81
100
AcDbEntity
  8
FORMAT
  6
Continuous
 62
     7
370
    25
100
AcDbLine
 10
216.0055437613
 20
129.9367184644
 30
0.0
 11
212.5055437613
 21
130.3975022059
 31
0.0
  0
HATCH
  5
8C
330
81
100
AcDbEntity
  8
0
  6
Continuous
 62
     7
100
AcDbHatch
 10
0.0
 20
0.0
 30
0.0
210
0.0
220
0.0
230
1.0
  2
SOLID
 70
     1
 71
     0
 91
        1
 92
        0
 93
        3
 72
     1
 10
201.0055437612864
 20
129.9367184643777
 11
204.5055437612864
 21
129.4759347228218
 72
     1
 10
204.5055437612864
 20
129.4759347228218
 11
204.5055437612864
 21
130.3975022059335
 72
     1
 10
204.5055437612864
 20
130.3975022059335
 11
201.0055437612864
 21
129.9367184643777
 97
        0
 75
     0
 76
     1
 98
        1
 10
0.0
 20
0.0
  0
HATCH
  5
8D
330
81
100
AcDbEntity
  8
0
  6
Continuous
 62
     7
100
AcDbHatch
 10
0.0
 20
0.0
 30
0.0
210
0.0
220
0.0
230
1.0
  2
SOLID
 70
     1
 71
     0
 91
        1
 92
        0
 93
        3
 72
     1
 10
212.5055437612864
 20
129.4759347228218
 11
216.0055437612864
 21
129.9367184643776
 72
     1
 10
216.0055437612864
 20
129.9367184643776
 11
212.5055437612864
 21
130.3975022059335
 72
     1
 10
212.5055437612864
 20
130.3975022059335
 11
212.5055437612864
 21
129.4759347228218
 97
        0
 75
     0
 76
     1
 98
        1
 10
0.0
 20
0.0
  0
INSERT
  5
93
330
81
100
AcDbEntity
  8
FORMAT
 62
     7
100
AcDbBlockReference
  2
SW_NOTE_0
 10
279.6337272995
 20
126.8964738875
 30
0.0
  0
INSERT
  5
98
330
81
100
AcDbEntity
  8
0
  6
Continuous
 62
     7
370
     0
100
AcDbBlockReference
  2
SW_NOTE_0_1
 10
218.8952299572
 20
127.4220030224
 30
0.0
  0
ENDBLK
  5
83
330
81
100
AcDbEntity
  8
0
100
AcDbBlockEnd
  0
BLOCK
  5
8F
330
8E
100
AcDbEntity
  8
0
100
AcDbBlockBegin
  2
SW_NOTE_0
 70
     0
 10
0.0
 20
0.0
 30
0.0
  3
SW_NOTE_0
  1

  0
MTEXT
  5
92
330
8E
100
AcDbEntity
  8
FORMAT
 62
     0
100
AcDbMText
 10
0.0
 20
4.5117370892
 30
0.0
 40
3.5
 41
0.0
 71
     1
 72
     1
  1
mattiert
  7
SLDTEXTSTYLE0
 73
     1
 44
1.0
  0
ENDBLK
  5
90
330
8E
100
AcDbEntity
  8
0
100
AcDbBlockEnd
  0
BLOCK
  5
95
330
94
100
AcDbEntity
  8
0
100
AcDbBlockBegin
  2
SW_NOTE_0_1
 70
     0
 10
0.0
 20
0.0
 30
0.0
  3
SW_NOTE_0_1
  1

  0
MTEXT
  5
97
330
94
100
AcDbEntity
  8
0
  6
Continuous
 62
     0
370
     0
100
AcDbMText
 10
0.0
 20
4.5117370892
 30
0.0
 40
3.5
 41
0.0
 71
     1
 72
     1
  1
Schleifrichtung
  7
SLDTEXTSTYLE0
 73
     1
 44
1.0
  0
ENDBLK
  5
96
330
94
100
AcDbEntity
  8
0
100
AcDbBlockEnd
  0
BLOCK
  5
9A
330
99
100
AcDbEntity
  8
0
100
AcDbBlockBegin
  2
Schleifrichtungspfeil waagerecht
 70
     0
 10
0.0
 20
0.0
 30
0.0
  3
Schleifrichtungspfeil waagerecht
  1

  0
LINE
  5
9C
330
99
100
AcDbEntity
  8
FORMAT
370
    25
100
AcDbLine
 10
236.8560112868
 20
65.9690166542
 30
0.0
 11
240.8560112868
 21
65.9690166542
 31
0.0
  0
LINE
  5
9D
330
99
100
AcDbEntity
  8
FORMAT
370
    25
100
AcDbLine
 10
235.1060112868
 20
65.9690166542
 30
0.0
 11
236.8560112868
 21
66.199408525
 31
0.0
  0
LINE
  5
9E
330
99
100
AcDbEntity
  8
FORMAT
370
    25
100
AcDbLine
 10
236.8560112868
 20
66.199408525
 30
0.0
 11
236.8560112868
 21
65.7386247835
 31
0.0
  0
LINE
  5
9F
330
99
100
AcDbEntity
  8
FORMAT
370
    25
100
AcDbLine
 10
236.8560112868
 20
65.7386247835
 30
0.0
 11
235.1060112868
 21
65.9690166542
 31
0.0
  0
LINE
  5
A0
330
99
100
AcDbEntity
  8
FORMAT
  6
Continuous
 62
     7
370
    25
100
AcDbLine
 10
240.8560112868
 20
66.199408525
 30
0.0
 11
240.8560112868
 21
65.7386247835
 31
0.0
  0
LINE
  5
A1
330
99
100
AcDbEntity
  8
FORMAT
  6
Continuous
 62
     7
370
    25
100
AcDbLine
 10
240.8560112868
 20
65.7386247835
 30
0.0
 11
242.6060112868
 21
65.9690166542
 31
0.0
  0
LINE
  5
A2
330
99
100
AcDbEntity
  8
FORMAT
  6
Continuous
 62
     7
370
    25
100
AcDbLine
 10
242.6060112868
 20
65.9690166542
 30
0.0
 11
240.8560112868
 21
66.199408525
 31
0.0
  0
HATCH
  5
A3
330
99
100
AcDbEntity
  8
0
  6
Continuous
 62
     7
100
AcDbHatch
 10
0.0
 20
0.0
 30
0.0
210
0.0
220
0.0
230
1.0
  2
SOLID
 70
     1
 71
     0
 91
        1
 92
        0
 93
        3
 72
     1
 10
235.1060112868415
 20
65.96901665423289
 11
236.8560112868416
 21
65.73862478345495
 72
     1
 10
236.8560112868416
 20
65.73862478345495
 11
236.8560112868416
 21
66.19940852501082
 72
     1
 10
236.8560112868416
 20
66.19940852501082
 11
235.1060112868415
 21
65.96901665423289
 97
        0
 75
     0
 76
     1
 98
        1
 10
0.0
 20
0.0
  0
HATCH
  5
A4
330
99
100
AcDbEntity
  8
0
  6
Continuous
 62
     7
100
AcDbHatch
 10
0.0
 20
0.0
 30
0.0
210
0.0
220
0.0
230
1.0
  2
SOLID
 70
     1
 71
     0
 91
        1
 92
        0
 93
        3
 72
     1
 10
240.8560112868416
 20
65.73862478345495
 11
242.6060112868416
 21
65.96901665423289
 72
     1
 10
242.6060112868416
 20
65.96901665423289
 11
240.8560112868416
 21
66.19940852501081
 72
     1
 10
240.8560112868416
 20
66.19940852501081
 11
240.8560112868416
 21
65.73862478345495
 97
        0
 75
     0
 76
     1
 98
        1
 10
0.0
 20
0.0
  0
ENDBLK
  5
9B
330
99
100
AcDbEntity
  8
0
100
AcDbBlockEnd
  0
BLOCK
  5
A6
330
A5
100
AcDbEntity
  8
0
100
AcDbBlockBegin
  2
Block1_2
 70
     0
 10
0.0
 20
0.0
 30
0.0
  3
Block1_2
  1

  0
CIRCLE
  5
A8
330
A5
100
AcDbEntity
  8
0
  6
Continuous
 62
     7
370
    18
100
AcDbCircle
 10
11.6137544821
 20
9.0896586992
 30
0.0
 40
1.255909011058753
  0
CIRCLE
  5
A9
330
A5
100
AcDbEntity
  8
0
  6
Continuous
 62
     7
370
    18
100
AcDbCircle
 10
11.6137544821
 20
9.0896586992
 30
0.0
 40
2.216014863655655
  0
LINE
  5
AA
330
A5
100
AcDbEntity
  8
0
  6
CENTERX2
 62
     7
370
    18
100
AcDbLine
 10
11.6137544821
 20
9.0896586992
 30
0.0
 11
7.8977396184
 21
9.0896586992
 31
0.0
  0
LINE
  5
AB
330
A5
100
AcDbEntity
  8
0
  6
Continuous
 62
     7
370
    18
100
AcDbLine
 10
8.165753588
 20
6.8736438356
 30
0.0
 11
8.165753588
 21
11.3071584591
 31
0.0
  0
LINE
  5
AC
330
A5
100
AcDbEntity
  8
0
  6
Continuous
 62
     7
370
    18
100
AcDbLine
 10
2.6797147895
 20
10.3455677103
 30
0.0
 11
2.6797147895
 21
7.8337496881
 31
0.0
  0
LINE
  5
AD
330
A5
100
AcDbEntity
  8
0
  6
Continuous
 62
     7
370
    18
100
AcDbLine
 10
2.6797147895
 20
7.8337496881
 30
0.0
 11
8.165753588
 21
6.8736438356
 31
0.0
  0
LINE
  5
AE
330
A5
100
AcDbEntity
  8
0
  6
CENTERX2
 62
     7
370
    18
100
AcDbLine
 10
9.665753588
 20
9.0896586992
 30
0.0
 11
1.1797147895
 21
9.0896586992
 31
0.0
  0
LINE
  5
AF
330
A5
100
AcDbEntity
  8
0
  6
Continuous
 62
     7
370
    18
100
AcDbLine
 10
8.165753588
 20
11.3071584591
 30
0.0
 11
2.6797147895
 21
10.3455677103
 31
0.0
  0
LINE
  5
B0
330
A5
100
AcDbEntity
  8
0
  6
CENTERX2
 62
     7
370
    18
100
AcDbLine
 10
11.6137544821
 20
9.0896586992
 30
0.0
 11
11.6137544821
 21
5.3736438356
 31
0.0
  0
LINE
  5
B1
330
A5
100
AcDbEntity
  8
0
  6
CENTERX2
 62
     7
370
    18
100
AcDbLine
 10
11.6137544821
 20
9.0896586992
 30
0.0
 11
11.6137544821
 21
12.8056735629
 31
0.0
  0
LINE
  5
B2
330
A5
100
AcDbEntity
  8
0
  6
CENTERX2
 62
     7
370
    18
100
AcDbLine
 10
11.6137544821
 20
9.0896586992
 30
0.0
 11
15.3297693458
 21
9.0896586992
 31
0.0
  0
INSERT
  5
B8
330
A5
100
AcDbEntity
  8
0
  6
Continuous
 62
     7
370
     0
100
AcDbBlockReference
  2
SW_NOTE_0_2
 10
2.1031832889
 20
2.3754472768
 30
0.0
  0
ENDBLK
  5
A7
330
A5
100
AcDbEntity
  8
0
100
AcDbBlockEnd
  0
BLOCK
  5
B4
330
B3
100
AcDbEntity
  8
0
100
AcDbBlockBegin
  2
SW_NOTE_0_2
 70
     0
 10
0.0
 20
0.0
 30
0.0
  3
SW_NOTE_0_2
  1

  0
MTEXT
  5
B6
330
B3
100
AcDbEntity
  8
0
  6
Continuous
 62
     0
370
     0
100
AcDbMText
 10
6.590625
 20
2.4492287056
 30
0.0
 40
1.9
 41
0.0
 71
     2
 72
     1
  1
DIN 6  T1 - 
  7
SLDTEXTSTYLE0
 73
     1
 44
1.0
  0
MTEXT
  5
B7
330
B3
100
AcDbEntity
  8
0
  6
Continuous
 62
     0
370
     0
100
AcDbMText
 10
6.6569262624
 20
0.0003397443
 30
0.0
 40
1.9
 41
0.0
 71
     2
 72
     1
  1
Proj.methode 1
  7
SLDTEXTSTYLE0
 73
     1
 44
1.0
  0
ENDBLK
  5
B5
330
B3
100
AcDbEntity
  8
0
100
AcDbBlockEnd
  0
BLOCK
  5
BA
330
B9
100
AcDbEntity
  8
0
100
AcDbBlockBegin
  2
Block2_2
 70
     0
 10
0.0
 20
0.0
 30
0.0
  3
Block2_2
  1

  0
ARC
  5
BC
330
B9
100
AcDbEntity
  8
FORMAT
100
AcDbCircle
 10
236.7496365382
 20
57.0990600997
 30
0.0
 40
3.75000000000001
100
AcDbArc
 50
93.8225537293
 51
266.1774462707
  0
ARC
  5
BD
330
B9
100
AcDbEntity
  8
FORMAT
100
AcDbCircle
 10
236.7496365382
 20
57.0990600997
 30
0.0
 40
3.000000000000012
100
AcDbArc
 50
94.7801918472
 51
265.2198081528
  0
ARC
  5
BE
330
B9
100
AcDbEntity
  8
FORMAT
100
AcDbCircle
 10
236.7496365382
 20
57.0990600997
 30
0.0
 40
3.75000000000001
100
AcDbArc
 50
273.8225537293
 51
86.1774462707
  0
ARC
  5
BF
330
B9
100
AcDbEntity
  8
FORMAT
100
AcDbCircle
 10
236.7496365382
 20
57.0990600997
 30
0.0
 40
3.000000000000012
100
AcDbArc
 50
274.7801918472
 51
85.2198081528
  0
ARC
  5
C0
330
B9
100
AcDbEntity
  8
FORMAT
100
AcDbCircle
 10
236.7496365382
 20
58.2320416436
 30
0.0
 40
0.8604027828068846
100
AcDbArc
 50
304.8395134495
 51
73.1084194601
  0
ARC
  5
C1
330
B9
100
AcDbEntity
  8
FORMAT
100
AcDbCircle
 10
236.7496365382
 20
58.2320416436
 30
0.0
 40
1.402314431660661
100
AcDbArc
 50
313.8988153445
 51
79.7306010333
  0
ARC
  5
C2
330
B9
100
AcDbEntity
  8
FORMAT
100
AcDbCircle
 10
236.7496365382
 20
55.4979572256
 30
0.0
 40
0.4915306686725103
100
AcDbArc
 50
300.5716370086
 51
0.0
  0
ARC
  5
C3
330
B9
100
AcDbEntity
  8
FORMAT
100
AcDbCircle
 10
236.7496365382
 20
58.2320416436
 30
0.0
 40
1.402314431660661
100
AcDbArc
 50
100.2693989667
 51
226.1011846555
  0
ARC
  5
C4
330
B9
100
AcDbEntity
  8
FORMAT
100
AcDbCircle
 10
236.7496365382
 20
55.4979572256
 30
0.0
 40
0.9723464985416115
100
AcDbArc
 50
180.0
 51
255.1013518888
  0
ARC
  5
C5
330
B9
100
AcDbEntity
  8
FORMAT
100
AcDbCircle
 10
236.7496365382
 20
55.4979572256
 30
0.0
 40
0.9723464985416115
100
AcDbArc
 50
284.8986481112
 51
0.0
  0
ARC
  5
C6
330
B9
100
AcDbEntity
  8
FORMAT
100
AcDbCircle
 10
236.7496365382
 20
55.4979572256
 30
0.0
 40
0.4915306686725099
100
AcDbArc
 50
180.0
 51
239.4283629914
  0
ARC
  5
C7
330
B9
100
AcDbEntity
  8
FORMAT
100
AcDbCircle
 10
236.7496365382
 20
58.2320416436
 30
0.0
 40
0.8604027828068846
100
AcDbArc
 50
106.8915805399
 51
235.1604865505
  0
LINE
  5
C8
330
B9
100
AcDbEntity
  8
FORMAT
100
AcDbLine
 10
232.5312401271
 20
52.8806636887
 30
0.0
 11
240.9680329492
 21
52.8806636887
 31
0.0
  0
LINE
  5
C9
330
B9
100
AcDbEntity
  8
FORMAT
100
AcDbLine
 10
232.5312401271
 20
61.3174565107
 30
0.0
 11
240.9680329492
 21
61.3174565107
 31
0.0
  0
LINE
  5
CA
330
B9
100
AcDbEntity
  8
FORMAT
100
AcDbLine
 10
232.5312401271
 20
61.3174565107
 30
0.0
 11
232.5312401271
 21
52.8806636887
 31
0.0
  0
LINE
  5
CB
330
B9
100
AcDbEntity
  8
FORMAT
100
AcDbLine
 10
240.9680329492
 20
61.3174565107
 30
0.0
 11
240.9680329492
 21
52.8806636887
 31
0.0
  0
LINE
  5
CC
330
B9
100
AcDbEntity
  8
FORMAT
100
AcDbLine
 10
236.4996365382
 20
60.8407174865
 30
0.0
 11
236.4996365382
 21
60.0886252855
 31
0.0
  0
LINE
  5
CD
330
B9
100
AcDbEntity
  8
FORMAT
100
AcDbLine
 10
236.9996365382
 20
60.8407174865
 30
0.0
 11
236.9996365382
 21
60.0886252855
 31
0.0
  0
LINE
  5
CE
330
B9
100
AcDbEntity
  8
FORMAT
100
AcDbLine
 10
236.4996365382
 20
54.1094949139
 30
0.0
 11
236.4996365382
 21
53.3574027129
 31
0.0
  0
LINE
  5
CF
330
B9
100
AcDbEntity
  8
FORMAT
100
AcDbLine
 10
236.9996365382
 20
54.1094949139
 30
0.0
 11
236.9996365382
 21
53.3574027129
 31
0.0
  0
LINE
  5
D0
330
B9
100
AcDbEntity
  8
FORMAT
100
AcDbLine
 10
236.9996365382
 20
59.6118915504
 30
0.0
 11
236.9996365382
 21
59.0553234597
 31
0.0
  0
LINE
  5
D1
330
B9
100
AcDbEntity
  8
FORMAT
100
AcDbLine
 10
236.4996365382
 20
59.6118915504
 30
0.0
 11
236.4996365382
 21
59.0553234597
 31
0.0
  0
LINE
  5
D2
330
B9
100
AcDbEntity
  8
FORMAT
100
AcDbLine
 10
235.7772900396
 20
55.4979572256
 30
0.0
 11
235.7772900396
 21
57.2215823164
 31
0.0
  0
LINE
  5
D3
330
B9
100
AcDbEntity
  8
FORMAT
100
AcDbLine
 10
237.7219830367
 20
55.4979572256
 30
0.0
 11
237.7219830367
 21
57.2215823164
 31
0.0
  0
LINE
  5
D4
330
B9
100
AcDbEntity
  8
FORMAT
100
AcDbLine
 10
237.2411672068
 20
55.4979572256
 30
0.0
 11
237.2411672068
 21
57.5258613901
 31
0.0
  0
LINE
  5
D5
330
B9
100
AcDbEntity
  8
FORMAT
100
AcDbLine
 10
236.2581058695
 20
55.4979572256
 30
0.0
 11
236.2581058695
 21
57.5258613901
 31
0.0
  0
LINE
  5
D6
330
B9
100
AcDbEntity
  8
FORMAT
100
AcDbLine
 10
236.4996365382
 20
55.0747523127
 30
0.0
 11
236.4996365382
 21
54.5582989296
 31
0.0
  0
LINE
  5
D7
330
B9
100
AcDbEntity
  8
FORMAT
100
AcDbLine
 10
236.9996365382
 20
55.0747523127
 30
0.0
 11
236.9996365382
 21
54.5582989296
 31
0.0
  0
HATCH
  5
D8
330
B9
100
AcDbEntity
  8
FORMAT
100
AcDbHatch
 10
0.0
 20
0.0
 30
0.0
210
0.0
220
0.0
230
1.0
  2
SOLID
 70
     1
 71
     0
 91
        5
 92
        0
 93
        4
 72
     1
 10
240.9680329492058
 20
61.31745651073599
 11
240.9680329492058
 21
52.88066368865002
 72
     1
 10
240.9680329492058
 20
52.88066368865002
 11
232.5312401271199
 21
52.88066368865002
 72
     1
 10
232.5312401271199
 20
52.88066368865002
 11
232.5312401271199
 21
61.31745651073599
 72
     1
 10
232.5312401271199
 20
61.31745651073599
 11
240.9680329492058
 21
61.31745651073599
 97
        0
 92
        0
 93
        4
 72
     2
 10
236.7496365381628
 20
57.09906009969301
 40
3.000000000000011
 50
94.78019184719915
 51
265.2198081528016
 73
     0
 72
     1
 10
236.4996365381628
 20
60.08862528546836
 11
236.4996365381628
 21
60.84071748646695
 72
     2
 10
236.7496365381628
 20
57.09906009969301
 40
3.750000000000007
 50
93.82255372927435
 51
266.1774462707265
 73
     1
 72
     1
 10
236.4996365381628
 20
53.35740271291905
 11
236.4996365381628
 21
54.10949491391764
 97
        0
 92
        0
 93
        8
 72
     1
 10
237.7219830367044
 20
55.49795722557887
 11
237.7219830367044
 21
57.22158231636488
 72
     2
 10
236.7496365381628
 20
58.23204164361047
 40
1.402314431660656
 50
313.8988153445118
 51
439.730601033339
 73
     1
 72
     1
 10
236.9996365381628
 20
59.61189155039155
 11
236.9996365381628
 21
59.05532345967459
 72
     2
 10
236.7496365381628
 20
58.23204164361047
 40
0.8604027828068782
 50
286.8915805399266
 51
415.1604865505413
 73
     0
 72
     1
 10
237.2411672068353
 20
57.52586139012261
 11
237.2411672068353
 21
55.49795722557887
 72
     2
 10
236.7496365381628
 20
55.49795722557887
 40
0.4915306686725041
 50
0.0
 51
59.42836299135124
 73
     0
 72
     1
 10
236.9996365381628
 20
55.07475231274628
 11
236.9996365381628
 21
54.55829892958712
 72
     2
 10
236.7496365381628
 20
55.49795722557887
 40
0.9723464985416097
 50
284.8986481111874
 51
360.0000000000008
 73
     1
 97
        0
 92
        0
 93
        8
 72
     2
 10
236.7496365381628
 20
55.49795722557887
 40
0.4915306686725041
 50
120.5716370086484
 51
180.0
 73
     0
 72
     1
 10
236.2581058694904
 20
55.49795722557887
 11
236.2581058694904
 21
57.52586139012261
 72
     2
 10
236.7496365381628
 20
58.23204164361047
 40
0.8604027828068782
 50
124.839513449458
 51
253.108419460075
 73
     0
 72
     1
 10
236.4996365381628
 20
59.05532345967459
 11
236.4996365381628
 21
59.61189155039155
 72
     2
 10
236.7496365381628
 20
58.23204164361047
 40
1.402314431660656
 50
100.2693989666618
 51
226.1011846554898
 73
     1
 72
     1
 10
235.7772900396212
 20
57.22158231636488
 11
235.7772900396212
 21
55.49795722557887
 72
     2
 10
236.7496365381628
 20
55.49795722557887
 40
0.9723464985416097
 50
180.0
 51
255.1013518888143
 73
     1
 72
     1
 10
236.4996365381628
 20
54.55829892958712
 11
236.4996365381628
 21
55.07475231274628
 97
        0
 92
        0
 93
        4
 72
     2
 10
236.7496365381628
 20
57.09906009969301
 40
3.000000000000011
 50
274.7801918471999
 51
445.2198081528016
 73
     0
 72
     1
 10
236.9996365381628
 20
54.10949491391764
 11
236.9996365381628
 21
53.35740271291905
 72
     2
 10
236.7496365381628
 20
57.09906009969301
 40
3.750000000000007
 50
273.8225537292751
 51
446.1774462707265
 73
     1
 72
     1
 10
236.9996365381628
 20
60.84071748646695
 11
236.9996365381628
 21
60.08862528546836
 97
        0
 75
     0
 76
     1
 98
        1
 10
0.0
 20
0.0
  0
INSERT
  5
DE
330
B9
100
AcDbEntity
  8
FORMAT
 62
     7
100
AcDbBlockReference
  2
SW_NOTE_0_3
 10
232.2514665163
 20
47.7232938825
 30
0.0
  0
INSERT
  5
E6
330
B9
100
AcDbEntity
  8
0
  6
Continuous
 62
     7
370
     0
100
AcDbBlockReference
  2
SW_NOTE_0_4
 10
244.0723034979
 20
57.1176018272
 30
0.0
  0
ENDBLK
  5
BB
330
B9
100
AcDbEntity
  8
0
100
AcDbBlockEnd
  0
BLOCK
  5
DA
330
D9
100
AcDbEntity
  8
0
100
AcDbBlockBegin
  2
SW_NOTE_0_3
 70
     0
 10
0.0
 20
0.0
 30
0.0
  3
SW_NOTE_0_3
  1

  0
MTEXT
  5
DD
330
D9
100
AcDbEntity
  8
FORMAT
 62
     0
100
AcDbMText
 10
0.0
 20
3.8651911469
 30
0.0
 40
3.0
 41
0.0
 71
     1
 72
     1
  1
ECO
  7
SLDTEXTSTYLE1
 73
     1
 44
1.0
  0
ENDBLK
  5
DB
330
D9
100
AcDbEntity
  8
0
100
AcDbBlockEnd
  0
BLOCK
  5
E0
330
DF
100
AcDbEntity
  8
0
100
AcDbBlockBegin
  2
SW_NOTE_0_4
 70
     0
 10
0.0
 20
0.0
 30
0.0
  3
SW_NOTE_0_4
  1

  0
MTEXT
  5
E3
330
DF
100
AcDbEntity
  8
0
  6
Continuous
 62
     0
370
     0
100
AcDbMText
 10
0.0
 20
3.2226693494
 30
0.0
 40
2.5
 41
0.0
 71
     1
 72
     1
  1
ECO Schulte GmbH & Co. KG
  7
SLDTEXTSTYLE2
 73
     1
 44
1.0
  0
MTEXT
  5
E4
330
DF
100
AcDbEntity
  8
0
  6
Continuous
 62
     0
370
     0
100
AcDbMText
 10
0.0
 20
-0.2773307586
 30
0.0
 40
2.5
 41
0.0
 71
     1
 72
     1
  1
Postfach 206
  7
SLDTEXTSTYLE2
 73
     1
 44
1.0
  0
MTEXT
  5
E5
330
DF
100
AcDbEntity
  8
0
  6
Continuous
 62
     0
370
     0
100
AcDbMText
 10
0.0
 20
-3.7773308666
 30
0.0
 40
2.5
 41
0.0
 71
     1
 72
     1
  1
58682 Menden
  7
SLDTEXTSTYLE2
 73
     1
 44
1.0
  0
ENDBLK
  5
E1
330
DF
100
AcDbEntity
  8
0
100
AcDbBlockEnd
  0
BLOCK
  5
E8
330
E7
100
AcDbEntity
  8
0
100
AcDbBlockBegin
  2
Block1_3_1_1
 70
     0
 10
0.0
 20
0.0
 30
0.0
  3
Block1_3_1_1
  1

  0
CIRCLE
  5
EA
330
E7
100
AcDbEntity
  8
0
  6
Continuous
 62
     7
370
    18
100
AcDbCircle
 10
11.6137544821
 20
9.0896586992
 30
0.0
 40
1.255909011058753
  0
CIRCLE
  5
EB
330
E7
100
AcDbEntity
  8
0
  6
Continuous
 62
     7
370
    18
100
AcDbCircle
 10
11.6137544821
 20
9.0896586992
 30
0.0
 40
2.216014863655655
  0
LINE
  5
EC
330
E7
100
AcDbEntity
  8
0
  6
CENTERX2
 62
     7
370
    18
100
AcDbLine
 10
11.6137544821
 20
9.0896586992
 30
0.0
 11
7.8977396184
 21
9.0896586992
 31
0.0
  0
LINE
  5
ED
330
E7
100
AcDbEntity
  8
0
  6
Continuous
 62
     7
370
    18
100
AcDbLine
 10
8.165753588
 20
6.8736438356
 30
0.0
 11
8.165753588
 21
11.3071584591
 31
0.0
  0
LINE
  5
EE
330
E7
100
AcDbEntity
  8
0
  6
Continuous
 62
     7
370
    18
100
AcDbLine
 10
2.6797147895
 20
10.3455677103
 30
0.0
 11
2.6797147895
 21
7.8337496881
 31
0.0
  0
LINE
  5
EF
330
E7
100
AcDbEntity
  8
0
  6
Continuous
 62
     7
370
    18
100
AcDbLine
 10
2.6797147895
 20
7.8337496881
 30
0.0
 11
8.165753588
 21
6.8736438356
 31
0.0
  0
LINE
  5
F0
330
E7
100
AcDbEntity
  8
0
  6
CENTERX2
 62
     7
370
    18
100
AcDbLine
 10
9.665753588
 20
9.0896586992
 30
0.0
 11
1.1797147895
 21
9.0896586992
 31
0.0
  0
LINE
  5
F1
330
E7
100
AcDbEntity
  8
0
  6
Continuous
 62
     7
370
    18
100
AcDbLine
 10
8.165753588
 20
11.3071584591
 30
0.0
 11
2.6797147895
 21
10.3455677103
 31
0.0
  0
LINE
  5
F2
330
E7
100
AcDbEntity
  8
0
  6
CENTERX2
 62
     7
370
    18
100
AcDbLine
 10
11.6137544821
 20
9.0896586992
 30
0.0
 11
11.6137544821
 21
5.3736438356
 31
0.0
  0
LINE
  5
F3
330
E7
100
AcDbEntity
  8
0
  6
CENTERX2
 62
     7
370
    18
100
AcDbLine
 10
11.6137544821
 20
9.0896586992
 30
0.0
 11
11.6137544821
 21
12.8056735629
 31
0.0
  0
LINE
  5
F4
330
E7
100
AcDbEntity
  8
0
  6
CENTERX2
 62
     7
370
    18
100
AcDbLine
 10
11.6137544821
 20
9.0896586992
 30
0.0
 11
15.3297693458
 21
9.0896586992
 31
0.0
  0
INSERT
  5
FA
330
E7
100
AcDbEntity
  8
0
  6
Continuous
 62
     7
370
     0
100
AcDbBlockReference
  2
SW_NOTE_0_5
 10
2.1031832889
 20
2.3754472768
 30
0.0
  0
ENDBLK
  5
E9
330
E7
100
AcDbEntity
  8
0
100
AcDbBlockEnd
  0
BLOCK
  5
F6
330
F5
100
AcDbEntity
  8
0
100
AcDbBlockBegin
  2
SW_NOTE_0_5
 70
     0
 10
0.0
 20
0.0
 30
0.0
  3
SW_NOTE_0_5
  1

  0
MTEXT
  5
F8
330
F5
100
AcDbEntity
  8
0
  6
Continuous
 62
     0
370
     0
100
AcDbMText
 10
6.590625
 20
2.4492287056
 30
0.0
 40
1.9
 41
0.0
 71
     2
 72
     1
  1
DIN 6  T1 - 
  7
SLDTEXTSTYLE0
 73
     1
 44
1.0
  0
MTEXT
  5
F9
330
F5
100
AcDbEntity
  8
0
  6
Continuous
 62
     0
370
     0
100
AcDbMText
 10
6.6569262624
 20
0.0003397443
 30
0.0
 40
1.9
 41
0.0
 71
     2
 72
     1
  1
Proj.methode 1
  7
SLDTEXTSTYLE0
 73
     1
 44
1.0
  0
ENDBLK
  5
F7
330
F5
100
AcDbEntity
  8
0
100
AcDbBlockEnd
  0
BLOCK
  5
FC
330
FB
100
AcDbEntity
  8
0
100
AcDbBlockBegin
  2
Block2_3_1_1
 70
     0
 10
0.0
 20
0.0
 30
0.0
  3
Block2_3_1_1
  1

  0
ARC
  5
FE
330
FB
100
AcDbEntity
  8
FORMAT
100
AcDbCircle
 10
236.7496365382
 20
57.0990600997
 30
0.0
 40
3.75000000000001
100
AcDbArc
 50
93.8225537293
 51
266.1774462707
  0
ARC
  5
FF
330
FB
100
AcDbEntity
  8
FORMAT
100
AcDbCircle
 10
236.7496365382
 20
57.0990600997
 30
0.0
 40
3.000000000000012
100
AcDbArc
 50
94.7801918472
 51
265.2198081528
  0
ARC
  5
100
330
FB
100
AcDbEntity
  8
FORMAT
100
AcDbCircle
 10
236.7496365382
 20
57.0990600997
 30
0.0
 40
3.75000000000001
100
AcDbArc
 50
273.8225537293
 51
86.1774462707
  0
ARC
  5
101
330
FB
100
AcDbEntity
  8
FORMAT
100
AcDbCircle
 10
236.7496365382
 20
57.0990600997
 30
0.0
 40
3.000000000000012
100
AcDbArc
 50
274.7801918472
 51
85.2198081528
  0
ARC
  5
102
330
FB
100
AcDbEntity
  8
FORMAT
100
AcDbCircle
 10
236.7496365382
 20
58.2320416436
 30
0.0
 40
0.8604027828068846
100
AcDbArc
 50
304.8395134495
 51
73.1084194601
  0
ARC
  5
103
330
FB
100
AcDbEntity
  8
FORMAT
100
AcDbCircle
 10
236.7496365382
 20
58.2320416436
 30
0.0
 40
1.402314431660661
100
AcDbArc
 50
313.8988153445
 51
79.7306010333
  0
ARC
  5
104
330
FB
100
AcDbEntity
  8
FORMAT
100
AcDbCircle
 10
236.7496365382
 20
55.4979572256
 30
0.0
 40
0.4915306686725103
100
AcDbArc
 50
300.5716370086
 51
0.0
  0
ARC
  5
105
330
FB
100
AcDbEntity
  8
FORMAT
100
AcDbCircle
 10
236.7496365382
 20
58.2320416436
 30
0.0
 40
1.402314431660661
100
AcDbArc
 50
100.2693989667
 51
226.1011846555
  0
ARC
  5
106
330
FB
100
AcDbEntity
  8
FORMAT
100
AcDbCircle
 10
236.7496365382
 20
55.4979572256
 30
0.0
 40
0.9723464985416115
100
AcDbArc
 50
180.0
 51
255.1013518888
  0
ARC
  5
107
330
FB
100
AcDbEntity
  8
FORMAT
100
AcDbCircle
 10
236.7496365382
 20
55.4979572256
 30
0.0
 40
0.9723464985416115
100
AcDbArc
 50
284.8986481112
 51
0.0
  0
ARC
  5
108
330
FB
100
AcDbEntity
  8
FORMAT
100
AcDbCircle
 10
236.7496365382
 20
55.4979572256
 30
0.0
 40
0.4915306686725099
100
AcDbArc
 50
180.0
 51
239.4283629914
  0
ARC
  5
109
330
FB
100
AcDbEntity
  8
FORMAT
100
AcDbCircle
 10
236.7496365382
 20
58.2320416436
 30
0.0
 40
0.8604027828068846
100
AcDbArc
 50
106.8915805399
 51
235.1604865505
  0
LINE
  5
10A
330
FB
100
AcDbEntity
  8
FORMAT
100
AcDbLine
 10
232.5312401271
 20
52.8806636887
 30
0.0
 11
240.9680329492
 21
52.8806636887
 31
0.0
  0
LINE
  5
10B
330
FB
100
AcDbEntity
  8
FORMAT
100
AcDbLine
 10
232.5312401271
 20
61.3174565107
 30
0.0
 11
240.9680329492
 21
61.3174565107
 31
0.0
  0
LINE
  5
10C
330
FB
100
AcDbEntity
  8
FORMAT
100
AcDbLine
 10
232.5312401271
 20
61.3174565107
 30
0.0
 11
232.5312401271
 21
52.8806636887
 31
0.0
  0
LINE
  5
10D
330
FB
100
AcDbEntity
  8
FORMAT
100
AcDbLine
 10
240.9680329492
 20
61.3174565107
 30
0.0
 11
240.9680329492
 21
52.8806636887
 31
0.0
  0
LINE
  5
10E
330
FB
100
AcDbEntity
  8
FORMAT
100
AcDbLine
 10
236.4996365382
 20
60.8407174865
 30
0.0
 11
236.4996365382
 21
60.0886252855
 31
0.0
  0
LINE
  5
10F
330
FB
100
AcDbEntity
  8
FORMAT
100
AcDbLine
 10
236.9996365382
 20
60.8407174865
 30
0.0
 11
236.9996365382
 21
60.0886252855
 31
0.0
  0
LINE
  5
110
330
FB
100
AcDbEntity
  8
FORMAT
100
AcDbLine
 10
236.4996365382
 20
54.1094949139
 30
0.0
 11
236.4996365382
 21
53.3574027129
 31
0.0
  0
LINE
  5
111
330
FB
100
AcDbEntity
  8
FORMAT
100
AcDbLine
 10
236.9996365382
 20
54.1094949139
 30
0.0
 11
236.9996365382
 21
53.3574027129
 31
0.0
  0
LINE
  5
112
330
FB
100
AcDbEntity
  8
FORMAT
100
AcDbLine
 10
236.9996365382
 20
59.6118915504
 30
0.0
 11
236.9996365382
 21
59.0553234597
 31
0.0
  0
LINE
  5
113
330
FB
100
AcDbEntity
  8
FORMAT
100
AcDbLine
 10
236.4996365382
 20
59.6118915504
 30
0.0
 11
236.4996365382
 21
59.0553234597
 31
0.0
  0
LINE
  5
114
330
FB
100
AcDbEntity
  8
FORMAT
100
AcDbLine
 10
235.7772900396
 20
55.4979572256
 30
0.0
 11
235.7772900396
 21
57.2215823164
 31
0.0
  0
LINE
  5
115
330
FB
100
AcDbEntity
  8
FORMAT
100
AcDbLine
 10
237.7219830367
 20
55.4979572256
 30
0.0
 11
237.7219830367
 21
57.2215823164
 31
0.0
  0
LINE
  5
116
330
FB
100
AcDbEntity
  8
FORMAT
100
AcDbLine
 10
237.2411672068
 20
55.4979572256
 30
0.0
 11
237.2411672068
 21
57.5258613901
 31
0.0
  0
LINE
  5
117
330
FB
100
AcDbEntity
  8
FORMAT
100
AcDbLine
 10
236.2581058695
 20
55.4979572256
 30
0.0
 11
236.2581058695
 21
57.5258613901
 31
0.0
  0
LINE
  5
118
330
FB
100
AcDbEntity
  8
FORMAT
100
AcDbLine
 10
236.4996365382
 20
55.0747523127
 30
0.0
 11
236.4996365382
 21
54.5582989296
 31
0.0
  0
LINE
  5
119
330
FB
100
AcDbEntity
  8
FORMAT
100
AcDbLine
 10
236.9996365382
 20
55.0747523127
 30
0.0
 11
236.9996365382
 21
54.5582989296
 31
0.0
  0
HATCH
  5
11A
330
FB
100
AcDbEntity
  8
FORMAT
100
AcDbHatch
 10
0.0
 20
0.0
 30
0.0
210
0.0
220
0.0
230
1.0
  2
SOLID
 70
     1
 71
     0
 91
        5
 92
        0
 93
        4
 72
     1
 10
240.9680329492058
 20
61.31745651073599
 11
240.9680329492058
 21
52.88066368865002
 72
     1
 10
240.9680329492058
 20
52.88066368865002
 11
232.5312401271199
 21
52.88066368865002
 72
     1
 10
232.5312401271199
 20
52.88066368865002
 11
232.5312401271199
 21
61.31745651073599
 72
     1
 10
232.5312401271199
 20
61.31745651073599
 11
240.9680329492058
 21
61.31745651073599
 97
        0
 92
        0
 93
        4
 72
     2
 10
236.7496365381628
 20
57.09906009969301
 40
3.000000000000011
 50
94.78019184719915
 51
265.2198081528016
 73
     0
 72
     1
 10
236.4996365381628
 20
60.08862528546836
 11
236.4996365381628
 21
60.84071748646695
 72
     2
 10
236.7496365381628
 20
57.09906009969301
 40
3.750000000000007
 50
93.82255372927435
 51
266.1774462707265
 73
     1
 72
     1
 10
236.4996365381628
 20
53.35740271291905
 11
236.4996365381628
 21
54.10949491391764
 97
        0
 92
        0
 93
        8
 72
     1
 10
237.7219830367044
 20
55.49795722557887
 11
237.7219830367044
 21
57.22158231636488
 72
     2
 10
236.7496365381628
 20
58.23204164361047
 40
1.402314431660656
 50
313.8988153445118
 51
439.730601033339
 73
     1
 72
     1
 10
236.9996365381628
 20
59.61189155039155
 11
236.9996365381628
 21
59.05532345967459
 72
     2
 10
236.7496365381628
 20
58.23204164361047
 40
0.8604027828068782
 50
286.8915805399266
 51
415.1604865505413
 73
     0
 72
     1
 10
237.2411672068353
 20
57.52586139012261
 11
237.2411672068353
 21
55.49795722557887
 72
     2
 10
236.7496365381628
 20
55.49795722557887
 40
0.4915306686725041
 50
0.0
 51
59.42836299135124
 73
     0
 72
     1
 10
236.9996365381628
 20
55.07475231274628
 11
236.9996365381628
 21
54.55829892958712
 72
     2
 10
236.7496365381628
 20
55.49795722557887
 40
0.9723464985416097
 50
284.8986481111874
 51
360.0000000000008
 73
     1
 97
        0
 92
        0
 93
        8
 72
     2
 10
236.7496365381628
 20
55.49795722557887
 40
0.4915306686725041
 50
120.5716370086484
 51
180.0
 73
     0
 72
     1
 10
236.2581058694904
 20
55.49795722557887
 11
236.2581058694904
 21
57.52586139012261
 72
     2
 10
236.7496365381628
 20
58.23204164361047
 40
0.8604027828068782
 50
124.839513449458
 51
253.108419460075
 73
     0
 72
     1
 10
236.4996365381628
 20
59.05532345967459
 11
236.4996365381628
 21
59.61189155039155
 72
     2
 10
236.7496365381628
 20
58.23204164361047
 40
1.402314431660656
 50
100.2693989666618
 51
226.1011846554898
 73
     1
 72
     1
 10
235.7772900396212
 20
57.22158231636488
 11
235.7772900396212
 21
55.49795722557887
 72
     2
 10
236.7496365381628
 20
55.49795722557887
 40
0.9723464985416097
 50
180.0
 51
255.1013518888143
 73
     1
 72
     1
 10
236.4996365381628
 20
54.55829892958712
 11
236.4996365381628
 21
55.07475231274628
 97
        0
 92
        0
 93
        4
 72
     2
 10
236.7496365381628
 20
57.09906009969301
 40
3.000000000000011
 50
274.7801918471999
 51
445.2198081528016
 73
     0
 72
     1
 10
236.9996365381628
 20
54.10949491391764
 11
236.9996365381628
 21
53.35740271291905
 72
     2
 10
236.7496365381628
 20
57.09906009969301
 40
3.750000000000007
 50
273.8225537292751
 51
446.1774462707265
 73
     1
 72
     1
 10
236.9996365381628
 20
60.84071748646695
 11
236.9996365381628
 21
60.08862528546836
 97
        0
 75
     0
 76
     1
 98
        1
 10
0.0
 20
0.0
  0
INSERT
  5
11F
330
FB
100
AcDbEntity
  8
FORMAT
 62
     7
100
AcDbBlockReference
  2
SW_NOTE_0_6
 10
232.2514665163
 20
47.7232938825
 30
0.0
  0
INSERT
  5
126
330
FB
100
AcDbEntity
  8
0
  6
Continuous
 62
     7
370
     0
100
AcDbBlockReference
  2
SW_NOTE_0_7
 10
244.0723034979
 20
57.1176018272
 30
0.0
  0
ENDBLK
  5
FD
330
FB
100
AcDbEntity
  8
0
100
AcDbBlockEnd
  0
BLOCK
  5
11C
330
11B
100
AcDbEntity
  8
0
100
AcDbBlockBegin
  2
SW_NOTE_0_6
 70
     0
 10
0.0
 20
0.0
 30
0.0
  3
SW_NOTE_0_6
  1

  0
MTEXT
  5
11E
330
11B
100
AcDbEntity
  8
FORMAT
 62
     0
100
AcDbMText
 10
0.0
 20
3.8651911469
 30
0.0
 40
3.0
 41
0.0
 71
     1
 72
     1
  1
ECO
  7
SLDTEXTSTYLE1
 73
     1
 44
1.0
  0
ENDBLK
  5
11D
330
11B
100
AcDbEntity
  8
0
100
AcDbBlockEnd
  0
BLOCK
  5
121
330
120
100
AcDbEntity
  8
0
100
AcDbBlockBegin
  2
SW_NOTE_0_7
 70
     0
 10
0.0
 20
0.0
 30
0.0
  3
SW_NOTE_0_7
  1

  0
MTEXT
  5
123
330
120
100
AcDbEntity
  8
0
  6
Continuous
 62
     0
370
     0
100
AcDbMText
 10
0.0
 20
3.2226693494
 30
0.0
 40
2.5
 41
0.0
 71
     1
 72
     1
  1
ECO Schulte GmbH & Co. KG
  7
SLDTEXTSTYLE2
 73
     1
 44
1.0
  0
MTEXT
  5
124
330
120
100
AcDbEntity
  8
0
  6
Continuous
 62
     0
370
     0
100
AcDbMText
 10
0.0
 20
-0.2773307586
 30
0.0
 40
2.5
 41
0.0
 71
     1
 72
     1
  1
Postfach 206
  7
SLDTEXTSTYLE2
 73
     1
 44
1.0
  0
MTEXT
  5
125
330
120
100
AcDbEntity
  8
0
  6
Continuous
 62
     0
370
     0
100
AcDbMText
 10
0.0
 20
-3.7773308666
 30
0.0
 40
2.5
 41
0.0
 71
     1
 72
     1
  1
58682 Menden
  7
SLDTEXTSTYLE2
 73
     1
 44
1.0
  0
ENDBLK
  5
122
330
120
100
AcDbEntity
  8
0
100
AcDbBlockEnd
  0
BLOCK
  5
128
330
127
100
AcDbEntity
  8
0
100
AcDbBlockBegin
  2
rechtlicher_Hinweis_Katalogzeichnungen_1_1
 70
     0
 10
0.0
 20
0.0
 30
0.0
  3
rechtlicher_Hinweis_Katalogzeichnungen_1_1
  1

  0
INSERT
  5
132
330
127
100
AcDbEntity
  8
0
  6
Continuous
 62
     7
370
     0
100
AcDbBlockReference
  2
SW_NOTE_0_8
 10
0.677633552
 20
47.8243897458
 30
0.0
  0
ENDBLK
  5
129
330
127
100
AcDbEntity
  8
0
100
AcDbBlockEnd
  0
BLOCK
  5
12B
330
12A
100
AcDbEntity
  8
0
100
AcDbBlockBegin
  2
SW_NOTE_0_8
 70
     0
 10
0.0
 20
0.0
 30
0.0
  3
SW_NOTE_0_8
  1

  0
MTEXT
  5
12D
330
12A
100
AcDbEntity
  8
0
  6
Continuous
 62
     0
370
     0
100
AcDbMText
 10
0.0
 20
6.4453386989
 30
0.0
 40
5.0
 41
0.0
 71
     1
 72
     1
  1
Technische Änderungen und Irrtümer vorbehalten. Aus dem Gebrauch der Zeichnung können keinerlei Ansprüche (inkl. 
  7
SLDTEXTSTYLE0
 73
     1
 44
1.0
  0
MTEXT
  5
12E
330
12A
100
AcDbEntity
  8
0
  6
Continuous
 62
     0
370
     0
100
AcDbMText
 10
0.0
 20
-0.5546615172
 30
0.0
 40
5.0
 41
0.0
 71
     1
 72
     1
  1
Schadenersatzansprüche) erhoben und gegen ECO Schulte geltend gemacht werden. Die Zeichnung bleibt unser Eigentum. Sämtliche 
  7
SLDTEXTSTYLE0
 73
     1
 44
1.0
  0
MTEXT
  5
12F
330
12A
100
AcDbEntity
  8
0
  6
Continuous
 62
     0
370
     0
100
AcDbMText
 10
0.0
 20
-7.5546617333
 30
0.0
 40
5.0
 41
0.0
 71
     1
 72
     1
  1
sich aus der Zeichnung ergebenden Ansprüche stehen ausschließlich ECO Schulte zu.
  7
SLDTEXTSTYLE0
 73
     1
 44
1.0
  0
MTEXT
  5
130
330
12A
100
AcDbEntity
  8
0
  6
Continuous
 62
     0
370
     0
100
AcDbMText
 10
0.0
 20
-21.5546621654
 30
0.0
 40
5.0
 41
0.0
 71
     1
 72
     1
  1
Technical changes and errors excepted. No claims (including compensation claims) may be raised against ECO Schulte by using of this 
  7
SLDTEXTSTYLE0
 73
     1
 44
1.0
  0
MTEXT
  5
131
330
12A
100
AcDbEntity
  8
0
  6
Continuous
 62
     0
370
     0
100
AcDbMText
 10
0.0
 20
-28.5546623815
 30
0.0
 40
5.0
 41
0.0
 71
     1
 72
     1
  1
drawing. The drawing remains the property of ECO Schulte. All claims resulting from this drawing are solely entitled to ECO Schulte.
  7
SLDTEXTSTYLE0
 73
     1
 44
1.0
  0
ENDBLK
  5
12C
330
12A
100
AcDbEntity
  8
0
100
AcDbBlockEnd
  0
BLOCK
  5
157
330
156
100
AcDbEntity
  8
0
100
AcDbBlockBegin
  2
SW_NOTE_0_9
 70
     0
 10
0.0
 20
0.0
 30
0.0
  3
SW_NOTE_0_9
  1

  0
MTEXT
  5
159
330
156
100
AcDbEntity
  8
FORMAT
 62
     0
100
AcDbMText
 10
0.0
 20
2.5781354795
 30
0.0
 40
2.0
 41
0.0
 71
     1
 72
     1
  1
Technische Änderungen und Irrtümer vorbehalten. Aus dem Gebrauch der Zeichnung 
  7
SLDTEXTSTYLE0
 73
     1
 44
1.0
  0
MTEXT
  5
15A
330
156
100
AcDbEntity
  8
FORMAT
 62
     0
100
AcDbMText
 10
0.0
 20
-0.4218645465
 30
0.0
 40
2.0
 41
0.0
 71
     1
 72
     1
  1
können keinerlei Ansprüche (inkl. Schadenersatzansprüche) erhoben und gegen ECO 
  7
SLDTEXTSTYLE0
 73
     1
 44
1.0
  0
MTEXT
  5
15B
330
156
100
AcDbEntity
  8
FORMAT
 62
     0
100
AcDbMText
 10
0.0
 20
-3.4218645726
 30
0.0
 40
2.0
 41
0.0
 71
     1
 72
     1
  1
Schulte geltend gemacht werden. Die Zeichnung bleibt unser Eigentum. Sämtliche sich 
  7
SLDTEXTSTYLE0
 73
     1
 44
1.0
  0
MTEXT
  5
15C
330
156
100
AcDbEntity
  8
FORMAT
 62
     0
100
AcDbMText
 10
0.0
 20
-6.4218645987
 30
0.0
 40
2.0
 41
0.0
 71
     1
 72
     1
  1
aus der Zeichnung ergebenden Ansprüche stehen ausschließlich ECO Schulte zu. 
  7
SLDTEXTSTYLE0
 73
     1
 44
1.0
  0
MTEXT
  5
15D
330
156
100
AcDbEntity
  8
FORMAT
 62
     0
100
AcDbMText
 10
0.0
 20
-12.4218646508
 30
0.0
 40
2.0
 41
0.0
 71
     1
 72
     1
  1
Technical changes and errors excepted. No claims (including compensation claims) may 
  7
SLDTEXTSTYLE0
 73
     1
 44
1.0
  0
MTEXT
  5
15E
330
156
100
AcDbEntity
  8
FORMAT
 62
     0
100
AcDbMText
 10
0.0
 20
-15.4218646769
 30
0.0
 40
2.0
 41
0.0
 71
     1
 72
     1
  1
be raised against ECO Schulte by using of this drawing. The drawing remains the property 
  7
SLDTEXTSTYLE0
 73
     1
 44
1.0
  0
MTEXT
  5
15F
330
156
100
AcDbEntity
  8
FORMAT
 62
     0
100
AcDbMText
 10
0.0
 20
-18.421864703
 30
0.0
 40
2.0
 41
0.0
 71
     1
 72
     1
  1
of ECO Schulte. All claims resulting from this drawing are solely entitled to ECO Schulte.
  7
SLDTEXTSTYLE0
 73
     1
 44
1.0
  0
ENDBLK
  5
158
330
156
100
AcDbEntity
  8
0
100
AcDbBlockEnd
  0
BLOCK
  5
1B2
330
1B1
100
AcDbEntity
  8
0
100
AcDbBlockBegin
  2
_D
 70
     0
 10
0.0
 20
0.0
 30
0.0
  3
_D
  1

  0
SOLID
  5
1B4
330
1B1
100
AcDbEntity
  8
FORMAT
100
AcDbTrace
 10
214.6041923716
 20
166.4786803474
 30
0.0
 11
214.0961923716
 21
163.1766803474
 31
0.0
 12
215.1121923716
 22
163.1766803474
 32
0.0
 13
215.1121923716
 23
163.1766803474
 33
0.0
  0
SOLID
  5
1B5
330
1B1
100
AcDbEntity
  8
FORMAT
100
AcDbTrace
 10
214.6041923716
 20
136.4786803474
 30
0.0
 11
215.1121923716
 21
139.7806803474
 31
0.0
 12
214.0961923716
 22
139.7806803474
 32
0.0
 13
214.0961923716
 23
139.7806803474
 33
0.0
  0
LINE
  5
1B6
330
1B1
100
AcDbEntity
  8
FORMAT
100
AcDbLine
 10
226.6648229398
 20
166.4786803474
 30
0.0
 11
222.5674958555
 21
166.4786803474
 31
0.0
  0
LINE
  5
1B7
330
1B1
100
AcDbEntity
  8
FORMAT
100
AcDbLine
 10
219.5674958555
 20
166.4786803474
 30
0.0
 11
213.6041923716
 21
166.4786803474
 31
0.0
  0
LINE
  5
1B8
330
1B1
100
AcDbEntity
  8
FORMAT
100
AcDbLine
 10
230.1648229398
 20
136.4786803474
 30
0.0
 11
213.6041923716
 21
136.4786803474
 31
0.0
  0
LINE
  5
1B9
330
1B1
100
AcDbEntity
  8
FORMAT
100
AcDbLine
 10
214.6041923716
 20
166.4786803474
 30
0.0
 11
214.6041923716
 21
136.4786803474
 31
0.0
  0
MTEXT
  5
1BA
330
1B1
100
AcDbEntity
  8
FORMAT
100
AcDbMText
 10
210.0924550496
 20
148.8050693026
 30
0.0
 40
3.5
 41
0.0
 71
     1
 72
     1
  1
30
  7
SLDTEXTSTYLE0
 11
-7.044195017643634E-15
 21
1.0
 31
0.0
 73
     1
 44
1.0
  0
ENDBLK
  5
1B3
330
1B1
100
AcDbEntity
  8
0
100
AcDbBlockEnd
  0
BLOCK
  5
1BE
330
1BD
100
AcDbEntity
  8
0
100
AcDbBlockBegin
  2
_D_1
 70
     0
 10
0.0
 20
0.0
 30
0.0
  3
_D_1
  1

  0
SOLID
  5
1C0
330
1BD
100
AcDbEntity
  8
FORMAT
100
AcDbTrace
 10
221.0674958555
 20
162.7286803474
 30
0.0
 11
221.5754958555
 21
166.0306803474
 31
0.0
 12
220.5594958555
 22
166.0306803474
 32
0.0
 13
220.5594958555
 23
166.0306803474
 33
0.0
  0
SOLID
  5
1C1
330
1BD
100
AcDbEntity
  8
FORMAT
100
AcDbTrace
 10
221.0674958555
 20
156.2286803474
 30
0.0
 11
220.5594958555
 21
152.9266803474
 31
0.0
 12
221.5754958555
 22
152.9266803474
 32
0.0
 13
221.5754958555
 23
152.9266803474
 33
0.0
  0
LINE
  5
1C2
330
1BD
100
AcDbEntity
  8
FORMAT
100
AcDbLine
 10
226.6648229398
 20
162.7286803474
 30
0.0
 11
220.0674958555
 21
162.7286803474
 31
0.0
  0
LINE
  5
1C3
330
1BD
100
AcDbEntity
  8
FORMAT
100
AcDbLine
 10
226.6648229398
 20
156.2286803474
 30
0.0
 11
220.0674958555
 21
156.2286803474
 31
0.0
  0
LINE
  5
1C4
330
1BD
100
AcDbEntity
  8
FORMAT
100
AcDbLine
 10
221.0674958555
 20
162.7286803474
 30
0.0
 11
221.0674958555
 21
180.6989579245
 31
0.0
  0
LINE
  5
1C5
330
1BD
100
AcDbEntity
  8
FORMAT
100
AcDbLine
 10
221.0674958555
 20
162.7286803474
 30
0.0
 11
221.0674958555
 21
156.2286803474
 31
0.0
  0
LINE
  5
1C6
330
1BD
100
AcDbEntity
  8
FORMAT
100
AcDbLine
 10
221.0674958555
 20
156.2286803474
 30
0.0
 11
221.0674958555
 21
149.8786803474
 31
0.0
  0
MTEXT
  5
1C7
330
1BD
100
AcDbEntity
  8
FORMAT
100
AcDbMText
 10
216.5557587663
 20
168.9119792327
 30
0.0
 40
3.5
 41
0.0
 71
     1
 72
     1
  1
%%c
  7
SLDTEXTSTYLE0
 11
-7.044195017643634E-15
 21
1.0
 31
0.0
 73
     1
 44
1.0
  0
MTEXT
  5
1C8
330
1BD
100
AcDbEntity
  8
FORMAT
100
AcDbMText
 10
216.5460364572
 20
174.014930778
 30
0.0
 40
3.5
 41
0.0
 71
     1
 72
     1
  1
6,5
  7
SLDTEXTSTYLE0
 11
-7.044195017643634E-15
 21
1.0
 31
0.0
 73
     1
 44
1.0
  0
ENDBLK
  5
1BF
330
1BD
100
AcDbEntity
  8
0
100
AcDbBlockEnd
  0
BLOCK
  5
1CB
330
1CA
100
AcDbEntity
  8
0
100
AcDbBlockBegin
  2
_D_2
 70
     0
 10
0.0
 20
0.0
 30
0.0
  3
_D_2
  1

  0
SOLID
  5
1CD
330
1CA
100
AcDbEntity
  8
FORMAT
100
AcDbTrace
 10
244.7638707853
 20
164.9786803474
 30
0.0
 11
244.2558707853
 21
161.6766803474
 31
0.0
 12
245.2718707853
 22
161.6766803474
 32
0.0
 13
245.2718707853
 23
161.6766803474
 33
0.0
  0
SOLID
  5
1CE
330
1CA
100
AcDbEntity
  8
FORMAT
100
AcDbTrace
 10
244.7638707853
 20
153.9786803474
 30
0.0
 11
245.2718707853
 21
157.2806803474
 31
0.0
 12
244.2558707853
 22
157.2806803474
 32
0.0
 13
244.2558707853
 23
157.2806803474
 33
0.0
  0
LINE
  5
1CF
330
1CA
100
AcDbEntity
  8
FORMAT
100
AcDbLine
 10
231.6648229398
 20
164.9786803474
 30
0.0
 11
245.7638707853
 21
164.9786803474
 31
0.0
  0
LINE
  5
1D0
330
1CA
100
AcDbEntity
  8
FORMAT
100
AcDbLine
 10
231.6648229398
 20
153.9786803474
 30
0.0
 11
245.7638707853
 21
153.9786803474
 31
0.0
  0
LINE
  5
1D1
330
1CA
100
AcDbEntity
  8
FORMAT
100
AcDbLine
 10
244.7638707853
 20
164.9786803474
 30
0.0
 11
244.7638707853
 21
153.9786803474
 31
0.0
  0
MTEXT
  5
1D2
330
1CA
100
AcDbEntity
  8
FORMAT
100
AcDbMText
 10
240.2521336961
 20
154.2535937628
 30
0.0
 40
3.5
 41
0.0
 71
     1
 72
     1
  1
%%c
  7
SLDTEXTSTYLE0
 11
-7.044195017643634E-15
 21
1.0
 31
0.0
 73
     1
 44
1.0
  0
MTEXT
  5
1D3
330
1CA
100
AcDbEntity
  8
FORMAT
100
AcDbMText
 10
240.2424113869
 20
159.356545308
 30
0.0
 40
3.5
 41
0.0
 71
     1
 72
     1
  1
11
  7
SLDTEXTSTYLE0
 11
-7.044195017643634E-15
 21
1.0
 31
0.0
 73
     1
 44
1.0
  0
ENDBLK
  5
1CC
330
1CA
100
AcDbEntity
  8
0
100
AcDbBlockEnd
  0
BLOCK
  5
1D7
330
1D6
100
AcDbEntity
  8
0
100
AcDbBlockBegin
  2
_D_3
 70
     0
 10
0.0
 20
0.0
 30
0.0
  3
_D_3
  1

  0
ARC
  5
1D9
330
1D6
100
AcDbEntity
  8
FORMAT
100
AcDbCircle
 10
225.1648229398
 20
159.4786803474
 30
0.0
 40
27.58625608822351
100
AcDbArc
 50
315.0
 51
45.0
  0
SOLID
  5
1DA
330
1D6
100
AcDbEntity
  8
FORMAT
100
AcDbTrace
 10
244.6712516874
 20
139.9722515999
 30
0.0
 11
247.2429397319
 21
142.1047826317
 31
0.0
 12
246.4830257549
 22
142.7791614182
 32
0.0
 13
246.4830257549
 23
142.7791614182
 33
0.0
  0
SOLID
  5
1DB
330
1D6
100
AcDbEntity
  8
FORMAT
100
AcDbTrace
 10
244.6712516874
 20
178.985109095
 30
0.0
 11
246.4830257549
 21
176.1781992767
 31
0.0
 12
247.2429397319
 22
176.8525780632
 32
0.0
 13
247.2429397319
 23
176.8525780632
 33
0.0
  0
LINE
  5
1DC
330
1D6
100
AcDbEntity
  8
FORMAT
100
AcDbLine
 10
231.371929721
 20
153.2715735663
 30
0.0
 11
245.3783584686
 21
139.2651448187
 31
0.0
  0
LINE
  5
1DD
330
1D6
100
AcDbEntity
  8
FORMAT
100
AcDbLine
 10
231.371929721
 20
165.6857871286
 30
0.0
 11
245.3783584686
 21
179.6922158762
 31
0.0
  0
MTEXT
  5
1DE
330
1D6
100
AcDbEntity
  8
FORMAT
100
AcDbMText
 10
248.239341706
 20
155.8425693078
 30
0.0
 40
3.5
 41
0.0
 71
     1
 72
     1
  1
90°
  7
SLDTEXTSTYLE0
 11
-4.823748968393321E-15
 21
1.0
 31
0.0
 73
     1
 44
1.0
  0
ENDBLK
  5
1D8
330
1D6
100
AcDbEntity
  8
0
100
AcDbBlockEnd
  0
BLOCK
  5
1E1
330
1E0
100
AcDbEntity
  8
0
100
AcDbBlockBegin
  2
_D_4
 70
     0
 10
0.0
 20
0.0
 30
0.0
  3
_D_4
  1

  0
SOLID
  5
1E3
330
1E0
100
AcDbEntity
  8
FORMAT
100
AcDbTrace
 10
227.6648229398
 20
181.4639711181
 30
0.0
 11
230.9668229398
 21
180.9559711181
 31
0.0
 12
230.9668229398
 22
181.9719711181
 32
0.0
 13
230.9668229398
 23
181.9719711181
 33
0.0
  0
SOLID
  5
1E4
330
1E0
100
AcDbEntity
  8
FORMAT
100
AcDbTrace
 10
238.1648229398
 20
181.4639711181
 30
0.0
 11
234.8628229398
 21
181.9719711181
 31
0.0
 12
234.8628229398
 22
180.9559711181
 32
0.0
 13
234.8628229398
 23
180.9559711181
 33
0.0
  0
LINE
  5
1E5
330
1E0
100
AcDbEntity
  8
FORMAT
100
AcDbLine
 10
227.6648229398
 20
167.4786803474
 30
0.0
 11
227.6648229398
 21
182.4639711181
 31
0.0
  0
LINE
  5
1E6
330
1E0
100
AcDbEntity
  8
FORMAT
100
AcDbLine
 10
238.1648229398
 20
167.4786803474
 30
0.0
 11
238.1648229398
 21
182.4639711181
 31
0.0
  0
LINE
  5
1E7
330
1E0
100
AcDbEntity
  8
FORMAT
100
AcDbLine
 10
227.6648229398
 20
181.4639711181
 30
0.0
 11
238.1648229398
 21
181.4639711181
 31
0.0
  0
MTEXT
  5
1E8
330
1E0
100
AcDbEntity
  8
FORMAT
100
AcDbMText
 10
228.2360036113
 20
185.9757084402
 30
0.0
 40
3.5
 41
0.0
 71
     1
 72
     1
  1
10,5
  7
SLDTEXTSTYLE0
 73
     1
 44
1.0
  0
ENDBLK
  5
1E2
330
1E0
100
AcDbEntity
  8
0
100
AcDbBlockEnd
  0
BLOCK
  5
1EB
330
1EA
100
AcDbEntity
  8
0
100
AcDbBlockBegin
  2
_D_5
 70
     0
 10
0.0
 20
0.0
 30
0.0
  3
_D_5
  1

  0
SOLID
  5
1ED
330
1EA
100
AcDbEntity
  8
FORMAT
100
AcDbTrace
 10
227.6648229398
 20
191.5183674787
 30
0.0
 11
230.9668229398
 21
191.0103674787
 31
0.0
 12
230.9668229398
 22
192.0263674787
 32
0.0
 13
230.9668229398
 23
192.0263674787
 33
0.0
  0
SOLID
  5
1EE
330
1EA
100
AcDbEntity
  8
FORMAT
100
AcDbTrace
 10
262.1648229398
 20
191.5183674787
 30
0.0
 11
258.8628229398
 21
192.0263674787
 31
0.0
 12
258.8628229398
 22
191.0103674787
 32
0.0
 13
258.8628229398
 23
191.0103674787
 33
0.0
  0
LINE
  5
1EF
330
1EA
100
AcDbEntity
  8
FORMAT
100
AcDbLine
 10
227.6648229398
 20
149.4786803474
 30
0.0
 11
227.6648229398
 21
192.5183674787
 31
0.0
  0
LINE
  5
1F0
330
1EA
100
AcDbEntity
  8
FORMAT
100
AcDbLine
 10
262.1648229398
 20
129.9786803474
 30
0.0
 11
262.1648229398
 21
192.5183674787
 31
0.0
  0
LINE
  5
1F1
330
1EA
100
AcDbEntity
  8
FORMAT
100
AcDbLine
 10
227.6648229398
 20
191.5183674787
 30
0.0
 11
262.1648229398
 21
191.5183674787
 31
0.0
  0
MTEXT
  5
1F2
330
1EA
100
AcDbEntity
  8
FORMAT
100
AcDbMText
 10
240.2360036113
 20
196.0301048007
 30
0.0
 40
3.5
 41
0.0
 71
     1
 72
     1
  1
34,5
  7
SLDTEXTSTYLE0
 73
     1
 44
1.0
  0
ENDBLK
  5
1EC
330
1EA
100
AcDbEntity
  8
0
100
AcDbBlockEnd
  0
BLOCK
  5
1F5
330
1F4
100
AcDbEntity
  8
0
100
AcDbBlockBegin
  2
_D_6
 70
     0
 10
0.0
 20
0.0
 30
0.0
  3
_D_6
  1

  0
SOLID
  5
1F7
330
1F4
100
AcDbEntity
  8
FORMAT
100
AcDbTrace
 10
206.9374157167
 20
166.4786803474
 30
0.0
 11
206.4294157167
 21
163.1766803474
 31
0.0
 12
207.4454157167
 22
163.1766803474
 32
0.0
 13
207.4454157167
 23
163.1766803474
 33
0.0
  0
SOLID
  5
1F8
330
1F4
100
AcDbEntity
  8
FORMAT
100
AcDbTrace
 10
206.9374157167
 20
128.9786803474
 30
0.0
 11
207.4454157167
 21
132.2806803474
 31
0.0
 12
206.4294157167
 22
132.2806803474
 32
0.0
 13
206.4294157167
 23
132.2806803474
 33
0.0
  0
LINE
  5
1F9
330
1F4
100
AcDbEntity
  8
FORMAT
100
AcDbLine
 10
226.6648229398
 20
166.4786803474
 30
0.0
 11
205.9374157167
 21
166.4786803474
 31
0.0
  0
LINE
  5
1FA
330
1F4
100
AcDbEntity
  8
FORMAT
100
AcDbLine
 10
249.6648229398
 20
128.9786803474
 30
0.0
 11
205.9374157167
 21
128.9786803474
 31
0.0
  0
LINE
  5
1FB
330
1F4
100
AcDbEntity
  8
FORMAT
100
AcDbLine
 10
206.9374157167
 20
166.4786803474
 30
0.0
 11
206.9374157167
 21
128.9786803474
 31
0.0
  0
MTEXT
  5
1FC
330
1F4
100
AcDbEntity
  8
FORMAT
100
AcDbMText
 10
202.4256783947
 20
143.0498610189
 30
0.0
 40
3.5
 41
0.0
 71
     1
 72
     1
  1
37,5
  7
SLDTEXTSTYLE0
 11
-7.044195017643634E-15
 21
1.0
 31
0.0
 73
     1
 44
1.0
  0
ENDBLK
  5
1F6
330
1F4
100
AcDbEntity
  8
0
100
AcDbBlockEnd
  0
BLOCK
  5
1FE
330
1FD
100
AcDbEntity
  8
0
100
AcDbBlockBegin
  2
SW_CENTERMARKSYMBOL_0
 70
     0
 10
0.0
 20
0.0
 30
0.0
  3
SW_CENTERMARKSYMBOL_0
  1

  0
LINE
  5
200
330
1FD
100
AcDbEntity
  8
FORMAT
 62
     0
100
AcDbLine
 10
0.0
 20
0.0
 30
0.0
 11
0.0
 21
2.5
 31
0.0
  0
LINE
  5
201
330
1FD
100
AcDbEntity
  8
FORMAT
 62
     0
100
AcDbLine
 10
0.0
 20
0.0
 30
0.0
 11
-2.5
 21
0.0
 31
0.0
  0
LINE
  5
202
330
1FD
100
AcDbEntity
  8
FORMAT
 62
     0
100
AcDbLine
 10
0.0
 20
0.0
 30
0.0
 11
0.0
 21
-2.5
 31
0.0
  0
LINE
  5
203
330
1FD
100
AcDbEntity
  8
FORMAT
 62
     0
100
AcDbLine
 10
0.0
 20
0.0
 30
0.0
 11
2.5
 21
0.0
 31
0.0
  0
LINE
  5
204
330
1FD
100
AcDbEntity
  8
FORMAT
 62
     0
100
AcDbLine
 10
0.0
 20
5.0
 30
0.0
 11
0.0
 21
11.5
 31
0.0
  0
LINE
  5
205
330
1FD
100
AcDbEntity
  8
FORMAT
 62
     0
100
AcDbLine
 10
-5.0
 20
0.0
 30
0.0
 11
-11.5
 21
0.0
 31
0.0
  0
LINE
  5
206
330
1FD
100
AcDbEntity
  8
FORMAT
 62
     0
100
AcDbLine
 10
0.0
 20
-5.0
 30
0.0
 11
0.0
 21
-11.5
 31
0.0
  0
LINE
  5
207
330
1FD
100
AcDbEntity
  8
FORMAT
 62
     0
100
AcDbLine
 10
5.0
 20
0.0
 30
0.0
 11
11.5
 21
0.0
 31
0.0
  0
ENDBLK
  5
1FF
330
1FD
100
AcDbEntity
  8
0
100
AcDbBlockEnd
  0
BLOCK
  5
257
330
256
100
AcDbEntity
  8
0
100
AcDbBlockBegin
  2
_D_7
 70
     0
 10
0.0
 20
0.0
 30
0.0
  3
_D_7
  1

  0
SOLID
  5
259
330
256
100
AcDbEntity
  8
FORMAT
100
AcDbTrace
 10
227.6648229398
 20
121.3589967336
 30
0.0
 11
224.3628229398
 21
121.8669967336
 31
0.0
 12
224.3628229398
 22
120.8509967336
 32
0.0
 13
224.3628229398
 23
120.8509967336
 33
0.0
  0
SOLID
  5
25A
330
256
100
AcDbEntity
  8
FORMAT
100
AcDbTrace
 10
230.6648229398
 20
121.3589967336
 30
0.0
 11
233.9668229398
 21
120.8509967336
 31
0.0
 12
233.9668229398
 22
121.8669967336
 32
0.0
 13
233.9668229398
 23
121.8669967336
 33
0.0
  0
LINE
  5
25B
330
256
100
AcDbEntity
  8
FORMAT
100
AcDbLine
 10
227.6648229398
 20
108.8528564081
 30
0.0
 11
227.6648229398
 21
122.3589967336
 31
0.0
  0
LINE
  5
25C
330
256
100
AcDbEntity
  8
FORMAT
100
AcDbLine
 10
230.6648229398
 20
108.8528564081
 30
0.0
 11
230.6648229398
 21
122.3589967336
 31
0.0
  0
LINE
  5
25D
330
256
100
AcDbEntity
  8
FORMAT
100
AcDbLine
 10
227.6648229398
 20
121.3589967336
 30
0.0
 11
219.4669209658
 21
121.3589967336
 31
0.0
  0
LINE
  5
25E
330
256
100
AcDbEntity
  8
FORMAT
100
AcDbLine
 10
227.6648229398
 20
121.3589967336
 30
0.0
 11
230.6648229398
 21
121.3589967336
 31
0.0
  0
LINE
  5
25F
330
256
100
AcDbEntity
  8
FORMAT
100
AcDbLine
 10
230.6648229398
 20
121.3589967336
 30
0.0
 11
237.0148229398
 21
121.3589967336
 31
0.0
  0
MTEXT
  5
260
330
256
100
AcDbEntity
  8
FORMAT
100
AcDbMText
 10
219.4669209658
 20
125.8707340556
 30
0.0
 40
3.5
 41
0.0
 71
     1
 72
     1
  1
3
  7
SLDTEXTSTYLE0
 73
     1
 44
1.0
  0
ENDBLK
  5
258
330
256
100
AcDbEntity
  8
0
100
AcDbBlockEnd
  0
BLOCK
  5
263
330
262
100
AcDbEntity
  8
0
100
AcDbBlockBegin
  2
_D_8
 70
     0
 10
0.0
 20
0.0
 30
0.0
  3
_D_8
  1

  0
SOLID
  5
265
330
262
100
AcDbEntity
  8
FORMAT
100
AcDbTrace
 10
238.1648229398
 20
115.2533522647
 30
0.0
 11
241.4668229398
 21
114.7453522647
 31
0.0
 12
241.4668229398
 22
115.7613522647
 32
0.0
 13
241.4668229398
 23
115.7613522647
 33
0.0
  0
SOLID
  5
266
330
262
100
AcDbEntity
  8
FORMAT
100
AcDbTrace
 10
252.1648229398
 20
115.2533522647
 30
0.0
 11
248.8628229398
 21
115.7613522647
 31
0.0
 12
248.8628229398
 22
114.7453522647
 32
0.0
 13
248.8628229398
 23
114.7453522647
 33
0.0
  0
LINE
  5
267
330
262
100
AcDbEntity
  8
FORMAT
100
AcDbLine
 10
238.1648229398
 20
108.8528564081
 30
0.0
 11
238.1648229398
 21
116.2533522647
 31
0.0
  0
LINE
  5
268
330
262
100
AcDbEntity
  8
FORMAT
100
AcDbLine
 10
252.1648229398
 20
109.8528564081
 30
0.0
 11
252.1648229398
 21
116.2533522647
 31
0.0
  0
LINE
  5
269
330
262
100
AcDbEntity
  8
FORMAT
100
AcDbLine
 10
238.1648229398
 20
115.2533522647
 30
0.0
 11
252.1648229398
 21
115.2533522647
 31
0.0
  0
MTEXT
  5
26A
330
262
100
AcDbEntity
  8
FORMAT
100
AcDbMText
 10
242.491211895
 20
119.7650895867
 30
0.0
 40
3.5
 41
0.0
 71
     1
 72
     1
  1
14
  7
SLDTEXTSTYLE0
 73
     1
 44
1.0
  0
ENDBLK
  5
264
330
262
100
AcDbEntity
  8
0
100
AcDbBlockEnd
  0
BLOCK
  5
26D
330
26C
100
AcDbEntity
  8
0
100
AcDbBlockBegin
  2
_D_9
 70
     0
 10
0.0
 20
0.0
 30
0.0
  3
_D_9
  1

  0
SOLID
  5
26F
330
26C
100
AcDbEntity
  8
FORMAT
100
AcDbTrace
 10
252.1648229398
 20
115.2533522647
 30
0.0
 11
248.8628229398
 21
115.7613522647
 31
0.0
 12
248.8628229398
 22
114.7453522647
 32
0.0
 13
248.8628229398
 23
114.7453522647
 33
0.0
  0
SOLID
  5
270
330
26C
100
AcDbEntity
  8
FORMAT
100
AcDbTrace
 10
255.1648229398
 20
115.2533522647
 30
0.0
 11
258.4668229398
 21
114.7453522647
 31
0.0
 12
258.4668229398
 22
115.7613522647
 32
0.0
 13
258.4668229398
 23
115.7613522647
 33
0.0
  0
LINE
  5
271
330
26C
100
AcDbEntity
  8
FORMAT
100
AcDbLine
 10
252.1648229398
 20
109.8528564081
 30
0.0
 11
252.1648229398
 21
116.2533522647
 31
0.0
  0
LINE
  5
272
330
26C
100
AcDbEntity
  8
FORMAT
100
AcDbLine
 10
255.1648229398
 20
109.8528564081
 30
0.0
 11
255.1648229398
 21
116.2533522647
 31
0.0
  0
LINE
  5
273
330
26C
100
AcDbEntity
  8
FORMAT
100
AcDbLine
 10
252.1648229398
 20
115.2533522647
 30
0.0
 11
245.8148229398
 21
115.2533522647
 31
0.0
  0
LINE
  5
274
330
26C
100
AcDbEntity
  8
FORMAT
100
AcDbLine
 10
252.1648229398
 20
115.2533522647
 30
0.0
 11
255.1648229398
 21
115.2533522647
 31
0.0
  0
LINE
  5
275
330
26C
100
AcDbEntity
  8
FORMAT
100
AcDbLine
 10
255.1648229398
 20
115.2533522647
 30
0.0
 11
261.5148229398
 21
115.2533522647
 31
0.0
  0
MTEXT
  5
276
330
26C
100
AcDbEntity
  8
FORMAT
100
AcDbMText
 10
252.3280174174
 20
119.7650895867
 30
0.0
 40
3.5
 41
0.0
 71
     1
 72
     1
  1
3
  7
SLDTEXTSTYLE0
 73
     1
 44
1.0
  0
ENDBLK
  5
26E
330
26C
100
AcDbEntity
  8
0
100
AcDbBlockEnd
  0
BLOCK
  5
279
330
278
100
AcDbEntity
  8
0
100
AcDbBlockBegin
  2
_D_10
 70
     0
 10
0.0
 20
0.0
 30
0.0
  3
_D_10
  1

  0
SOLID
  5
27B
330
278
100
AcDbEntity
  8
FORMAT
100
AcDbTrace
 10
265.6348296551
 20
109.3528564081
 30
0.0
 11
265.1268296551
 21
106.0508564081
 31
0.0
 12
266.1428296551
 22
106.0508564081
 32
0.0
 13
266.1428296551
 23
106.0508564081
 33
0.0
  0
SOLID
  5
27C
330
278
100
AcDbEntity
  8
FORMAT
100
AcDbTrace
 10
265.6348296551
 20
70.3528564081
 30
0.0
 11
266.1428296551
 21
73.6548564081
 31
0.0
 12
265.1268296551
 22
73.6548564081
 32
0.0
 13
265.1268296551
 23
73.6548564081
 33
0.0
  0
LINE
  5
27D
330
278
100
AcDbEntity
  8
FORMAT
100
AcDbLine
 10
256.1648229398
 20
109.3528564081
 30
0.0
 11
266.6348296551
 21
109.3528564081
 31
0.0
  0
LINE
  5
27E
330
278
100
AcDbEntity
  8
FORMAT
100
AcDbLine
 10
265.6348296551
 20
109.3528564081
 30
0.0
 11
265.6348296551
 21
70.3528564081
 31
0.0
  0
MTEXT
  5
27F
330
278
100
AcDbEntity
  8
FORMAT
100
AcDbMText
 10
261.1230923331
 20
87.1792453632
 30
0.0
 40
3.5
 41
0.0
 71
     1
 72
     1
  1
39
  7
SLDTEXTSTYLE0
 11
-7.044195017643634E-15
 21
1.0
 31
0.0
 73
     1
 44
1.0
  0
ENDBLK
  5
27A
330
278
100
AcDbEntity
  8
0
100
AcDbBlockEnd
  0
BLOCK
  5
282
330
281
100
AcDbEntity
  8
0
100
AcDbBlockBegin
  2
_D_11
 70
     0
 10
0.0
 20
0.0
 30
0.0
  3
_D_11
  1

  0
SOLID
  5
284
330
281
100
AcDbEntity
  8
FORMAT
100
AcDbTrace
 10
253.1648229398
 20
53.7831209115
 30
0.0
 11
256.4668229398
 21
53.2751209115
 31
0.0
 12
256.4668229398
 22
54.2911209115
 32
0.0
 13
256.4668229398
 23
54.2911209115
 33
0.0
  0
SOLID
  5
285
330
281
100
AcDbEntity
  8
FORMAT
100
AcDbTrace
 10
271.1648229398
 20
53.7831209115
 30
0.0
 11
267.8628229398
 21
54.2911209115
 31
0.0
 12
267.8628229398
 22
53.2751209115
 32
0.0
 13
267.8628229398
 23
53.2751209115
 33
0.0
  0
LINE
  5
286
330
281
100
AcDbEntity
  8
FORMAT
100
AcDbLine
 10
253.1648229398
 20
69.3528564081
 30
0.0
 11
253.1648229398
 21
52.7831209115
 31
0.0
  0
LINE
  5
287
330
281
100
AcDbEntity
  8
FORMAT
100
AcDbLine
 10
271.1648229398
 20
69.3528564081
 30
0.0
 11
271.1648229398
 21
52.7831209115
 31
0.0
  0
LINE
  5
288
330
281
100
AcDbEntity
  8
FORMAT
100
AcDbLine
 10
253.1648229398
 20
53.7831209115
 30
0.0
 11
271.1648229398
 21
53.7831209115
 31
0.0
  0
MTEXT
  5
289
330
281
100
AcDbEntity
  8
FORMAT
100
AcDbMText
 10
256.9397363552
 20
58.2948580007
 30
0.0
 40
3.5
 41
0.0
 71
     1
 72
     1
  1
%%c
  7
SLDTEXTSTYLE0
 73
     1
 44
1.0
  0
MTEXT
  5
28A
330
281
100
AcDbEntity
  8
FORMAT
100
AcDbMText
 10
262.0426879004
 20
58.3045803099
 30
0.0
 40
3.5
 41
0.0
 71
     1
 72
     1
  1
18
  7
SLDTEXTSTYLE0
 73
     1
 44
1.0
  0
ENDBLK
  5
283
330
281
100
AcDbEntity
  8
0
100
AcDbBlockEnd
  0
BLOCK
  5
28D
330
28C
100
AcDbEntity
  8
0
100
AcDbBlockBegin
  2
_D_12
 70
     0
 10
0.0
 20
0.0
 30
0.0
  3
_D_12
  1

  0
SOLID
  5
28F
330
28C
100
AcDbEntity
  8
FORMAT
100
AcDbTrace
 10
217.6648229398
 20
92.3527488073
 30
0.0
 11
218.1728229398
 21
95.6547488073
 31
0.0
 12
217.1568229398
 22
95.6547488073
 32
0.0
 13
217.1568229398
 23
95.6547488073
 33
0.0
  0
SOLID
  5
290
330
28C
100
AcDbEntity
  8
FORMAT
100
AcDbTrace
 10
217.6648229398
 20
85.3527488073
 30
0.0
 11
217.1568229398
 21
82.0507488073
 31
0.0
 12
218.1728229398
 22
82.0507488073
 32
0.0
 13
218.1728229398
 23
82.0507488073
 33
0.0
  0
LINE
  5
291
330
28C
100
AcDbEntity
  8
FORMAT
100
AcDbLine
 10
226.6648229398
 20
92.3527488073
 30
0.0
 11
216.6648229398
 21
92.3527488073
 31
0.0
  0
LINE
  5
292
330
28C
100
AcDbEntity
  8
FORMAT
100
AcDbLine
 10
226.6648229398
 20
85.3527488073
 30
0.0
 11
216.6648229398
 21
85.3527488073
 31
0.0
  0
LINE
  5
293
330
28C
100
AcDbEntity
  8
FORMAT
100
AcDbLine
 10
217.6648229398
 20
92.3527488073
 30
0.0
 11
217.6648229398
 21
107.816116687
 31
0.0
  0
LINE
  5
294
330
28C
100
AcDbEntity
  8
FORMAT
100
AcDbLine
 10
217.6648229398
 20
92.3527488073
 30
0.0
 11
217.6648229398
 21
85.3527488073
 31
0.0
  0
LINE
  5
295
330
28C
100
AcDbEntity
  8
FORMAT
100
AcDbLine
 10
217.6648229398
 20
85.3527488073
 30
0.0
 11
217.6648229398
 21
79.0027488073
 31
0.0
  0
MTEXT
  5
296
330
28C
100
AcDbEntity
  8
FORMAT
100
AcDbMText
 10
213.1530858506
 20
100.0395540969
 30
0.0
 40
3.5
 41
0.0
 71
     1
 72
     1
  1
%%c
  7
SLDTEXTSTYLE0
 11
-1.592597921464489E-14
 21
1.0
 31
0.0
 73
     1
 44
1.0
  0
MTEXT
  5
297
330
28C
100
AcDbEntity
  8
FORMAT
100
AcDbMText
 10
213.1433635414
 20
105.1425056422
 30
0.0
 40
3.5
 41
0.0
 71
     1
 72
     1
  1
7
  7
SLDTEXTSTYLE0
 11
-1.592597921464489E-14
 21
1.0
 31
0.0
 73
     1
 44
1.0
  0
ENDBLK
  5
28E
330
28C
100
AcDbEntity
  8
0
100
AcDbBlockEnd
  0
BLOCK
  5
29A
330
299
100
AcDbEntity
  8
0
100
AcDbBlockBegin
  2
_D_13
 70
     0
 10
0.0
 20
0.0
 30
0.0
  3
_D_13
  1

  0
ARC
  5
29C
330
299
100
AcDbEntity
  8
FORMAT
100
AcDbCircle
 10
224.1648229398
 20
88.8527488073
 30
0.0
 40
26.74869181891913
100
AcDbArc
 50
315.0
 51
45.0
  0
SOLID
  5
29D
330
299
100
AcDbEntity
  8
FORMAT
100
AcDbTrace
 10
243.0790043129
 20
69.9385674342
 30
0.0
 11
245.646749817
 21
72.0758439783
 31
0.0
 12
244.8855917574
 22
72.7488182781
 32
0.0
 13
244.8855917574
 23
72.7488182781
 33
0.0
  0
SOLID
  5
29E
330
299
100
AcDbEntity
  8
FORMAT
100
AcDbTrace
 10
243.0790043129
 20
107.7669301803
 30
0.0
 11
244.8855917574
 21
104.9566793364
 31
0.0
 12
245.646749817
 22
105.6296536362
 32
0.0
 13
245.646749817
 23
105.6296536362
 33
0.0
  0
LINE
  5
29F
330
299
100
AcDbEntity
  8
FORMAT
100
AcDbLine
 10
231.371929721
 20
81.6456420261
 30
0.0
 11
243.7861110941
 21
69.2314606531
 31
0.0
  0
LINE
  5
2A0
330
299
100
AcDbEntity
  8
FORMAT
100
AcDbLine
 10
231.371929721
 20
96.0598555885
 30
0.0
 11
243.7861110941
 21
108.4740369615
 31
0.0
  0
MTEXT
  5
2A1
330
299
100
AcDbEntity
  8
FORMAT
100
AcDbMText
 10
246.4017774367
 20
85.2166377676
 30
0.0
 40
3.5
 41
0.0
 71
     1
 72
     1
  1
90°
  7
SLDTEXTSTYLE0
 11
-1.104099790629420E-14
 21
1.0
 31
0.0
 73
     1
 44
1.0
  0
ENDBLK
  5
29B
330
299
100
AcDbEntity
  8
0
100
AcDbBlockEnd
  0
BLOCK
  5
2A4
330
2A3
100
AcDbEntity
  8
0
100
AcDbBlockBegin
  2
_D_14
 70
     0
 10
0.0
 20
0.0
 30
0.0
  3
_D_14
  1

  0
SOLID
  5
2A6
330
2A3
100
AcDbEntity
  8
FORMAT
100
AcDbTrace
 10
243.4174375414
 20
95.3527488073
 30
0.0
 11
242.9094375414
 21
92.0507488073
 31
0.0
 12
243.9254375414
 22
92.0507488073
 32
0.0
 13
243.9254375414
 23
92.0507488073
 33
0.0
  0
SOLID
  5
2A7
330
2A3
100
AcDbEntity
  8
FORMAT
100
AcDbTrace
 10
243.4174375414
 20
82.3527488073
 30
0.0
 11
243.9254375414
 21
85.6547488073
 31
0.0
 12
242.9094375414
 22
85.6547488073
 32
0.0
 13
242.9094375414
 23
85.6547488073
 33
0.0
  0
LINE
  5
2A8
330
2A3
100
AcDbEntity
  8
FORMAT
100
AcDbLine
 10
231.6648229398
 20
95.3527488073
 30
0.0
 11
244.4174375414
 21
95.3527488073
 31
0.0
  0
LINE
  5
2A9
330
2A3
100
AcDbEntity
  8
FORMAT
100
AcDbLine
 10
231.6648229398
 20
82.3527488073
 30
0.0
 11
244.4174375414
 21
82.3527488073
 31
0.0
  0
LINE
  5
2AA
330
2A3
100
AcDbEntity
  8
FORMAT
100
AcDbLine
 10
243.4174375414
 20
95.3527488073
 30
0.0
 11
243.4174375414
 21
82.3527488073
 31
0.0
  0
MTEXT
  5
2AB
330
2A3
100
AcDbEntity
  8
FORMAT
100
AcDbMText
 10
238.9057004522
 20
83.6276622226
 30
0.0
 40
3.5
 41
0.0
 71
     1
 72
     1
  1
%%c
  7
SLDTEXTSTYLE0
 11
-1.503780079494476E-14
 21
1.0
 31
0.0
 73
     1
 44
1.0
  0
MTEXT
  5
2AC
330
2A3
100
AcDbEntity
  8
FORMAT
100
AcDbMText
 10
238.895978143
 20
88.7306137679
 30
0.0
 40
3.5
 41
0.0
 71
     1
 72
     1
  1
13
  7
SLDTEXTSTYLE0
 11
-1.503780079494476E-14
 21
1.0
 31
0.0
 73
     1
 44
1.0
  0
ENDBLK
  5
2A5
330
2A3
100
AcDbEntity
  8
0
100
AcDbBlockEnd
  0
BLOCK
  5
2AF
330
2AE
100
AcDbEntity
  8
0
100
AcDbBlockBegin
  2
_D_15
 70
     0
 10
0.0
 20
0.0
 30
0.0
  3
_D_15
  1

  0
SOLID
  5
2B1
330
2AE
100
AcDbEntity
  8
FORMAT
100
AcDbTrace
 10
167.6648229398
 20
65.4880369244
 30
0.0
 11
170.9668229398
 21
64.9800369244
 31
0.0
 12
170.9668229398
 22
65.9960369244
 32
0.0
 13
170.9668229398
 23
65.9960369244
 33
0.0
  0
SOLID
  5
2B2
330
2AE
100
AcDbEntity
  8
FORMAT
100
AcDbTrace
 10
227.6648229398
 20
65.4880369244
 30
0.0
 11
224.3628229398
 21
65.9960369244
 31
0.0
 12
224.3628229398
 22
64.9800369244
 32
0.0
 13
224.3628229398
 23
64.9800369244
 33
0.0
  0
LINE
  5
2B3
330
2AE
100
AcDbEntity
  8
FORMAT
100
AcDbLine
 10
167.6648229398
 20
84.7395001532
 30
0.0
 11
167.6648229398
 21
64.4880369244
 31
0.0
  0
LINE
  5
2B4
330
2AE
100
AcDbEntity
  8
FORMAT
100
AcDbLine
 10
227.6648229398
 20
81.8527488073
 30
0.0
 11
227.6648229398
 21
64.4880369244
 31
0.0
  0
LINE
  5
2B5
330
2AE
100
AcDbEntity
  8
FORMAT
100
AcDbLine
 10
167.6648229398
 20
65.4880369244
 30
0.0
 11
227.6648229398
 21
65.4880369244
 31
0.0
  0
MTEXT
  5
2B6
330
2AE
100
AcDbEntity
  8
FORMAT
100
AcDbMText
 10
194.991211895
 20
69.9997742465
 30
0.0
 40
3.5
 41
0.0
 71
     1
 72
     1
  1
60
  7
SLDTEXTSTYLE0
 73
     1
 44
1.0
  0
ENDBLK
  5
2B0
330
2AE
100
AcDbEntity
  8
0
100
AcDbBlockEnd
  0
BLOCK
  5
2B8
330
2B7
100
AcDbEntity
  8
0
100
AcDbBlockBegin
  2
SW_NOTE_0_10
 70
     0
 10
0.0
 20
0.0
 30
0.0
  3
SW_NOTE_0_10
  1

  0
MTEXT
  5
2BA
330
2B7
100
AcDbEntity
  8
FORMAT
 62
     0
100
AcDbMText
 10
0.0
 20
4.5117370892
 30
0.0
 40
3.5
 41
0.0
 71
     1
 72
     1
  1
Tragzapfen/Schrauben
  7
SLDTEXTSTYLE0
 73
     1
 44
1.0
  0
MTEXT
  5
2BB
330
2B7
100
AcDbEntity
  8
FORMAT
 62
     0
100
AcDbMText
 10
0.0
 20
-0.0090964031
 30
0.0
 40
3.5
 41
0.0
 71
     1
 72
     1
  1
sind separat zu bestellen
  7
SLDTEXTSTYLE0
 73
     1
 44
1.0
  0
ENDBLK
  5
2B9
330
2B7
100
AcDbEntity
  8
0
100
AcDbBlockEnd
  0
BLOCK
  5
2BE
330
2BD
100
AcDbEntity
  8
0
100
AcDbBlockBegin
  2
SW_CENTERMARKSYMBOL_1
 70
     0
 10
0.0
 20
0.0
 30
0.0
  3
SW_CENTERMARKSYMBOL_1
  1

  0
LINE
  5
2C0
330
2BD
100
AcDbEntity
  8
FORMAT
 62
     0
100
AcDbLine
 10
0.0
 20
0.0
 30
0.0
 11
0.0
 21
2.5
 31
0.0
  0
LINE
  5
2C1
330
2BD
100
AcDbEntity
  8
FORMAT
 62
     0
100
AcDbLine
 10
0.0
 20
0.0
 30
0.0
 11
-2.5
 21
0.0
 31
0.0
  0
LINE
  5
2C2
330
2BD
100
AcDbEntity
  8
FORMAT
 62
     0
100
AcDbLine
 10
0.0
 20
0.0
 30
0.0
 11
0.0
 21
-2.5
 31
0.0
  0
LINE
  5
2C3
330
2BD
100
AcDbEntity
  8
FORMAT
 62
     0
100
AcDbLine
 10
0.0
 20
0.0
 30
0.0
 11
2.5
 21
0.0
 31
0.0
  0
LINE
  5
2C4
330
2BD
100
AcDbEntity
  8
FORMAT
 62
     0
100
AcDbLine
 10
0.0
 20
5.0
 30
0.0
 11
0.0
 21
11.5
 31
0.0
  0
LINE
  5
2C5
330
2BD
100
AcDbEntity
  8
FORMAT
 62
     0
100
AcDbLine
 10
-5.0
 20
0.0
 30
0.0
 11
-11.5
 21
0.0
 31
0.0
  0
LINE
  5
2C6
330
2BD
100
AcDbEntity
  8
FORMAT
 62
     0
100
AcDbLine
 10
0.0
 20
-5.0
 30
0.0
 11
0.0
 21
-11.5
 31
0.0
  0
LINE
  5
2C7
330
2BD
100
AcDbEntity
  8
FORMAT
 62
     0
100
AcDbLine
 10
5.0
 20
0.0
 30
0.0
 11
11.5
 21
0.0
 31
0.0
  0
ENDBLK
  5
2BF
330
2BD
100
AcDbEntity
  8
0
100
AcDbBlockEnd
  0
BLOCK
  5
2CA
330
2C9
100
AcDbEntity
  8
0
100
AcDbBlockBegin
  2
_Dot
 70
     0
 10
0.0
 20
0.0
 30
0.0
  3
_Dot
  1

  0
LWPOLYLINE
  5
2CC
330
2C9
100
AcDbEntity
  8
0
  6
ByBlock
 62
     0
100
AcDbPolyline
 90
        2
 70
     1
 43
0.5
 10
-0.25
 20
0.0
 42
1.0
 10
0.25
 20
0.0
 42
1.0
  0
LINE
  5
2CD
330
2C9
100
AcDbEntity
  8
0
  6
ByBlock
 62
     0
370
    -2
100
AcDbLine
 10
-0.5
 20
0.0
 30
0.0
 11
-1.0
 21
0.0
 31
0.0
  0
ENDBLK
  5
2CB
330
2C9
100
AcDbEntity
  8
0
100
AcDbBlockEnd
  0
BLOCK
  5
37B
330
37A
100
AcDbEntity
  8
0
100
AcDbBlockBegin
  2
_D_16
 70
     0
 10
0.0
 20
0.0
 30
0.0
  3
_D_16
  1

  0
SOLID
  5
37D
330
37A
100
AcDbEntity
  8
FORMAT
100
AcDbTrace
 10
24.3724323884
 20
161.8160270751
 30
0.0
 11
22.0702187075
 21
164.2369938587
 31
0.0
 12
21.4489900179
 22
163.4330467738
 32
0.0
 13
21.4489900179
 23
163.4330467738
 33
0.0
  0
LINE
  5
37E
330
37A
100
AcDbEntity
  8
FORMAT
100
AcDbLine
 10
24.3724323884
 20
161.8160270751
 30
0.0
 11
11.1897772185
 21
172.0025726216
 31
0.0
  0
MTEXT
  5
37F
330
37A
100
AcDbEntity
  8
FORMAT
100
AcDbMText
 10
13.9385979043
 20
175.5598880096
 30
0.0
 40
3.5
 41
0.0
 71
     1
 72
     1
  1
R12
  7
SLDTEXTSTYLE0
 11
0.7912865008208136
 21
-0.611445560633776
 31
0.0
 73
     1
 44
1.0
  0
ENDBLK
  5
37C
330
37A
100
AcDbEntity
  8
0
100
AcDbBlockEnd
  0
BLOCK
  5
382
330
381
100
AcDbEntity
  8
0
100
AcDbBlockBegin
  2
_D_17
 70
     0
 10
0.0
 20
0.0
 30
0.0
  3
_D_17
  1

  0
SOLID
  5
384
330
381
100
AcDbEntity
  8
FORMAT
100
AcDbTrace
 10
55.8945815895
 20
166.4786803474
 30
0.0
 11
56.4025815895
 21
169.7806803474
 31
0.0
 12
55.3865815895
 22
169.7806803474
 32
0.0
 13
55.3865815895
 23
169.7806803474
 33
0.0
  0
SOLID
  5
385
330
381
100
AcDbEntity
  8
FORMAT
100
AcDbTrace
 10
55.8945815895
 20
157.4786803474
 30
0.0
 11
55.3865815895
 21
154.1766803474
 31
0.0
 12
56.4025815895
 22
154.1766803474
 32
0.0
 13
56.4025815895
 23
154.1766803474
 33
0.0
  0
LINE
  5
386
330
381
100
AcDbEntity
  8
FORMAT
100
AcDbLine
 10
54.6178703982
 20
157.4786803474
 30
0.0
 11
56.8945815895
 21
157.4786803474
 31
0.0
  0
LINE
  5
387
330
381
100
AcDbEntity
  8
FORMAT
100
AcDbLine
 10
55.8945815895
 20
166.4786803474
 30
0.0
 11
55.8945815895
 21
172.8286803474
 31
0.0
  0
LINE
  5
388
330
381
100
AcDbEntity
  8
FORMAT
100
AcDbLine
 10
55.8945815895
 20
166.4786803474
 30
0.0
 11
55.8945815895
 21
157.4786803474
 31
0.0
  0
LINE
  5
389
330
381
100
AcDbEntity
  8
FORMAT
100
AcDbLine
 10
55.8945815895
 20
157.4786803474
 30
0.0
 11
55.8945815895
 21
151.1286803474
 31
0.0
  0
MTEXT
  5
38A
330
381
100
AcDbEntity
  8
FORMAT
100
AcDbMText
 10
51.3828442675
 20
160.641874825
 30
0.0
 40
3.5
 41
0.0
 71
     1
 72
     1
  1
9
  7
SLDTEXTSTYLE0
 11
-7.932373437343760E-15
 21
1.0
 31
0.0
 73
     1
 44
1.0
  0
ENDBLK
  5
383
330
381
100
AcDbEntity
  8
0
100
AcDbBlockEnd
  0
BLOCK
  5
38D
330
38C
100
AcDbEntity
  8
0
100
AcDbBlockBegin
  2
_D_18
 70
     0
 10
0.0
 20
0.0
 30
0.0
  3
_D_18
  1

  0
SOLID
  5
38F
330
38C
100
AcDbEntity
  8
FORMAT
100
AcDbTrace
 10
73.7134816454
 20
147.4786803474
 30
0.0
 11
74.2214816454
 21
150.7806803474
 31
0.0
 12
73.2054816454
 22
150.7806803474
 32
0.0
 13
73.2054816454
 23
150.7806803474
 33
0.0
  0
SOLID
  5
390
330
38C
100
AcDbEntity
  8
FORMAT
100
AcDbTrace
 10
73.7134816454
 20
166.4786803474
 30
0.0
 11
73.2054816454
 21
163.1766803474
 31
0.0
 12
74.2214816454
 22
163.1766803474
 32
0.0
 13
74.2214816454
 23
163.1766803474
 33
0.0
  0
LINE
  5
391
330
38C
100
AcDbEntity
  8
FORMAT
100
AcDbLine
 10
68.8678703982
 20
147.4786803474
 30
0.0
 11
74.7134816454
 21
147.4786803474
 31
0.0
  0
LINE
  5
392
330
38C
100
AcDbEntity
  8
FORMAT
100
AcDbLine
 10
73.7134816454
 20
147.4786803474
 30
0.0
 11
73.7134816454
 21
166.4786803474
 31
0.0
  0
MTEXT
  5
393
330
38C
100
AcDbEntity
  8
FORMAT
100
AcDbMText
 10
69.2017443233
 20
154.3050693026
 30
0.0
 40
3.5
 41
0.0
 71
     1
 72
     1
  1
19
  7
SLDTEXTSTYLE0
 11
-8.269460797427576E-16
 21
1.0
 31
0.0
 73
     1
 44
1.0
  0
ENDBLK
  5
38E
330
38C
100
AcDbEntity
  8
0
100
AcDbBlockEnd
  0
BLOCK
  5
396
330
395
100
AcDbEntity
  8
0
100
AcDbBlockBegin
  2
_D_19
 70
     0
 10
0.0
 20
0.0
 30
0.0
  3
_D_19
  1

  0
SOLID
  5
398
330
395
100
AcDbEntity
  8
FORMAT
100
AcDbTrace
 10
101.8155190579
 20
166.4786803474
 30
0.0
 11
102.3235190579
 21
169.7806803474
 31
0.0
 12
101.3075190579
 22
169.7806803474
 32
0.0
 13
101.3075190579
 23
169.7806803474
 33
0.0
  0
SOLID
  5
399
330
395
100
AcDbEntity
  8
FORMAT
100
AcDbTrace
 10
101.8155190579
 20
159.4786803474
 30
0.0
 11
101.3075190579
 21
156.1766803474
 31
0.0
 12
102.3235190579
 22
156.1766803474
 32
0.0
 13
102.3235190579
 23
156.1766803474
 33
0.0
  0
LINE
  5
39A
330
395
100
AcDbEntity
  8
FORMAT
100
AcDbLine
 10
94.8678703982
 20
159.4786803474
 30
0.0
 11
102.8155190579
 21
159.4786803474
 31
0.0
  0
LINE
  5
39B
330
395
100
AcDbEntity
  8
FORMAT
100
AcDbLine
 10
101.8155190579
 20
166.4786803474
 30
0.0
 11
101.8155190579
 21
172.8286803474
 31
0.0
  0
LINE
  5
39C
330
395
100
AcDbEntity
  8
FORMAT
100
AcDbLine
 10
101.8155190579
 20
166.4786803474
 30
0.0
 11
101.8155190579
 21
159.4786803474
 31
0.0
  0
LINE
  5
39D
330
395
100
AcDbEntity
  8
FORMAT
100
AcDbLine
 10
101.8155190579
 20
159.4786803474
 30
0.0
 11
101.8155190579
 21
153.1286803474
 31
0.0
  0
MTEXT
  5
39E
330
395
100
AcDbEntity
  8
FORMAT
100
AcDbMText
 10
97.3037817359
 20
161.641874825
 30
0.0
 40
3.5
 41
0.0
 71
     1
 72
     1
  1
7
  7
SLDTEXTSTYLE0
 11
-7.932373437343760E-15
 21
1.0
 31
0.0
 73
     1
 44
1.0
  0
ENDBLK
  5
397
330
395
100
AcDbEntity
  8
0
100
AcDbBlockEnd
  0
BLOCK
  5
3A1
330
3A0
100
AcDbEntity
  8
0
100
AcDbBlockBegin
  2
_D_20
 70
     0
 10
0.0
 20
0.0
 30
0.0
  3
_D_20
  1

  0
SOLID
  5
3A3
330
3A0
100
AcDbEntity
  8
FORMAT
100
AcDbTrace
 10
59.8678703982
 20
174.9522834254
 30
0.0
 11
63.1698703982
 21
174.4442834254
 31
0.0
 12
63.1698703982
 22
175.4602834254
 32
0.0
 13
63.1698703982
 23
175.4602834254
 33
0.0
  0
SOLID
  5
3A4
330
3A0
100
AcDbEntity
  8
FORMAT
100
AcDbTrace
 10
85.8678703982
 20
174.9522834254
 30
0.0
 11
82.5658703982
 21
175.4602834254
 31
0.0
 12
82.5658703982
 22
174.4442834254
 32
0.0
 13
82.5658703982
 23
174.4442834254
 33
0.0
  0
LINE
  5
3A5
330
3A0
100
AcDbEntity
  8
FORMAT
100
AcDbLine
 10
59.8678703982
 20
156.4786803474
 30
0.0
 11
59.8678703982
 21
175.9522834254
 31
0.0
  0
LINE
  5
3A6
330
3A0
100
AcDbEntity
  8
FORMAT
100
AcDbLine
 10
85.8678703982
 20
168.4786803474
 30
0.0
 11
85.8678703982
 21
175.9522834254
 31
0.0
  0
LINE
  5
3A7
330
3A0
100
AcDbEntity
  8
FORMAT
100
AcDbLine
 10
59.8678703982
 20
174.9522834254
 30
0.0
 11
85.8678703982
 21
174.9522834254
 31
0.0
  0
MTEXT
  5
3A8
330
3A0
100
AcDbEntity
  8
FORMAT
100
AcDbMText
 10
70.1942593533
 20
179.4640207475
 30
0.0
 40
3.5
 41
0.0
 71
     1
 72
     1
  1
26
  7
SLDTEXTSTYLE0
 73
     1
 44
1.0
  0
ENDBLK
  5
3A2
330
3A0
100
AcDbEntity
  8
0
100
AcDbBlockEnd
  0
BLOCK
  5
3AB
330
3AA
100
AcDbEntity
  8
0
100
AcDbBlockBegin
  2
_D_21
 70
     0
 10
0.0
 20
0.0
 30
0.0
  3
_D_21
  1

  0
SOLID
  5
3AD
330
3AA
100
AcDbEntity
  8
FORMAT
100
AcDbTrace
 10
85.8678703982
 20
174.9522834254
 30
0.0
 11
89.1698703982
 21
174.4442834254
 31
0.0
 12
89.1698703982
 22
175.4602834254
 32
0.0
 13
89.1698703982
 23
175.4602834254
 33
0.0
  0
SOLID
  5
3AE
330
3AA
100
AcDbEntity
  8
FORMAT
100
AcDbTrace
 10
111.8678703982
 20
174.9522834254
 30
0.0
 11
108.5658703982
 21
175.4602834254
 31
0.0
 12
108.5658703982
 22
174.4442834254
 32
0.0
 13
108.5658703982
 23
174.4442834254
 33
0.0
  0
LINE
  5
3AF
330
3AA
100
AcDbEntity
  8
FORMAT
100
AcDbLine
 10
85.8678703982
 20
168.4786803474
 30
0.0
 11
85.8678703982
 21
175.9522834254
 31
0.0
  0
LINE
  5
3B0
330
3AA
100
AcDbEntity
  8
FORMAT
100
AcDbLine
 10
111.8678703982
 20
156.4786803474
 30
0.0
 11
111.8678703982
 21
175.9522834254
 31
0.0
  0
LINE
  5
3B1
330
3AA
100
AcDbEntity
  8
FORMAT
100
AcDbLine
 10
85.8678703982
 20
174.9522834254
 30
0.0
 11
111.8678703982
 21
174.9522834254
 31
0.0
  0
MTEXT
  5
3B2
330
3AA
100
AcDbEntity
  8
FORMAT
100
AcDbMText
 10
96.1942593533
 20
179.4640207475
 30
0.0
 40
3.5
 41
0.0
 71
     1
 72
     1
  1
26
  7
SLDTEXTSTYLE0
 73
     1
 44
1.0
  0
ENDBLK
  5
3AC
330
3AA
100
AcDbEntity
  8
0
100
AcDbBlockEnd
  0
BLOCK
  5
3B5
330
3B4
100
AcDbEntity
  8
0
100
AcDbBlockBegin
  2
_D_22
 70
     0
 10
0.0
 20
0.0
 30
0.0
  3
_D_22
  1

  0
SOLID
  5
3B7
330
3B4
100
AcDbEntity
  8
FORMAT
100
AcDbTrace
 10
21.8678703982
 20
194.4787303474
 30
0.0
 11
25.1698703982
 21
193.9707303474
 31
0.0
 12
25.1698703982
 22
194.9867303474
 32
0.0
 13
25.1698703982
 23
194.9867303474
 33
0.0
  0
SOLID
  5
3B8
330
3B4
100
AcDbEntity
  8
FORMAT
100
AcDbTrace
 10
149.8678703982
 20
194.4787303474
 30
0.0
 11
146.5658703982
 21
194.9867303474
 31
0.0
 12
146.5658703982
 22
193.9707303474
 32
0.0
 13
146.5658703982
 23
193.9707303474
 33
0.0
  0
LINE
  5
3B9
330
3B4
100
AcDbEntity
  8
FORMAT
100
AcDbLine
 10
21.8678703982
 20
155.4786803474
 30
0.0
 11
21.8678703982
 21
162.2513606219
 31
0.0
  0
LINE
  5
3BA
330
3B4
100
AcDbEntity
  8
FORMAT
100
AcDbLine
 10
21.8678703982
 20
165.2513606219
 30
0.0
 11
21.8678703982
 21
195.4787303474
 31
0.0
  0
LINE
  5
3BB
330
3B4
100
AcDbEntity
  8
FORMAT
100
AcDbLine
 10
149.8678703982
 20
155.4786803474
 30
0.0
 11
149.8678703982
 21
195.4787303474
 31
0.0
  0
LINE
  5
3BC
330
3B4
100
AcDbEntity
  8
FORMAT
100
AcDbLine
 10
21.8678703982
 20
194.4787303474
 30
0.0
 11
149.8678703982
 21
194.4787303474
 31
0.0
  0
MTEXT
  5
3BD
330
3B4
100
AcDbEntity
  8
FORMAT
100
AcDbMText
 10
81.8574538309
 20
198.9904676695
 30
0.0
 40
3.5
 41
0.0
 71
     1
 72
     1
  1
128
  7
SLDTEXTSTYLE0
 73
     1
 44
1.0
  0
ENDBLK
  5
3B6
330
3B4
100
AcDbEntity
  8
0
100
AcDbBlockEnd
  0
BLOCK
  5
3C0
330
3BF
100
AcDbEntity
  8
0
100
AcDbBlockBegin
  2
_D_23
 70
     0
 10
0.0
 20
0.0
 30
0.0
  3
_D_23
  1

  0
SOLID
  5
3C2
330
3BF
100
AcDbEntity
  8
FORMAT
100
AcDbTrace
 10
57.8678703982
 20
79.9786803474
 30
0.0
 11
61.1698703982
 21
79.4706803474
 31
0.0
 12
61.1698703982
 22
80.4866803474
 32
0.0
 13
61.1698703982
 23
80.4866803474
 33
0.0
  0
SOLID
  5
3C3
330
3BF
100
AcDbEntity
  8
FORMAT
100
AcDbTrace
 10
85.8678703982
 20
79.9786803474
 30
0.0
 11
82.5658703982
 21
80.4866803474
 31
0.0
 12
82.5658703982
 22
79.4706803474
 32
0.0
 13
82.5658703982
 23
79.4706803474
 33
0.0
  0
LINE
  5
3C4
330
3BF
100
AcDbEntity
  8
FORMAT
100
AcDbLine
 10
57.8678703982
 20
88.5114817343
 30
0.0
 11
57.8678703982
 21
78.9786803474
 31
0.0
  0
LINE
  5
3C5
330
3BF
100
AcDbEntity
  8
FORMAT
100
AcDbLine
 10
85.8678703982
 20
87.9529651806
 30
0.0
 11
85.8678703982
 21
78.9786803474
 31
0.0
  0
LINE
  5
3C6
330
3BF
100
AcDbEntity
  8
FORMAT
100
AcDbLine
 10
57.8678703982
 20
79.9786803474
 30
0.0
 11
85.8678703982
 21
79.9786803474
 31
0.0
  0
MTEXT
  5
3C7
330
3BF
100
AcDbEntity
  8
FORMAT
100
AcDbMText
 10
69.1942593533
 20
84.4904176695
 30
0.0
 40
3.5
 41
0.0
 71
     1
 72
     1
  1
28
  7
SLDTEXTSTYLE0
 73
     1
 44
1.0
  0
ENDBLK
  5
3C1
330
3BF
100
AcDbEntity
  8
0
100
AcDbBlockEnd
  0
BLOCK
  5
3CA
330
3C9
100
AcDbEntity
  8
0
100
AcDbBlockBegin
  2
_D_24
 70
     0
 10
0.0
 20
0.0
 30
0.0
  3
_D_24
  1

  0
SOLID
  5
3CC
330
3C9
100
AcDbEntity
  8
FORMAT
100
AcDbTrace
 10
85.8678703982
 20
79.9786803474
 30
0.0
 11
89.1698703982
 21
79.4706803474
 31
0.0
 12
89.1698703982
 22
80.4866803474
 32
0.0
 13
89.1698703982
 23
80.4866803474
 33
0.0
  0
SOLID
  5
3CD
330
3C9
100
AcDbEntity
  8
FORMAT
100
AcDbTrace
 10
113.8678703982
 20
79.9786803474
 30
0.0
 11
110.5658703982
 21
80.4866803474
 31
0.0
 12
110.5658703982
 22
79.4706803474
 32
0.0
 13
110.5658703982
 23
79.4706803474
 33
0.0
  0
LINE
  5
3CE
330
3C9
100
AcDbEntity
  8
FORMAT
100
AcDbLine
 10
85.8678703982
 20
87.9529651806
 30
0.0
 11
85.8678703982
 21
78.9786803474
 31
0.0
  0
LINE
  5
3CF
330
3C9
100
AcDbEntity
  8
FORMAT
100
AcDbLine
 10
113.8678703982
 20
88.9582949773
 30
0.0
 11
113.8678703982
 21
78.9786803474
 31
0.0
  0
LINE
  5
3D0
330
3C9
100
AcDbEntity
  8
FORMAT
100
AcDbLine
 10
85.8678703982
 20
79.9786803474
 30
0.0
 11
113.8678703982
 21
79.9786803474
 31
0.0
  0
MTEXT
  5
3D1
330
3C9
100
AcDbEntity
  8
FORMAT
100
AcDbMText
 10
97.1942593533
 20
84.4904176695
 30
0.0
 40
3.5
 41
0.0
 71
     1
 72
     1
  1
28
  7
SLDTEXTSTYLE0
 73
     1
 44
1.0
  0
ENDBLK
  5
3CB
330
3C9
100
AcDbEntity
  8
0
100
AcDbBlockEnd
  0
BLOCK
  5
3D4
330
3D3
100
AcDbEntity
  8
0
100
AcDbBlockBegin
  2
_D_25
 70
     0
 10
0.0
 20
0.0
 30
0.0
  3
_D_25
  1

  0
SOLID
  5
3D6
330
3D3
100
AcDbEntity
  8
FORMAT
100
AcDbTrace
 10
43.8678703982
 20
71.426943873
 30
0.0
 11
47.1698703982
 21
70.918943873
 31
0.0
 12
47.1698703982
 22
71.934943873
 32
0.0
 13
47.1698703982
 23
71.934943873
 33
0.0
  0
SOLID
  5
3D7
330
3D3
100
AcDbEntity
  8
FORMAT
100
AcDbTrace
 10
127.8678703982
 20
71.426943873
 30
0.0
 11
124.5658703982
 21
71.934943873
 31
0.0
 12
124.5658703982
 22
70.918943873
 32
0.0
 13
124.5658703982
 23
70.918943873
 33
0.0
  0
LINE
  5
3D8
330
3D3
100
AcDbEntity
  8
FORMAT
100
AcDbLine
 10
43.8678703982
 20
89.4786803474
 30
0.0
 11
43.8678703982
 21
70.426943873
 31
0.0
  0
LINE
  5
3D9
330
3D3
100
AcDbEntity
  8
FORMAT
100
AcDbLine
 10
127.8678703982
 20
89.4786803474
 30
0.0
 11
127.8678703982
 21
70.426943873
 31
0.0
  0
LINE
  5
3DA
330
3D3
100
AcDbEntity
  8
FORMAT
100
AcDbLine
 10
43.8678703982
 20
71.426943873
 30
0.0
 11
127.8678703982
 21
71.426943873
 31
0.0
  0
MTEXT
  5
3DB
330
3D3
100
AcDbEntity
  8
FORMAT
100
AcDbMText
 10
83.1942593533
 20
75.938681195
 30
0.0
 40
3.5
 41
0.0
 71
     1
 72
     1
  1
84
  7
SLDTEXTSTYLE0
 73
     1
 44
1.0
  0
ENDBLK
  5
3D5
330
3D3
100
AcDbEntity
  8
0
100
AcDbBlockEnd
  0
BLOCK
  5
3DE
330
3DD
100
AcDbEntity
  8
0
100
AcDbBlockBegin
  2
_D_26
 70
     0
 10
0.0
 20
0.0
 30
0.0
  3
_D_26
  1

  0
SOLID
  5
3E0
330
3DD
100
AcDbEntity
  8
FORMAT
100
AcDbTrace
 10
59.8678703982
 20
174.9522834254
 30
0.0
 11
56.5658703982
 21
175.4602834254
 31
0.0
 12
56.5658703982
 22
174.4442834254
 32
0.0
 13
56.5658703982
 23
174.4442834254
 33
0.0
  0
SOLID
  5
3E1
330
3DD
100
AcDbEntity
  8
FORMAT
100
AcDbTrace
 10
33.8678703982
 20
174.9522834254
 30
0.0
 11
37.1698703982
 21
174.4442834254
 31
0.0
 12
37.1698703982
 22
175.4602834254
 32
0.0
 13
37.1698703982
 23
175.4602834254
 33
0.0
  0
LINE
  5
3E2
330
3DD
100
AcDbEntity
  8
FORMAT
100
AcDbLine
 10
59.8678703982
 20
148.4786803474
 30
0.0
 11
59.8678703982
 21
175.9522834254
 31
0.0
  0
LINE
  5
3E3
330
3DD
100
AcDbEntity
  8
FORMAT
100
AcDbLine
 10
33.8678703982
 20
160.4786803474
 30
0.0
 11
33.8678703982
 21
175.9522834254
 31
0.0
  0
LINE
  5
3E4
330
3DD
100
AcDbEntity
  8
FORMAT
100
AcDbLine
 10
59.8678703982
 20
174.9522834254
 30
0.0
 11
33.8678703982
 21
174.9522834254
 31
0.0
  0
MTEXT
  5
3E5
330
3DD
100
AcDbEntity
  8
FORMAT
100
AcDbMText
 10
47.8737706781
 20
179.4640207475
 30
0.0
 40
3.5
 41
0.0
 71
     1
 72
     1
  1
26
  7
SLDTEXTSTYLE0
 73
     1
 44
1.0
  0
ENDBLK
  5
3DF
330
3DD
100
AcDbEntity
  8
0
100
AcDbBlockEnd
  0
BLOCK
  5
3E8
330
3E7
100
AcDbEntity
  8
0
100
AcDbBlockBegin
  2
_D_27
 70
     0
 10
0.0
 20
0.0
 30
0.0
  3
_D_27
  1

  0
SOLID
  5
3EA
330
3E7
100
AcDbEntity
  8
FORMAT
100
AcDbTrace
 10
111.8678703982
 20
174.9522834254
 30
0.0
 11
115.1698703982
 21
174.4442834254
 31
0.0
 12
115.1698703982
 22
175.4602834254
 32
0.0
 13
115.1698703982
 23
175.4602834254
 33
0.0
  0
SOLID
  5
3EB
330
3E7
100
AcDbEntity
  8
FORMAT
100
AcDbTrace
 10
137.8678703982
 20
174.9522834254
 30
0.0
 11
134.5658703982
 21
175.4602834254
 31
0.0
 12
134.5658703982
 22
174.4442834254
 32
0.0
 13
134.5658703982
 23
174.4442834254
 33
0.0
  0
LINE
  5
3EC
330
3E7
100
AcDbEntity
  8
FORMAT
100
AcDbLine
 10
111.8678703982
 20
148.4786803474
 30
0.0
 11
111.8678703982
 21
175.9522834254
 31
0.0
  0
LINE
  5
3ED
330
3E7
100
AcDbEntity
  8
FORMAT
100
AcDbLine
 10
137.8678703982
 20
160.4786803474
 30
0.0
 11
137.8678703982
 21
175.9522834254
 31
0.0
  0
LINE
  5
3EE
330
3E7
100
AcDbEntity
  8
FORMAT
100
AcDbLine
 10
111.8678703982
 20
174.9522834254
 30
0.0
 11
137.8678703982
 21
174.9522834254
 31
0.0
  0
MTEXT
  5
3EF
330
3E7
100
AcDbEntity
  8
FORMAT
100
AcDbMText
 10
118.5800454789
 20
179.4640207475
 30
0.0
 40
3.5
 41
0.0
 71
     1
 72
     1
  1
26
  7
SLDTEXTSTYLE0
 73
     1
 44
1.0
  0
ENDBLK
  5
3E9
330
3E7
100
AcDbEntity
  8
0
100
AcDbBlockEnd
  0
BLOCK
  5
3F2
330
3F1
100
AcDbEntity
  8
0
100
AcDbBlockBegin
  2
_D_28
 70
     0
 10
0.0
 20
0.0
 30
0.0
  3
_D_28
  1

  0
SOLID
  5
3F4
330
3F1
100
AcDbEntity
  8
FORMAT
100
AcDbTrace
 10
46.8678703982
 20
182.4787303474
 30
0.0
 11
50.1698703982
 21
181.9707303474
 31
0.0
 12
50.1698703982
 22
182.9867303474
 32
0.0
 13
50.1698703982
 23
182.9867303474
 33
0.0
  0
SOLID
  5
3F5
330
3F1
100
AcDbEntity
  8
FORMAT
100
AcDbTrace
 10
124.8678703982
 20
182.4787303474
 30
0.0
 11
121.5658703982
 21
182.9867303474
 31
0.0
 12
121.5658703982
 22
181.9707303474
 32
0.0
 13
121.5658703982
 23
181.9707303474
 33
0.0
  0
LINE
  5
3F6
330
3F1
100
AcDbEntity
  8
FORMAT
100
AcDbLine
 10
46.8678703982
 20
158.4786803474
 30
0.0
 11
46.8678703982
 21
173.4522834254
 31
0.0
  0
LINE
  5
3F7
330
3F1
100
AcDbEntity
  8
FORMAT
100
AcDbLine
 10
46.8678703982
 20
176.4522834254
 30
0.0
 11
46.8678703982
 21
183.4787303474
 31
0.0
  0
LINE
  5
3F8
330
3F1
100
AcDbEntity
  8
FORMAT
100
AcDbLine
 10
124.8678703982
 20
158.4786803474
 30
0.0
 11
124.8678703982
 21
173.4522834254
 31
0.0
  0
LINE
  5
3F9
330
3F1
100
AcDbEntity
  8
FORMAT
100
AcDbLine
 10
124.8678703982
 20
176.4522834254
 30
0.0
 11
124.8678703982
 21
183.4787303474
 31
0.0
  0
LINE
  5
3FA
330
3F1
100
AcDbEntity
  8
FORMAT
100
AcDbLine
 10
46.8678703982
 20
182.4787303474
 30
0.0
 11
124.8678703982
 21
182.4787303474
 31
0.0
  0
MTEXT
  5
3FB
330
3F1
100
AcDbEntity
  8
FORMAT
100
AcDbMText
 10
79.6894699245
 20
186.9904676695
 30
0.0
 40
3.5
 41
0.0
 71
     1
 72
     1
  1
78
  7
SLDTEXTSTYLE0
 73
     1
 44
1.0
  0
ENDBLK
  5
3F3
330
3F1
100
AcDbEntity
  8
0
100
AcDbBlockEnd
  0
BLOCK
  5
3FE
330
3FD
100
AcDbEntity
  8
0
100
AcDbBlockBegin
  2
_D_29
 70
     0
 10
0.0
 20
0.0
 30
0.0
  3
_D_29
  1

  0
SOLID
  5
400
330
3FD
100
AcDbEntity
  8
FORMAT
100
AcDbTrace
 10
85.8678703982
 20
188.4787303474
 30
0.0
 11
82.5658703982
 21
188.9867303474
 31
0.0
 12
82.5658703982
 22
187.9707303474
 32
0.0
 13
82.5658703982
 23
187.9707303474
 33
0.0
  0
SOLID
  5
401
330
3FD
100
AcDbEntity
  8
FORMAT
100
AcDbTrace
 10
43.3678703982
 20
188.4787303474
 30
0.0
 11
46.6698703982
 21
187.9707303474
 31
0.0
 12
46.6698703982
 22
188.9867303474
 32
0.0
 13
46.6698703982
 23
188.9867303474
 33
0.0
  0
LINE
  5
402
330
3FD
100
AcDbEntity
  8
FORMAT
100
AcDbLine
 10
85.8678703982
 20
150.7195662268
 30
0.0
 11
85.8678703982
 21
180.9787303474
 31
0.0
  0
LINE
  5
403
330
3FD
100
AcDbEntity
  8
FORMAT
100
AcDbLine
 10
85.8678703982
 20
183.9787303474
 30
0.0
 11
85.8678703982
 21
189.4787303474
 31
0.0
  0
LINE
  5
404
330
3FD
100
AcDbEntity
  8
FORMAT
100
AcDbLine
 10
43.3678703982
 20
148.4785727467
 30
0.0
 11
43.3678703982
 21
173.4522834254
 31
0.0
  0
LINE
  5
405
330
3FD
100
AcDbEntity
  8
FORMAT
100
AcDbLine
 10
43.3678703982
 20
176.4522834254
 30
0.0
 11
43.3678703982
 21
189.4787303474
 31
0.0
  0
LINE
  5
406
330
3FD
100
AcDbEntity
  8
FORMAT
100
AcDbLine
 10
85.8678703982
 20
188.4787303474
 30
0.0
 11
43.3678703982
 21
188.4787303474
 31
0.0
  0
MTEXT
  5
407
330
3FD
100
AcDbEntity
  8
FORMAT
100
AcDbMText
 10
59.9390510697
 20
192.9904676695
 30
0.0
 40
3.5
 41
0.0
 71
     1
 72
     1
  1
42,5
  7
SLDTEXTSTYLE0
 73
     1
 44
1.0
  0
ENDBLK
  5
3FF
330
3FD
100
AcDbEntity
  8
0
100
AcDbBlockEnd
  0
BLOCK
  5
40A
330
409
100
AcDbEntity
  8
0
100
AcDbBlockBegin
  2
_D_30
 70
     0
 10
0.0
 20
0.0
 30
0.0
  3
_D_30
  1

  0
SOLID
  5
40C
330
409
100
AcDbEntity
  8
FORMAT
100
AcDbTrace
 10
85.8678703982
 20
188.4787303474
 30
0.0
 11
89.1698703982
 21
187.9707303474
 31
0.0
 12
89.1698703982
 22
188.9867303474
 32
0.0
 13
89.1698703982
 23
188.9867303474
 33
0.0
  0
SOLID
  5
40D
330
409
100
AcDbEntity
  8
FORMAT
100
AcDbTrace
 10
128.3678703982
 20
188.4787303474
 30
0.0
 11
125.0658703982
 21
188.9867303474
 31
0.0
 12
125.0658703982
 22
187.9707303474
 32
0.0
 13
125.0658703982
 23
187.9707303474
 33
0.0
  0
LINE
  5
40E
330
409
100
AcDbEntity
  8
FORMAT
100
AcDbLine
 10
85.8678703982
 20
160.4786803474
 30
0.0
 11
85.8678703982
 21
180.9787303474
 31
0.0
  0
LINE
  5
40F
330
409
100
AcDbEntity
  8
FORMAT
100
AcDbLine
 10
85.8678703982
 20
183.9787303474
 30
0.0
 11
85.8678703982
 21
189.4787303474
 31
0.0
  0
LINE
  5
410
330
409
100
AcDbEntity
  8
FORMAT
100
AcDbLine
 10
128.3678703982
 20
148.4785727467
 30
0.0
 11
128.3678703982
 21
173.4522834254
 31
0.0
  0
LINE
  5
411
330
409
100
AcDbEntity
  8
FORMAT
100
AcDbLine
 10
128.3678703982
 20
176.4522834254
 30
0.0
 11
128.3678703982
 21
189.4787303474
 31
0.0
  0
LINE
  5
412
330
409
100
AcDbEntity
  8
FORMAT
100
AcDbLine
 10
85.8678703982
 20
188.4787303474
 30
0.0
 11
128.3678703982
 21
188.4787303474
 31
0.0
  0
MTEXT
  5
413
330
409
100
AcDbEntity
  8
FORMAT
100
AcDbMText
 10
102.4390510697
 20
192.9904676695
 30
0.0
 40
3.5
 41
0.0
 71
     1
 72
     1
  1
42,5
  7
SLDTEXTSTYLE0
 73
     1
 44
1.0
  0
ENDBLK
  5
40B
330
409
100
AcDbEntity
  8
0
100
AcDbBlockEnd
  0
BLOCK
  5
416
330
415
100
AcDbEntity
  8
0
100
AcDbBlockBegin
  2
SW_CENTERMARKSYMBOL_2
 70
     0
 10
0.0
 20
0.0
 30
0.0
  3
SW_CENTERMARKSYMBOL_2
  1

  0
LINE
  5
418
330
415
100
AcDbEntity
  8
FORMAT
 62
     0
100
AcDbLine
 10
0.0
 20
0.0
 30
0.0
 11
0.0
 21
2.5
 31
0.0
  0
LINE
  5
419
330
415
100
AcDbEntity
  8
FORMAT
 62
     0
100
AcDbLine
 10
0.0
 20
0.0
 30
0.0
 11
-2.5
 21
0.0
 31
0.0
  0
LINE
  5
41A
330
415
100
AcDbEntity
  8
FORMAT
 62
     0
100
AcDbLine
 10
0.0
 20
0.0
 30
0.0
 11
0.0
 21
-2.5
 31
0.0
  0
LINE
  5
41B
330
415
100
AcDbEntity
  8
FORMAT
 62
     0
100
AcDbLine
 10
0.0
 20
0.0
 30
0.0
 11
2.5
 21
0.0
 31
0.0
  0
LINE
  5
41C
330
415
100
AcDbEntity
  8
FORMAT
 62
     0
100
AcDbLine
 10
0.0
 20
5.0
 30
0.0
 11
0.0
 21
8.0
 31
0.0
  0
LINE
  5
41D
330
415
100
AcDbEntity
  8
FORMAT
 62
     0
100
AcDbLine
 10
-5.0
 20
0.0
 30
0.0
 11
-8.0
 21
0.0
 31
0.0
  0
LINE
  5
41E
330
415
100
AcDbEntity
  8
FORMAT
 62
     0
100
AcDbLine
 10
0.0
 20
-5.0
 30
0.0
 11
0.0
 21
-8.0
 31
0.0
  0
LINE
  5
41F
330
415
100
AcDbEntity
  8
FORMAT
 62
     0
100
AcDbLine
 10
5.0
 20
0.0
 30
0.0
 11
8.0
 21
0.0
 31
0.0
  0
ENDBLK
  5
417
330
415
100
AcDbEntity
  8
0
100
AcDbBlockEnd
  0
BLOCK
  5
422
330
421
100
AcDbEntity
  8
0
100
AcDbBlockBegin
  2
SW_CENTERMARKSYMBOL_3
 70
     0
 10
0.0
 20
0.0
 30
0.0
  3
SW_CENTERMARKSYMBOL_3
  1

  0
LINE
  5
424
330
421
100
AcDbEntity
  8
FORMAT
 62
     0
100
AcDbLine
 10
0.0
 20
0.0
 30
0.0
 11
0.0
 21
2.5
 31
0.0
  0
LINE
  5
425
330
421
100
AcDbEntity
  8
FORMAT
 62
     0
100
AcDbLine
 10
0.0
 20
0.0
 30
0.0
 11
-2.5
 21
0.0
 31
0.0
  0
LINE
  5
426
330
421
100
AcDbEntity
  8
FORMAT
 62
     0
100
AcDbLine
 10
0.0
 20
0.0
 30
0.0
 11
0.0
 21
-2.5
 31
0.0
  0
LINE
  5
427
330
421
100
AcDbEntity
  8
FORMAT
 62
     0
100
AcDbLine
 10
0.0
 20
0.0
 30
0.0
 11
2.5
 21
0.0
 31
0.0
  0
LINE
  5
428
330
421
100
AcDbEntity
  8
FORMAT
 62
     0
100
AcDbLine
 10
0.0
 20
5.0
 30
0.0
 11
0.0
 21
8.0
 31
0.0
  0
LINE
  5
429
330
421
100
AcDbEntity
  8
FORMAT
 62
     0
100
AcDbLine
 10
-5.0
 20
0.0
 30
0.0
 11
-8.0
 21
0.0
 31
0.0
  0
LINE
  5
42A
330
421
100
AcDbEntity
  8
FORMAT
 62
     0
100
AcDbLine
 10
0.0
 20
-5.0
 30
0.0
 11
0.0
 21
-8.0
 31
0.0
  0
LINE
  5
42B
330
421
100
AcDbEntity
  8
FORMAT
 62
     0
100
AcDbLine
 10
5.0
 20
0.0
 30
0.0
 11
8.0
 21
0.0
 31
0.0
  0
ENDBLK
  5
423
330
421
100
AcDbEntity
  8
0
100
AcDbBlockEnd
  0
BLOCK
  5
42E
330
42D
100
AcDbEntity
  8
0
100
AcDbBlockBegin
  2
SW_CENTERMARKSYMBOL_4
 70
     0
 10
0.0
 20
0.0
 30
0.0
  3
SW_CENTERMARKSYMBOL_4
  1

  0
LINE
  5
430
330
42D
100
AcDbEntity
  8
FORMAT
 62
     0
100
AcDbLine
 10
0.0
 20
0.0
 30
0.0
 11
0.0
 21
2.5
 31
0.0
  0
LINE
  5
431
330
42D
100
AcDbEntity
  8
FORMAT
 62
     0
100
AcDbLine
 10
0.0
 20
0.0
 30
0.0
 11
-2.5
 21
0.0
 31
0.0
  0
LINE
  5
432
330
42D
100
AcDbEntity
  8
FORMAT
 62
     0
100
AcDbLine
 10
0.0
 20
0.0
 30
0.0
 11
0.0
 21
-2.5
 31
0.0
  0
LINE
  5
433
330
42D
100
AcDbEntity
  8
FORMAT
 62
     0
100
AcDbLine
 10
0.0
 20
0.0
 30
0.0
 11
2.5
 21
0.0
 31
0.0
  0
LINE
  5
434
330
42D
100
AcDbEntity
  8
FORMAT
 62
     0
100
AcDbLine
 10
0.0
 20
5.0
 30
0.0
 11
0.0
 21
6.75
 31
0.0
  0
LINE
  5
435
330
42D
100
AcDbEntity
  8
FORMAT
 62
     0
100
AcDbLine
 10
-5.0
 20
0.0
 30
0.0
 11
-6.75
 21
0.0
 31
0.0
  0
LINE
  5
436
330
42D
100
AcDbEntity
  8
FORMAT
 62
     0
100
AcDbLine
 10
0.0
 20
-5.0
 30
0.0
 11
0.0
 21
-6.75
 31
0.0
  0
LINE
  5
437
330
42D
100
AcDbEntity
  8
FORMAT
 62
     0
100
AcDbLine
 10
5.0
 20
0.0
 30
0.0
 11
6.75
 21
0.0
 31
0.0
  0
ENDBLK
  5
42F
330
42D
100
AcDbEntity
  8
0
100
AcDbBlockEnd
  0
BLOCK
  5
43A
330
439
100
AcDbEntity
  8
0
100
AcDbBlockBegin
  2
SW_CENTERMARKSYMBOL_5
 70
     0
 10
0.0
 20
0.0
 30
0.0
  3
SW_CENTERMARKSYMBOL_5
  1

  0
LINE
  5
43C
330
439
100
AcDbEntity
  8
FORMAT
 62
     0
100
AcDbLine
 10
0.0
 20
0.0
 30
0.0
 11
0.0
 21
2.5
 31
0.0
  0
LINE
  5
43D
330
439
100
AcDbEntity
  8
FORMAT
 62
     0
100
AcDbLine
 10
0.0
 20
0.0
 30
0.0
 11
-2.5
 21
0.0
 31
0.0
  0
LINE
  5
43E
330
439
100
AcDbEntity
  8
FORMAT
 62
     0
100
AcDbLine
 10
0.0
 20
0.0
 30
0.0
 11
0.0
 21
-2.5
 31
0.0
  0
LINE
  5
43F
330
439
100
AcDbEntity
  8
FORMAT
 62
     0
100
AcDbLine
 10
0.0
 20
0.0
 30
0.0
 11
2.5
 21
0.0
 31
0.0
  0
LINE
  5
440
330
439
100
AcDbEntity
  8
FORMAT
 62
     0
100
AcDbLine
 10
0.0
 20
5.0
 30
0.0
 11
0.0
 21
8.0
 31
0.0
  0
LINE
  5
441
330
439
100
AcDbEntity
  8
FORMAT
 62
     0
100
AcDbLine
 10
-5.0
 20
0.0
 30
0.0
 11
-8.0
 21
0.0
 31
0.0
  0
LINE
  5
442
330
439
100
AcDbEntity
  8
FORMAT
 62
     0
100
AcDbLine
 10
0.0
 20
-5.0
 30
0.0
 11
0.0
 21
-8.0
 31
0.0
  0
LINE
  5
443
330
439
100
AcDbEntity
  8
FORMAT
 62
     0
100
AcDbLine
 10
5.0
 20
0.0
 30
0.0
 11
8.0
 21
0.0
 31
0.0
  0
ENDBLK
  5
43B
330
439
100
AcDbEntity
  8
0
100
AcDbBlockEnd
  0
BLOCK
  5
446
330
445
100
AcDbEntity
  8
0
100
AcDbBlockBegin
  2
SW_CENTERMARKSYMBOL_6
 70
     0
 10
0.0
 20
0.0
 30
0.0
  3
SW_CENTERMARKSYMBOL_6
  1

  0
LINE
  5
448
330
445
100
AcDbEntity
  8
FORMAT
 62
     0
100
AcDbLine
 10
0.0
 20
0.0
 30
0.0
 11
0.0
 21
2.5
 31
0.0
  0
LINE
  5
449
330
445
100
AcDbEntity
  8
FORMAT
 62
     0
100
AcDbLine
 10
0.0
 20
0.0
 30
0.0
 11
-2.5
 21
0.0
 31
0.0
  0
LINE
  5
44A
330
445
100
AcDbEntity
  8
FORMAT
 62
     0
100
AcDbLine
 10
0.0
 20
0.0
 30
0.0
 11
0.0
 21
-2.5
 31
0.0
  0
LINE
  5
44B
330
445
100
AcDbEntity
  8
FORMAT
 62
     0
100
AcDbLine
 10
0.0
 20
0.0
 30
0.0
 11
2.5
 21
0.0
 31
0.0
  0
LINE
  5
44C
330
445
100
AcDbEntity
  8
FORMAT
 62
     0
100
AcDbLine
 10
0.0
 20
5.0
 30
0.0
 11
0.0
 21
8.0
 31
0.0
  0
LINE
  5
44D
330
445
100
AcDbEntity
  8
FORMAT
 62
     0
100
AcDbLine
 10
-5.0
 20
0.0
 30
0.0
 11
-8.0
 21
0.0
 31
0.0
  0
LINE
  5
44E
330
445
100
AcDbEntity
  8
FORMAT
 62
     0
100
AcDbLine
 10
0.0
 20
-5.0
 30
0.0
 11
0.0
 21
-8.0
 31
0.0
  0
LINE
  5
44F
330
445
100
AcDbEntity
  8
FORMAT
 62
     0
100
AcDbLine
 10
5.0
 20
0.0
 30
0.0
 11
8.0
 21
0.0
 31
0.0
  0
ENDBLK
  5
447
330
445
100
AcDbEntity
  8
0
100
AcDbBlockEnd
  0
BLOCK
  5
452
330
451
100
AcDbEntity
  8
0
100
AcDbBlockBegin
  2
SW_CENTERMARKSYMBOL_7
 70
     0
 10
0.0
 20
0.0
 30
0.0
  3
SW_CENTERMARKSYMBOL_7
  1

  0
LINE
  5
454
330
451
100
AcDbEntity
  8
FORMAT
 62
     0
100
AcDbLine
 10
0.0
 20
0.0
 30
0.0
 11
0.0
 21
2.5
 31
0.0
  0
LINE
  5
455
330
451
100
AcDbEntity
  8
FORMAT
 62
     0
100
AcDbLine
 10
0.0
 20
0.0
 30
0.0
 11
-2.5
 21
0.0
 31
0.0
  0
LINE
  5
456
330
451
100
AcDbEntity
  8
FORMAT
 62
     0
100
AcDbLine
 10
0.0
 20
0.0
 30
0.0
 11
0.0
 21
-2.5
 31
0.0
  0
LINE
  5
457
330
451
100
AcDbEntity
  8
FORMAT
 62
     0
100
AcDbLine
 10
0.0
 20
0.0
 30
0.0
 11
2.5
 21
0.0
 31
0.0
  0
LINE
  5
458
330
451
100
AcDbEntity
  8
FORMAT
 62
     0
100
AcDbLine
 10
0.0
 20
5.0
 30
0.0
 11
0.0
 21
8.0
 31
0.0
  0
LINE
  5
459
330
451
100
AcDbEntity
  8
FORMAT
 62
     0
100
AcDbLine
 10
-5.0
 20
0.0
 30
0.0
 11
-8.0
 21
0.0
 31
0.0
  0
LINE
  5
45A
330
451
100
AcDbEntity
  8
FORMAT
 62
     0
100
AcDbLine
 10
0.0
 20
-5.0
 30
0.0
 11
0.0
 21
-8.0
 31
0.0
  0
LINE
  5
45B
330
451
100
AcDbEntity
  8
FORMAT
 62
     0
100
AcDbLine
 10
5.0
 20
0.0
 30
0.0
 11
8.0
 21
0.0
 31
0.0
  0
ENDBLK
  5
453
330
451
100
AcDbEntity
  8
0
100
AcDbBlockEnd
  0
BLOCK
  5
45E
330
45D
100
AcDbEntity
  8
0
100
AcDbBlockBegin
  2
SW_CENTERMARKSYMBOL_8
 70
     0
 10
0.0
 20
0.0
 30
0.0
  3
SW_CENTERMARKSYMBOL_8
  1

  0
LINE
  5
460
330
45D
100
AcDbEntity
  8
FORMAT
 62
     0
100
AcDbLine
 10
0.0
 20
0.0
 30
0.0
 11
0.0
 21
2.5
 31
0.0
  0
LINE
  5
461
330
45D
100
AcDbEntity
  8
FORMAT
 62
     0
100
AcDbLine
 10
0.0
 20
0.0
 30
0.0
 11
-2.5
 21
0.0
 31
0.0
  0
LINE
  5
462
330
45D
100
AcDbEntity
  8
FORMAT
 62
     0
100
AcDbLine
 10
0.0
 20
0.0
 30
0.0
 11
0.0
 21
-2.5
 31
0.0
  0
LINE
  5
463
330
45D
100
AcDbEntity
  8
FORMAT
 62
     0
100
AcDbLine
 10
0.0
 20
0.0
 30
0.0
 11
2.5
 21
0.0
 31
0.0
  0
LINE
  5
464
330
45D
100
AcDbEntity
  8
FORMAT
 62
     0
100
AcDbLine
 10
0.0
 20
5.0
 30
0.0
 11
0.0
 21
6.75
 31
0.0
  0
LINE
  5
465
330
45D
100
AcDbEntity
  8
FORMAT
 62
     0
100
AcDbLine
 10
-5.0
 20
0.0
 30
0.0
 11
-6.75
 21
0.0
 31
0.0
  0
LINE
  5
466
330
45D
100
AcDbEntity
  8
FORMAT
 62
     0
100
AcDbLine
 10
0.0
 20
-5.0
 30
0.0
 11
0.0
 21
-6.75
 31
0.0
  0
LINE
  5
467
330
45D
100
AcDbEntity
  8
FORMAT
 62
     0
100
AcDbLine
 10
5.0
 20
0.0
 30
0.0
 11
6.75
 21
0.0
 31
0.0
  0
ENDBLK
  5
45F
330
45D
100
AcDbEntity
  8
0
100
AcDbBlockEnd
  0
BLOCK
  5
46A
330
469
100
AcDbEntity
  8
0
100
AcDbBlockBegin
  2
SW_CENTERMARKSYMBOL_9
 70
     0
 10
0.0
 20
0.0
 30
0.0
  3
SW_CENTERMARKSYMBOL_9
  1

  0
LINE
  5
46C
330
469
100
AcDbEntity
  8
FORMAT
 62
     0
100
AcDbLine
 10
0.0
 20
0.0
 30
0.0
 11
0.0
 21
2.5
 31
0.0
  0
LINE
  5
46D
330
469
100
AcDbEntity
  8
FORMAT
 62
     0
100
AcDbLine
 10
0.0
 20
0.0
 30
0.0
 11
-2.5
 21
0.0
 31
0.0
  0
LINE
  5
46E
330
469
100
AcDbEntity
  8
FORMAT
 62
     0
100
AcDbLine
 10
0.0
 20
0.0
 30
0.0
 11
0.0
 21
-2.5
 31
0.0
  0
LINE
  5
46F
330
469
100
AcDbEntity
  8
FORMAT
 62
     0
100
AcDbLine
 10
0.0
 20
0.0
 30
0.0
 11
2.5
 21
0.0
 31
0.0
  0
LINE
  5
470
330
469
100
AcDbEntity
  8
FORMAT
 62
     0
100
AcDbLine
 10
0.0
 20
5.0
 30
0.0
 11
0.0
 21
9.0
 31
0.0
  0
LINE
  5
471
330
469
100
AcDbEntity
  8
FORMAT
 62
     0
100
AcDbLine
 10
-5.0
 20
0.0
 30
0.0
 11
-9.0
 21
0.0
 31
0.0
  0
LINE
  5
472
330
469
100
AcDbEntity
  8
FORMAT
 62
     0
100
AcDbLine
 10
0.0
 20
-5.0
 30
0.0
 11
0.0
 21
-9.0
 31
0.0
  0
LINE
  5
473
330
469
100
AcDbEntity
  8
FORMAT
 62
     0
100
AcDbLine
 10
5.0
 20
0.0
 30
0.0
 11
9.0
 21
0.0
 31
0.0
  0
ENDBLK
  5
46B
330
469
100
AcDbEntity
  8
0
100
AcDbBlockEnd
  0
BLOCK
  5
476
330
475
100
AcDbEntity
  8
0
100
AcDbBlockBegin
  2
SW_CENTERMARKSYMBOL_10
 70
     0
 10
0.0
 20
0.0
 30
0.0
  3
SW_CENTERMARKSYMBOL_10
  1

  0
LINE
  5
478
330
475
100
AcDbEntity
  8
FORMAT
 62
     0
100
AcDbLine
 10
0.0
 20
0.0
 30
0.0
 11
0.0
 21
2.5
 31
0.0
  0
LINE
  5
479
330
475
100
AcDbEntity
  8
FORMAT
 62
     0
100
AcDbLine
 10
0.0
 20
0.0
 30
0.0
 11
-2.5
 21
0.0
 31
0.0
  0
LINE
  5
47A
330
475
100
AcDbEntity
  8
FORMAT
 62
     0
100
AcDbLine
 10
0.0
 20
0.0
 30
0.0
 11
0.0
 21
-2.5
 31
0.0
  0
LINE
  5
47B
330
475
100
AcDbEntity
  8
FORMAT
 62
     0
100
AcDbLine
 10
0.0
 20
0.0
 30
0.0
 11
2.5
 21
0.0
 31
0.0
  0
LINE
  5
47C
330
475
100
AcDbEntity
  8
FORMAT
 62
     0
100
AcDbLine
 10
0.0
 20
5.0
 30
0.0
 11
0.0
 21
9.0
 31
0.0
  0
LINE
  5
47D
330
475
100
AcDbEntity
  8
FORMAT
 62
     0
100
AcDbLine
 10
-5.0
 20
0.0
 30
0.0
 11
-9.0
 21
0.0
 31
0.0
  0
LINE
  5
47E
330
475
100
AcDbEntity
  8
FORMAT
 62
     0
100
AcDbLine
 10
0.0
 20
-5.0
 30
0.0
 11
0.0
 21
-9.0
 31
0.0
  0
LINE
  5
47F
330
475
100
AcDbEntity
  8
FORMAT
 62
     0
100
AcDbLine
 10
5.0
 20
0.0
 30
0.0
 11
9.0
 21
0.0
 31
0.0
  0
ENDBLK
  5
477
330
475
100
AcDbEntity
  8
0
100
AcDbBlockEnd
  0
ENDSEC
  0
SECTION
  2
ENTITIES
  0
LINE
  5
133
330
1F
100
AcDbEntity
  8
FORMAT
  6
Continuous
 62
     7
370
    18
100
AcDbLine
 10
255.3923879518
 20
35.6464717326
 30
0.0
 11
180.9851741751
 21
35.6464717326
 31
0.0
  0
LINE
  5
134
330
1F
100
AcDbEntity
  8
FORMAT
  6
Continuous
 62
     7
370
    18
100
AcDbLine
 10
255.3923879518
 20
48.7420674192
 30
0.0
 11
286.9438597858
 21
48.7420674192
 31
0.0
  0
LINE
  5
135
330
1F
100
AcDbEntity
  8
FORMAT
  6
Continuous
 62
     7
370
    18
100
AcDbLine
 10
241.7100609089
 20
35.6464717326
 30
0.0
 11
241.7100609089
 21
25.9765524102
 31
0.0
  0
LINE
  5
136
330
1F
100
AcDbEntity
  8
FORMAT
100
AcDbLine
 10
286.9438597858
 20
200.0
 30
0.0
 11
9.9438597858
 21
200.0
 31
0.0
  0
LINE
  5
137
330
1F
100
AcDbEntity
  8
FORMAT
100
AcDbLine
 10
9.9438597858
 20
200.0
 30
0.0
 11
9.9438597858
 21
10.0
 31
0.0
  0
LINE
  5
138
330
1F
100
AcDbEntity
  8
BEMASSUNG
  6
Continuous
 62
     7
370
    18
100
AcDbLine
 10
255.3923879518
 20
40.5638075942
 30
0.0
 11
286.9438597858
 21
40.5638075942
 31
0.0
  0
LINE
  5
139
330
1F
100
AcDbEntity
  8
FORMAT
 62
     7
370
    18
100
AcDbLine
 10
180.9851741751
 20
52.6404959572
 30
0.0
 11
180.9851741751
 21
10.0
 31
0.0
  0
LINE
  5
13A
330
1F
100
AcDbEntity
  8
FORMAT
 62
     7
100
AcDbLine
 10
272.1993193029
 20
10.0
 30
0.0
 11
272.1993193029
 21
19.3470401503
 31
0.0
  0
LINE
  5
13B
330
1F
100
AcDbEntity
  8
FORMAT
 62
     7
100
AcDbLine
 10
180.9851741751
 20
25.9765524102
 30
0.0
 11
286.9438597858
 21
25.9765524102
 31
0.0
  0
LINE
  5
13C
330
1F
100
AcDbEntity
  8
FORMAT
100
AcDbLine
 10
9.9438597858
 20
10.0
 30
0.0
 11
286.9438597858
 21
10.0
 31
0.0
  0
LINE
  5
13D
330
1F
100
AcDbEntity
  8
FORMAT
 62
     7
100
AcDbLine
 10
255.3923879518
 20
19.3470401503
 30
0.0
 11
286.9438597858
 21
19.3470401503
 31
0.0
  0
LINE
  5
13E
330
1F
100
AcDbEntity
  8
FORMAT
 62
     7
100
AcDbLine
 10
180.9851741751
 20
52.6404959572
 30
0.0
 11
286.9572416722
 21
52.6404959572
 31
0.0
  0
LINE
  5
13F
330
1F
100
AcDbEntity
  8
FORMAT
 62
     7
100
AcDbLine
 10
255.3923879518
 20
10.0
 30
0.0
 11
255.3923879518
 21
52.6404959572
 31
0.0
  0
LINE
  5
140
330
1F
100
AcDbEntity
  8
FORMAT
100
AcDbLine
 10
286.9438597858
 20
10.0
 30
0.0
 11
286.9438597858
 21
200.0
 31
0.0
  0
INSERT
  5
141
330
1F
100
AcDbEntity
  8
FORMAT
100
AcDbBlockReference
  2
Block2_2
 10
-49.4796720125
 20
-37.2714257085
 30
0.0
  0
INSERT
  5
142
330
1F
100
AcDbEntity
  8
FORMAT
100
AcDbBlockReference
  2
Block1_2
 10
262.8019335354
 20
27.0956685316
 30
0.0
  0
MTEXT
  5
143
330
1F
100
AcDbEntity
  8
BEMASSUNG
 62
     7
100
AcDbMText
 10
256.196469587
 20
47.9363931555
 30
0.0
 40
2.0
 41
0.0
 71
     1
 72
     1
  1
Ausführung:
  7
SLDTEXTSTYLE0
 73
     1
 44
1.0
  0
MTEXT
  5
144
330
1F
100
AcDbEntity
  8
FORMAT
100
AcDbMText
 10
244.8335352583
 20
34.4345411691
 30
0.0
 40
2.0
 41
0.0
 71
     1
 72
     1
  1
Index:
  7
SLDTEXTSTYLE0
 73
     1
 44
1.0
  0
MTEXT
  5
146
330
1F
100
AcDbEntity
  8
FORMAT
100
AcDbMText
 10
257.9461905645
 20
51.6009600552
 30
0.0
 40
1.8
 41
0.0
 71
     1
 72
     1
  1
KATALOGZEICHNUNG
  7
SLDTEXTSTYLE3
 73
     1
 44
1.0
  0
MTEXT
  5
147
330
1F
100
AcDbEntity
  8
FORMAT
100
AcDbMText
 10
182.9061937187
 20
34.8216251945
 30
0.0
 40
2.0
 41
0.0
 71
     1
 72
     1
  1
Zeichnungsnummer:
  7
SLDTEXTSTYLE0
 73
     1
 44
1.0
  0
MTEXT
  5
148
330
1F
100
AcDbEntity
  8
FORMAT
100
AcDbMText
 10
265.9344367942
 20
14.2806067945
 30
0.0
 40
2.1166666667
 41
0.0
 71
     1
 72
     1
  1
3
  7
SLDTEXTSTYLE0
 73
     1
 44
1.0
  0
MTEXT
  5
149
330
1F
100
AcDbEntity
  8
FORMAT
100
AcDbMText
 10
259.8619150727
 20
14.2806067945
 30
0.0
 40
2.1166666667
 41
0.0
 71
     1
 72
     1
  1
2
  7
SLDTEXTSTYLE0
 73
     1
 44
1.0
  0
MTEXT
  5
14A
330
1F
100
AcDbEntity
  8
FORMAT
100
AcDbMText
 10
277.535567047
 20
14.1724992936
 30
0.0
 40
2.1166666667
 41
0.0
 71
     1
 72
     1
  1
A4
  7
SLDTEXTSTYLE0
 73
     1
 44
1.0
  0
MTEXT
  5
14B
330
1F
100
AcDbEntity
  8
FORMAT
100
AcDbMText
 10
270.2136096579
 20
23.7012230636
 30
0.0
 40
2.1166666667
 41
0.0
 71
     1
 72
     1
  1
1:1
  7
SLDTEXTSTYLE0
 73
     1
 44
1.0
  0
MTEXT
  5
14C
330
1F
100
AcDbEntity
  8
FORMAT
100
AcDbMText
 10
185.855694094
 20
31.2946896474
 30
0.0
 40
3.175
 41
0.0
 71
     1
 72
     1
  1
D042-29451
  7
SLDTEXTSTYLE3
 73
     1
 44
1.0
  0
MTEXT
  5
14D
330
1F
100
AcDbEntity
  8
FORMAT
100
AcDbMText
 10
263.6389415355
 20
14.3853488894
 30
0.0
 40
2.5
 41
0.0
 71
     2
 72
     1
  1
/
  7
SLDTEXTSTYLE0
 73
     1
 44
1.0
  0
MTEXT
  5
14E
330
1F
100
AcDbEntity
  8
FORMAT
100
AcDbMText
 10
257.6429342273
 20
17.8898077508
 30
0.0
 40
2.0
 41
0.0
 71
     1
 72
     1
  1
Blatt / von
  7
SLDTEXTSTYLE0
 73
     1
 44
1.0
  0
MTEXT
  5
14F
330
1F
100
AcDbEntity
  8
FORMAT
100
AcDbMText
 10
182.596993557
 20
51.3045969115
 30
0.0
 40
2.0
 41
0.0
 71
     1
 72
     1
  1
Benennung:
  7
SLDTEXTSTYLE0
 73
     1
 44
1.0
  0
MTEXT
  5
150
330
1F
100
AcDbEntity
  8
FORMAT
100
AcDbMText
 10
274.992897395
 20
17.8898077508
 30
0.0
 40
2.0
 41
0.0
 71
     1
 72
     1
  1
Format
  7
SLDTEXTSTYLE0
 73
     1
 44
1.0
  0
MTEXT
  5
151
330
1F
100
AcDbEntity
  8
FORMAT
100
AcDbMText
 10
256.3213642251
 20
23.5727761737
 30
0.0
 40
2.0
 41
0.0
 71
     1
 72
     1
  1
Maßstab:
  7
SLDTEXTSTYLE0
 73
     1
 44
1.0
  0
MTEXT
  5
152
330
1F
100
AcDbEntity
  8
FORMAT
100
AcDbMText
 10
247.5724191773
 20
29.9687085165
 30
0.0
 40
2.5
 41
0.0
 71
     1
 72
     1
  1
b
  7
SLDTEXTSTYLE3
 73
     1
 44
1.0
  0
MTEXT
  5
153
330
1F
100
AcDbEntity
  8
FORMAT
100
AcDbMText
 10
182.8009845203
 20
40.0864163817
 30
0.0
 40
2.5
 41
0.0
 71
     1
 72
     1
  1
Lasergeschweißte Objektbänder
  7
SLDTEXTSTYLE3
 73
     1
 44
1.0
  0
MTEXT
  5
154
330
1F
100
AcDbEntity
  8
FORMAT
100
AcDbMText
 10
182.8290795751
 20
43.5216266319
 30
0.0
 40
2.5
 41
0.0
 71
     1
 72
     1
  1
OBX-18-1532/120-LG-TZ
  7
SLDTEXTSTYLE3
 73
     1
 44
1.0
  0
MTEXT
  5
155
330
1F
100
AcDbEntity
  8
FORMAT
100
AcDbMText
 10
182.8205662367
 20
47.7853851366
 30
0.0
 40
3.5
 41
0.0
 71
     1
 72
     1
  1
Zusammenbau
  7
SLDTEXTSTYLE3
 73
     1
 44
1.0
  0
INSERT
  5
160
330
1F
100
AcDbEntity
  8
FORMAT
100
AcDbBlockReference
  2
SW_NOTE_0_9
 10
13.3538297872
 20
34.2427660478
 30
0.0
  0
LINE
  5
161
330
1F
100
AcDbEntity
  8
0
  6
CENTER
 62
     7
370
    18
100
AcDbLine
 10
172.6648229398
 20
153.4785727467
 30
0.0
 11
167.6648229398
 21
150.5918214007
 31
0.0
  0
LINE
  5
162
330
1F
100
AcDbEntity
  8
0
  6
CENTER
 62
     7
370
    18
100
AcDbLine
 10
167.6648229398
 20
144.3653240926
 30
0.0
 11
172.6648229398
 21
141.4785727467
 31
0.0
  0
LINE
  5
163
330
1F
100
AcDbEntity
  8
0
  6
CENTER
 62
     7
370
    18
100
AcDbLine
 10
172.6648229398
 20
141.4785727467
 30
0.0
 11
227.6648229398
 21
141.4785727467
 31
0.0
  0
LINE
  5
164
330
1F
100
AcDbEntity
  8
0
  6
CENTER
 62
     7
370
    18
100
AcDbLine
 10
227.6648229398
 20
153.4785727467
 30
0.0
 11
172.6648229398
 21
153.4785727467
 31
0.0
  0
LINE
  5
165
330
1F
100
AcDbEntity
  8
0
  6
Continuous
 62
     7
370
    25
100
AcDbLine
 10
230.6648229398
 20
148.4786803474
 30
0.0
 11
230.6648229398
 21
151.8719134094
 31
0.0
  0
LINE
  5
166
330
1F
100
AcDbEntity
  8
0
  6
Continuous
 62
     7
370
    25
100
AcDbLine
 10
227.6648229398
 20
148.4786803474
 30
0.0
 11
227.6648229593
 21
153.5543875677
 31
0.0
  0
ARC
  5
167
330
1F
100
AcDbEntity
  8
0
  6
Continuous
 62
     7
370
    18
100
AcDbCircle
 10
224.8447789599
 20
145.0101306109
 30
0.0
 40
8.997609410414661
100
AcDbArc
 50
49.6959739807
 51
71.7344541359
  0
LINE
  5
168
330
1F
100
AcDbEntity
  8
0
  6
Continuous
 62
     7
370
    25
100
AcDbLine
 10
227.6648229398
 20
139.9786803474
 30
0.0
 11
230.6648229398
 21
139.9786803474
 31
0.0
  0
LINE
  5
169
330
1F
100
AcDbEntity
  8
0
  6
Continuous
 62
     7
370
    25
100
AcDbLine
 10
230.6648229398
 20
148.4786803474
 30
0.0
 11
230.6648229398
 21
139.9786803474
 31
0.0
  0
LINE
  5
16A
330
1F
100
AcDbEntity
  8
0
  6
Continuous
 62
     7
370
    25
100
AcDbLine
 10
227.6648229398
 20
139.9786803474
 30
0.0
 11
227.6648229398
 21
148.4786803474
 31
0.0
  0
ARC
  5
16B
330
1F
100
AcDbEntity
  8
0
  6
Continuous
 62
     7
370
    25
100
AcDbCircle
 10
250.9790932269
 20
135.9786803474
 30
0.0
 40
3.5
100
AcDbArc
 50
49.2440225849
 51
90.0
  0
LINE
  5
16C
330
1F
100
AcDbEntity
  8
0
  6
Continuous
 62
     7
370
    25
100
AcDbLine
 10
253.264028965
 20
138.62991943
 30
0.0
 11
256.3266091868
 21
135.9904747093
 31
0.0
  0
LINE
  5
16D
330
1F
100
AcDbEntity
  8
0
  6
Continuous
 62
     7
370
    25
100
AcDbLine
 10
254.3680928398
 20
133.7179840672
 30
0.0
 11
256.3266091868
 21
135.9904747093
 31
0.0
  0
LINE
  5
16E
330
1F
100
AcDbEntity
  8
0
  6
Continuous
 62
     7
370
    25
100
AcDbLine
 10
251.3055126181
 20
136.3574287878
 30
0.0
 11
254.3680928398
 21
133.7179840672
 31
0.0
  0
LINE
  5
16F
330
1F
100
AcDbEntity
  8
0
  6
Continuous
 62
     7
370
    25
100
AcDbLine
 10
251.3055126181
 20
136.3574287878
 30
0.0
 11
251.3055126181
 21
138.4786803474
 31
0.0
  0
LINE
  5
170
330
1F
100
AcDbEntity
  8
0
  6
Continuous
 62
     7
370
    25
100
AcDbLine
 10
251.3055126181
 20
138.4786803474
 30
0.0
 11
228.0025452797
 21
138.4786803474
 31
0.0
  0
ARC
  5
171
330
1F
100
AcDbEntity
  8
0
  6
Continuous
 62
     7
370
    25
100
AcDbCircle
 10
231.1648229398
 20
139.9786803474
 30
0.0
 40
0.5000000000000284
100
AcDbArc
 50
180.0
 51
270.0
  0
LINE
  5
172
330
1F
100
AcDbEntity
  8
0
  6
Continuous
 62
     7
370
    25
100
AcDbLine
 10
250.9790932269
 20
139.4786803474
 30
0.0
 11
231.1648229398
 21
139.4786803474
 31
0.0
  0
ARC
  5
173
330
1F
100
AcDbEntity
  8
0
  6
Continuous
 62
     7
370
    25
100
AcDbCircle
 10
231.1648229398
 20
139.9786803474
 30
0.0
 40
3.500000000000018
100
AcDbArc
 50
180.0
 51
205.3769335252
  0
ARC
  5
174
330
1F
100
AcDbEntity
  8
0
  6
Continuous
 62
     7
370
    25
100
AcDbCircle
 10
250.9790932269
 20
135.9786803474
 30
0.0
 40
0.5000000000000159
100
AcDbArc
 50
49.2440225849
 51
90.0
  0
LINE
  5
175
330
1F
100
AcDbEntity
  8
0
  6
Continuous
 62
     7
370
    25
100
AcDbLine
 10
250.9790932269
 20
136.4786803474
 30
0.0
 11
231.1648229398
 21
136.4786803474
 31
0.0
  0
ARC
  5
176
330
1F
100
AcDbEntity
  8
0
  6
Continuous
 62
     7
370
    25
100
AcDbCircle
 10
231.1648229398
 20
139.9786803474
 30
0.0
 40
3.500000000000018
100
AcDbArc
 50
205.3769335252
 51
270.0
  0
LINE
  5
177
330
1F
100
AcDbEntity
  8
0
  6
Continuous
 62
     7
370
    25
100
AcDbLine
 10
228.4148229398
 20
156.2286803474
 30
0.0
 11
228.4148229398
 21
162.7286803474
 31
0.0
  0
LINE
  5
178
330
1F
100
AcDbEntity
  8
0
  6
Continuous
 62
     7
370
    25
100
AcDbLine
 10
228.4148229398
 20
162.7286803474
 30
0.0
 11
230.6648229398
 21
164.9786803474
 31
0.0
  0
LINE
  5
179
330
1F
100
AcDbEntity
  8
0
  6
Continuous
 62
     7
370
    25
100
AcDbLine
 10
230.6648229398
 20
153.9786803474
 30
0.0
 11
228.4148229398
 21
156.2286803474
 31
0.0
  0
LINE
  5
17A
330
1F
100
AcDbEntity
  8
0
  6
Continuous
 62
     7
370
    25
100
AcDbLine
 10
227.6648229398
 20
162.7286803474
 30
0.0
 11
228.4148229398
 21
162.7286803474
 31
0.0
  0
LINE
  5
17B
330
1F
100
AcDbEntity
  8
0
  6
Continuous
 62
     7
370
    25
100
AcDbLine
 10
228.4148229398
 20
156.2286803474
 30
0.0
 11
227.6648229398
 21
156.2286803474
 31
0.0
  0
LINE
  5
17C
330
1F
100
AcDbEntity
  8
0
  6
Continuous
 62
     7
370
    25
100
AcDbLine
 10
227.6648229398
 20
156.2286803474
 30
0.0
 11
227.6648229398
 21
162.7286803474
 31
0.0
  0
LINE
  5
17D
330
1F
100
AcDbEntity
  8
0
  6
Continuous
 62
     7
370
    25
100
AcDbLine
 10
227.6648229398
 20
166.4786803474
 30
0.0
 11
230.6648229398
 21
166.4786803474
 31
0.0
  0
LINE
  5
17E
330
1F
100
AcDbEntity
  8
0
  6
Continuous
 62
     7
370
    25
100
AcDbLine
 10
230.6648229398
 20
166.2362311128
 30
0.0
 11
230.6648229398
 21
166.4786803474
 31
0.0
  0
LINE
  5
17F
330
1F
100
AcDbEntity
  8
0
  6
Continuous
 62
     7
370
    25
100
AcDbLine
 10
227.6648229398
 20
162.7286803474
 30
0.0
 11
227.6648229398
 21
166.4786803474
 31
0.0
  0
LINE
  5
180
330
1F
100
AcDbEntity
  8
0
  6
Continuous
 62
     7
370
    25
100
AcDbLine
 10
227.6648229593
 20
153.5543875677
 30
0.0
 11
227.6648229398
 21
156.2286803474
 31
0.0
  0
LINE
  5
181
330
1F
100
AcDbEntity
  8
0
  6
CENTER
 62
     7
370
    18
100
AcDbLine
 10
167.6648229398
 20
148.4837838404
 30
0.0
 11
167.6648229398
 21
150.5918214007
 31
0.0
  0
LINE
  5
182
330
1F
100
AcDbEntity
  8
0
  6
CENTER
 62
     7
370
    18
100
AcDbLine
 10
167.6648229398
 20
144.3653240926
 30
0.0
 11
167.6648229398
 21
148.4837838404
 31
0.0
  0
LINE
  5
183
330
1F
100
AcDbEntity
  8
0
  6
CENTER
 62
     7
370
    18
100
AcDbLine
 10
172.6648229398
 20
149.4158630928
 30
0.0
 11
172.6648229398
 21
153.4785727467
 31
0.0
  0
LINE
  5
184
330
1F
100
AcDbEntity
  8
0
  6
CENTER
 62
     7
370
    18
100
AcDbLine
 10
172.6648229398
 20
141.4785727467
 30
0.0
 11
172.6648229398
 21
149.4158630928
 31
0.0
  0
LINE
  5
185
330
1F
100
AcDbEntity
  8
0
  6
Continuous
 62
     7
370
    25
100
AcDbLine
 10
238.1648229398
 20
143.4786803474
 30
0.0
 11
236.1648229398
 21
143.4786803474
 31
0.0
  0
LINE
  5
186
330
1F
100
AcDbEntity
  8
0
  6
Continuous
 62
     7
370
    25
100
AcDbLine
 10
236.1648229398
 20
148.4786803474
 30
0.0
 11
236.1648229398
 21
143.4786803474
 31
0.0
  0
LINE
  5
187
330
1F
100
AcDbEntity
  8
0
  6
Continuous
 62
     7
370
    25
100
AcDbLine
 10
238.1648229398
 20
148.4786803474
 30
0.0
 11
238.1648229398
 21
143.4786803474
 31
0.0
  0
LINE
  5
188
330
1F
100
AcDbEntity
  8
0
  6
Continuous
 62
     7
370
    25
100
AcDbLine
 10
238.1648229398
 20
166.4786803474
 30
0.0
 11
236.1648229398
 21
166.4786803474
 31
0.0
  0
LINE
  5
189
330
1F
100
AcDbEntity
  8
0
  6
Continuous
 62
     7
370
    25
100
AcDbLine
 10
236.1648229398
 20
166.4786803474
 30
0.0
 11
236.1648229398
 21
154.4786803474
 31
0.0
  0
LINE
  5
18A
330
1F
100
AcDbEntity
  8
0
  6
Continuous
 62
     7
370
    25
100
AcDbLine
 10
238.1648229398
 20
166.4786803474
 30
0.0
 11
238.1648229398
 21
154.4786803474
 31
0.0
  0
LINE
  5
18B
330
1F
100
AcDbEntity
  8
0
  6
Continuous
 62
     7
370
    25
100
AcDbLine
 10
236.1648229398
 20
154.4786803474
 30
0.0
 11
236.1648229398
 21
148.4786803474
 31
0.0
  0
LINE
  5
18C
330
1F
100
AcDbEntity
  8
0
  6
Continuous
 62
     7
370
    25
100
AcDbLine
 10
238.1648229398
 20
154.4786803474
 30
0.0
 11
238.1648229398
 21
148.4786803474
 31
0.0
  0
LINE
  5
18D
330
1F
100
AcDbEntity
  8
0
  6
Continuous
 62
     7
370
    25
100
AcDbLine
 10
236.1648229398
 20
150.4786803474
 30
0.0
 11
236.1648229398
 21
154.4786803474
 31
0.0
  0
LINE
  5
18E
330
1F
100
AcDbEntity
  8
0
  6
Continuous
 62
     7
370
    25
100
AcDbLine
 10
236.1648229398
 20
150.4786803474
 30
0.0
 11
230.6648229398
 21
150.4786803474
 31
0.0
  0
LINE
  5
18F
330
1F
100
AcDbEntity
  8
0
  6
Continuous
 62
     7
370
    25
100
AcDbLine
 10
230.6648229398
 20
150.4786803474
 30
0.0
 11
230.6648229398
 21
154.4786803474
 31
0.0
  0
LINE
  5
190
330
1F
100
AcDbEntity
  8
0
  6
Continuous
 62
     7
370
    25
100
AcDbLine
 10
236.1648229398
 20
166.4786803474
 30
0.0
 11
234.1648229398
 21
166.4786803474
 31
0.0
  0
LINE
  5
191
330
1F
100
AcDbEntity
  8
0
  6
Continuous
 62
     7
370
    25
100
AcDbLine
 10
230.6648229398
 20
166.2362311128
 30
0.0
 11
234.1648229398
 21
166.2362311128
 31
0.0
  0
LINE
  5
192
330
1F
100
AcDbEntity
  8
0
  6
Continuous
 62
     7
370
    25
100
AcDbLine
 10
234.1648229398
 20
166.2362311128
 30
0.0
 11
234.1648229398
 21
166.4786803474
 31
0.0
  0
LINE
  5
193
330
1F
100
AcDbEntity
  8
0
  6
Continuous
 62
     7
370
    25
100
AcDbLine
 10
230.6648229398
 20
154.4786803474
 30
0.0
 11
230.6648229398
 21
166.2362311128
 31
0.0
  0
LINE
  5
194
330
1F
100
AcDbEntity
  8
0
  6
Continuous
 62
     7
370
    25
100
AcDbLine
 10
230.6648229398
 20
166.4786803474
 30
0.0
 11
234.1648229398
 21
166.4786803474
 31
0.0
  0
CIRCLE
  5
195
330
1F
100
AcDbEntity
  8
0
  6
Continuous
 62
     7
370
    25
100
AcDbCircle
 10
262.1648229398
 20
128.9786803474
 30
0.0
 40
8.80000000000003
  0
CIRCLE
  5
196
330
1F
100
AcDbEntity
  8
0
  6
Continuous
 62
     7
370
    25
100
AcDbCircle
 10
262.1648229398
 20
128.9786803474
 30
0.0
 40
9.000000000000028
  0
LINE
  5
197
330
1F
100
AcDbEntity
  8
0
  6
Continuous
 62
     7
370
    25
100
AcDbLine
 10
272.1648229398
 20
89.9786803474
 30
0.0
 11
269.1648229398
 21
89.9786803474
 31
0.0
  0
LINE
  5
198
330
1F
100
AcDbEntity
  8
0
  6
Continuous
 62
     7
370
    25
100
AcDbLine
 10
272.1648229398
 20
90.4786803474
 30
0.0
 11
272.1648229398
 21
89.9786803474
 31
0.0
  0
LINE
  5
199
330
1F
100
AcDbEntity
  8
0
  6
Continuous
 62
     7
370
    25
100
AcDbLine
 10
269.1648229398
 20
89.9786803474
 30
0.0
 11
269.1648229398
 21
90.4786803474
 31
0.0
  0
LINE
  5
19A
330
1F
100
AcDbEntity
  8
0
  6
Continuous
 62
     7
370
    25
100
AcDbLine
 10
272.1648229398
 20
90.4786803474
 30
0.0
 11
272.1648229398
 21
118.286494762
 31
0.0
  0
LINE
  5
19B
330
1F
100
AcDbEntity
  8
0
  6
Continuous
 62
     7
370
    25
100
AcDbLine
 10
269.1648229398
 20
90.4786803474
 30
0.0
 11
269.1648229398
 21
118.286494762
 31
0.0
  0
LINE
  5
19C
330
1F
100
AcDbEntity
  8
0
  6
Continuous
 62
     7
370
    25
100
AcDbLine
 10
269.1648229398
 20
118.786494762
 30
0.0
 11
272.1648229398
 21
118.786494762
 31
0.0
  0
LINE
  5
19D
330
1F
100
AcDbEntity
  8
0
  6
Continuous
 62
     7
370
    25
100
AcDbLine
 10
272.1648229398
 20
118.786494762
 30
0.0
 11
272.1648229398
 21
118.286494762
 31
0.0
  0
LINE
  5
19E
330
1F
100
AcDbEntity
  8
0
  6
Continuous
 62
     7
370
    25
100
AcDbLine
 10
269.1648229398
 20
118.286494762
 30
0.0
 11
269.1648229398
 21
118.786494762
 31
0.0
  0
LINE
  5
19F
330
1F
100
AcDbEntity
  8
0
  6
Continuous
 62
     7
370
    25
100
AcDbLine
 10
269.1080628046
 20
119.0178784743
 30
0.0
 11
271.9275862427
 21
120.0531342645
 31
0.0
  0
LINE
  5
1A0
330
1F
100
AcDbEntity
  8
0
  6
Continuous
 62
     7
370
    25
100
AcDbLine
 10
271.9275862428
 20
120.0531342645
 30
0.0
 11
272.08315738
 21
119.5381526996
 31
0.0
  0
LINE
  5
1A1
330
1F
100
AcDbEntity
  8
0
  6
Continuous
 62
     7
370
    25
100
AcDbLine
 10
272.08315738
 20
119.5381526996
 30
0.0
 11
272.1404321968
 21
119.19897542
 31
0.0
  0
LINE
  5
1A2
330
1F
100
AcDbEntity
  8
0
  6
Continuous
 62
     7
370
    25
100
AcDbLine
 10
272.1404321968
 20
119.19897542
 30
0.0
 11
272.1620084526
 21
118.9268282564
 31
0.0
  0
LWPOLYLINE
  5
1A3
330
1F
100
AcDbEntity
  8
0
  6
Continuous
 62
     7
370
    25
100
AcDbPolyline
 90
        3
 70
   128
 43
0.0
 10
272.1620084526
 20
118.9268282565
 10
272.1646312974
 20
118.8231207128
 10
272.1648229398
 20
118.786494762
  0
ARC
  5
1A4
330
1F
100
AcDbEntity
  8
0
  6
Continuous
 62
     7
370
    25
100
AcDbCircle
 10
268.6648229398
 20
118.786494762
 30
0.0
 40
0.4999999999997481
100
AcDbArc
 50
0.6349707311
 51
27.5658290261
  0
LINE
  5
1A5
330
1F
100
AcDbEntity
  8
0
  6
Continuous
 62
     7
370
    25
100
AcDbLine
 10
271.2637588478
 20
121.1307498978
 30
0.0
 11
269.0360994975
 21
119.1213883526
 31
0.0
  0
LINE
  5
1A6
330
1F
100
AcDbEntity
  8
0
  6
Continuous
 62
     7
370
    25
100
AcDbLine
 10
271.2637588726
 20
121.1307498714
 30
0.0
 11
271.9275862427
 21
120.0531342645
 31
0.0
  0
LINE
  5
1A7
330
1F
100
AcDbEntity
  8
0
  6
Continuous
 62
     7
370
    25
100
AcDbLine
 10
269.1080628046
 20
119.0178784743
 30
0.0
 11
269.0360994982
 21
119.1213883529
 31
0.0
  0
LINE
  5
1A8
330
1F
100
AcDbEntity
  8
0
  6
Continuous
 62
     7
370
    25
100
AcDbLine
 10
269.3067372498
 20
123.300383069
 30
0.0
 11
267.0790778996
 21
121.2910215238
 31
0.0
  0
LINE
  5
1A9
330
1F
100
AcDbEntity
  8
0
  6
Continuous
 62
     7
370
    25
100
AcDbLine
 10
269.3067372498
 20
123.300383069
 30
0.0
 11
271.2637588478
 21
121.1307498978
 31
0.0
  0
LINE
  5
1AA
330
1F
100
AcDbEntity
  8
0
  6
Continuous
 62
     7
370
    25
100
AcDbLine
 10
267.0790778996
 20
121.2910215238
 30
0.0
 11
269.0360994977
 21
119.1213883524
 31
0.0
  0
HATCH
  5
1AB
330
1F
100
AcDbEntity
  8
0
  6
Continuous
 62
     7
370
    18
100
AcDbHatch
 10
0.0
 20
0.0
 30
0.0
210
0.0
220
0.0
230
1.0
  2
ANSI31
 70
     0
 71
     0
 91
        1
 92
        0
 93
        5
 72
     1
 10
227.6648229398396
 20
162.7286803474477
 11
228.4148229398396
 21
162.7286803474477
 72
     1
 10
228.4148229398396
 20
162.7286803474477
 11
230.6648229398396
 21
164.9786803474477
 72
     1
 10
230.6648229398396
 20
164.9786803474477
 11
230.6648229398396
 21
166.4786803474477
 72
     1
 10
230.6648229398396
 20
166.4786803474477
 11
227.6648229398396
 21
166.4786803474477
 72
     1
 10
227.6648229398396
 20
166.4786803474477
 11
227.6648229398396
 21
162.7286803474477
 97
        0
 75
     0
 76
     1
 52
0.0
 41
0.5
 77
     0
 78
     1
 53
45.0
 43
0.0
 44
0.0
 45
-1.122532015133644
 46
1.122532015133644
 79
     0
 98
        1
 10
0.0
 20
0.0
  0
HATCH
  5
1AC
330
1F
100
AcDbEntity
  8
0
  6
Continuous
 62
     7
370
    18
100
AcDbHatch
 10
0.0
 20
0.0
 30
0.0
210
0.0
220
0.0
230
1.0
  2
ANSI31
 70
     0
 71
     0
 91
        1
 92
        0
 93
        5
 72
     4
 94
        3
 73
     1
 74
     0
 95
        9
 96
        5
 40
0.8903205631264565
 40
0.8903205631264565
 40
0.8903205631264565
 40
0.8903205631264565
 40
0.9026666890229291
 40
0.9628203541557578
 40
0.9628203541557578
 40
0.9628203541557578
 40
0.9628203541557578
 10
227.664822959321
 20
153.5543875676794
 42
1.0
 10
227.8520203277888
 20
153.5107146869849
 42
1.0
 10
228.9652073171875
 20
153.2027088526546
 42
1.0
 10
229.9744233739673
 20
152.3307246044347
 42
1.0
 10
230.6648229398176
 20
151.8719134094005
 42
1.0
 72
     1
 10
230.6648229398176
 20
151.8719134094005
 11
230.6648229398396
 21
153.9786803474477
 72
     1
 10
230.6648229398396
 20
153.9786803474477
 11
228.4148229398396
 21
156.2286803474477
 72
     1
 10
228.4148229398396
 20
156.2286803474477
 11
227.6648229398396
 21
156.2286803474477
 72
     1
 10
227.6648229398396
 20
156.2286803474477
 11
227.664822959321
 21
153.5543875676794
 97
        0
 75
     0
 76
     1
 52
0.0
 41
0.5
 77
     0
 78
     1
 53
45.0
 43
0.0
 44
0.0
 45
-1.122532015133644
 46
1.122532015133644
 79
     0
 98
        1
 10
0.0
 20
0.0
  0
HATCH
  5
1AD
330
1F
100
AcDbEntity
  8
0
  6
Continuous
 62
     7
370
    18
100
AcDbHatch
 10
0.0
 20
0.0
 30
0.0
210
0.0
220
0.0
230
1.0
  2
ANSI31
 70
     0
 71
     0
 91
        1
 92
        0
 93
        2
 72
     4
 94
        3
 73
     1
 74
     0
 95
        9
 96
        5
 40
0.8903205631264575
 40
0.8903205631264575
 40
0.8903205631264575
 40
0.8903205631264575
 40
0.9026666890229291
 40
0.9628203541557591
 40
0.9628203541557591
 40
0.9628203541557591
 40
0.9628203541557591
 10
227.664822959321
 20
153.5543875676794
 42
1.0
 10
227.8520203277888
 20
153.5107146869849
 42
1.0
 10
228.9652073171875
 20
153.2027088526546
 42
1.0
 10
229.9744233739673
 20
152.3307246044347
 42
1.0
 10
230.6648229398177
 20
151.8719134094005
 42
1.0
 72
     4
 94
        3
 73
     1
 74
     0
 95
        9
 96
        5
 40
0.0371796458442424
 40
0.0371796458442424
 40
0.0371796458442424
 40
0.0371796458442424
 40
0.0973333109770709
 40
0.1096794368735433
 40
0.1096794368735433
 40
0.1096794368735433
 40
0.1096794368735433
 10
230.6648229398176
 20
151.8719134094005
 42
1.0
 10
229.9744233739673
 20
152.3307246044348
 42
1.0
 10
228.9652073171875
 20
153.2027088526546
 42
1.0
 10
227.8520203277888
 20
153.5107146869849
 42
1.0
 10
227.664822959321
 20
153.5543875676794
 42
1.0
 97
        0
 75
     0
 76
     1
 52
0.0
 41
0.5
 77
     0
 78
     1
 53
45.0
 43
0.0
 44
0.0
 45
-1.122532015133644
 46
1.122532015133644
 79
     0
 98
        1
 10
0.0
 20
0.0
  0
LINE
  5
1AE
330
1F
100
AcDbEntity
  8
FORMAT
  6
Continuous
370
    18
100
AcDbLine
 10
254.1204489006
 20
140.250867367
 30
0.0
 11
254.1204489006
 21
139.750867367
 31
0.0
  0
DIMENSION
  5
1AF
330
1F
100
AcDbEntity
  8
FORMAT
100
AcDbDimension
  2
_D
 10
214.6041923716
 20
136.4786803474
 30
0.0
 11
214.6041923716
 21
151.4786803474
 31
0.0
 70
   160
  1
<>
 71
     2
 42
-1.0
  3
SLDDIMSTYLE0
100
AcDbAlignedDimension
 13
227.6648229398
 23
166.4786803474
 33
0.0
 14
231.1648229398
 24
136.4786803474
 34
0.0
 50
90.0
100
AcDbRotatedDimension
  0
DIMENSION
  5
1BB
330
1F
100
AcDbEntity
  8
FORMAT
100
AcDbDimension
  2
_D_1
 10
221.0674958555
 20
156.2286803474
 30
0.0
 11
221.0674958555
 21
174.8054685786
 31
0.0
 70
   160
  1
%%c<>
 71
     2
 42
-1.0
  3
SLDDIMSTYLE1
100
AcDbAlignedDimension
 13
227.6648229398
 23
162.7286803474
 33
0.0
 14
227.6648229398
 24
156.2286803474
 34
0.0
 50
90.0
100
AcDbRotatedDimension
  0
DIMENSION
  5
1C9
330
1F
100
AcDbEntity
  8
FORMAT
100
AcDbDimension
  2
_D_2
 10
244.7638707853
 20
153.9786803474
 30
0.0
 11
244.7638707853
 21
159.4786803474
 31
0.0
 70
   160
  1
%%c<>
 71
     2
 42
-1.0
  3
SLDDIMSTYLE0
100
AcDbAlignedDimension
 13
230.6648229398
 23
164.9786803474
 33
0.0
 14
230.6648229398
 24
153.9786803474
 34
0.0
 50
90.0
100
AcDbRotatedDimension
  0
DIMENSION
  5
1D4
330
1F
100
AcDbEntity
  8
FORMAT
100
AcDbDimension
  2
_D_3
 10
228.4148229398
 20
162.7286803474
 30
0.0
 11
252.7510790281
 21
159.4786803474
 31
0.0
 70
   162
  1
<>
 71
     1
 42
-1.0
  3
SLDDIMSTYLE2
100
AcDb2LineAngularDimension
 13
228.4148229398
 23
156.2286803474
 33
0.0
 14
230.6648229398
 24
153.9786803474
 34
0.0
 15
230.6648229398
 25
164.9786803474
 35
0.0
 16
252.7510790281
 26
159.4786803474
 36
0.0
  0
DIMENSION
  5
1DF
330
1F
100
AcDbEntity
  8
FORMAT
100
AcDbDimension
  2
_D_4
 10
238.1648229398
 20
181.4639711181
 30
0.0
 11
232.9148229398
 21
181.4639711181
 31
0.0
 70
   160
  1
<>
 71
     2
 42
-1.0
  3
SLDDIMSTYLE0
100
AcDbAlignedDimension
 13
227.6648229398
 23
166.4786803474
 33
0.0
 14
238.1648229398
 24
166.4786803474
 34
0.0
 50
0.0
100
AcDbRotatedDimension
  0
DIMENSION
  5
1E9
330
1F
100
AcDbEntity
  8
FORMAT
100
AcDbDimension
  2
_D_5
 10
262.1648229398
 20
191.5183674787
 30
0.0
 11
244.9148229398
 21
191.5183674787
 31
0.0
 70
   160
  1
<>
 71
     2
 42
-1.0
  3
SLDDIMSTYLE0
100
AcDbAlignedDimension
 13
227.6648229398
 23
148.4786803474
 33
0.0
 14
262.1648229398
 24
128.9786803474
 34
0.0
100
AcDbRotatedDimension
  0
DIMENSION
  5
1F3
330
1F
100
AcDbEntity
  8
FORMAT
100
AcDbDimension
  2
_D_6
 10
206.9374157167
 20
128.9786803474
 30
0.0
 11
206.9374157167
 21
147.7286803474
 31
0.0
 70
   160
  1
<>
 71
     2
 42
-1.0
  3
SLDDIMSTYLE0
100
AcDbAlignedDimension
 13
227.6648229398
 23
166.4786803474
 33
0.0
 14
250.6648229398
 24
128.9786803474
 34
0.0
 50
90.0
100
AcDbRotatedDimension
  0
INSERT
  5
208
330
1F
100
AcDbEntity
  8
FORMAT
100
AcDbBlockReference
  2
SW_CENTERMARKSYMBOL_0
 10
262.1648229398
 20
128.9786803474
 30
0.0
  0
LINE
  5
209
330
1F
100
AcDbEntity
  8
FORMAT
  6
CENTERX2
370
    18
100
AcDbLine
 10
232.5905275732
 20
159.4786803474
 30
0.0
 11
225.6648229398
 21
159.4786803474
 31
0.0
  0
LINE
  5
20A
330
1F
100
AcDbEntity
  8
FORMAT
  6
CENTERX2
370
    18
100
AcDbLine
 10
165.6648229398
 20
147.4785727467
 30
0.0
 11
229.6648229398
 21
147.4785727467
 31
0.0
  0
LINE
  5
20B
330
1F
100
AcDbEntity
  8
0
  6
CENTER
 62
     7
370
    18
100
AcDbLine
 10
172.6648229398
 20
82.8527488073
 30
0.0
 11
227.6648229398
 21
82.8527488073
 31
0.0
  0
LINE
  5
20C
330
1F
100
AcDbEntity
  8
0
  6
CENTER
 62
     7
370
    18
100
AcDbLine
 10
227.6648229398
 20
94.8527488073
 30
0.0
 11
172.6648229398
 21
94.8527488073
 31
0.0
  0
LINE
  5
20D
330
1F
100
AcDbEntity
  8
0
  6
CENTER
 62
     7
370
    18
100
AcDbLine
 10
172.6648229398
 20
94.8527488073
 30
0.0
 11
167.6648229398
 21
91.9659974613
 31
0.0
  0
LINE
  5
20E
330
1F
100
AcDbEntity
  8
0
  6
CENTER
 62
     7
370
    18
100
AcDbLine
 10
167.6648229398
 20
85.7395001532
 30
0.0
 11
172.6648229398
 21
82.8527488073
 31
0.0
  0
LINE
  5
20F
330
1F
100
AcDbEntity
  8
0
  6
Continuous
 62
     7
370
    25
100
AcDbLine
 10
227.6648229398
 20
95.8528564081
 30
0.0
 11
227.6648229398
 21
107.8528564081
 31
0.0
  0
LINE
  5
210
330
1F
100
AcDbEntity
  8
0
  6
Continuous
 62
     7
370
    25
100
AcDbLine
 10
227.6648229398
 20
107.8528564081
 30
0.0
 11
230.6648229398
 21
107.8528564081
 31
0.0
  0
LINE
  5
211
330
1F
100
AcDbEntity
  8
0
  6
Continuous
 62
     7
370
    25
100
AcDbLine
 10
230.6648229398
 20
107.8528564081
 30
0.0
 11
230.6648229398
 21
97.024733477
 31
0.0
  0
LWPOLYLINE
  5
212
330
1F
100
AcDbEntity
  8
0
  6
Continuous
 62
     7
370
    18
100
AcDbPolyline
 90
        3
 70
   128
 43
0.0
 10
230.6648229398
 20
97.024733477
 10
229.3961979112
 20
96.4811875787
 10
228.1547963949
 20
95.852856408
  0
LINE
  5
213
330
1F
100
AcDbEntity
  8
0
  6
Continuous
 62
     7
370
    25
100
AcDbLine
 10
227.6648229398
 20
95.5811022776
 30
0.0
 11
227.6648229398
 21
95.8528564081
 31
0.0
  0
LINE
  5
214
330
1F
100
AcDbEntity
  8
0
  6
Continuous
 62
     7
370
    18
100
AcDbLine
 10
228.1547963949
 20
95.852856408
 30
0.0
 11
227.6648229398
 21
95.5811022776
 31
0.0
  0
LINE
  5
215
330
1F
100
AcDbEntity
  8
0
  6
Continuous
 62
     7
370
    25
100
AcDbLine
 10
227.6648229398
 20
81.3528564081
 30
0.0
 11
230.6648229398
 21
81.3528564081
 31
0.0
  0
ARC
  5
216
330
1F
100
AcDbEntity
  8
0
  6
Continuous
 62
     7
370
    18
100
AcDbCircle
 10
231.4274517195
 20
89.6497682565
 30
0.0
 40
7.915273121657008
100
AcDbArc
 50
241.6170058444
 51
264.4710310346
  0
LINE
  5
217
330
1F
100
AcDbEntity
  8
0
  6
Continuous
 62
     7
370
    25
100
AcDbLine
 10
230.6648229398
 20
81.7713200632
 30
0.0
 11
230.6648229398
 21
81.3528564081
 31
0.0
  0
LINE
  5
218
330
1F
100
AcDbEntity
  8
0
  6
Continuous
 62
     7
370
    25
100
AcDbLine
 10
227.6648229398
 20
81.3528564081
 30
0.0
 11
227.6648229398
 21
82.6859924662
 31
0.0
  0
ARC
  5
219
330
1F
100
AcDbEntity
  8
0
  6
Continuous
 62
     7
370
    25
100
AcDbCircle
 10
250.9790932269
 20
77.3528564081
 30
0.0
 40
3.500000000000014
100
AcDbArc
 50
49.2440225849
 51
90.0
  0
LINE
  5
21A
330
1F
100
AcDbEntity
  8
0
  6
Continuous
 62
     7
370
    25
100
AcDbLine
 10
254.3680928398
 20
75.0921601278
 30
0.0
 11
256.3266091868
 21
77.36465077
 31
0.0
  0
LINE
  5
21B
330
1F
100
AcDbEntity
  8
0
  6
Continuous
 62
     7
370
    25
100
AcDbLine
 10
251.3055126181
 20
77.7316048484
 30
0.0
 11
254.3680928398
 21
75.0921601278
 31
0.0
  0
LINE
  5
21C
330
1F
100
AcDbEntity
  8
0
  6
Continuous
 62
     7
370
    25
100
AcDbLine
 10
251.3055126181
 20
77.7316048484
 30
0.0
 11
251.3055126181
 21
79.8528564081
 31
0.0
  0
LINE
  5
21D
330
1F
100
AcDbEntity
  8
0
  6
Continuous
 62
     7
370
    25
100
AcDbLine
 10
251.3055126181
 20
79.8528564081
 30
0.0
 11
228.0025452797
 21
79.8528564081
 31
0.0
  0
ARC
  5
21E
330
1F
100
AcDbEntity
  8
0
  6
Continuous
 62
     7
370
    25
100
AcDbCircle
 10
231.1648229398
 20
81.3528564081
 30
0.0
 40
3.499999999999992
100
AcDbArc
 50
180.0
 51
205.3769335252
  0
ARC
  5
21F
330
1F
100
AcDbEntity
  8
0
  6
Continuous
 62
     7
370
    25
100
AcDbCircle
 10
231.1648229398
 20
81.3528564081
 30
0.0
 40
0.5
100
AcDbArc
 50
180.0
 51
270.0
  0
LINE
  5
220
330
1F
100
AcDbEntity
  8
0
  6
Continuous
 62
     7
370
    25
100
AcDbLine
 10
250.9790932269
 20
80.8528564081
 30
0.0
 11
231.1648229398
 21
80.8528564081
 31
0.0
  0
LINE
  5
221
330
1F
100
AcDbEntity
  8
0
  6
Continuous
 62
     7
370
    25
100
AcDbLine
 10
253.264028965
 20
80.0040954906
 30
0.0
 11
256.3266091868
 21
77.36465077
 31
0.0
  0
ARC
  5
222
330
1F
100
AcDbEntity
  8
0
  6
Continuous
 62
     7
370
    25
100
AcDbCircle
 10
250.9790932269
 20
77.3528564081
 30
0.0
 40
0.5000000000000159
100
AcDbArc
 50
49.2440225849
 51
90.0
  0
LINE
  5
223
330
1F
100
AcDbEntity
  8
0
  6
Continuous
 62
     7
370
    25
100
AcDbLine
 10
250.9790932269
 20
77.8528564081
 30
0.0
 11
231.1648229398
 21
77.8528564081
 31
0.0
  0
ARC
  5
224
330
1F
100
AcDbEntity
  8
0
  6
Continuous
 62
     7
370
    25
100
AcDbCircle
 10
231.1648229398
 20
81.3528564081
 30
0.0
 40
3.500000000000014
100
AcDbArc
 50
205.3769335252
 51
270.0
  0
LINE
  5
225
330
1F
100
AcDbEntity
  8
0
  6
Continuous
 62
     7
370
    25
100
AcDbLine
 10
230.6648229398
 20
82.3527488073
 30
0.0
 11
227.6648229398
 21
85.3527488073
 31
0.0
  0
LINE
  5
226
330
1F
100
AcDbEntity
  8
0
  6
Continuous
 62
     7
370
    25
100
AcDbLine
 10
230.6648229273
 20
81.7713200636
 30
0.0
 11
230.6648229398
 21
82.3527488073
 31
0.0
  0
LINE
  5
227
330
1F
100
AcDbEntity
  8
0
  6
Continuous
 62
     7
370
    25
100
AcDbLine
 10
227.6648229594
 20
82.6859924561
 30
0.0
 11
227.6648229581
 21
82.8527488073
 31
0.0
  0
LINE
  5
228
330
1F
100
AcDbEntity
  8
0
  6
Continuous
 62
     7
370
    25
100
AcDbLine
 10
227.6648229398
 20
92.3527488073
 30
0.0
 11
230.6648229398
 21
95.3527488073
 31
0.0
  0
LINE
  5
229
330
1F
100
AcDbEntity
  8
0
  6
Continuous
 62
     7
370
    25
100
AcDbLine
 10
230.6648229398
 20
82.3527488073
 30
0.0
 11
230.6648229398
 21
91.8528564081
 31
0.0
  0
LINE
  5
22A
330
1F
100
AcDbEntity
  8
0
  6
Continuous
 62
     7
370
    25
100
AcDbLine
 10
227.6648229398
 20
94.8527488073
 30
0.0
 11
227.6648229398
 21
95.5811022776
 31
0.0
  0
LINE
  5
22B
330
1F
100
AcDbEntity
  8
0
  6
CENTER
 62
     7
370
    18
100
AcDbLine
 10
172.6648229398
 20
92.8174740487
 30
0.0
 11
172.6648229398
 21
94.8527488073
 31
0.0
  0
LINE
  5
22C
330
1F
100
AcDbEntity
  8
0
  6
CENTER
 62
     7
370
    18
100
AcDbLine
 10
172.6648229398
 20
82.8527488073
 30
0.0
 11
172.6648229398
 21
92.8174740487
 31
0.0
  0
LINE
  5
22D
330
1F
100
AcDbEntity
  8
0
  6
Continuous
 62
     7
370
    25
100
AcDbLine
 10
227.6648229398
 20
92.8174740487
 30
0.0
 11
227.6648229398
 21
94.8527488073
 31
0.0
  0
LINE
  5
22E
330
1F
100
AcDbEntity
  8
0
  6
Continuous
 62
     7
370
    25
100
AcDbLine
 10
227.6648229398
 20
82.8527488073
 30
0.0
 11
227.6648229398
 21
92.8174740487
 31
0.0
  0
LINE
  5
22F
330
1F
100
AcDbEntity
  8
0
  6
CENTER
 62
     7
370
    18
100
AcDbLine
 10
167.6648229398
 20
90.9099447275
 30
0.0
 11
167.6648229398
 21
91.9659974613
 31
0.0
  0
LINE
  5
230
330
1F
100
AcDbEntity
  8
0
  6
CENTER
 62
     7
370
    18
100
AcDbLine
 10
167.6648229398
 20
85.7395001532
 30
0.0
 11
167.6648229398
 21
90.9099447275
 31
0.0
  0
LINE
  5
231
330
1F
100
AcDbEntity
  8
0
  6
Continuous
 62
     7
370
    25
100
AcDbLine
 10
238.1648229398
 20
84.8528564081
 30
0.0
 11
236.1648229398
 21
84.8528564081
 31
0.0
  0
LINE
  5
232
330
1F
100
AcDbEntity
  8
0
  6
Continuous
 62
     7
370
    25
100
AcDbLine
 10
236.1648229398
 20
89.8528564081
 30
0.0
 11
236.1648229398
 21
84.8528564081
 31
0.0
  0
LINE
  5
233
330
1F
100
AcDbEntity
  8
0
  6
Continuous
 62
     7
370
    25
100
AcDbLine
 10
238.1648229398
 20
89.8528564081
 30
0.0
 11
238.1648229398
 21
84.8528564081
 31
0.0
  0
LINE
  5
234
330
1F
100
AcDbEntity
  8
0
  6
Continuous
 62
     7
370
    25
100
AcDbLine
 10
238.1648229398
 20
107.8528564081
 30
0.0
 11
236.1648229398
 21
107.8528564081
 31
0.0
  0
LINE
  5
235
330
1F
100
AcDbEntity
  8
0
  6
Continuous
 62
     7
370
    25
100
AcDbLine
 10
236.1648229398
 20
107.8528564081
 30
0.0
 11
236.1648229398
 21
95.8528564081
 31
0.0
  0
LINE
  5
236
330
1F
100
AcDbEntity
  8
0
  6
Continuous
 62
     7
370
    25
100
AcDbLine
 10
238.1648229398
 20
107.8528564081
 30
0.0
 11
238.1648229398
 21
95.8528564081
 31
0.0
  0
LINE
  5
237
330
1F
100
AcDbEntity
  8
0
  6
Continuous
 62
     7
370
    25
100
AcDbLine
 10
236.1648229398
 20
95.8528564081
 30
0.0
 11
236.1648229398
 21
89.8528564081
 31
0.0
  0
LINE
  5
238
330
1F
100
AcDbEntity
  8
0
  6
Continuous
 62
     7
370
    25
100
AcDbLine
 10
238.1648229398
 20
95.8528564081
 30
0.0
 11
238.1648229398
 21
89.8528564081
 31
0.0
  0
LINE
  5
239
330
1F
100
AcDbEntity
  8
0
  6
Continuous
 62
     7
370
    25
100
AcDbLine
 10
236.1648229398
 20
107.8528564081
 30
0.0
 11
234.1648229398
 21
107.8528564081
 31
0.0
  0
LINE
  5
23A
330
1F
100
AcDbEntity
  8
0
  6
Continuous
 62
     7
370
    25
100
AcDbLine
 10
230.6648229398
 20
95.8528564081
 30
0.0
 11
230.6648229398
 21
107.6104071734
 31
0.0
  0
LINE
  5
23B
330
1F
100
AcDbEntity
  8
0
  6
Continuous
 62
     7
370
    25
100
AcDbLine
 10
230.6648229398
 20
107.6104071734
 30
0.0
 11
234.1648229398
 21
107.6104071734
 31
0.0
  0
LINE
  5
23C
330
1F
100
AcDbEntity
  8
0
  6
Continuous
 62
     7
370
    25
100
AcDbLine
 10
234.1648229398
 20
107.6104071734
 30
0.0
 11
234.1648229398
 21
107.8528564081
 31
0.0
  0
LINE
  5
23D
330
1F
100
AcDbEntity
  8
0
  6
Continuous
 62
     7
370
    25
100
AcDbLine
 10
236.1648229398
 20
91.8528564081
 30
0.0
 11
230.6648229398
 21
91.8528564081
 31
0.0
  0
LINE
  5
23E
330
1F
100
AcDbEntity
  8
0
  6
Continuous
 62
     7
370
    25
100
AcDbLine
 10
230.6648229398
 20
91.8528564081
 30
0.0
 11
230.6648229398
 21
95.8528564081
 31
0.0
  0
LINE
  5
23F
330
1F
100
AcDbEntity
  8
0
  6
Continuous
 62
     7
370
    25
100
AcDbLine
 10
236.1648229398
 20
91.8528564081
 30
0.0
 11
236.1648229398
 21
95.8528564081
 31
0.0
  0
LINE
  5
240
330
1F
100
AcDbEntity
  8
0
  6
Continuous
 62
     7
370
    25
100
AcDbLine
 10
230.6648229398
 20
107.8528564081
 30
0.0
 11
234.1648229398
 21
107.8528564081
 31
0.0
  0
CIRCLE
  5
241
330
1F
100
AcDbEntity
  8
0
  6
Continuous
 62
     7
370
    25
100
AcDbCircle
 10
262.1648229398
 20
70.3528564081
 30
0.0
 40
8.800000000000017
  0
CIRCLE
  5
242
330
1F
100
AcDbEntity
  8
0
  6
Continuous
 62
     7
370
    25
100
AcDbCircle
 10
262.1648229398
 20
70.3528564081
 30
0.0
 40
8.999999999999998
  0
LINE
  5
243
330
1F
100
AcDbEntity
  8
0
  6
Continuous
 62
     7
370
    25
100
AcDbLine
 10
252.1648229398
 20
108.8528564081
 30
0.0
 11
252.1648229398
 21
81.0450419935
 31
0.0
  0
LINE
  5
244
330
1F
100
AcDbEntity
  8
0
  6
Continuous
 62
     7
370
    25
100
AcDbLine
 10
255.1648229398
 20
108.8528564081
 30
0.0
 11
255.1648229398
 21
81.0450419935
 31
0.0
  0
LINE
  5
245
330
1F
100
AcDbEntity
  8
0
  6
Continuous
 62
     7
370
    25
100
AcDbLine
 10
252.1648229398
 20
109.3528564081
 30
0.0
 11
255.1648229398
 21
109.3528564081
 31
0.0
  0
LINE
  5
246
330
1F
100
AcDbEntity
  8
0
  6
Continuous
 62
     7
370
    25
100
AcDbLine
 10
252.1648229398
 20
108.8528564081
 30
0.0
 11
252.1648229398
 21
109.3528564081
 31
0.0
  0
LINE
  5
247
330
1F
100
AcDbEntity
  8
0
  6
Continuous
 62
     7
370
    25
100
AcDbLine
 10
255.1648229398
 20
109.3528564081
 30
0.0
 11
255.1648229398
 21
108.8528564081
 31
0.0
  0
LINE
  5
248
330
1F
100
AcDbEntity
  8
0
  6
Continuous
 62
     7
370
    25
100
AcDbLine
 10
255.1648229398
 20
80.5450419935
 30
0.0
 11
252.4143462319
 21
80.5450419935
 31
0.0
  0
LINE
  5
249
330
1F
100
AcDbEntity
  8
0
  6
Continuous
 62
     7
370
    25
100
AcDbLine
 10
252.1648229398
 20
80.6458861753
 30
0.0
 11
252.1648229398
 21
81.0450419935
 31
0.0
  0
LINE
  5
24A
330
1F
100
AcDbEntity
  8
0
  6
Continuous
 62
     7
370
    25
100
AcDbLine
 10
255.1648229398
 20
81.0450419935
 30
0.0
 11
255.1648229398
 21
80.5450419935
 31
0.0
  0
LINE
  5
24B
330
1F
100
AcDbEntity
  8
0
  6
Continuous
 62
     7
370
    25
100
AcDbLine
 10
255.2215830751
 20
80.3136582812
 30
0.0
 11
253.5969798172
 21
79.717146152
 31
0.0
  0
ARC
  5
24C
330
1F
100
AcDbEntity
  8
0
  6
Continuous
 62
     7
370
    25
100
AcDbCircle
 10
255.6648229398
 20
80.5450419935
 30
0.0
 40
0.499999999997667
100
AcDbArc
 50
180.6349707311
 51
207.5658290262
  0
LINE
  5
24D
330
1F
100
AcDbEntity
  8
0
  6
Continuous
 62
     7
370
    25
100
AcDbLine
 10
254.1850767953
 20
79.2103024608
 30
0.0
 11
255.2935463821
 21
80.2101484029
 31
0.0
  0
LINE
  5
24E
330
1F
100
AcDbEntity
  8
0
  6
Continuous
 62
     7
370
    25
100
AcDbLine
 10
255.2215830751
 20
80.3136582812
 30
0.0
 11
255.2935463815
 21
80.2101484026
 31
0.0
  0
LINE
  5
24F
330
1F
100
AcDbEntity
  8
0
  6
Continuous
 62
     7
370
    25
100
AcDbLine
 10
255.7166685049
 20
76.6569290836
 30
0.0
 11
257.2505679801
 21
78.0405152317
 31
0.0
  0
LINE
  5
250
330
1F
100
AcDbEntity
  8
0
  6
Continuous
 62
     7
370
    25
100
AcDbLine
 10
257.2505679801
 20
78.0405152317
 30
0.0
 11
255.293546382
 21
80.2101484031
 31
0.0
  0
HATCH
  5
251
330
1F
100
AcDbEntity
  8
0
  6
Continuous
 62
     7
370
    18
100
AcDbHatch
 10
0.0
 20
0.0
 30
0.0
210
0.0
220
0.0
230
1.0
  2
ANSI31
 70
     0
 71
     0
 91
        1
 92
        0
 93
        4
 72
     1
 10
227.6648229398391
 20
92.35274880727403
 11
230.664822939839
 21
95.35274880727404
 72
     1
 10
230.664822939839
 20
95.35274880727404
 11
230.6648229398461
 21
97.0247334770351
 72
     4
 94
        3
 73
     1
 74
     0
 95
        9
 96
        5
 40
0.3978544613048732
 40
0.3978544613048732
 40
0.3978544613048732
 40
0.3978544613048732
 40
0.443329437583065
 40
0.4755371593661921
 40
0.4755371593661921
 40
0.4755371593661921
 40
0.4755371593661921
 10
230.6648229398378
 20
97.02473347703234
 42
1.0
 10
230.0774847951583
 20
96.83065797731918
 42
1.0
 10
228.9715879718484
 20
96.26646813692022
 42
1.0
 10
228.0273480219858
 20
95.79494728434287
 42
1.0
 10
227.6648229398247
 20
95.5811022776463
 42
1.0
 72
     1
 10
227.6648229398243
 20
95.5811022776461
 11
227.6648229398391
 21
92.35274880727403
 97
        0
 75
     0
 76
     1
 52
0.0
 41
1.0
 77
     0
 78
     1
 53
45.0
 43
0.0
 44
0.0
 45
-2.245064030267288
 46
2.245064030267288
 79
     0
 98
        1
 10
0.0
 20
0.0
  0
HATCH
  5
252
330
1F
100
AcDbEntity
  8
0
  6
Continuous
 62
     7
370
    18
100
AcDbHatch
 10
0.0
 20
0.0
 30
0.0
210
0.0
220
0.0
230
1.0
  2
ANSI31
 70
     0
 71
     0
 91
        1
 92
        0
 93
        4
 72
     4
 94
        3
 73
     1
 74
     0
 95
        9
 96
        5
 40
0.5244628406338175
 40
0.5244628406338175
 40
0.5244628406338175
 40
0.5244628406338175
 40
0.556670562416935
 40
0.602145538694912
 40
0.602145538694912
 40
0.602145538694912
 40
0.602145538694912
 10
227.664822939825
 20
95.5811022776465
 42
1.0
 10
228.0273480219861
 20
95.794947284343
 42
1.0
 10
228.971587971846
 20
96.26646813691899
 42
1.0
 10
230.0774847951522
 20
96.83065797731605
 42
1.0
 10
230.6648229398294
 20
97.0247334770296
 42
1.0
 72
     4
 94
        3
 73
     1
 74
     0
 95
       17
 96
       13
 40
0.0
 40
0.0
 40
0.0
 40
0.0
 40
0.0013503967924949
 40
0.0013503967924949
 40
0.0013503967924949
 40
0.0033955110946265
 40
0.0033955110946265
 40
0.0033955110946265
 40
0.0054544299085057
 40
0.0054544299085057
 40
0.0054544299085057
 40
0.0084517064690081
 40
0.0084517064690081
 40
0.0084517064690081
 40
0.0084517064690081
 10
230.664822939839
 20
97.02473347703277
 42
1.0
 10
230.4409748387061
 20
96.95076683195663
 42
1.0
 10
230.2408915539499
 20
96.86888164277049
 42
1.0
 10
230.070944921516
 20
96.79545930189677
 42
1.0
 10
229.815237262808
 20
96.6849854748324
 42
1.0
 10
229.6259712776257
 20
96.59272562324028
 42
1.0
 10
229.541591495767
 20
96.55200617107458
 42
1.0
 10
229.4569509724334
 20
96.5111608919657
 42
1.0
 10
229.4810386450159
 20
96.523213434971
 42
1.0
 10
229.6067089758134
 20
96.58328351157097
 42
1.0
 10
229.7889356805327
 20
96.67038738120819
 42
1.0
 10
230.1749270539318
 20
96.86285604794686
 42
1.0
 10
230.664822939839
 20
97.02473347703277
 42
1.0
 72
     4
 94
        3
 73
     1
 74
     0
 95
        8
 96
        4
 40
0.0000000000000002
 40
0.0000000000000002
 40
0.0000000000000002
 40
0.0000000000000002
 40
0.0027707073159727
 40
0.0027707073159727
 40
0.0027707073159727
 40
0.0027707073159727
 10
230.6648229398392
 20
97.02473347703301
 42
1.0
 10
229.7883034353154
 20
96.73510311266865
 42
1.0
 10
228.9717291972687
 20
96.28367039222869
 42
1.0
 10
228.154796395037
 20
95.85285640806937
 42
1.0
 72
     4
 94
        3
 73
     1
 74
     0
 95
        8
 96
        4
 40
0.4615120191179042
 40
0.4615120191179042
 40
0.4615120191179042
 40
0.4615120191179042
 40
0.4755371593662039
 40
0.4755371593662039
 40
0.4755371593662039
 40
0.4755371593662039
 10
228.1547963949038
 20
95.85285640799914
 42
1.0
 10
227.9860445263835
 20
95.7638641865894
 42
1.0
 10
227.8226877262588
 20
95.67422299666227
 42
1.0
 10
227.6648229398243
 20
95.58110227764607
 42
1.0
 97
        0
 75
     0
 76
     1
 52
0.0
 41
1.0
 77
     0
 78
     1
 53
45.0
 43
0.0
 44
0.0
 45
-2.245064030267288
 46
2.245064030267288
 79
     0
 98
        1
 10
0.0
 20
0.0
  0
HATCH
  5
253
330
1F
100
AcDbEntity
  8
0
  6
Continuous
 62
     7
370
    18
100
AcDbHatch
 10
0.0
 20
0.0
 30
0.0
210
0.0
220
0.0
230
1.0
  2
ANSI31
 70
     0
 71
     0
 91
        1
 92
        0
 93
        4
 72
     4
 94
        3
 73
     1
 74
     0
 95
        9
 96
        5
 40
0.8567118776241333
 40
0.8567118776241333
 40
0.8567118776241333
 40
0.8567118776241333
 40
0.8981782126364681
 40
0.9343255224579027
 40
0.9343255224579027
 40
0.9343255224579027
 40
0.9343255224579027
 10
227.6648229593539
 20
82.68599245614513
 42
1.0
 10
228.1788492390631
 20
82.4204810991203
 42
1.0
 10
229.1838442275946
 20
82.01393591012122
 42
1.0
 10
230.1803390927751
 20
81.78876997136467
 42
1.0
 10
230.664822927289
 20
81.77132006362436
 42
1.0
 72
     1
 10
230.664822927289
 20
81.77132006362436
 11
230.6648229398392
 21
82.35274880727404
 72
     1
 10
230.6648229398392
 20
82.35274880727404
 11
227.6648229398391
 21
85.35274880727403
 72
     1
 10
227.6648229398391
 20
85.35274880727403
 11
227.6648229593541
 21
82.685992456145
 97
        0
 75
     0
 76
     1
 52
0.0
 41
1.0
 77
     0
 78
     1
 53
45.0
 43
0.0
 44
0.0
 45
-2.245064030267288
 46
2.245064030267288
 79
     0
 98
        1
 10
0.0
 20
0.0
  0
HATCH
  5
254
330
1F
100
AcDbEntity
  8
0
  6
Continuous
 62
     7
370
    18
100
AcDbHatch
 10
0.0
 20
0.0
 30
0.0
210
0.0
220
0.0
230
1.0
  2
ANSI31
 70
     0
 71
     0
 91
        1
 92
        0
 93
        4
 72
     1
 10
227.6648229593541
 20
82.685992456145
 11
227.6648229398391
 21
82.68599246622516
 72
     4
 94
        3
 73
     1
 74
     0
 95
       11
 96
        7
 40
0.0
 40
0.0
 40
0.0
 40
0.0
 40
0.0021023256531392
 40
0.0021023256531392
 40
0.0021023256531392
 40
0.0032503801047539
 40
0.0032503801047539
 40
0.0032503801047539
 40
0.0032503801047539
 10
227.6648229398391
 20
82.68599246622516
 42
1.0
 10
228.2539922520744
 20
82.38166727764865
 42
1.0
 10
228.8841494972738
 20
82.13031813940627
 42
1.0
 10
229.5439545080216
 20
81.95260368619601
 42
1.0
 10
229.9039062112818
 20
81.85565289151428
 42
1.0
 10
230.2829732291027
 20
81.78507334278054
 42
1.0
 10
230.6648229398391
 20
81.77132006317235
 42
1.0
 72
     1
 10
230.6648229398391
 20
81.77132006317235
 11
230.664822927289
 21
81.77132006362436
 72
     4
 94
        3
 73
     1
 74
     0
 95
        9
 96
        5
 40
0.0656744775420974
 40
0.0656744775420974
 40
0.0656744775420974
 40
0.0656744775420974
 40
0.1018217873635319
 40
0.1432881223758736
 40
0.1432881223758736
 40
0.1432881223758736
 40
0.1432881223758736
 10
230.664822927289
 20
81.77132006362436
 42
1.0
 10
230.1803390927751
 20
81.78876997136467
 42
1.0
 10
229.1838442275946
 20
82.01393591012125
 42
1.0
 10
228.1788492390629
 20
82.42048109912037
 42
1.0
 10
227.6648229593536
 20
82.68599245614526
 42
1.0
 97
        0
 75
     0
 76
     1
 52
0.0
 41
1.0
 77
     0
 78
     1
 53
45.0
 43
0.0
 44
0.0
 45
-2.245064030267288
 46
2.245064030267288
 79
     0
 98
        1
 10
0.0
 20
0.0
  0
DIMENSION
  5
255
330
1F
100
AcDbEntity
  8
FORMAT
100
AcDbDimension
  2
_D_7
 10
230.6648229398
 20
121.3589967336
 30
0.0
 11
220.8037264882
 21
121.3589967336
 31
0.0
 70
   160
  1
<>
 71
     2
 42
-1.0
  3
SLDDIMSTYLE1
100
AcDbAlignedDimension
 13
227.6648229398
 23
107.8528564081
 33
0.0
 14
230.6648229398
 24
107.8528564081
 34
0.0
 50
0.0
100
AcDbRotatedDimension
  0
DIMENSION
  5
261
330
1F
100
AcDbEntity
  8
FORMAT
100
AcDbDimension
  2
_D_8
 10
252.1648229398
 20
115.2533522647
 30
0.0
 11
245.1648229398
 21
115.2533522647
 31
0.0
 70
   160
  1
<>
 71
     2
 42
-1.0
  3
SLDDIMSTYLE0
100
AcDbAlignedDimension
 13
238.1648229398
 23
107.8528564081
 33
0.0
 14
252.1648229398
 24
108.8528564081
 34
0.0
 50
0.0
100
AcDbRotatedDimension
  0
DIMENSION
  5
26B
330
1F
100
AcDbEntity
  8
FORMAT
100
AcDbDimension
  2
_D_9
 10
255.1648229398
 20
115.2533522647
 30
0.0
 11
253.6648229398
 21
115.2533522647
 31
0.0
 70
   160
  1
<>
 71
     2
 42
-1.0
  3
SLDDIMSTYLE1
100
AcDbAlignedDimension
 13
252.1648229398
 23
108.8528564081
 33
0.0
 14
255.1648229398
 24
108.8528564081
 34
0.0
 50
0.0
100
AcDbRotatedDimension
  0
DIMENSION
  5
277
330
1F
100
AcDbEntity
  8
FORMAT
100
AcDbDimension
  2
_D_10
 10
265.6348296551
 20
70.3528564081
 30
0.0
 11
265.6348296551
 21
89.8528564081
 31
0.0
 70
   160
  1
<>
 71
     2
 42
-1.0
  3
SLDDIMSTYLE0
100
AcDbAlignedDimension
 13
255.1648229398
 23
109.3528564081
 33
0.0
 14
273.6648229398
 24
70.3528564081
 34
0.0
 50
90.0
100
AcDbRotatedDimension
  0
DIMENSION
  5
280
330
1F
100
AcDbEntity
  8
FORMAT
100
AcDbDimension
  2
_D_11
 10
271.1648229398
 20
53.7831209115
 30
0.0
 11
262.1648229398
 21
53.7831209115
 31
0.0
 70
   160
  1
%%c<>
 71
     2
 42
-1.0
  3
SLDDIMSTYLE0
100
AcDbAlignedDimension
 13
253.1648229398
 23
70.3528564081
 33
0.0
 14
271.1648229398
 24
70.3528564081
 34
0.0
100
AcDbRotatedDimension
  0
DIMENSION
  5
28B
330
1F
100
AcDbEntity
  8
FORMAT
100
AcDbDimension
  2
_D_12
 10
217.6648229398
 20
85.3527488073
 30
0.0
 11
217.6648229398
 21
103.927835392
 31
0.0
 70
   160
  1
%%c<>
 71
     2
 42
-1.0
  3
SLDDIMSTYLE1
100
AcDbAlignedDimension
 13
227.6648229398
 23
92.3527488073
 33
0.0
 14
227.6648229398
 24
85.3527488073
 34
0.0
 50
90.0
100
AcDbRotatedDimension
  0
DIMENSION
  5
298
330
1F
100
AcDbEntity
  8
FORMAT
100
AcDbDimension
  2
_D_13
 10
230.6648229398
 20
95.3527488073
 30
0.0
 11
250.9135147588
 21
88.8527488073
 31
0.0
 70
   162
  1
<>
 71
     1
 42
-1.0
  3
SLDDIMSTYLE2
100
AcDb2LineAngularDimension
 13
230.6648229398
 23
82.3527488073
 33
0.0
 14
227.6648229398
 24
85.3527488073
 34
0.0
 15
227.6648229398
 25
92.3527488073
 35
0.0
 16
250.9135147588
 26
88.8527488073
 36
0.0
  0
DIMENSION
  5
2A2
330
1F
100
AcDbEntity
  8
FORMAT
100
AcDbDimension
  2
_D_14
 10
243.4174375414
 20
82.3527488073
 30
0.0
 11
243.4174375414
 21
88.8527488073
 31
0.0
 70
   160
  1
%%c<>
 71
     2
 42
-1.0
  3
SLDDIMSTYLE0
100
AcDbAlignedDimension
 13
230.6648229398
 23
95.3527488073
 33
0.0
 14
230.6648229398
 24
82.3527488073
 34
0.0
 50
90.0
100
AcDbRotatedDimension
  0
DIMENSION
  5
2AD
330
1F
100
AcDbEntity
  8
FORMAT
100
AcDbDimension
  2
_D_15
 10
227.6648229398
 20
65.4880369244
 30
0.0
 11
197.6648229398
 21
65.4880369244
 31
0.0
 70
   160
  1
<>
 71
     2
 42
-1.0
  3
SLDDIMSTYLE0
100
AcDbAlignedDimension
 13
167.6648229398
 23
85.7395001532
 33
0.0
 14
227.6648229398
 24
82.8527488073
 34
0.0
 50
0.0
100
AcDbRotatedDimension
  0
INSERT
  5
2BC
330
1F
100
AcDbEntity
  8
FORMAT
100
AcDbBlockReference
  2
SW_NOTE_0_10
 10
144.5494955318
 20
107.328060176
 30
0.0
  0
INSERT
  5
2C8
330
1F
100
AcDbEntity
  8
FORMAT
100
AcDbBlockReference
  2
SW_CENTERMARKSYMBOL_1
 10
262.1648229398
 20
70.3528564081
 30
0.0
  0
INSERT
  5
2CE
330
1F
100
AcDbEntity
  8
FORMAT
100
AcDbBlockReference
  2
_Dot
 10
197.938681411
 20
92.2757034191
 30
37.5721828641
 41
1.016
 42
1.016
 50
244.5056902588
  0
LINE
  5
2CF
330
1F
100
AcDbEntity
  8
FORMAT
100
AcDbLine
 10
197.938681411
 20
92.2757034191
 30
0.0
 11
204.0272513243
 21
105.0439189189
 31
0.0
  0
LINE
  5
2D0
330
1F
100
AcDbEntity
  8
FORMAT
100
AcDbLine
 10
204.0272513243
 20
105.0439189189
 30
0.0
 11
197.6773648649
 21
105.0439189189
 31
0.0
  0
LINE
  5
2D1
330
1F
100
AcDbEntity
  8
FORMAT
  6
CENTERX2
370
    18
100
AcDbLine
 10
232.6648229398
 20
88.8527488073
 30
0.0
 11
225.6648229398
 21
88.8527488073
 31
0.0
  0
LINE
  5
2D2
330
1F
100
AcDbEntity
  8
FORMAT
  6
CENTERX2
370
    18
100
AcDbLine
 10
165.6648229398
 20
88.8527488073
 30
0.0
 11
229.6648229398
 21
88.8527488073
 31
0.0
  0
LINE
  5
2D3
330
1F
100
AcDbEntity
  8
0
  6
Continuous
 62
     7
370
    25
100
AcDbLine
 10
107.8678703982
 20
137.9786803474
 30
0.0
 11
63.8678703982
 21
137.9786803474
 31
0.0
  0
LINE
  5
2D4
330
1F
100
AcDbEntity
  8
0
  6
Continuous
 62
     7
370
    25
100
AcDbLine
 10
63.8678703982
 20
119.9786803474
 30
0.0
 11
64.0552543493
 21
119.9786803474
 31
0.0
  0
LINE
  5
2D5
330
1F
100
AcDbEntity
  8
0
  6
Continuous
 62
     7
370
    25
100
AcDbLine
 10
107.6753667514
 20
119.9786803474
 30
0.0
 11
107.8678703982
 21
119.9786803474
 31
0.0
  0
LINE
  5
2D6
330
1F
100
AcDbEntity
  8
0
  6
Continuous
 62
     7
370
    25
100
AcDbLine
 10
63.8678703982
 20
134.7286803474
 30
0.0
 11
62.8678703982
 21
134.7286803474
 31
0.0
  0
LINE
  5
2D7
330
1F
100
AcDbEntity
  8
0
  6
Continuous
 62
     7
370
    25
100
AcDbLine
 10
62.8678703982
 20
123.2286803474
 30
0.0
 11
63.8678703982
 21
123.2286803474
 31
0.0
  0
LINE
  5
2D8
330
1F
100
AcDbEntity
  8
0
  6
Continuous
 62
     7
370
    25
100
AcDbLine
 10
108.8678703982
 20
134.7286803474
 30
0.0
 11
107.8678703982
 21
134.7286803474
 31
0.0
  0
LINE
  5
2D9
330
1F
100
AcDbEntity
  8
0
  6
Continuous
 62
     7
370
    25
100
AcDbLine
 10
107.8678703982
 20
123.2286803474
 30
0.0
 11
108.8678703982
 21
123.2286803474
 31
0.0
  0
LINE
  5
2DA
330
1F
100
AcDbEntity
  8
0
  6
Continuous
 62
     7
370
    25
100
AcDbLine
 10
26.0678703982
 20
137.9786803474
 30
0.0
 11
25.8678703982
 21
137.7786803474
 31
0.0
  0
LINE
  5
2DB
330
1F
100
AcDbEntity
  8
0
  6
Continuous
 62
     7
370
    25
100
AcDbLine
 10
25.8678703982
 20
120.1786803474
 30
0.0
 11
26.0678703982
 21
119.9786803474
 31
0.0
  0
LINE
  5
2DC
330
1F
100
AcDbEntity
  8
0
  6
Continuous
 62
     7
370
    25
100
AcDbLine
 10
62.8678703982
 20
137.9786803474
 30
0.0
 11
26.0678703982
 21
137.9786803474
 31
0.0
  0
LINE
  5
2DD
330
1F
100
AcDbEntity
  8
0
  6
Continuous
 62
     7
370
    25
100
AcDbLine
 10
26.0678703982
 20
119.9786803474
 30
0.0
 11
62.8678703982
 21
119.9786803474
 31
0.0
  0
LINE
  5
2DE
330
1F
100
AcDbEntity
  8
0
  6
Continuous
 62
     7
370
    25
100
AcDbLine
 10
108.8678703982
 20
119.9786803474
 30
0.0
 11
145.6678703982
 21
119.9786803474
 31
0.0
  0
LINE
  5
2DF
330
1F
100
AcDbEntity
  8
0
  6
Continuous
 62
     7
370
    25
100
AcDbLine
 10
145.6678703982
 20
137.9786803474
 30
0.0
 11
108.8678703982
 21
137.9786803474
 31
0.0
  0
LINE
  5
2E0
330
1F
100
AcDbEntity
  8
0
  6
Continuous
 62
     7
370
    25
100
AcDbLine
 10
145.6678703982
 20
119.9786803474
 30
0.0
 11
145.8678703982
 21
120.1786803474
 31
0.0
  0
LINE
  5
2E1
330
1F
100
AcDbEntity
  8
0
  6
Continuous
 62
     7
370
    25
100
AcDbLine
 10
145.8678703982
 20
137.7786803474
 30
0.0
 11
145.6678703982
 21
137.9786803474
 31
0.0
  0
LINE
  5
2E2
330
1F
100
AcDbEntity
  8
0
  6
Continuous
 62
     7
370
    25
100
AcDbLine
 10
64.0113286888
 20
119.7699566758
 30
0.0
 11
63.8283231669
 21
119.3382123759
 31
0.0
  0
ARC
  5
2E3
330
1F
100
AcDbEntity
  8
0
  6
Continuous
 62
     7
370
    25
100
AcDbCircle
 10
62.9565405492
 20
119.7489215153
 30
0.0
 40
0.9629095505774874
100
AcDbArc
 50
274.7763238615
 51
332.6232513654
  0
ARC
  5
2E4
330
1F
100
AcDbEntity
  8
0
  6
Continuous
 62
     7
370
    25
100
AcDbCircle
 10
108.7787120191
 20
119.7453188837
 30
0.0
 40
0.9590381222823051
100
AcDbArc
 50
206.9457149479
 51
265.2897486027
  0
LINE
  5
2E5
330
1F
100
AcDbEntity
  8
0
  6
Continuous
 62
     7
370
    25
100
AcDbLine
 10
107.8732503298
 20
119.4117068712
 30
0.0
 11
107.7067080995
 21
119.8301029259
 31
0.0
  0
LINE
  5
2E6
330
1F
100
AcDbEntity
  8
0
  6
Continuous
 62
     7
370
    25
100
AcDbLine
 10
107.6614319749
 20
120.0448866329
 30
0.0
 11
107.61368879
 21
120.3338820627
 31
0.0
  0
LINE
  5
2E7
330
1F
100
AcDbEntity
  8
0
  6
Continuous
 62
     7
370
    25
100
AcDbLine
 10
64.1290344866
 20
120.377011112
 30
0.0
 11
64.0749388751
 21
120.0493391891
 31
0.0
  0
LINE
  5
2E8
330
1F
100
AcDbEntity
  8
0
  6
Continuous
 62
     7
370
    25
100
AcDbLine
 10
137.8678703982
 20
166.4786803474
 30
0.0
 11
33.8678703982
 21
166.4786803474
 31
0.0
  0
ARC
  5
2E9
330
1F
100
AcDbEntity
  8
0
  6
Continuous
 62
     7
370
    25
100
AcDbCircle
 10
137.8678703982
 20
154.4786803474
 30
0.0
 40
12.00000000000003
100
AcDbArc
 50
0.0
 51
90.0
  0
LINE
  5
2EA
330
1F
100
AcDbEntity
  8
0
  6
Continuous
 62
     7
370
    25
100
AcDbLine
 10
149.8678703982
 20
148.4786803474
 30
0.0
 11
149.8678703982
 21
154.4786803474
 31
0.0
  0
ARC
  5
2EB
330
1F
100
AcDbEntity
  8
0
  6
Continuous
 62
     7
370
    25
100
AcDbCircle
 10
137.8678703982
 20
148.4786803474
 30
0.0
 40
12.00000000000012
100
AcDbArc
 50
335.3756816478
 51
0.0
  0
LINE
  5
2EC
330
1F
100
AcDbEntity
  8
0
  6
Continuous
 62
     7
370
    25
100
AcDbLine
 10
22.9591582836
 20
143.4786803474
 30
0.0
 11
148.7765825129
 21
143.4786803474
 31
0.0
  0
ARC
  5
2ED
330
1F
100
AcDbEntity
  8
0
  6
Continuous
 62
     7
370
    25
100
AcDbCircle
 10
33.8678703982
 20
148.4786803474
 30
0.0
 40
11.99999999999986
100
AcDbArc
 50
180.0
 51
204.6243183522
  0
LINE
  5
2EE
330
1F
100
AcDbEntity
  8
0
  6
Continuous
 62
     7
370
    25
100
AcDbLine
 10
21.8678703982
 20
154.4786803474
 30
0.0
 11
21.8678703982
 21
148.4786803474
 31
0.0
  0
ARC
  5
2EF
330
1F
100
AcDbEntity
  8
0
  6
Continuous
 62
     7
370
    25
100
AcDbCircle
 10
33.8678703982
 20
154.4786803474
 30
0.0
 40
12.0
100
AcDbArc
 50
90.0
 51
180.0
  0
CIRCLE
  5
2F0
330
1F
100
AcDbEntity
  8
0
  6
Continuous
 62
     7
370
    25
100
AcDbCircle
 10
46.8678703982
 20
157.4786803474
 30
0.0
 40
4.249999999999972
  0
CIRCLE
  5
2F1
330
1F
100
AcDbEntity
  8
0
  6
Continuous
 62
     7
370
    25
100
AcDbCircle
 10
124.8678703982
 20
157.4786803474
 30
0.0
 40
4.25
  0
CIRCLE
  5
2F2
330
1F
100
AcDbEntity
  8
0
  6
Continuous
 62
     7
370
    25
100
AcDbCircle
 10
46.8678703982
 20
157.4786803474
 30
0.0
 40
2.25
  0
CIRCLE
  5
2F3
330
1F
100
AcDbEntity
  8
0
  6
Continuous
 62
     7
370
    25
100
AcDbCircle
 10
124.8678703982
 20
157.4786803474
 30
0.0
 40
2.25
  0
LINE
  5
2F4
330
1F
100
AcDbEntity
  8
0
  6
Continuous
 62
     7
370
    25
100
AcDbLine
 10
107.8678703982
 20
137.9786803474
 30
0.0
 11
107.8678703982
 21
119.9786803474
 31
0.0
  0
LINE
  5
2F5
330
1F
100
AcDbEntity
  8
0
  6
Continuous
 62
     7
370
    25
100
AcDbLine
 10
63.8678703982
 20
137.9786803474
 30
0.0
 11
63.8678703982
 21
119.9786803474
 31
0.0
  0
LINE
  5
2F6
330
1F
100
AcDbEntity
  8
0
  6
Continuous
 62
     7
370
    25
100
AcDbLine
 10
25.8678703982
 20
137.7786803474
 30
0.0
 11
25.8678703982
 21
120.1786803474
 31
0.0
  0
LINE
  5
2F7
330
1F
100
AcDbEntity
  8
0
  6
Continuous
 62
     7
370
    25
100
AcDbLine
 10
26.0678703982
 20
137.9786803474
 30
0.0
 11
26.0678703982
 21
119.9786803474
 31
0.0
  0
LINE
  5
2F8
330
1F
100
AcDbEntity
  8
0
  6
Continuous
 62
     7
370
    25
100
AcDbLine
 10
62.8678703982
 20
137.9786803474
 30
0.0
 11
62.8678703982
 21
119.9786803474
 31
0.0
  0
LINE
  5
2F9
330
1F
100
AcDbEntity
  8
0
  6
Continuous
 62
     7
370
    25
100
AcDbLine
 10
145.6678703982
 20
128.9786803474
 30
0.0
 11
145.6678703982
 21
137.9786803474
 31
0.0
  0
LINE
  5
2FA
330
1F
100
AcDbEntity
  8
0
  6
Continuous
 62
     7
370
    25
100
AcDbLine
 10
145.6678703982
 20
119.9786803474
 30
0.0
 11
145.6678703982
 21
128.9786803474
 31
0.0
  0
LINE
  5
2FB
330
1F
100
AcDbEntity
  8
0
  6
Continuous
 62
     7
370
    25
100
AcDbLine
 10
108.8678703982
 20
128.9786803474
 30
0.0
 11
108.8678703982
 21
137.9786803474
 31
0.0
  0
LINE
  5
2FC
330
1F
100
AcDbEntity
  8
0
  6
Continuous
 62
     7
370
    25
100
AcDbLine
 10
108.8678703982
 20
119.9786803474
 30
0.0
 11
108.8678703982
 21
128.9786803474
 31
0.0
  0
LINE
  5
2FD
330
1F
100
AcDbEntity
  8
0
  6
Continuous
 62
     7
370
    25
100
AcDbLine
 10
145.8678703982
 20
128.9786803474
 30
0.0
 11
145.8678703982
 21
137.7786803474
 31
0.0
  0
LINE
  5
2FE
330
1F
100
AcDbEntity
  8
0
  6
Continuous
 62
     7
370
    25
100
AcDbLine
 10
145.8678703982
 20
120.1786803474
 30
0.0
 11
145.8678703982
 21
128.9786803474
 31
0.0
  0
LINE
  5
2FF
330
1F
100
AcDbEntity
  8
0
  6
Continuous
 62
     7
370
    25
100
AcDbLine
 10
64.0759961279
 20
120.0531342645
 30
0.0
 11
63.9325297528
 21
119.5381526996
 31
0.0
  0
LINE
  5
300
330
1F
100
AcDbEntity
  8
0
  6
Continuous
 62
     7
370
    25
100
AcDbLine
 10
63.9325297528
 20
119.5381526996
 30
0.0
 11
63.7557544747
 21
119.19897542
 31
0.0
  0
LINE
  5
301
330
1F
100
AcDbEntity
  8
0
  6
Continuous
 62
     7
370
    25
100
AcDbLine
 10
63.7557544747
 20
119.19897542
 30
0.0
 11
63.5062249632
 21
118.9268282564
 31
0.0
  0
LWPOLYLINE
  5
302
330
1F
100
AcDbEntity
  8
0
  6
Continuous
 62
     7
370
    25
100
AcDbPolyline
 90
        3
 70
   128
 43
0.0
 10
63.5062249633
 20
118.9268282565
 10
63.312958926
 20
118.8231207128
 10
63.1084698196
 20
118.786494762
  0
LINE
  5
303
330
1F
100
AcDbEntity
  8
0
  6
Continuous
 62
     7
370
    25
100
AcDbLine
 10
127.3678703982
 20
118.786494762
 30
0.0
 11
108.6272294098
 21
118.786494762
 31
0.0
  0
ARC
  5
304
330
1F
100
AcDbEntity
  8
0
  6
Continuous
 62
     7
370
    25
100
AcDbCircle
 10
127.3678703982
 20
118.286494762
 30
0.0
 40
0.5000000000000284
100
AcDbArc
 50
0.0
 51
90.0
  0
LINE
  5
305
330
1F
100
AcDbEntity
  8
0
  6
Continuous
 62
     7
370
    25
100
AcDbLine
 10
127.8678703982
 20
90.4786803474
 30
0.0
 11
127.8678703982
 21
118.286494762
 31
0.0
  0
ARC
  5
306
330
1F
100
AcDbEntity
  8
0
  6
Continuous
 62
     7
370
    25
100
AcDbCircle
 10
127.3678703982
 20
90.4786803474
 30
0.0
 40
0.5
100
AcDbArc
 50
270.0
 51
0.0
  0
LINE
  5
307
330
1F
100
AcDbEntity
  8
0
  6
Continuous
 62
     7
370
    25
100
AcDbLine
 10
119.2582586014
 20
89.9786803474
 30
0.0
 11
127.3678703982
 21
89.9786803474
 31
0.0
  0
ARC
  5
308
330
1F
100
AcDbEntity
  8
0
  6
Continuous
 62
     7
370
    25
100
AcDbCircle
 10
119.2582586014
 20
90.4786803474
 30
0.0
 40
0.5
100
AcDbArc
 50
194.0362434679
 51
270.0
  0
LINE
  5
309
330
1F
100
AcDbEntity
  8
0
  6
Continuous
 62
     7
370
    25
100
AcDbLine
 10
117.5231873514
 20
95.3574125349
 30
0.0
 11
118.7731873514
 21
90.3574125349
 31
0.0
  0
ARC
  5
30A
330
1F
100
AcDbEntity
  8
0
  6
Continuous
 62
     7
370
    25
100
AcDbCircle
 10
118.0082586014
 20
95.4786803474
 30
0.0
 40
0.500000000000013
100
AcDbArc
 50
90.0
 51
194.0362434679
  0
LINE
  5
30B
330
1F
100
AcDbEntity
  8
0
  6
Continuous
 62
     7
370
    25
100
AcDbLine
 10
120.3678703982
 20
95.9786803474
 30
0.0
 11
118.0082586014
 21
95.9786803474
 31
0.0
  0
ARC
  5
30C
330
1F
100
AcDbEntity
  8
0
  6
Continuous
 62
     7
370
    25
100
AcDbCircle
 10
120.3678703982
 20
96.4786803474
 30
0.0
 40
0.5
100
AcDbArc
 50
270.0
 51
0.0
  0
LINE
  5
30D
330
1F
100
AcDbEntity
  8
0
  6
Continuous
 62
     7
370
    25
100
AcDbLine
 10
120.8678703982
 20
104.9786803474
 30
0.0
 11
120.8678703982
 21
96.4786803474
 31
0.0
  0
ARC
  5
30E
330
1F
100
AcDbEntity
  8
0
  6
Continuous
 62
     7
370
    25
100
AcDbCircle
 10
118.8678703982
 20
104.9786803474
 30
0.0
 40
2.000000000000014
100
AcDbArc
 50
0.0
 51
90.0
  0
LINE
  5
30F
330
1F
100
AcDbEntity
  8
0
  6
Continuous
 62
     7
370
    25
100
AcDbLine
 10
108.8678703982
 20
106.9786803474
 30
0.0
 11
118.8678703982
 21
106.9786803474
 31
0.0
  0
ARC
  5
310
330
1F
100
AcDbEntity
  8
0
  6
Continuous
 62
     7
370
    25
100
AcDbCircle
 10
108.8678703982
 20
104.9786803474
 30
0.0
 40
2.000000000000028
100
AcDbArc
 50
90.0
 51
180.0
  0
LINE
  5
311
330
1F
100
AcDbEntity
  8
0
  6
Continuous
 62
     7
370
    25
100
AcDbLine
 10
106.8678703982
 20
96.4786803474
 30
0.0
 11
106.8678703982
 21
104.9786803474
 31
0.0
  0
ARC
  5
312
330
1F
100
AcDbEntity
  8
0
  6
Continuous
 62
     7
370
    25
100
AcDbCircle
 10
107.3678703982
 20
96.4786803474
 30
0.0
 40
0.5000000000000284
100
AcDbArc
 50
180.0
 51
270.0
  0
LINE
  5
313
330
1F
100
AcDbEntity
  8
0
  6
Continuous
 62
     7
370
    25
100
AcDbLine
 10
109.727482195
 20
95.9786803474
 30
0.0
 11
107.3678703982
 21
95.9786803474
 31
0.0
  0
ARC
  5
314
330
1F
100
AcDbEntity
  8
0
  6
Continuous
 62
     7
370
    25
100
AcDbCircle
 10
109.727482195
 20
95.4786803474
 30
0.0
 40
0.500000000000013
100
AcDbArc
 50
345.9637565321
 51
90.0
  0
LINE
  5
315
330
1F
100
AcDbEntity
  8
0
  6
Continuous
 62
     7
370
    25
100
AcDbLine
 10
108.9625534451
 20
90.3574125349
 30
0.0
 11
110.2125534451
 21
95.3574125349
 31
0.0
  0
ARC
  5
316
330
1F
100
AcDbEntity
  8
0
  6
Continuous
 62
     7
370
    25
100
AcDbCircle
 10
108.477482195
 20
90.4786803474
 30
0.0
 40
0.5000000000000164
100
AcDbArc
 50
270.0
 51
345.9637565321
  0
LINE
  5
317
330
1F
100
AcDbEntity
  8
0
  6
Continuous
 62
     7
370
    25
100
AcDbLine
 10
91.2582586014
 20
89.9786803474
 30
0.0
 11
108.477482195
 21
89.9786803474
 31
0.0
  0
ARC
  5
318
330
1F
100
AcDbEntity
  8
0
  6
Continuous
 62
     7
370
    25
100
AcDbCircle
 10
91.2582586014
 20
90.4786803474
 30
0.0
 40
0.5
100
AcDbArc
 50
194.0362434679
 51
270.0
  0
LINE
  5
319
330
1F
100
AcDbEntity
  8
0
  6
Continuous
 62
     7
370
    25
100
AcDbLine
 10
89.5231873514
 20
95.3574125349
 30
0.0
 11
90.7731873514
 21
90.3574125349
 31
0.0
  0
ARC
  5
31A
330
1F
100
AcDbEntity
  8
0
  6
Continuous
 62
     7
370
    25
100
AcDbCircle
 10
90.0082586014
 20
95.4786803474
 30
0.0
 40
0.5
100
AcDbArc
 50
90.0
 51
194.0362434679
  0
LINE
  5
31B
330
1F
100
AcDbEntity
  8
0
  6
Continuous
 62
     7
370
    25
100
AcDbLine
 10
92.3678703982
 20
95.9786803474
 30
0.0
 11
90.0082586014
 21
95.9786803474
 31
0.0
  0
ARC
  5
31C
330
1F
100
AcDbEntity
  8
0
  6
Continuous
 62
     7
370
    25
100
AcDbCircle
 10
92.3678703982
 20
96.4786803474
 30
0.0
 40
0.5
100
AcDbArc
 50
270.0
 51
0.0
  0
LINE
  5
31D
330
1F
100
AcDbEntity
  8
0
  6
Continuous
 62
     7
370
    25
100
AcDbLine
 10
92.8678703982
 20
104.9786803474
 30
0.0
 11
92.8678703982
 21
96.4786803474
 31
0.0
  0
ARC
  5
31E
330
1F
100
AcDbEntity
  8
0
  6
Continuous
 62
     7
370
    25
100
AcDbCircle
 10
90.8678703982
 20
104.9786803474
 30
0.0
 40
2.000000000000014
100
AcDbArc
 50
0.0
 51
90.0
  0
LINE
  5
31F
330
1F
100
AcDbEntity
  8
0
  6
Continuous
 62
     7
370
    25
100
AcDbLine
 10
80.8678703982
 20
106.9786803474
 30
0.0
 11
90.8678703982
 21
106.9786803474
 31
0.0
  0
ARC
  5
320
330
1F
100
AcDbEntity
  8
0
  6
Continuous
 62
     7
370
    25
100
AcDbCircle
 10
80.8678703982
 20
104.9786803474
 30
0.0
 40
2.000000000000014
100
AcDbArc
 50
90.0
 51
180.0
  0
LINE
  5
321
330
1F
100
AcDbEntity
  8
0
  6
Continuous
 62
     7
370
    25
100
AcDbLine
 10
78.8678703982
 20
96.4786803474
 30
0.0
 11
78.8678703982
 21
104.9786803474
 31
0.0
  0
ARC
  5
322
330
1F
100
AcDbEntity
  8
0
  6
Continuous
 62
     7
370
    25
100
AcDbCircle
 10
79.3678703982
 20
96.4786803474
 30
0.0
 40
0.5
100
AcDbArc
 50
180.0
 51
270.0
  0
LINE
  5
323
330
1F
100
AcDbEntity
  8
0
  6
Continuous
 62
     7
370
    25
100
AcDbLine
 10
81.727482195
 20
95.9786803474
 30
0.0
 11
79.3678703982
 21
95.9786803474
 31
0.0
  0
ARC
  5
324
330
1F
100
AcDbEntity
  8
0
  6
Continuous
 62
     7
370
    25
100
AcDbCircle
 10
81.727482195
 20
95.4786803474
 30
0.0
 40
0.5
100
AcDbArc
 50
345.9637565321
 51
90.0
  0
LINE
  5
325
330
1F
100
AcDbEntity
  8
0
  6
Continuous
 62
     7
370
    25
100
AcDbLine
 10
80.9625534451
 20
90.3574125349
 30
0.0
 11
82.2125534451
 21
95.3574125349
 31
0.0
  0
ARC
  5
326
330
1F
100
AcDbEntity
  8
0
  6
Continuous
 62
     7
370
    25
100
AcDbCircle
 10
80.477482195
 20
90.4786803474
 30
0.0
 40
0.5000000000000027
100
AcDbArc
 50
270.0
 51
345.9637565321
  0
LINE
  5
327
330
1F
100
AcDbEntity
  8
0
  6
Continuous
 62
     7
370
    25
100
AcDbLine
 10
63.2582586014
 20
89.9786803474
 30
0.0
 11
80.477482195
 21
89.9786803474
 31
0.0
  0
ARC
  5
328
330
1F
100
AcDbEntity
  8
0
  6
Continuous
 62
     7
370
    25
100
AcDbCircle
 10
63.2582586014
 20
90.4786803474
 30
0.0
 40
0.5000000000000095
100
AcDbArc
 50
194.0362434679
 51
270.0
  0
LINE
  5
329
330
1F
100
AcDbEntity
  8
0
  6
Continuous
 62
     7
370
    25
100
AcDbLine
 10
61.5231873514
 20
95.3574125349
 30
0.0
 11
62.7731873514
 21
90.3574125349
 31
0.0
  0
ARC
  5
32A
330
1F
100
AcDbEntity
  8
0
  6
Continuous
 62
     7
370
    25
100
AcDbCircle
 10
62.0082586014
 20
95.4786803474
 30
0.0
 40
0.5
100
AcDbArc
 50
90.0
 51
194.0362434679
  0
LINE
  5
32B
330
1F
100
AcDbEntity
  8
0
  6
Continuous
 62
     7
370
    25
100
AcDbLine
 10
64.3678703982
 20
95.9786803474
 30
0.0
 11
62.0082586014
 21
95.9786803474
 31
0.0
  0
ARC
  5
32C
330
1F
100
AcDbEntity
  8
0
  6
Continuous
 62
     7
370
    25
100
AcDbCircle
 10
64.3678703982
 20
96.4786803474
 30
0.0
 40
0.5000000000000142
100
AcDbArc
 50
270.0
 51
0.0
  0
LINE
  5
32D
330
1F
100
AcDbEntity
  8
0
  6
Continuous
 62
     7
370
    25
100
AcDbLine
 10
64.8678703982
 20
104.9786803474
 30
0.0
 11
64.8678703982
 21
96.4786803474
 31
0.0
  0
ARC
  5
32E
330
1F
100
AcDbEntity
  8
0
  6
Continuous
 62
     7
370
    25
100
AcDbCircle
 10
62.8678703982
 20
104.9786803474
 30
0.0
 40
2.000000000000014
100
AcDbArc
 50
0.0
 51
90.0
  0
LINE
  5
32F
330
1F
100
AcDbEntity
  8
0
  6
Continuous
 62
     7
370
    25
100
AcDbLine
 10
52.8678703982
 20
106.9786803474
 30
0.0
 11
62.8678703982
 21
106.9786803474
 31
0.0
  0
ARC
  5
330
330
1F
100
AcDbEntity
  8
0
  6
Continuous
 62
     7
370
    25
100
AcDbCircle
 10
52.8678703982
 20
104.9786803474
 30
0.0
 40
2.000000000000014
100
AcDbArc
 50
90.0
 51
180.0
  0
LINE
  5
331
330
1F
100
AcDbEntity
  8
0
  6
Continuous
 62
     7
370
    25
100
AcDbLine
 10
50.8678703982
 20
96.4786803474
 30
0.0
 11
50.8678703982
 21
104.9786803474
 31
0.0
  0
ARC
  5
332
330
1F
100
AcDbEntity
  8
0
  6
Continuous
 62
     7
370
    25
100
AcDbCircle
 10
51.3678703982
 20
96.4786803474
 30
0.0
 40
0.5
100
AcDbArc
 50
180.0
 51
270.0
  0
LINE
  5
333
330
1F
100
AcDbEntity
  8
0
  6
Continuous
 62
     7
370
    25
100
AcDbLine
 10
53.727482195
 20
95.9786803474
 30
0.0
 11
51.3678703982
 21
95.9786803474
 31
0.0
  0
ARC
  5
334
330
1F
100
AcDbEntity
  8
0
  6
Continuous
 62
     7
370
    25
100
AcDbCircle
 10
53.727482195
 20
95.4786803474
 30
0.0
 40
0.5000000000000061
100
AcDbArc
 50
345.9637565321
 51
90.0
  0
LINE
  5
335
330
1F
100
AcDbEntity
  8
0
  6
Continuous
 62
     7
370
    25
100
AcDbLine
 10
52.9625534451
 20
90.3574125349
 30
0.0
 11
54.2125534451
 21
95.3574125349
 31
0.0
  0
ARC
  5
336
330
1F
100
AcDbEntity
  8
0
  6
Continuous
 62
     7
370
    25
100
AcDbCircle
 10
52.477482195
 20
90.4786803474
 30
0.0
 40
0.5000000000000027
100
AcDbArc
 50
270.0
 51
345.9637565321
  0
LINE
  5
337
330
1F
100
AcDbEntity
  8
0
  6
Continuous
 62
     7
370
    25
100
AcDbLine
 10
44.3678703982
 20
89.9786803474
 30
0.0
 11
52.477482195
 21
89.9786803474
 31
0.0
  0
ARC
  5
338
330
1F
100
AcDbEntity
  8
0
  6
Continuous
 62
     7
370
    25
100
AcDbCircle
 10
44.3678703982
 20
90.4786803474
 30
0.0
 40
0.5
100
AcDbArc
 50
180.0
 51
270.0
  0
LINE
  5
339
330
1F
100
AcDbEntity
  8
0
  6
Continuous
 62
     7
370
    25
100
AcDbLine
 10
43.8678703982
 20
90.4786803474
 30
0.0
 11
43.8678703982
 21
118.286494762
 31
0.0
  0
ARC
  5
33A
330
1F
100
AcDbEntity
  8
0
  6
Continuous
 62
     7
370
    25
100
AcDbCircle
 10
44.3678703982
 20
118.286494762
 30
0.0
 40
0.5
100
AcDbArc
 50
90.0
 51
180.0
  0
LINE
  5
33B
330
1F
100
AcDbEntity
  8
0
  6
Continuous
 62
     7
370
    25
100
AcDbLine
 10
44.3678703982
 20
118.786494762
 30
0.0
 11
63.1084698196
 21
118.786494762
 31
0.0
  0
LWPOLYLINE
  5
33C
330
1F
100
AcDbEntity
  8
0
  6
Continuous
 62
     7
370
    25
100
AcDbPolyline
 90
        3
 70
   128
 43
0.0
 10
64.2573774556
 20
121.1307498714
 10
64.1728324501
 20
120.6402037716
 10
64.0759961279
 20
120.0531342645
  0
LWPOLYLINE
  5
33D
330
1F
100
AcDbEntity
  8
0
  6
Continuous
 62
     7
370
    25
100
AcDbPolyline
 90
        3
 70
   128
 43
0.0
 10
107.6597241976
 20
120.0530005481
 10
107.5557830832
 20
120.6799748452
 10
107.478363341
 20
121.1307498701
  0
ARC
  5
33E
330
1F
100
AcDbEntity
  8
0
  6
Continuous
 62
     7
370
    25
100
AcDbCircle
 10
109.8583507087
 20
120.3909167131
 30
0.0
 40
2.224442822369857
100
AcDbArc
 50
188.7376576238
 51
212.2911362823
  0
LWPOLYLINE
  5
33F
330
1F
100
AcDbEntity
  8
0
  6
Continuous
 62
     7
370
    25
100
AcDbPolyline
 90
        3
 70
   128
 43
0.0
 10
108.2243415961
 20
118.9340208842
 10
108.0962156537
 20
119.0501831751
 10
107.97793023
 20
119.2025713537
  0
LWPOLYLINE
  5
340
330
1F
100
AcDbEntity
  8
0
  6
Continuous
 62
     7
370
    25
100
AcDbPolyline
 90
        3
 70
   128
 43
0.0
 10
108.6272294098
 20
118.786494762
 10
108.4185731865
 20
118.8292715548
 10
108.2243415961
 20
118.9340208842
  0
LINE
  5
341
330
1F
100
AcDbEntity
  8
0
  6
Continuous
 62
     7
370
    25
100
AcDbLine
 10
64.6178703982
 20
123.300383069
 30
0.0
 11
64.2573774556
 21
121.1307498978
 31
0.0
  0
LINE
  5
342
330
1F
100
AcDbEntity
  8
0
  6
Continuous
 62
     7
370
    25
100
AcDbLine
 10
64.6178703982
 20
123.300383069
 30
0.0
 11
107.1178703982
 21
123.300383069
 31
0.0
  0
LINE
  5
343
330
1F
100
AcDbEntity
  8
0
  6
Continuous
 62
     7
370
    25
100
AcDbLine
 10
107.4783633409
 20
121.1307498971
 30
0.0
 11
107.1178703982
 21
123.300383069
 31
0.0
  0
LINE
  5
344
330
1F
100
AcDbEntity
  8
0
  6
Continuous
 62
     7
370
    25
100
AcDbLine
 10
109.6178703982
 20
138.62991943
 30
0.0
 11
109.6178703982
 21
137.9786803474
 31
0.0
  0
LINE
  5
345
330
1F
100
AcDbEntity
  8
0
  6
Continuous
 62
     7
370
    25
100
AcDbLine
 10
143.8678703982
 20
137.9786803474
 30
0.0
 11
143.8678703982
 21
138.62991943
 31
0.0
  0
LINE
  5
346
330
1F
100
AcDbEntity
  8
0
  6
Continuous
 62
     7
370
    25
100
AcDbLine
 10
62.1178703982
 20
138.62991943
 30
0.0
 11
62.1178703982
 21
137.9786803474
 31
0.0
  0
LINE
  5
347
330
1F
100
AcDbEntity
  8
0
  6
Continuous
 62
     7
370
    25
100
AcDbLine
 10
27.8678703982
 20
138.62991943
 30
0.0
 11
27.8678703982
 21
137.9786803474
 31
0.0
  0
LWPOLYLINE
  5
348
330
1F
100
AcDbEntity
  8
0
  6
Continuous
 62
     7
370
    25
100
AcDbPolyline
 90
        6
 70
   128
 43
0.0
 10
108.6178703982
 20
139.4786803474
 10
108.9486416374
 20
139.4782276817
 10
109.242151009
 20
139.4718346009
 10
109.4642829246
 20
139.4473212517
 10
109.5904167966
 20
139.3935397298
 10
109.6178703982
 20
139.3327823137
  0
LINE
  5
349
330
1F
100
AcDbEntity
  8
0
  6
Continuous
 62
     7
370
    25
100
AcDbLine
 10
108.6178703982
 20
139.4786803474
 30
0.0
 11
143.8678703982
 21
139.4786803474
 31
0.0
  0
LINE
  5
34A
330
1F
100
AcDbEntity
  8
0
  6
Continuous
 62
     7
370
    25
100
AcDbLine
 10
143.8678703982
 20
139.4786803474
 30
0.0
 11
143.8678703982
 21
138.62991943
 31
0.0
  0
LINE
  5
34B
330
1F
100
AcDbEntity
  8
0
  6
Continuous
 62
     7
370
    25
100
AcDbLine
 10
109.6178703982
 20
139.3327823137
 30
0.0
 11
109.6178703982
 21
138.62991943
 31
0.0
  0
LINE
  5
34C
330
1F
100
AcDbEntity
  8
0
  6
Continuous
 62
     7
370
    25
100
AcDbLine
 10
27.8678703982
 20
139.4786803474
 30
0.0
 11
63.1178703982
 21
139.4786803474
 31
0.0
  0
LWPOLYLINE
  5
34D
330
1F
100
AcDbEntity
  8
0
  6
Continuous
 62
     7
370
    25
100
AcDbPolyline
 90
        6
 70
   128
 43
0.0
 10
63.1178703982
 20
139.4786803474
 10
62.7870991591
 20
139.4782276817
 10
62.4935897874
 20
139.4718346009
 10
62.2714578719
 20
139.4473212517
 10
62.1453239998
 20
139.3935397298
 10
62.1178703982
 20
139.3327823137
  0
LINE
  5
34E
330
1F
100
AcDbEntity
  8
0
  6
Continuous
 62
     7
370
    25
100
AcDbLine
 10
62.1178703982
 20
139.3327823137
 30
0.0
 11
62.1178703982
 21
138.62991943
 31
0.0
  0
LINE
  5
34F
330
1F
100
AcDbEntity
  8
0
  6
Continuous
 62
     7
370
    25
100
AcDbLine
 10
27.8678703982
 20
139.4786803474
 30
0.0
 11
27.8678703982
 21
138.62991943
 31
0.0
  0
LINE
  5
350
330
1F
100
AcDbEntity
  8
0
  6
Continuous
 62
     7
370
    25
100
AcDbLine
 10
108.6178703982
 20
136.4786803474
 30
0.0
 11
108.8678703982
 21
136.4762905183
 31
0.0
  0
LINE
  5
351
330
1F
100
AcDbEntity
  8
0
  6
Continuous
 62
     7
370
    25
100
AcDbLine
 10
63.1178703982
 20
136.4786803474
 30
0.0
 11
62.8678703982
 21
136.4762905183
 31
0.0
  0
LINE
  5
352
330
1F
100
AcDbEntity
  8
0
  6
Continuous
 62
     7
370
    25
100
AcDbLine
 10
63.1178703982
 20
139.4786803474
 30
0.0
 11
108.6178703982
 21
139.4786803474
 31
0.0
  0
LINE
  5
353
330
1F
100
AcDbEntity
  8
0
  6
Continuous
 62
     7
370
    25
100
AcDbLine
 10
108.6178703982
 20
136.4786803474
 30
0.0
 11
107.8678703982
 21
136.4786803474
 31
0.0
  0
LINE
  5
354
330
1F
100
AcDbEntity
  8
0
  6
Continuous
 62
     7
370
    25
100
AcDbLine
 10
63.8678703982
 20
136.4786803474
 30
0.0
 11
63.1178703982
 21
136.4786803474
 31
0.0
  0
LINE
  5
355
330
1F
100
AcDbEntity
  8
0
  6
Continuous
 62
     7
370
    25
100
AcDbLine
 10
143.8678703982
 20
139.9786803474
 30
0.0
 11
143.8678703982
 21
139.4786803474
 31
0.0
  0
LINE
  5
356
330
1F
100
AcDbEntity
  8
0
  6
Continuous
 62
     7
370
    25
100
AcDbLine
 10
27.8678703982
 20
139.4786803474
 30
0.0
 11
27.8678703982
 21
139.9786803474
 31
0.0
  0
LINE
  5
357
330
1F
100
AcDbEntity
  8
0
  6
Continuous
 62
     7
370
    25
100
AcDbLine
 10
25.3973332252
 20
139.9786803474
 30
0.0
 11
27.8678703982
 21
139.9786803474
 31
0.0
  0
ARC
  5
358
330
1F
100
AcDbEntity
  8
0
  6
Continuous
 62
     7
370
    25
100
AcDbCircle
 10
33.8678703982
 20
148.4786803474
 30
0.0
 40
12.0
100
AcDbArc
 50
204.6243183522
 51
225.0994720393
  0
ARC
  5
359
330
1F
100
AcDbEntity
  8
0
  6
Continuous
 62
     7
370
    25
100
AcDbCircle
 10
137.8678703982
 20
148.4786803474
 30
0.0
 40
12.00000000000048
100
AcDbArc
 50
314.9005279607
 51
335.3756816478
  0
LINE
  5
35A
330
1F
100
AcDbEntity
  8
0
  6
Continuous
 62
     7
370
    25
100
AcDbLine
 10
143.8678703982
 20
139.9786803474
 30
0.0
 11
146.3384075713
 21
139.9786803474
 31
0.0
  0
CIRCLE
  5
35B
330
1F
100
AcDbEntity
  8
0
  6
Continuous
 62
     7
370
    25
100
AcDbCircle
 10
124.8678703982
 20
157.4786803474
 30
0.0
 40
1.999999999999972
  0
CIRCLE
  5
35C
330
1F
100
AcDbEntity
  8
0
  6
Continuous
 62
     7
370
    25
100
AcDbCircle
 10
46.8678703982
 20
157.4786803474
 30
0.0
 40
2.0
  0
ARC
  5
35D
330
1F
100
AcDbEntity
  8
0
  6
Continuous
 62
     7
370
    25
100
AcDbCircle
 10
111.8678703982
 20
147.4786803474
 30
0.0
 40
5.500000000000011
100
AcDbArc
 50
226.6582417728
 51
313.3417582272
  0
ARC
  5
35E
330
1F
100
AcDbEntity
  8
0
  6
Continuous
 62
     7
370
    25
100
AcDbCircle
 10
59.8678703982
 20
147.4786803474
 30
0.0
 40
5.500000000000001
100
AcDbArc
 50
226.6582417728
 51
313.3417582272
  0
ARC
  5
35F
330
1F
100
AcDbEntity
  8
0
  6
Continuous
 62
     7
370
    25
100
AcDbCircle
 10
128.3678703982
 20
147.4785727467
 30
0.0
 40
6.500000000000002
100
AcDbArc
 50
217.978669156
 51
322.021330844
  0
ARC
  5
360
330
1F
100
AcDbEntity
  8
0
  6
Continuous
 62
     7
370
    25
100
AcDbCircle
 10
43.3678703982
 20
147.4785727467
 30
0.0
 40
6.500000000000002
100
AcDbArc
 50
217.978669156
 51
322.021330844
  0
CIRCLE
  5
361
330
1F
100
AcDbEntity
  8
0
  6
HIDDEN
 62
     7
370
    18
100
AcDbCircle
 10
137.8678703982
 20
159.4786803474
 30
0.0
 40
5.5
  0
ARC
  5
362
330
1F
100
AcDbEntity
  8
0
  6
HIDDEN
 62
     7
370
    18
100
AcDbCircle
 10
111.8678703982
 20
147.4786803474
 30
0.0
 40
5.500000000000001
100
AcDbArc
 50
90.0
 51
226.6582417728
  0
ARC
  5
363
330
1F
100
AcDbEntity
  8
0
  6
HIDDEN
 62
     7
370
    18
100
AcDbCircle
 10
111.8678703982
 20
147.4786803474
 30
0.0
 40
5.500000000000011
100
AcDbArc
 50
313.3417582272
 51
90.0
  0
CIRCLE
  5
364
330
1F
100
AcDbEntity
  8
0
  6
HIDDEN
 62
     7
370
    18
100
AcDbCircle
 10
85.8678703982
 20
159.4786803474
 30
0.0
 40
5.5
  0
ARC
  5
365
330
1F
100
AcDbEntity
  8
0
  6
HIDDEN
 62
     7
370
    18
100
AcDbCircle
 10
59.8678703982
 20
147.4786803474
 30
0.0
 40
5.500000000000001
100
AcDbArc
 50
90.0
 51
226.6582417728
  0
ARC
  5
366
330
1F
100
AcDbEntity
  8
0
  6
HIDDEN
 62
     7
370
    18
100
AcDbCircle
 10
59.8678703982
 20
147.4786803474
 30
0.0
 40
5.500000000000001
100
AcDbArc
 50
313.3417582272
 51
90.0
  0
CIRCLE
  5
367
330
1F
100
AcDbEntity
  8
0
  6
HIDDEN
 62
     7
370
    18
100
AcDbCircle
 10
33.8678703982
 20
159.4786803474
 30
0.0
 40
5.5
  0
ARC
  5
368
330
1F
100
AcDbEntity
  8
0
  6
HIDDEN
 62
     7
370
    18
100
AcDbCircle
 10
128.3678703982
 20
147.4785727467
 30
0.0
 40
6.500000000000002
100
AcDbArc
 50
90.0
 51
217.978669156
  0
ARC
  5
369
330
1F
100
AcDbEntity
  8
0
  6
HIDDEN
 62
     7
370
    18
100
AcDbCircle
 10
128.3678703982
 20
147.4785727467
 30
0.0
 40
6.500000000000002
100
AcDbArc
 50
322.021330844
 51
90.0
  0
ARC
  5
36A
330
1F
100
AcDbEntity
  8
0
  6
HIDDEN
 62
     7
370
    18
100
AcDbCircle
 10
43.3678703982
 20
147.4785727467
 30
0.0
 40
6.499999999999991
100
AcDbArc
 50
90.0
 51
217.978669156
  0
ARC
  5
36B
330
1F
100
AcDbEntity
  8
0
  6
HIDDEN
 62
     7
370
    18
100
AcDbCircle
 10
43.3678703982
 20
147.4785727467
 30
0.0
 40
6.500000000000002
100
AcDbArc
 50
322.021330844
 51
90.0
  0
CIRCLE
  5
36C
330
1F
100
AcDbEntity
  8
0
  6
HIDDEN
 62
     7
370
    18
100
AcDbCircle
 10
43.3678703982
 20
147.4785727467
 30
0.0
 40
3.499999999999972
  0
CIRCLE
  5
36D
330
1F
100
AcDbEntity
  8
0
  6
HIDDEN
 62
     7
370
    18
100
AcDbCircle
 10
33.8678703982
 20
159.4786803474
 30
0.0
 40
3.25
  0
CIRCLE
  5
36E
330
1F
100
AcDbEntity
  8
0
  6
HIDDEN
 62
     7
370
    18
100
AcDbCircle
 10
128.3678703982
 20
147.4785727467
 30
0.0
 40
3.5
  0
CIRCLE
  5
36F
330
1F
100
AcDbEntity
  8
0
  6
HIDDEN
 62
     7
370
    18
100
AcDbCircle
 10
59.8678703982
 20
147.4786803474
 30
0.0
 40
3.25
  0
CIRCLE
  5
370
330
1F
100
AcDbEntity
  8
0
  6
HIDDEN
 62
     7
370
    18
100
AcDbCircle
 10
111.8678703982
 20
147.4786803474
 30
0.0
 40
3.249999999999972
  0
CIRCLE
  5
371
330
1F
100
AcDbEntity
  8
0
  6
HIDDEN
 62
     7
370
    18
100
AcDbCircle
 10
85.8678703982
 20
159.4786803474
 30
0.0
 40
3.250000000000028
  0
CIRCLE
  5
372
330
1F
100
AcDbEntity
  8
0
  6
HIDDEN
 62
     7
370
    18
100
AcDbCircle
 10
137.8678703982
 20
159.4786803474
 30
0.0
 40
3.25
  0
CIRCLE
  5
373
330
1F
100
AcDbEntity
  8
0
  6
HIDDEN
 62
     7
370
    18
100
AcDbCircle
 10
137.8678703982
 20
159.4786803474
 30
0.0
 40
3.25
  0
CIRCLE
  5
374
330
1F
100
AcDbEntity
  8
0
  6
HIDDEN
 62
     7
370
    18
100
AcDbCircle
 10
59.8678703982
 20
147.4786803474
 30
0.0
 40
3.25
  0
CIRCLE
  5
375
330
1F
100
AcDbEntity
  8
0
  6
HIDDEN
 62
     7
370
    18
100
AcDbCircle
 10
111.8678703982
 20
147.4786803474
 30
0.0
 40
3.249999999999972
  0
CIRCLE
  5
376
330
1F
100
AcDbEntity
  8
0
  6
HIDDEN
 62
     7
370
    18
100
AcDbCircle
 10
85.8678703982
 20
159.4786803474
 30
0.0
 40
3.250000000000028
  0
CIRCLE
  5
377
330
1F
100
AcDbEntity
  8
0
  6
HIDDEN
 62
     7
370
    18
100
AcDbCircle
 10
33.8678703982
 20
159.4786803474
 30
0.0
 40
3.25
  0
DIMENSION
  5
378
330
1F
100
AcDbEntity
  8
FORMAT
100
AcDbDimension
  2
_D_16
 10
33.8678703982
 20
154.4786803474
 30
0.0
 11
14.5626674452
 21
169.3962792928
 31
0.0
 70
   164
  1
<>
 71
     1
 42
-1.0
  3
SLDDIMSTYLE3
100
AcDbRadialDimension
 15
24.3724323884
 25
161.8160270751
 35
0.0
 40
0.0
  0
DIMENSION
  5
380
330
1F
100
AcDbEntity
  8
FORMAT
100
AcDbDimension
  2
_D_17
 10
55.8945815895
 20
157.4786803474
 30
0.0
 11
55.8945815895
 21
161.9786803474
 31
0.0
 70
   160
  1
<>
 71
     2
 42
-1.0
  3
SLDDIMSTYLE1
100
AcDbAlignedDimension
 13
33.8678703982
 23
166.4786803474
 33
0.0
 14
53.6178703982
 24
157.4786803474
 34
0.0
 50
90.0
100
AcDbRotatedDimension
  0
DIMENSION
  5
38B
330
1F
100
AcDbEntity
  8
FORMAT
100
AcDbDimension
  2
_D_18
 10
73.7134816454
 20
166.4786803474
 30
0.0
 11
73.7134816454
 21
156.9786803474
 31
0.0
 70
   160
  1
<>
 71
     2
 42
-1.0
  3
SLDDIMSTYLE0
100
AcDbAlignedDimension
 13
67.8678703982
 23
147.4786803474
 33
0.0
 14
33.8678703982
 24
166.4786803474
 34
0.0
 50
90.0
100
AcDbRotatedDimension
  0
DIMENSION
  5
394
330
1F
100
AcDbEntity
  8
FORMAT
100
AcDbDimension
  2
_D_19
 10
101.8155190579
 20
159.4786803474
 30
0.0
 11
101.8155190579
 21
162.9786803474
 31
0.0
 70
   160
  1
<>
 71
     2
 42
-1.0
  3
SLDDIMSTYLE1
100
AcDbAlignedDimension
 13
137.8678703982
 23
166.4786803474
 33
0.0
 14
93.8678703982
 24
159.4786803474
 34
0.0
 50
90.0
100
AcDbRotatedDimension
  0
DIMENSION
  5
39F
330
1F
100
AcDbEntity
  8
FORMAT
100
AcDbDimension
  2
_D_20
 10
85.8678703982
 20
174.9522834254
 30
0.0
 11
72.8678703982
 21
174.9522834254
 31
0.0
 70
   160
  1
<>
 71
     2
 42
-1.0
  3
SLDDIMSTYLE0
100
AcDbAlignedDimension
 13
59.8678703982
 23
155.4786803474
 33
0.0
 14
85.8678703982
 24
167.4786803474
 34
0.0
100
AcDbRotatedDimension
  0
DIMENSION
  5
3A9
330
1F
100
AcDbEntity
  8
FORMAT
100
AcDbDimension
  2
_D_21
 10
111.8678703982
 20
174.9522834254
 30
0.0
 11
98.8678703982
 21
174.9522834254
 31
0.0
 70
   160
  1
<>
 71
     2
 42
-1.0
  3
SLDDIMSTYLE0
100
AcDbAlignedDimension
 13
85.8678703982
 23
167.4786803474
 33
0.0
 14
111.8678703982
 24
155.4786803474
 34
0.0
100
AcDbRotatedDimension
  0
DIMENSION
  5
3B3
330
1F
100
AcDbEntity
  8
FORMAT
100
AcDbDimension
  2
_D_22
 10
149.8678703982
 20
194.4787303474
 30
0.0
 11
85.8678703982
 21
194.4787303474
 31
0.0
 70
   160
  1
<>
 71
     2
 42
-1.0
  3
SLDDIMSTYLE0
100
AcDbAlignedDimension
 13
21.8678703982
 23
154.4786803474
 33
0.0
 14
149.8678703982
 24
154.4786803474
 34
0.0
 50
0.0
100
AcDbRotatedDimension
  0
DIMENSION
  5
3BE
330
1F
100
AcDbEntity
  8
FORMAT
100
AcDbDimension
  2
_D_23
 10
85.8678703982
 20
79.9786803474
 30
0.0
 11
71.8678703982
 21
79.9786803474
 31
0.0
 70
   160
  1
<>
 71
     2
 42
-1.0
  3
SLDDIMSTYLE0
100
AcDbAlignedDimension
 13
57.8678703982
 23
89.5114817343
 33
0.0
 14
85.8678703982
 24
88.9529651806
 34
0.0
100
AcDbRotatedDimension
  0
DIMENSION
  5
3C8
330
1F
100
AcDbEntity
  8
FORMAT
100
AcDbDimension
  2
_D_24
 10
113.8678703982
 20
79.9786803474
 30
0.0
 11
99.8678703982
 21
79.9786803474
 31
0.0
 70
   160
  1
<>
 71
     2
 42
-1.0
  3
SLDDIMSTYLE0
100
AcDbAlignedDimension
 13
85.8678703982
 23
88.9529651806
 33
0.0
 14
113.8678703982
 24
89.9582949773
 34
0.0
100
AcDbRotatedDimension
  0
DIMENSION
  5
3D2
330
1F
100
AcDbEntity
  8
FORMAT
100
AcDbDimension
  2
_D_25
 10
127.8678703982
 20
71.426943873
 30
0.0
 11
85.8678703982
 21
71.426943873
 31
0.0
 70
   160
  1
<>
 71
     2
 42
-1.0
  3
SLDDIMSTYLE0
100
AcDbAlignedDimension
 13
43.8678703982
 23
90.4786803474
 33
0.0
 14
127.8678703982
 24
90.4786803474
 34
0.0
100
AcDbRotatedDimension
  0
DIMENSION
  5
3DC
330
1F
100
AcDbEntity
  8
FORMAT
100
AcDbDimension
  2
_D_26
 10
33.8678703982
 20
174.9522834254
 30
0.0
 11
50.547381723
 21
174.9522834254
 31
0.0
 70
   160
  1
<>
 71
     2
 42
-1.0
  3
SLDDIMSTYLE0
100
AcDbAlignedDimension
 13
59.8678703982
 23
147.4786803474
 33
0.0
 14
33.8678703982
 24
159.4786803474
 34
0.0
100
AcDbRotatedDimension
  0
DIMENSION
  5
3E6
330
1F
100
AcDbEntity
  8
FORMAT
100
AcDbDimension
  2
_D_27
 10
137.8678703982
 20
174.9522834254
 30
0.0
 11
121.2536565238
 21
174.9522834254
 31
0.0
 70
   160
  1
<>
 71
     2
 42
-1.0
  3
SLDDIMSTYLE0
100
AcDbAlignedDimension
 13
111.8678703982
 23
147.4786803474
 33
0.0
 14
137.8678703982
 24
159.4786803474
 34
0.0
100
AcDbRotatedDimension
  0
DIMENSION
  5
3F0
330
1F
100
AcDbEntity
  8
FORMAT
100
AcDbDimension
  2
_D_28
 10
124.8678703982
 20
182.4787303474
 30
0.0
 11
82.3630809694
 21
182.4787303474
 31
0.0
 70
   160
  1
<>
 71
     2
 42
-1.0
  3
SLDDIMSTYLE0
100
AcDbAlignedDimension
 13
46.8678703982
 23
157.4786803474
 33
0.0
 14
124.8678703982
 24
157.4786803474
 34
0.0
 50
0.0
100
AcDbRotatedDimension
  0
DIMENSION
  5
3FC
330
1F
100
AcDbEntity
  8
FORMAT
100
AcDbDimension
  2
_D_29
 10
43.3678703982
 20
188.4787303474
 30
0.0
 11
64.6178703982
 21
188.4787303474
 31
0.0
 70
   160
  1
<>
 71
     2
 42
-1.0
  3
SLDDIMSTYLE0
100
AcDbAlignedDimension
 13
85.8678703982
 23
149.7195662268
 33
0.0
 14
43.3678703982
 24
147.4785727467
 34
0.0
100
AcDbRotatedDimension
  0
DIMENSION
  5
408
330
1F
100
AcDbEntity
  8
FORMAT
100
AcDbDimension
  2
_D_30
 10
128.3678703982
 20
188.4787303474
 30
0.0
 11
107.1178703982
 21
188.4787303474
 31
0.0
 70
   160
  1
<>
 71
     2
 42
-1.0
  3
SLDDIMSTYLE0
100
AcDbAlignedDimension
 13
85.8678703982
 23
159.4786803474
 33
0.0
 14
128.3678703982
 24
147.4785727467
 34
0.0
100
AcDbRotatedDimension
  0
MTEXT
  5
414
330
1F
100
AcDbEntity
  8
FORMAT
100
AcDbMText
 10
81.7140812187
 20
111.6309225608
 30
0.0
 40
3.5
 41
0.0
 71
     1
 72
     1
  1
BBL
  7
SLDTEXTSTYLE0
 11
-3.491481338843133E-15
 21
1.0
 31
0.0
 73
     1
 44
1.0
  0
INSERT
  5
420
330
1F
100
AcDbEntity
  8
FORMAT
100
AcDbBlockReference
  2
SW_CENTERMARKSYMBOL_2
 10
33.8678703982
 20
159.4786803474
 30
0.0
  0
INSERT
  5
42C
330
1F
100
AcDbEntity
  8
FORMAT
100
AcDbBlockReference
  2
SW_CENTERMARKSYMBOL_3
 10
59.8678703982
 20
147.4786803474
 30
0.0
  0
INSERT
  5
438
330
1F
100
AcDbEntity
  8
FORMAT
100
AcDbBlockReference
  2
SW_CENTERMARKSYMBOL_4
 10
46.8678703982
 20
157.4786803474
 30
0.0
  0
INSERT
  5
444
330
1F
100
AcDbEntity
  8
FORMAT
100
AcDbBlockReference
  2
SW_CENTERMARKSYMBOL_5
 10
85.8678703982
 20
159.4786803474
 30
0.0
  0
INSERT
  5
450
330
1F
100
AcDbEntity
  8
FORMAT
100
AcDbBlockReference
  2
SW_CENTERMARKSYMBOL_6
 10
111.8678703982
 20
147.4786803474
 30
0.0
  0
INSERT
  5
45C
330
1F
100
AcDbEntity
  8
FORMAT
100
AcDbBlockReference
  2
SW_CENTERMARKSYMBOL_7
 10
137.8678703982
 20
159.4786803474
 30
0.0
  0
INSERT
  5
468
330
1F
100
AcDbEntity
  8
FORMAT
100
AcDbBlockReference
  2
SW_CENTERMARKSYMBOL_8
 10
124.8678703982
 20
157.4786803474
 30
0.0
  0
INSERT
  5
474
330
1F
100
AcDbEntity
  8
FORMAT
100
AcDbBlockReference
  2
SW_CENTERMARKSYMBOL_9
 10
128.3678703982
 20
147.4785727467
 30
0.0
  0
INSERT
  5
480
330
1F
100
AcDbEntity
  8
FORMAT
100
AcDbBlockReference
  2
SW_CENTERMARKSYMBOL_10
 10
43.3678703982
 20
147.4785727467
 30
0.0
  0
LINE
  5
481
330
1F
100
AcDbEntity
  8
FORMAT
  6
CENTERX2
370
    18
100
AcDbLine
 10
57.8678703982
 20
89.5114817343
 30
0.0
 11
57.8678703982
 21
110.6234074654
 31
0.0
  0
LINE
  5
482
330
1F
100
AcDbEntity
  8
FORMAT
  6
CENTERX2
370
    18
100
AcDbLine
 10
85.8678703982
 20
149.7195662268
 30
0.0
 11
85.8678703982
 21
88.9529651806
 31
0.0
  0
LINE
  5
483
330
1F
100
AcDbEntity
  8
FORMAT
  6
CENTERX2
370
    18
100
AcDbLine
 10
113.8678703982
 20
110.8468140869
 30
0.0
 11
113.8678703982
 21
89.9582949773
 31
0.0
  0
LINE
  5
484
330
1F
100
AcDbEntity
  8
FORMAT
  6
CENTERX2
370
    18
100
AcDbLine
 10
147.1940329507
 20
128.9786803474
 30
0.0
 11
23.8678703982
 21
128.9786803474
 31
0.0
  0
ENDSEC
  0
SECTION
  2
OBJECTS
  0
DICTIONARY
  5
C
330
0
100
AcDbDictionary
281
     1
  3
ACAD_GROUP
350
D
  3
ACAD_LAYOUT
350
1A
  3
ACAD_MLINESTYLE
350
17
  3
ACAD_PLOTSETTINGS
350
19
  3
ACAD_PLOTSTYLENAME
350
E
  3
ACAD_SCALELIST
350
47
  3
DWGPROPS
350
485
  0
DICTIONARY
  5
D
102
{ACAD_REACTORS
330
C
102
}
330
C
100
AcDbDictionary
281
     1
  0
DICTIONARY
  5
1A
102
{ACAD_REACTORS
330
C
102
}
330
C
100
AcDbDictionary
281
     1
  3
Layout1
350
1E
  3
Layout2
350
26
  3
Model
350
22
  0
DICTIONARY
  5
17
102
{ACAD_REACTORS
330
C
102
}
330
C
100
AcDbDictionary
281
     1
  3
Standard
350
18
  0
DICTIONARY
  5
19
102
{ACAD_REACTORS
330
C
102
}
330
C
100
AcDbDictionary
281
     1
  0
ACDBDICTIONARYWDFLT
  5
E
102
{ACAD_REACTORS
330
C
102
}
330
C
100
AcDbDictionary
281
     1
  3
Normal
350
F
100
AcDbDictionaryWithDefault
340
F
  0
DICTIONARY
  5
47
102
{ACAD_REACTORS
330
C
102
}
330
C
100
AcDbDictionary
281
     1
  3
A0
350
48
  3
A1
350
49
  3
A2
350
4A
  3
A3
350
4B
  3
A4
350
4C
  3
A5
350
4D
  3
A6
350
4E
  3
A7
350
4F
  3
A8
350
50
  3
A9
350
51
  3
B0
350
52
  3
B1
350
53
  3
B2
350
54
  3
B3
350
55
  3
B4
350
56
  3
B5
350
57
  3
B6
350
58
  3
B7
350
59
  3
B8
350
5A
  3
B9
350
5B
  3
C0
350
5C
  3
C1
350
5D
  3
C2
350
5E
  3
C3
350
5F
  3
C4
350
60
  3
C5
350
61
  3
C6
350
62
  3
C7
350
63
  3
C8
350
64
  3
C9
350
65
  3
D0
350
66
  3
D1
350
67
  3
D2
350
68
  0
XRECORD
  5
485
102
{ACAD_REACTORS
330
C
102
}
330
C
100
AcDbXrecord
280
     1
  1
DWGPROPS COOKIE
  2

  3

  4

  6

  7

  8
blumenstein
  9

300
=
301
=
302
=
303
=
304
=
305
=
306
=
307
=
308
=
309
=
 40
0.0
 41
2459704.333908391
 42
2459704.333912558
  1

 90
        0
  0
LAYOUT
  5
1E
102
{ACAD_REACTORS
330
1A
102
}
330
1A
100
AcDbPlotSettings
  1

  2
none_device
  4

  6

 40
0.0
 41
0.0
 42
0.0
 43
0.0
 44
0.0
 45
0.0
 46
0.0
 47
0.0
 48
0.0
 49
0.0
140
0.0
141
0.0
142
1.0
143
1.0
 70
   688
 72
     1
 73
     0
 74
     5
  7

 75
    16
147
1.0
148
0.0
149
0.0
100
AcDbLayout
  1
Layout1
 70
     1
 71
     1
 10
0.0
 20
0.0
 11
420.0
 21
297.0
 12
0.0
 22
0.0
 32
0.0
 14
1.0000000000E+20
 24
1.0000000000E+20
 34
1.0000000000E+20
 15
-1.0000000000E+20
 25
-1.0000000000E+20
 35
-1.0000000000E+20
146
0.0
 13
0.0
 23
0.0
 33
0.0
 16
1.0
 26
0.0
 36
0.0
 17
0.0
 27
1.0
 37
0.0
 76
     0
330
1B
  0
LAYOUT
  5
26
102
{ACAD_REACTORS
330
1A
102
}
330
1A
100
AcDbPlotSettings
  1

  2
none_device
  4

  6

 40
0.0
 41
0.0
 42
0.0
 43
0.0
 44
0.0
 45
0.0
 46
0.0
 47
0.0
 48
0.0
 49
0.0
140
0.0
141
0.0
142
1.0
143
1.0
 70
   688
 72
     1
 73
     0
 74
     5
  7

 75
    16
147
1.0
148
0.0
149
0.0
100
AcDbLayout
  1
Layout2
 70
     1
 71
     2
 10
0.0
 20
0.0
 11
0.0
 21
0.0
 12
0.0
 22
0.0
 32
0.0
 14
0.0
 24
0.0
 34
0.0
 15
0.0
 25
0.0
 35
0.0
146
0.0
 13
0.0
 23
0.0
 33
0.0
 16
1.0
 26
0.0
 36
0.0
 17
0.0
 27
1.0
 37
0.0
 76
     0
330
23
  0
LAYOUT
  5
22
102
{ACAD_REACTORS
330
1A
102
}
330
1A
100
AcDbPlotSettings
  1

  2
none_device
  4
Letter_(8.50_x_11.00_Inches)
  6

 40
6.35
 41
6.35
 42
6.35000508
 43
6.35000508
 44
215.9
 45
279.4
 46
0.0
 47
0.0
 48
0.0
 49
0.0
140
0.0
141
0.0
142
1.0
143
1.0
 70
  1712
 72
     1
 73
     0
 74
     0
  7

 75
     0
147
1.0
148
0.0
149
0.0
100
AcDbLayout
  1
Model
 70
     1
 71
     0
 10
0.0
 20
0.0
 11
297.0
 21
210.0
 12
0.0
 22
0.0
 32
0.0
 14
0.0
 24
0.0
 34
0.0
 15
297.0
 25
210.0
 35
0.0
146
0.0
 13
0.0
 23
0.0
 33
0.0
 16
1.0
 26
0.0
 36
0.0
 17
0.0
 27
1.0
 37
0.0
 76
     0
330
1F
331
29
  0
MLINESTYLE
  5
18
102
{ACAD_REACTORS
330
17
102
}
330
17
100
AcDbMlineStyle
  2
Standard
 70
     0
  3

 62
   256
 51
90.0
 52
90.0
 71
     2
 49
0.5
 62
   256
  6
BYLAYER
 49
-0.5
 62
   256
  6
BYLAYER
  0
ACDBPLACEHOLDER
  5
F
102
{ACAD_REACTORS
330
E
102
}
330
E
  0
SCALE
  5
48
102
{ACAD_REACTORS
330
47
102
}
330
47
100
AcDbScale
 70
     0
300
1:1
140
1.0
141
1.0
290
     1
  0
SCALE
  5
49
102
{ACAD_REACTORS
330
47
102
}
330
47
100
AcDbScale
 70
     0
300
1:2
140
1.0
141
2.0
290
     0
  0
SCALE
  5
4A
102
{ACAD_REACTORS
330
47
102
}
330
47
100
AcDbScale
 70
     0
300
1:4
140
1.0
141
4.0
290
     0
  0
SCALE
  5
4B
102
{ACAD_REACTORS
330
47
102
}
330
47
100
AcDbScale
 70
     0
300
1:5
140
1.0
141
5.0
290
     0
  0
SCALE
  5
4C
102
{ACAD_REACTORS
330
47
102
}
330
47
100
AcDbScale
 70
     0
300
1:8
140
1.0
141
8.0
290
     0
  0
SCALE
  5
4D
102
{ACAD_REACTORS
330
47
102
}
330
47
100
AcDbScale
 70
     0
300
1:10
140
1.0
141
10.0
290
     0
  0
SCALE
  5
4E
102
{ACAD_REACTORS
330
47
102
}
330
47
100
AcDbScale
 70
     0
300
1:16
140
1.0
141
16.0
290
     0
  0
SCALE
  5
4F
102
{ACAD_REACTORS
330
47
102
}
330
47
100
AcDbScale
 70
     0
300
1:20
140
1.0
141
20.0
290
     0
  0
SCALE
  5
50
102
{ACAD_REACTORS
330
47
102
}
330
47
100
AcDbScale
 70
     0
300
1:30
140
1.0
141
30.0
290
     0
  0
SCALE
  5
51
102
{ACAD_REACTORS
330
47
102
}
330
47
100
AcDbScale
 70
     0
300
1:40
140
1.0
141
40.0
290
     0
  0
SCALE
  5
52
102
{ACAD_REACTORS
330
47
102
}
330
47
100
AcDbScale
 70
     0
300
1:50
140
1.0
141
50.0
290
     0
  0
SCALE
  5
53
102
{ACAD_REACTORS
330
47
102
}
330
47
100
AcDbScale
 70
     0
300
1:100
140
1.0
141
100.0
290
     0
  0
SCALE
  5
54
102
{ACAD_REACTORS
330
47
102
}
330
47
100
AcDbScale
 70
     0
300
2:1
140
2.0
141
1.0
290
     0
  0
SCALE
  5
55
102
{ACAD_REACTORS
330
47
102
}
330
47
100
AcDbScale
 70
     0
300
4:1
140
4.0
141
1.0
290
     0
  0
SCALE
  5
56
102
{ACAD_REACTORS
330
47
102
}
330
47
100
AcDbScale
 70
     0
300
8:1
140
8.0
141
1.0
290
     0
  0
SCALE
  5
57
102
{ACAD_REACTORS
330
47
102
}
330
47
100
AcDbScale
 70
     0
300
10:1
140
10.0
141
1.0
290
     0
  0
SCALE
  5
58
102
{ACAD_REACTORS
330
47
102
}
330
47
100
AcDbScale
 70
     0
300
100:1
140
100.0
141
1.0
290
     0
  0
SCALE
  5
59
102
{ACAD_REACTORS
330
47
102
}
330
47
100
AcDbScale
 70
     0
300
1/128" = 1'-0"
140
0.0078125
141
12.0
290
     0
  0
SCALE
  5
5A
102
{ACAD_REACTORS
330
47
102
}
330
47
100
AcDbScale
 70
     0
300
1/64" = 1'-0"
140
0.015625
141
12.0
290
     0
  0
SCALE
  5
5B
102
{ACAD_REACTORS
330
47
102
}
330
47
100
AcDbScale
 70
     0
300
1/32" = 1'-0"
140
0.03125
141
12.0
290
     0
  0
SCALE
  5
5C
102
{ACAD_REACTORS
330
47
102
}
330
47
100
AcDbScale
 70
     0
300
1/16" = 1'-0"
140
0.0625
141
12.0
290
     0
  0
SCALE
  5
5D
102
{ACAD_REACTORS
330
47
102
}
330
47
100
AcDbScale
 70
     0
300
3/32" = 1'-0"
140
0.09375
141
12.0
290
     0
  0
SCALE
  5
5E
102
{ACAD_REACTORS
330
47
102
}
330
47
100
AcDbScale
 70
     0
300
1/8" = 1'-0"
140
0.125
141
12.0
290
     0
  0
SCALE
  5
5F
102
{ACAD_REACTORS
330
47
102
}
330
47
100
AcDbScale
 70
     0
300
3/16" = 1'-0"
140
0.1875
141
12.0
290
     0
  0
SCALE
  5
60
102
{ACAD_REACTORS
330
47
102
}
330
47
100
AcDbScale
 70
     0
300
1/4" = 1'-0"
140
0.25
141
12.0
290
     0
  0
SCALE
  5
61
102
{ACAD_REACTORS
330
47
102
}
330
47
100
AcDbScale
 70
     0
300
3/8" = 1'-0"
140
0.375
141
12.0
290
     0
  0
SCALE
  5
62
102
{ACAD_REACTORS
330
47
102
}
330
47
100
AcDbScale
 70
     0
300
1/2" = 1'-0"
140
0.5
141
12.0
290
     0
  0
SCALE
  5
63
102
{ACAD_REACTORS
330
47
102
}
330
47
100
AcDbScale
 70
     0
300
3/4" = 1'-0"
140
0.75
141
12.0
290
     0
  0
SCALE
  5
64
102
{ACAD_REACTORS
330
47
102
}
330
47
100
AcDbScale
 70
     0
300
1" = 1'-0"
140
1.0
141
12.0
290
     0
  0
SCALE
  5
65
102
{ACAD_REACTORS
330
47
102
}
330
47
100
AcDbScale
 70
     0
300
1-1/2" = 1'-0"
140
1.5
141
12.0
290
     0
  0
SCALE
  5
66
102
{ACAD_REACTORS
330
47
102
}
330
47
100
AcDbScale
 70
     0
300
3" = 1'-0"
140
3.0
141
12.0
290
     0
  0
SCALE
  5
67
102
{ACAD_REACTORS
330
47
102
}
330
47
100
AcDbScale
 70
     0
300
6" = 1'-0"
140
6.0
141
12.0
290
     0
  0
SCALE
  5
68
102
{ACAD_REACTORS
330
47
102
}
330
47
100
AcDbScale
 70
     0
300
1'-0" = 1'-0"
140
12.0
141
12.0
290
     0
  0
ENDSEC
  0
EOF
