  0
SECTION
  2
HEADER
  9
$ACADVER
  1
AC1015
  9
$ACADMAINTVER
 70
     6
  9
$DWGCODEPAGE
  3
ANSI_1252
  9
$INSBASE
 10
0.0
 20
0.0
 30
0.0
  9
$EXTMIN
 10
0.0
 20
0.0
 30
0.0
  9
$EXTMAX
 10
210.0
 20
297.0
 30
0.0
  9
$LIMMIN
 10
0.0
 20
0.0
  9
$LIMMAX
 10
210.0
 20
297.0
  9
$ORTHOMODE
 70
     0
  9
$REGENMODE
 70
     1
  9
$FILLMODE
 70
     1
  9
$QTEXTMODE
 70
     0
  9
$MIRRTEXT
 70
     1
  9
$LTSCALE
 40
1.0
  9
$ATTMODE
 70
     1
  9
$TEXTSIZE
 40
3.5
  9
$TRACEWID
 40
1.0
  9
$TEXTSTYLE
  7
STANDARD
  9
$CLAYER
  8
0
  9
$CELTYPE
  6
ByLayer
  9
$CECOLOR
 62
   256
  9
$CELTSCALE
 40
1.0
  9
$DISPSILH
 70
     0
  9
$DIMSCALE
 40
1.0
  9
$DIMASZ
 40
3.302
  9
$DIMEXO
 40
1.0
  9
$DIMDLI
 40
3.75
  9
$DIMRND
 40
0.0
  9
$DIMDLE
 40
0.0
  9
$DIMEXE
 40
1.0
  9
$DIMTP
 40
0.0
  9
$DIMTM
 40
0.0
  9
$DIMTXT
 40
3.5
  9
$DIMCEN
 40
2.5
  9
$DIMTSZ
 40
0.0
  9
$DIMTOL
 70
     0
  9
$DIMLIM
 70
     0
  9
$DIMTIH
 70
     1
  9
$DIMTOH
 70
     1
  9
$DIMSE1
 70
     0
  9
$DIMSE2
 70
     0
  9
$DIMTAD
 70
     1
  9
$DIMZIN
 70
     0
  9
$DIMBLK
  1

  9
$DIMASO
 70
     1
  9
$DIMSHO
 70
     1
  9
$DIMPOST
  1

  9
$DIMAPOST
  1

  9
$DIMALT
 70
     0
  9
$DIMALTD
 70
     3
  9
$DIMALTF
 40
0.0393700787
  9
$DIMLFAC
 40
1.0
  9
$DIMTOFL
 70
     1
  9
$DIMTVP
 40
0.0
  9
$DIMTIX
 70
     0
  9
$DIMSOXD
 70
     0
  9
$DIMSAH
 70
     0
  9
$DIMBLK1
  1

  9
$DIMBLK2
  1

  9
$DIMSTYLE
  2
ISO-25
  9
$DIMCLRD
 70
     0
  9
$DIMCLRE
 70
     0
  9
$DIMCLRT
 70
     0
  9
$DIMTFAC
 40
1.0
  9
$DIMGAP
 40
3.0
  9
$DIMJUST
 70
     0
  9
$DIMSD1
 70
     0
  9
$DIMSD2
 70
     0
  9
$DIMTOLJ
 70
     0
  9
$DIMTZIN
 70
     0
  9
$DIMALTZ
 70
     0
  9
$DIMALTTZ
 70
     0
  9
$DIMUPT
 70
     0
  9
$DIMDEC
 70
     2
  9
$DIMTDEC
 70
     2
  9
$DIMALTU
 70
     2
  9
$DIMALTTD
 70
     3
  9
$DIMTXSTY
  7
STANDARD
  9
$DIMAUNIT
 70
     0
  9
$DIMADEC
 70
     2
  9
$DIMALTRND
 40
0.0
  9
$DIMAZIN
 70
     0
  9
$DIMDSEP
 70
    44
  9
$DIMATFIT
 70
     3
  9
$DIMFRAC
 70
     0
  9
$DIMLDRBLK
  1

  9
$DIMLUNIT
 70
     2
  9
$DIMLWD
 70
    -2
  9
$DIMLWE
 70
    -2
  9
$DIMTMOVE
 70
     0
  9
$LUNITS
 70
     2
  9
$LUPREC
 70
     2
  9
$SKETCHINC
 40
1.0
  9
$FILLETRAD
 40
10.0
  9
$AUNITS
 70
     0
  9
$AUPREC
 70
     2
  9
$MENU
  1
.
  9
$ELEVATION
 40
0.0
  9
$PELEVATION
 40
0.0
  9
$THICKNESS
 40
0.0
  9
$LIMCHECK
 70
     0
  9
$CHAMFERA
 40
0.0
  9
$CHAMFERB
 40
0.0
  9
$CHAMFERC
 40
0.0
  9
$CHAMFERD
 40
0.0
  9
$SKPOLY
 70
     0
  9
$TDCREATE
 40
2459892.58407537
  9
$TDUCREATE
 40
2459892.542408704
  9
$TDUPDATE
 40
2459892.584076817
  9
$TDUUPDATE
 40
2459892.542410151
  9
$TDINDWG
 40
0.0000000116
  9
$TDUSRTIMER
 40
0.0000000116
  9
$USRTIMER
 70
     1
  9
$ANGBASE
 50
0.0
  9
$ANGDIR
 70
     0
  9
$PDMODE
 70
     0
  9
$PDSIZE
 40
-1.0
  9
$PLINEWID
 40
0.0
  9
$SPLFRAME
 70
     0
  9
$SPLINETYPE
 70
     6
  9
$SPLINESEGS
 70
     8
  9
$HANDSEED
  5
293
  9
$SURFTAB1
 70
     6
  9
$SURFTAB2
 70
     6
  9
$SURFTYPE
 70
     6
  9
$SURFU
 70
     6
  9
$SURFV
 70
     6
  9
$UCSBASE
  2

  9
$UCSNAME
  2

  9
$UCSORG
 10
0.0
 20
0.0
 30
0.0
  9
$UCSXDIR
 10
1.0
 20
0.0
 30
0.0
  9
$UCSYDIR
 10
0.0
 20
1.0
 30
0.0
  9
$UCSORTHOREF
  2

  9
$UCSORTHOVIEW
 70
     0
  9
$UCSORGTOP
 10
0.0
 20
0.0
 30
0.0
  9
$UCSORGBOTTOM
 10
0.0
 20
0.0
 30
0.0
  9
$UCSORGLEFT
 10
0.0
 20
0.0
 30
0.0
  9
$UCSORGRIGHT
 10
0.0
 20
0.0
 30
0.0
  9
$UCSORGFRONT
 10
0.0
 20
0.0
 30
0.0
  9
$UCSORGBACK
 10
0.0
 20
0.0
 30
0.0
  9
$PUCSBASE
  2

  9
$PUCSNAME
  2

  9
$PUCSORG
 10
0.0
 20
0.0
 30
0.0
  9
$PUCSXDIR
 10
1.0
 20
0.0
 30
0.0
  9
$PUCSYDIR
 10
0.0
 20
1.0
 30
0.0
  9
$PUCSORTHOREF
  2

  9
$PUCSORTHOVIEW
 70
     0
  9
$PUCSORGTOP
 10
0.0
 20
0.0
 30
0.0
  9
$PUCSORGBOTTOM
 10
0.0
 20
0.0
 30
0.0
  9
$PUCSORGLEFT
 10
0.0
 20
0.0
 30
0.0
  9
$PUCSORGRIGHT
 10
0.0
 20
0.0
 30
0.0
  9
$PUCSORGFRONT
 10
0.0
 20
0.0
 30
0.0
  9
$PUCSORGBACK
 10
0.0
 20
0.0
 30
0.0
  9
$USERI1
 70
     0
  9
$USERI2
 70
     0
  9
$USERI3
 70
     0
  9
$USERI4
 70
     0
  9
$USERI5
 70
     0
  9
$USERR1
 40
0.0
  9
$USERR2
 40
0.0
  9
$USERR3
 40
0.0
  9
$USERR4
 40
0.0
  9
$USERR5
 40
0.0
  9
$WORLDVIEW
 70
     1
  9
$SHADEDGE
 70
     3
  9
$SHADEDIF
 70
    70
  9
$TILEMODE
 70
     1
  9
$MAXACTVP
 70
    64
  9
$PINSBASE
 10
0.0
 20
0.0
 30
0.0
  9
$PLIMCHECK
 70
     0
  9
$PEXTMIN
 10
1.0000000000E+20
 20
1.0000000000E+20
 30
1.0000000000E+20
  9
$PEXTMAX
 10
-1.0000000000E+20
 20
-1.0000000000E+20
 30
-1.0000000000E+20
  9
$PLIMMIN
 10
0.0
 20
0.0
  9
$PLIMMAX
 10
420.0
 20
297.0
  9
$UNITMODE
 70
     0
  9
$VISRETAIN
 70
     1
  9
$PLINEGEN
 70
     0
  9
$PSLTSCALE
 70
     1
  9
$TREEDEPTH
 70
  3020
  9
$CMLSTYLE
  2
Standard
  9
$CMLJUST
 70
     0
  9
$CMLSCALE
 40
20.0
  9
$PROXYGRAPHICS
 70
     1
  9
$MEASUREMENT
 70
     1
  9
$CELWEIGHT
370
    -1
  9
$ENDCAPS
280
     0
  9
$JOINSTYLE
280
     0
  9
$LWDISPLAY
290
     1
  9
$INSUNITS
 70
     4
  9
$HYPERLINKBASE
  1

  9
$STYLESHEET
  1

  9
$XEDIT
290
     1
  9
$CEPSNTYPE
380
     0
  9
$PSTYLEMODE
290
     1
  9
$FINGERPRINTGUID
  2
{bdb981c8-dded-4174-8b4b-e8763a99c3d9}
  9
$VERSIONGUID
  2
{FAEB1C32-E019-11D5-929B-00C0DF256EC4}
  9
$EXTNAMES
290
     1
  9
$PSVPSCALE
 40
0.0
  9
$OLESTARTUP
290
     0
  0
ENDSEC
  0
SECTION
  2
CLASSES
  0
CLASS
  1
ACDBDICTIONARYWDFLT
  2
AcDbDictionaryWithDefault
  3
ObjectDBX Classes
 90
        0
280
     0
281
     0
  0
CLASS
  1
VISUALSTYLE
  2
AcDbVisualStyle
  3
ObjectDBX Classes
 90
     4095
280
     0
281
     0
  0
CLASS
  1
MATERIAL
  2
AcDbMaterial
  3
ObjectDBX Classes
 90
     1153
280
     0
281
     0
  0
CLASS
  1
SCALE
  2
AcDbScale
  3
ObjectDBX Classes
 90
     1153
280
     0
281
     0
  0
CLASS
  1
TABLESTYLE
  2
AcDbTableStyle
  3
ObjectDBX Classes
 90
     4095
280
     0
281
     0
  0
CLASS
  1
MLEADERSTYLE
  2
AcDbMLeaderStyle
  3
ACDB_MLEADERSTYLE_CLASS
 90
     4095
280
     0
281
     0
  0
CLASS
  1
SUN
  2
AcDbSun
  3
SCENEOE
 90
     1153
280
     0
281
     0
  0
CLASS
  1
ACDBPLACEHOLDER
  2
AcDbPlaceHolder
  3
ObjectDBX Classes
 90
        0
280
     0
281
     0
  0
CLASS
  1
LAYOUT
  2
AcDbLayout
  3
ObjectDBX Classes
 90
        0
280
     0
281
     0
  0
ENDSEC
  0
SECTION
  2
TABLES
  0
TABLE
  2
VPORT
  5
8
330
0
100
AcDbSymbolTable
 70
     1
  0
VPORT
  5
29
330
8
100
AcDbSymbolTableRecord
100
AcDbViewportTableRecord
  2
*Active
 70
     0
 10
0.0
 20
0.0
 11
1.0
 21
1.0
 12
105.0
 22
148.5
 13
0.0
 23
0.0
 14
10.0
 24
10.0
 15
10.0
 25
10.0
 16
0.0
 26
0.0
 36
1.0
 17
0.0
 27
0.0
 37
0.0
 40
297.0
 41
0.7070707071
 42
50.0
 43
0.0
 44
0.0
 50
0.0
 51
0.0
 71
     0
 72
  2000
 73
     1
 74
     3
 75
     0
 76
     0
 77
     0
 78
     0
281
     0
 65
     1
110
0.0
120
0.0
130
0.0
111
1.0
121
0.0
131
0.0
112
0.0
122
1.0
132
0.0
 79
     0
146
0.0
  0
ENDTAB
  0
TABLE
  2
LTYPE
  5
5
330
0
100
AcDbSymbolTable
 70
     6
  0
LTYPE
  5
14
330
5
100
AcDbSymbolTableRecord
100
AcDbLinetypeTableRecord
  2
ByBlock
 70
     0
  3

 72
    65
 73
     0
 40
0.0
  0
LTYPE
  5
15
330
5
100
AcDbSymbolTableRecord
100
AcDbLinetypeTableRecord
  2
ByLayer
 70
     0
  3

 72
    65
 73
     0
 40
0.0
  0
LTYPE
  5
16
330
5
100
AcDbSymbolTableRecord
100
AcDbLinetypeTableRecord
  2
Continuous
 70
     0
  3
Solid line
 72
    65
 73
     0
 40
0.0
  0
LTYPE
  5
6E
330
5
100
AcDbSymbolTableRecord
100
AcDbLinetypeTableRecord
  2
HIDDEN
 70
     0
  3
Hidden __ __ __ __ __ __ __ __ __ __ __ __ __ __
 72
    65
 73
     2
 40
1.905
 49
1.27
 74
     0
 49
-0.635
 74
     0
  0
LTYPE
  5
6F
330
5
100
AcDbSymbolTableRecord
100
AcDbLinetypeTableRecord
  2
PHANTOM
 70
     0
  3
Phantom ______  __  __  ______  __  __  ______
 72
    65
 73
     6
 40
12.7
 49
6.35
 74
     0
 49
-1.27
 74
     0
 49
1.27
 74
     0
 49
-1.27
 74
     0
 49
1.27
 74
     0
 49
-1.27
 74
     0
  0
LTYPE
  5
70
330
5
100
AcDbSymbolTableRecord
100
AcDbLinetypeTableRecord
  2
CENTER
 70
     0
  3
Center ____ _ ____ _ ____ _ ____ _ ____ _ ____
 72
    65
 73
     4
 40
10.16
 49
6.35
 74
     0
 49
-1.27
 74
     0
 49
1.27
 74
     0
 49
-1.27
 74
     0
  0
LTYPE
  5
71
330
5
100
AcDbSymbolTableRecord
100
AcDbLinetypeTableRecord
  2
CENTERX2
 70
     0
  3
Center (2x) ________  __  ________  __  _____
 72
    65
 73
     4
 40
20.32
 49
12.7
 74
     0
 49
-2.54
 74
     0
 49
2.54
 74
     0
 49
-2.54
 74
     0
  0
LTYPE
  5
72
330
5
100
AcDbSymbolTableRecord
100
AcDbLinetypeTableRecord
  2
DOT2
 70
     0
  3
Dot (.5x) ........................................
 72
    65
 73
     2
 40
0.635
 49
0.0
 74
     0
 49
-0.635
 74
     0
  0
ENDTAB
  0
TABLE
  2
LAYER
  5
2
330
0
100
AcDbSymbolTable
 70
     9
  0
LAYER
  5
10
330
2
100
AcDbSymbolTableRecord
100
AcDbLayerTableRecord
  2
0
 70
     0
 62
     7
  6
Continuous
370
    -3
390
F
  0
LAYER
  5
73
330
2
100
AcDbSymbolTableRecord
100
AcDbLayerTableRecord
  2
FORMAT
 70
     0
 62
     7
  6
Continuous
370
    -3
390
F
  0
LAYER
  5
74
330
2
100
AcDbSymbolTableRecord
100
AcDbLayerTableRecord
  2
VORLAGE
 70
     0
 62
     7
  6
Continuous
370
    -3
390
F
  0
LAYER
  5
75
330
2
100
AcDbSymbolTableRecord
100
AcDbLayerTableRecord
  2
1
 70
     0
 62
   179
  6
Continuous
370
    -3
390
F
  0
LAYER
  5
76
330
2
100
AcDbSymbolTableRecord
100
AcDbLayerTableRecord
  2
LAYER0
 70
     0
 62
     7
  6
Continuous
370
    -3
390
F
  0
LAYER
  5
77
330
2
100
AcDbSymbolTableRecord
100
AcDbLayerTableRecord
  2
BEMASSUNG
 70
     0
 62
     1
  6
Continuous
370
    -3
390
F
  0
LAYER
  5
78
330
2
100
AcDbSymbolTableRecord
100
AcDbLayerTableRecord
  2
ÄNDERUNG
 70
     0
 62
     1
  6
Continuous
370
    -3
390
F
  0
LAYER
  5
79
330
2
100
AcDbSymbolTableRecord
100
AcDbLayerTableRecord
  2
KENNZEICHNUNG
 70
     0
 62
     7
  6
Continuous
370
    -3
390
F
  0
LAYER
  5
7A
330
2
100
AcDbSymbolTableRecord
100
AcDbLayerTableRecord
  2
LOGOS
 70
     0
 62
     7
  6
Continuous
370
    -3
390
F
  0
ENDTAB
  0
TABLE
  2
STYLE
  5
3
330
0
100
AcDbSymbolTable
 70
     5
  0
STYLE
  5
11
330
3
100
AcDbSymbolTableRecord
100
AcDbTextStyleTableRecord
  2
STANDARD
 70
     0
 40
0.0
 41
1.0
 50
0.0
 71
     0
 42
3.5
  3
ARIAL.TTF
  4

1001
ACAD
1000
ARIAL
1071
       34
  0
STYLE
  5
8C
330
3
100
AcDbSymbolTableRecord
100
AcDbTextStyleTableRecord
  2
SLDTEXTSTYLE0
 70
     0
 40
0.0
 41
0.948
 50
0.0
 71
     0
 42
3.5
  3
ARIAL.TTF
  4

1001
ACAD
1000
Arial
1071
      290
  0
STYLE
  5
B3
330
3
100
AcDbSymbolTableRecord
100
AcDbTextStyleTableRecord
  2
SLDTEXTSTYLE1
 70
     0
 40
0.0
 41
1.0
 50
0.0
 71
     0
 42
3.5
  3
Arial Unicode MS
  4

1001
ACAD
1000
Arial Unicode MS
1071
 33554688
  0
STYLE
  5
B9
330
3
100
AcDbSymbolTableRecord
100
AcDbTextStyleTableRecord
  2
SLDTEXTSTYLE2
 70
     0
 40
0.0
 41
0.87
 50
0.0
 71
     0
 42
3.5
  3
ARIALN.TTF
  4

1001
ACAD
1000
Arial Narrow
1071
      290
  0
STYLE
  5
CE
330
3
100
AcDbSymbolTableRecord
100
AcDbTextStyleTableRecord
  2
SLDTEXTSTYLE3
 70
     0
 40
0.0
 41
0.948
 50
0.0
 71
     0
 42
3.5
  3
ARIALBD.TTF
  4

1001
ACAD
1000
Arial
1071
 33554722
  0
ENDTAB
  0
TABLE
  2
VIEW
  5
6
330
0
100
AcDbSymbolTable
 70
     0
  0
ENDTAB
  0
TABLE
  2
UCS
  5
7
330
0
100
AcDbSymbolTable
 70
     0
  0
ENDTAB
  0
TABLE
  2
APPID
  5
9
330
0
100
AcDbSymbolTable
 70
     1
  0
APPID
  5
12
330
9
100
AcDbSymbolTableRecord
100
AcDbRegAppTableRecord
  2
ACAD
 70
     0
  0
ENDTAB
  0
TABLE
  2
DIMSTYLE
  5
A
330
0
100
AcDbSymbolTable
 70
     3
100
AcDbDimStyleTable
  0
DIMSTYLE
105
27
330
A
100
AcDbSymbolTableRecord
100
AcDbDimStyleTableRecord
  2
ISO-25
 70
     0
 41
2.5
 42
0.625
 43
3.75
 44
1.25
 73
     0
 74
     0
 77
     1
 78
     8
140
2.5
141
2.5
143
0.0393700787
147
0.625
171
     3
172
     1
178
     0
271
     2
272
     2
274
     3
278
    44
283
     0
284
     8
340
11
  0
DIMSTYLE
105
14C
102
{ACAD_REACTORS
330
14B
330
262
330
26C
102
}
330
A
100
AcDbSymbolTableRecord
100
AcDbDimStyleTableRecord
  2
SLDDIMSTYLE0
 70
     0
 41
3.302
 44
0.0
 45
0.000000001
 73
     0
 74
     0
 77
     1
 78
    12
 79
     3
140
3.5
147
0.875
173
     1
178
     0
271
     2
272
     2
276
     2
284
    12
340
8C
  0
DIMSTYLE
105
277
102
{ACAD_REACTORS
330
276
330
284
102
}
330
A
100
AcDbSymbolTableRecord
100
AcDbDimStyleTableRecord
  2
SLDDIMSTYLE1
 70
     0
 41
3.302
 44
0.0
 45
0.000000001
 73
     0
 74
     0
 77
     1
 78
    12
 79
     3
140
3.5
147
0.875
172
     1
173
     1
178
     0
271
     2
272
     2
276
     2
284
    12
289
     0
340
8C
  0
ENDTAB
  0
TABLE
  2
BLOCK_RECORD
  5
1
330
0
100
AcDbSymbolTable
 70
    12
  0
BLOCK_RECORD
  5
1F
330
1
100
AcDbSymbolTableRecord
100
AcDbBlockTableRecord
  2
*Model_Space
340
22
  0
BLOCK_RECORD
  5
1B
330
1
100
AcDbSymbolTableRecord
100
AcDbBlockTableRecord
  2
*Paper_Space
340
1E
  0
BLOCK_RECORD
  5
23
330
1
100
AcDbSymbolTableRecord
100
AcDbBlockTableRecord
  2
*Paper_Space0
340
26
  0
BLOCK_RECORD
  5
7B
330
1
100
AcDbSymbolTableRecord
100
AcDbBlockTableRecord
  2
Block1
340
0
102
{BLKREFS
331
CC
102
}
  0
BLOCK_RECORD
  5
89
330
1
100
AcDbSymbolTableRecord
100
AcDbBlockTableRecord
  2
SW_NOTE_0
340
0
102
{BLKREFS
331
8F
102
}
  0
BLOCK_RECORD
  5
90
330
1
100
AcDbSymbolTableRecord
100
AcDbBlockTableRecord
  2
Block2
340
0
102
{BLKREFS
331
CD
102
}
  0
BLOCK_RECORD
  5
B0
330
1
100
AcDbSymbolTableRecord
100
AcDbBlockTableRecord
  2
SW_NOTE_0_1
340
0
102
{BLKREFS
331
B5
102
}
  0
BLOCK_RECORD
  5
B6
330
1
100
AcDbSymbolTableRecord
100
AcDbBlockTableRecord
  2
SW_NOTE_0_2
340
0
102
{BLKREFS
331
BD
102
}
  0
BLOCK_RECORD
  5
DF
330
1
100
AcDbSymbolTableRecord
100
AcDbBlockTableRecord
  2
SW_NOTE_0_3
340
0
102
{BLKREFS
331
EC
102
}
  0
BLOCK_RECORD
  5
14D
330
1
100
AcDbSymbolTableRecord
100
AcDbBlockTableRecord
  2
_D
340
0
  0
BLOCK_RECORD
  5
263
330
1
100
AcDbSymbolTableRecord
100
AcDbBlockTableRecord
  2
_D_1
340
0
  0
BLOCK_RECORD
  5
26D
330
1
100
AcDbSymbolTableRecord
100
AcDbBlockTableRecord
  2
_D_2
340
0
  0
BLOCK_RECORD
  5
278
330
1
100
AcDbSymbolTableRecord
100
AcDbBlockTableRecord
  2
_D_3
340
0
  0
BLOCK_RECORD
  5
285
330
1
100
AcDbSymbolTableRecord
100
AcDbBlockTableRecord
  2
_D_4
340
0
  0
ENDTAB
  0
ENDSEC
  0
SECTION
  2
BLOCKS
  0
BLOCK
  5
20
330
1F
100
AcDbEntity
  8
0
100
AcDbBlockBegin
  2
*Model_Space
 70
     0
 10
0.0
 20
0.0
 30
0.0
  3
*Model_Space
  1

  0
ENDBLK
  5
21
330
1F
100
AcDbEntity
  8
0
100
AcDbBlockEnd
  0
BLOCK
  5
1C
330
1B
100
AcDbEntity
 67
     1
  8
0
100
AcDbBlockBegin
  2
*Paper_Space
 70
     0
 10
0.0
 20
0.0
 30
0.0
  3
*Paper_Space
  1

  0
ENDBLK
  5
1D
330
1B
100
AcDbEntity
 67
     1
  8
0
100
AcDbBlockEnd
  0
BLOCK
  5
24
330
23
100
AcDbEntity
  8
0
100
AcDbBlockBegin
  2
*Paper_Space0
 70
     0
 10
0.0
 20
0.0
 30
0.0
  3
*Paper_Space0
  1

  0
ENDBLK
  5
25
330
23
100
AcDbEntity
  8
0
100
AcDbBlockEnd
  0
BLOCK
  5
7C
330
7B
100
AcDbEntity
  8
0
100
AcDbBlockBegin
  2
Block1
 70
     0
 10
0.0
 20
0.0
 30
0.0
  3
Block1
  1

  0
CIRCLE
  5
7E
330
7B
100
AcDbEntity
  8
0
  6
Continuous
 62
     7
370
    18
100
AcDbCircle
 10
11.6137544821
 20
9.0896586992
 30
0.0
 40
1.255909011058753
  0
CIRCLE
  5
7F
330
7B
100
AcDbEntity
  8
0
  6
Continuous
 62
     7
370
    18
100
AcDbCircle
 10
11.6137544821
 20
9.0896586992
 30
0.0
 40
2.216014863655655
  0
LINE
  5
80
330
7B
100
AcDbEntity
  8
0
  6
CENTERX2
 62
     7
370
    18
100
AcDbLine
 10
11.6137544821
 20
9.0896586992
 30
0.0
 11
7.8977396184
 21
9.0896586992
 31
0.0
  0
LINE
  5
81
330
7B
100
AcDbEntity
  8
0
  6
Continuous
 62
     7
370
    18
100
AcDbLine
 10
8.165753588
 20
6.8736438356
 30
0.0
 11
8.165753588
 21
11.3071584591
 31
0.0
  0
LINE
  5
82
330
7B
100
AcDbEntity
  8
0
  6
Continuous
 62
     7
370
    18
100
AcDbLine
 10
2.6797147895
 20
10.3455677103
 30
0.0
 11
2.6797147895
 21
7.8337496881
 31
0.0
  0
LINE
  5
83
330
7B
100
AcDbEntity
  8
0
  6
Continuous
 62
     7
370
    18
100
AcDbLine
 10
2.6797147895
 20
7.8337496881
 30
0.0
 11
8.165753588
 21
6.8736438356
 31
0.0
  0
LINE
  5
84
330
7B
100
AcDbEntity
  8
0
  6
CENTERX2
 62
     7
370
    18
100
AcDbLine
 10
9.665753588
 20
9.0896586992
 30
0.0
 11
1.1797147895
 21
9.0896586992
 31
0.0
  0
LINE
  5
85
330
7B
100
AcDbEntity
  8
0
  6
Continuous
 62
     7
370
    18
100
AcDbLine
 10
8.165753588
 20
11.3071584591
 30
0.0
 11
2.6797147895
 21
10.3455677103
 31
0.0
  0
LINE
  5
86
330
7B
100
AcDbEntity
  8
0
  6
CENTERX2
 62
     7
370
    18
100
AcDbLine
 10
11.6137544821
 20
9.0896586992
 30
0.0
 11
11.6137544821
 21
5.3736438356
 31
0.0
  0
LINE
  5
87
330
7B
100
AcDbEntity
  8
0
  6
CENTERX2
 62
     7
370
    18
100
AcDbLine
 10
11.6137544821
 20
9.0896586992
 30
0.0
 11
11.6137544821
 21
12.8056735629
 31
0.0
  0
LINE
  5
88
330
7B
100
AcDbEntity
  8
0
  6
CENTERX2
 62
     7
370
    18
100
AcDbLine
 10
11.6137544821
 20
9.0896586992
 30
0.0
 11
15.3297693458
 21
9.0896586992
 31
0.0
  0
INSERT
  5
8F
330
7B
100
AcDbEntity
  8
0
  6
Continuous
 62
     7
370
     0
100
AcDbBlockReference
  2
SW_NOTE_0
 10
2.1031832889
 20
2.3754472768
 30
0.0
  0
ENDBLK
  5
7D
330
7B
100
AcDbEntity
  8
0
100
AcDbBlockEnd
  0
BLOCK
  5
8A
330
89
100
AcDbEntity
  8
0
100
AcDbBlockBegin
  2
SW_NOTE_0
 70
     0
 10
0.0
 20
0.0
 30
0.0
  3
SW_NOTE_0
  1

  0
MTEXT
  5
8D
330
89
100
AcDbEntity
  8
0
  6
Continuous
 62
     0
370
     0
100
AcDbMText
 10
6.590625
 20
2.4492287056
 30
0.0
 40
1.9
 41
0.0
 71
     2
 72
     1
  1
DIN 6  T1 - 
  7
SLDTEXTSTYLE0
 73
     1
 44
1.0
  0
MTEXT
  5
8E
330
89
100
AcDbEntity
  8
0
  6
Continuous
 62
     0
370
     0
100
AcDbMText
 10
6.6569262624
 20
0.0003397443
 30
0.0
 40
1.9
 41
0.0
 71
     2
 72
     1
  1
Proj.methode 1
  7
SLDTEXTSTYLE0
 73
     1
 44
1.0
  0
ENDBLK
  5
8B
330
89
100
AcDbEntity
  8
0
100
AcDbBlockEnd
  0
BLOCK
  5
91
330
90
100
AcDbEntity
  8
0
100
AcDbBlockBegin
  2
Block2
 70
     0
 10
0.0
 20
0.0
 30
0.0
  3
Block2
  1

  0
ARC
  5
93
330
90
100
AcDbEntity
  8
FORMAT
100
AcDbCircle
 10
236.7496365382
 20
57.0990600997
 30
0.0
 40
3.75000000000001
100
AcDbArc
 50
93.8225537293
 51
266.1774462707
  0
ARC
  5
94
330
90
100
AcDbEntity
  8
FORMAT
100
AcDbCircle
 10
236.7496365382
 20
57.0990600997
 30
0.0
 40
3.000000000000012
100
AcDbArc
 50
94.7801918472
 51
265.2198081528
  0
ARC
  5
95
330
90
100
AcDbEntity
  8
FORMAT
100
AcDbCircle
 10
236.7496365382
 20
57.0990600997
 30
0.0
 40
3.75000000000001
100
AcDbArc
 50
273.8225537293
 51
86.1774462707
  0
ARC
  5
96
330
90
100
AcDbEntity
  8
FORMAT
100
AcDbCircle
 10
236.7496365382
 20
57.0990600997
 30
0.0
 40
3.000000000000012
100
AcDbArc
 50
274.7801918472
 51
85.2198081528
  0
ARC
  5
97
330
90
100
AcDbEntity
  8
FORMAT
100
AcDbCircle
 10
236.7496365382
 20
58.2320416436
 30
0.0
 40
0.8604027828068846
100
AcDbArc
 50
304.8395134495
 51
73.1084194601
  0
ARC
  5
98
330
90
100
AcDbEntity
  8
FORMAT
100
AcDbCircle
 10
236.7496365382
 20
58.2320416436
 30
0.0
 40
1.402314431660661
100
AcDbArc
 50
313.8988153445
 51
79.7306010333
  0
ARC
  5
99
330
90
100
AcDbEntity
  8
FORMAT
100
AcDbCircle
 10
236.7496365382
 20
55.4979572256
 30
0.0
 40
0.4915306686725103
100
AcDbArc
 50
300.5716370086
 51
0.0
  0
ARC
  5
9A
330
90
100
AcDbEntity
  8
FORMAT
100
AcDbCircle
 10
236.7496365382
 20
58.2320416436
 30
0.0
 40
1.402314431660661
100
AcDbArc
 50
100.2693989667
 51
226.1011846555
  0
ARC
  5
9B
330
90
100
AcDbEntity
  8
FORMAT
100
AcDbCircle
 10
236.7496365382
 20
55.4979572256
 30
0.0
 40
0.9723464985416115
100
AcDbArc
 50
180.0
 51
255.1013518888
  0
ARC
  5
9C
330
90
100
AcDbEntity
  8
FORMAT
100
AcDbCircle
 10
236.7496365382
 20
55.4979572256
 30
0.0
 40
0.9723464985416115
100
AcDbArc
 50
284.8986481112
 51
0.0
  0
ARC
  5
9D
330
90
100
AcDbEntity
  8
FORMAT
100
AcDbCircle
 10
236.7496365382
 20
55.4979572256
 30
0.0
 40
0.4915306686725099
100
AcDbArc
 50
180.0
 51
239.4283629914
  0
ARC
  5
9E
330
90
100
AcDbEntity
  8
FORMAT
100
AcDbCircle
 10
236.7496365382
 20
58.2320416436
 30
0.0
 40
0.8604027828068846
100
AcDbArc
 50
106.8915805399
 51
235.1604865505
  0
LINE
  5
9F
330
90
100
AcDbEntity
  8
FORMAT
100
AcDbLine
 10
232.5312401271
 20
52.8806636887
 30
0.0
 11
240.9680329492
 21
52.8806636887
 31
0.0
  0
LINE
  5
A0
330
90
100
AcDbEntity
  8
FORMAT
100
AcDbLine
 10
232.5312401271
 20
61.3174565107
 30
0.0
 11
240.9680329492
 21
61.3174565107
 31
0.0
  0
LINE
  5
A1
330
90
100
AcDbEntity
  8
FORMAT
100
AcDbLine
 10
232.5312401271
 20
61.3174565107
 30
0.0
 11
232.5312401271
 21
52.8806636887
 31
0.0
  0
LINE
  5
A2
330
90
100
AcDbEntity
  8
FORMAT
100
AcDbLine
 10
240.9680329492
 20
61.3174565107
 30
0.0
 11
240.9680329492
 21
52.8806636887
 31
0.0
  0
LINE
  5
A3
330
90
100
AcDbEntity
  8
FORMAT
100
AcDbLine
 10
236.4996365382
 20
60.8407174865
 30
0.0
 11
236.4996365382
 21
60.0886252855
 31
0.0
  0
LINE
  5
A4
330
90
100
AcDbEntity
  8
FORMAT
100
AcDbLine
 10
236.9996365382
 20
60.8407174865
 30
0.0
 11
236.9996365382
 21
60.0886252855
 31
0.0
  0
LINE
  5
A5
330
90
100
AcDbEntity
  8
FORMAT
100
AcDbLine
 10
236.4996365382
 20
54.1094949139
 30
0.0
 11
236.4996365382
 21
53.3574027129
 31
0.0
  0
LINE
  5
A6
330
90
100
AcDbEntity
  8
FORMAT
100
AcDbLine
 10
236.9996365382
 20
54.1094949139
 30
0.0
 11
236.9996365382
 21
53.3574027129
 31
0.0
  0
LINE
  5
A7
330
90
100
AcDbEntity
  8
FORMAT
100
AcDbLine
 10
236.9996365382
 20
59.6118915504
 30
0.0
 11
236.9996365382
 21
59.0553234597
 31
0.0
  0
LINE
  5
A8
330
90
100
AcDbEntity
  8
FORMAT
100
AcDbLine
 10
236.4996365382
 20
59.6118915504
 30
0.0
 11
236.4996365382
 21
59.0553234597
 31
0.0
  0
LINE
  5
A9
330
90
100
AcDbEntity
  8
FORMAT
100
AcDbLine
 10
235.7772900396
 20
55.4979572256
 30
0.0
 11
235.7772900396
 21
57.2215823164
 31
0.0
  0
LINE
  5
AA
330
90
100
AcDbEntity
  8
FORMAT
100
AcDbLine
 10
237.7219830367
 20
55.4979572256
 30
0.0
 11
237.7219830367
 21
57.2215823164
 31
0.0
  0
LINE
  5
AB
330
90
100
AcDbEntity
  8
FORMAT
100
AcDbLine
 10
237.2411672068
 20
55.4979572256
 30
0.0
 11
237.2411672068
 21
57.5258613901
 31
0.0
  0
LINE
  5
AC
330
90
100
AcDbEntity
  8
FORMAT
100
AcDbLine
 10
236.2581058695
 20
55.4979572256
 30
0.0
 11
236.2581058695
 21
57.5258613901
 31
0.0
  0
LINE
  5
AD
330
90
100
AcDbEntity
  8
FORMAT
100
AcDbLine
 10
236.4996365382
 20
55.0747523127
 30
0.0
 11
236.4996365382
 21
54.5582989296
 31
0.0
  0
LINE
  5
AE
330
90
100
AcDbEntity
  8
FORMAT
100
AcDbLine
 10
236.9996365382
 20
55.0747523127
 30
0.0
 11
236.9996365382
 21
54.5582989296
 31
0.0
  0
HATCH
  5
AF
330
90
100
AcDbEntity
  8
FORMAT
100
AcDbHatch
 10
0.0
 20
0.0
 30
0.0
210
0.0
220
0.0
230
1.0
  2
SOLID
 70
     1
 71
     0
 91
        5
 92
        0
 93
        4
 72
     1
 10
240.9680329492058
 20
61.31745651073599
 11
240.9680329492058
 21
52.88066368865002
 72
     1
 10
240.9680329492058
 20
52.88066368865002
 11
232.5312401271199
 21
52.88066368865002
 72
     1
 10
232.5312401271199
 20
52.88066368865002
 11
232.5312401271199
 21
61.31745651073599
 72
     1
 10
232.5312401271199
 20
61.31745651073599
 11
240.9680329492058
 21
61.31745651073599
 97
        0
 92
        0
 93
        4
 72
     2
 10
236.7496365381628
 20
57.09906009969301
 40
3.000000000000011
 50
94.78019184719915
 51
265.2198081528016
 73
     0
 72
     1
 10
236.4996365381628
 20
60.08862528546836
 11
236.4996365381628
 21
60.84071748646695
 72
     2
 10
236.7496365381628
 20
57.09906009969301
 40
3.750000000000007
 50
93.82255372927435
 51
266.1774462707265
 73
     1
 72
     1
 10
236.4996365381628
 20
53.35740271291905
 11
236.4996365381628
 21
54.10949491391764
 97
        0
 92
        0
 93
        8
 72
     1
 10
237.7219830367044
 20
55.49795722557887
 11
237.7219830367044
 21
57.22158231636488
 72
     2
 10
236.7496365381628
 20
58.23204164361047
 40
1.402314431660656
 50
313.8988153445118
 51
439.730601033339
 73
     1
 72
     1
 10
236.9996365381628
 20
59.61189155039155
 11
236.9996365381628
 21
59.05532345967459
 72
     2
 10
236.7496365381628
 20
58.23204164361047
 40
0.8604027828068782
 50
286.8915805399266
 51
415.1604865505413
 73
     0
 72
     1
 10
237.2411672068353
 20
57.52586139012261
 11
237.2411672068353
 21
55.49795722557887
 72
     2
 10
236.7496365381628
 20
55.49795722557887
 40
0.4915306686725041
 50
0.0
 51
59.42836299135124
 73
     0
 72
     1
 10
236.9996365381628
 20
55.07475231274628
 11
236.9996365381628
 21
54.55829892958712
 72
     2
 10
236.7496365381628
 20
55.49795722557887
 40
0.9723464985416097
 50
284.8986481111874
 51
360.0000000000008
 73
     1
 97
        0
 92
        0
 93
        8
 72
     2
 10
236.7496365381628
 20
55.49795722557887
 40
0.4915306686725041
 50
120.5716370086484
 51
180.0
 73
     0
 72
     1
 10
236.2581058694904
 20
55.49795722557887
 11
236.2581058694904
 21
57.52586139012261
 72
     2
 10
236.7496365381628
 20
58.23204164361047
 40
0.8604027828068782
 50
124.839513449458
 51
253.108419460075
 73
     0
 72
     1
 10
236.4996365381628
 20
59.05532345967459
 11
236.4996365381628
 21
59.61189155039155
 72
     2
 10
236.7496365381628
 20
58.23204164361047
 40
1.402314431660656
 50
100.2693989666618
 51
226.1011846554898
 73
     1
 72
     1
 10
235.7772900396212
 20
57.22158231636488
 11
235.7772900396212
 21
55.49795722557887
 72
     2
 10
236.7496365381628
 20
55.49795722557887
 40
0.9723464985416097
 50
180.0
 51
255.1013518888143
 73
     1
 72
     1
 10
236.4996365381628
 20
54.55829892958712
 11
236.4996365381628
 21
55.07475231274628
 97
        0
 92
        0
 93
        4
 72
     2
 10
236.7496365381628
 20
57.09906009969301
 40
3.000000000000011
 50
274.7801918471999
 51
445.2198081528016
 73
     0
 72
     1
 10
236.9996365381628
 20
54.10949491391764
 11
236.9996365381628
 21
53.35740271291905
 72
     2
 10
236.7496365381628
 20
57.09906009969301
 40
3.750000000000007
 50
273.8225537292751
 51
446.1774462707265
 73
     1
 72
     1
 10
236.9996365381628
 20
60.84071748646695
 11
236.9996365381628
 21
60.08862528546836
 97
        0
 75
     0
 76
     1
 98
        1
 10
0.0
 20
0.0
  0
INSERT
  5
B5
330
90
100
AcDbEntity
  8
FORMAT
 62
     7
100
AcDbBlockReference
  2
SW_NOTE_0_1
 10
232.2514665163
 20
47.7232938825
 30
0.0
  0
INSERT
  5
BD
330
90
100
AcDbEntity
  8
0
  6
Continuous
 62
     7
370
     0
100
AcDbBlockReference
  2
SW_NOTE_0_2
 10
244.0723034979
 20
57.1176018272
 30
0.0
  0
ENDBLK
  5
92
330
90
100
AcDbEntity
  8
0
100
AcDbBlockEnd
  0
BLOCK
  5
B1
330
B0
100
AcDbEntity
  8
0
100
AcDbBlockBegin
  2
SW_NOTE_0_1
 70
     0
 10
0.0
 20
0.0
 30
0.0
  3
SW_NOTE_0_1
  1

  0
MTEXT
  5
B4
330
B0
100
AcDbEntity
  8
FORMAT
 62
     0
100
AcDbMText
 10
0.0
 20
3.8651911469
 30
0.0
 40
3.0
 41
0.0
 71
     1
 72
     1
  1
ECO
  7
SLDTEXTSTYLE1
 73
     1
 44
1.0
  0
ENDBLK
  5
B2
330
B0
100
AcDbEntity
  8
0
100
AcDbBlockEnd
  0
BLOCK
  5
B7
330
B6
100
AcDbEntity
  8
0
100
AcDbBlockBegin
  2
SW_NOTE_0_2
 70
     0
 10
0.0
 20
0.0
 30
0.0
  3
SW_NOTE_0_2
  1

  0
MTEXT
  5
BA
330
B6
100
AcDbEntity
  8
0
  6
Continuous
 62
     0
370
     0
100
AcDbMText
 10
0.0
 20
3.2226693494
 30
0.0
 40
2.5
 41
0.0
 71
     1
 72
     1
  1
ECO Schulte GmbH & Co. KG
  7
SLDTEXTSTYLE2
 73
     1
 44
1.0
  0
MTEXT
  5
BB
330
B6
100
AcDbEntity
  8
0
  6
Continuous
 62
     0
370
     0
100
AcDbMText
 10
0.0
 20
-0.2773307586
 30
0.0
 40
2.5
 41
0.0
 71
     1
 72
     1
  1
Postfach 206
  7
SLDTEXTSTYLE2
 73
     1
 44
1.0
  0
MTEXT
  5
BC
330
B6
100
AcDbEntity
  8
0
  6
Continuous
 62
     0
370
     0
100
AcDbMText
 10
0.0
 20
-3.7773308666
 30
0.0
 40
2.5
 41
0.0
 71
     1
 72
     1
  1
58682 Menden
  7
SLDTEXTSTYLE2
 73
     1
 44
1.0
  0
ENDBLK
  5
B8
330
B6
100
AcDbEntity
  8
0
100
AcDbBlockEnd
  0
BLOCK
  5
E0
330
DF
100
AcDbEntity
  8
0
100
AcDbBlockBegin
  2
SW_NOTE_0_3
 70
     0
 10
0.0
 20
0.0
 30
0.0
  3
SW_NOTE_0_3
  1

  0
MTEXT
  5
E2
330
DF
100
AcDbEntity
  8
FORMAT
 62
     0
100
AcDbMText
 10
0.0
 20
2.5781354795
 30
0.0
 40
2.0
 41
0.0
 71
     1
 72
     1
  1
Technische Änderungen und Irrtümer vorbehalten. Aus dem Gebrauch 
  7
SLDTEXTSTYLE0
 73
     1
 44
1.0
  0
MTEXT
  5
E3
330
DF
100
AcDbEntity
  8
FORMAT
 62
     0
100
AcDbMText
 10
0.0
 20
-0.4218645465
 30
0.0
 40
2.0
 41
0.0
 71
     1
 72
     1
  1
der Zeichnung können keinerlei Ansprüche (inkl. Schadenersatz-
  7
SLDTEXTSTYLE0
 73
     1
 44
1.0
  0
MTEXT
  5
E4
330
DF
100
AcDbEntity
  8
FORMAT
 62
     0
100
AcDbMText
 10
0.0
 20
-3.4218645726
 30
0.0
 40
2.0
 41
0.0
 71
     1
 72
     1
  1
ansprüche) erhoben und gegen ECO Schulte geltend gemacht werden. 
  7
SLDTEXTSTYLE0
 73
     1
 44
1.0
  0
MTEXT
  5
E5
330
DF
100
AcDbEntity
  8
FORMAT
 62
     0
100
AcDbMText
 10
0.0
 20
-6.4218645987
 30
0.0
 40
2.0
 41
0.0
 71
     1
 72
     1
  1
Die Zeichnung bleibt unser Eigentum. Sämtliche sich aus der 
  7
SLDTEXTSTYLE0
 73
     1
 44
1.0
  0
MTEXT
  5
E6
330
DF
100
AcDbEntity
  8
FORMAT
 62
     0
100
AcDbMText
 10
0.0
 20
-9.4218646248
 30
0.0
 40
2.0
 41
0.0
 71
     1
 72
     1
  1
Zeichnung ergebenden Ansprüche stehen ausschließlich ECO Schulte 
  7
SLDTEXTSTYLE0
 73
     1
 44
1.0
  0
MTEXT
  5
E7
330
DF
100
AcDbEntity
  8
FORMAT
 62
     0
100
AcDbMText
 10
0.0
 20
-12.4218646508
 30
0.0
 40
2.0
 41
0.0
 71
     1
 72
     1
  1
zu. 
  7
SLDTEXTSTYLE0
 73
     1
 44
1.0
  0
MTEXT
  5
E8
330
DF
100
AcDbEntity
  8
FORMAT
 62
     0
100
AcDbMText
 10
0.0
 20
-18.421864703
 30
0.0
 40
2.0
 41
0.0
 71
     1
 72
     1
  1
Technical changes and errors excepted. No claims (including 
  7
SLDTEXTSTYLE0
 73
     1
 44
1.0
  0
MTEXT
  5
E9
330
DF
100
AcDbEntity
  8
FORMAT
 62
     0
100
AcDbMText
 10
0.0
 20
-21.4218647291
 30
0.0
 40
2.0
 41
0.0
 71
     1
 72
     1
  1
compensation claims) may be raised against ECO Schulte by using of 
  7
SLDTEXTSTYLE0
 73
     1
 44
1.0
  0
MTEXT
  5
EA
330
DF
100
AcDbEntity
  8
FORMAT
 62
     0
100
AcDbMText
 10
0.0
 20
-24.4218647551
 30
0.0
 40
2.0
 41
0.0
 71
     1
 72
     1
  1
this drawing. The drawing remains the property of ECO Schulte. All 
  7
SLDTEXTSTYLE0
 73
     1
 44
1.0
  0
MTEXT
  5
EB
330
DF
100
AcDbEntity
  8
FORMAT
 62
     0
100
AcDbMText
 10
0.0
 20
-27.4218647812
 30
0.0
 40
2.0
 41
0.0
 71
     1
 72
     1
  1
claims resulting from this drawing are solely entitled to ECO Schulte.
  7
SLDTEXTSTYLE0
 73
     1
 44
1.0
  0
ENDBLK
  5
E1
330
DF
100
AcDbEntity
  8
0
100
AcDbBlockEnd
  0
BLOCK
  5
14E
330
14D
100
AcDbEntity
  8
0
100
AcDbBlockBegin
  2
_D
 70
     0
 10
0.0
 20
0.0
 30
0.0
  3
_D
  1

  0
SOLID
  5
150
330
14D
100
AcDbEntity
  8
FORMAT
 62
     7
100
AcDbTrace
 10
74.6732690696
 20
145.2247062048
 30
0.0
 11
71.3712690696
 21
145.7327062048
 31
0.0
 12
71.3712690696
 22
144.7167062048
 32
0.0
 13
71.3712690696
 23
144.7167062048
 33
0.0
  0
SOLID
  5
151
330
14D
100
AcDbEntity
  8
FORMAT
 62
     7
100
AcDbTrace
 10
44.6732690696
 20
145.2247062048
 30
0.0
 11
47.9752690696
 21
144.7167062048
 31
0.0
 12
47.9752690696
 22
145.7327062048
 32
0.0
 13
47.9752690696
 23
145.7327062048
 33
0.0
  0
LINE
  5
152
330
14D
100
AcDbEntity
  8
FORMAT
 62
     7
100
AcDbLine
 10
74.6732690696
 20
163.9391366303
 30
0.0
 11
74.6732690696
 21
144.2247062048
 31
0.0
  0
LINE
  5
153
330
14D
100
AcDbEntity
  8
FORMAT
 62
     7
100
AcDbLine
 10
44.6732690696
 20
163.9391366303
 30
0.0
 11
44.6732690696
 21
144.2247062048
 31
0.0
  0
LINE
  5
154
330
14D
100
AcDbEntity
  8
FORMAT
 62
     7
100
AcDbLine
 10
74.6732690696
 20
145.2247062048
 30
0.0
 11
44.6732690696
 21
145.2247062048
 31
0.0
  0
MTEXT
  5
155
330
14D
100
AcDbEntity
  8
FORMAT
 62
     7
100
AcDbMText
 10
54.4481824849
 20
149.736443294
 30
0.0
 40
3.5
 41
0.0
 71
     1
 72
     1
  1
%%c
  7
SLDTEXTSTYLE0
 73
     1
 44
1.0
  0
MTEXT
  5
156
330
14D
100
AcDbEntity
  8
FORMAT
 62
     7
100
AcDbMText
 10
59.5511340302
 20
149.7461656032
 30
0.0
 40
3.5
 41
0.0
 71
     1
 72
     1
  1
30
  7
SLDTEXTSTYLE0
 73
     1
 44
1.0
  0
ENDBLK
  5
14F
330
14D
100
AcDbEntity
  8
0
100
AcDbBlockEnd
  0
BLOCK
  5
264
330
263
100
AcDbEntity
  8
0
100
AcDbBlockBegin
  2
_D_1
 70
     0
 10
0.0
 20
0.0
 30
0.0
  3
_D_1
  1

  0
SOLID
  5
266
330
263
100
AcDbEntity
  8
FORMAT
 62
     7
100
AcDbTrace
 10
158.9009812593
 20
194.9391366303
 30
0.0
 11
158.3929812593
 21
191.6371366303
 31
0.0
 12
159.4089812593
 22
191.6371366303
 32
0.0
 13
159.4089812593
 23
191.6371366303
 33
0.0
  0
SOLID
  5
267
330
263
100
AcDbEntity
  8
FORMAT
 62
     7
100
AcDbTrace
 10
158.9009812593
 20
164.9391366303
 30
0.0
 11
159.4089812593
 21
168.2411366303
 31
0.0
 12
158.3929812593
 22
168.2411366303
 32
0.0
 13
158.3929812593
 23
168.2411366303
 33
0.0
  0
LINE
  5
268
330
263
100
AcDbEntity
  8
FORMAT
 62
     7
100
AcDbLine
 10
149.9009812593
 20
194.9391366303
 30
0.0
 11
159.9009812593
 21
194.9391366303
 31
0.0
  0
LINE
  5
269
330
263
100
AcDbEntity
  8
FORMAT
 62
     7
100
AcDbLine
 10
149.9009812593
 20
164.9391366303
 30
0.0
 11
159.9009812593
 21
164.9391366303
 31
0.0
  0
LINE
  5
26A
330
263
100
AcDbEntity
  8
FORMAT
 62
     7
100
AcDbLine
 10
158.9009812593
 20
194.9391366303
 30
0.0
 11
158.9009812593
 21
164.9391366303
 31
0.0
  0
MTEXT
  5
26B
330
263
100
AcDbEntity
  8
FORMAT
 62
     7
100
AcDbMText
 10
154.3892439373
 20
177.2655255855
 30
0.0
 40
3.5
 41
0.0
 71
     1
 72
     1
  1
30
  7
SLDTEXTSTYLE0
 11
-7.044195017643634E-15
 21
1.0
 31
0.0
 73
     1
 44
1.0
  0
ENDBLK
  5
265
330
263
100
AcDbEntity
  8
0
100
AcDbBlockEnd
  0
BLOCK
  5
26E
330
26D
100
AcDbEntity
  8
0
100
AcDbBlockBegin
  2
_D_2
 70
     0
 10
0.0
 20
0.0
 30
0.0
  3
_D_2
  1

  0
SOLID
  5
270
330
26D
100
AcDbEntity
  8
FORMAT
 62
     7
100
AcDbTrace
 10
167.3784002253
 20
204.9391366303
 30
0.0
 11
166.8704002253
 21
201.6371366303
 31
0.0
 12
167.8864002253
 22
201.6371366303
 32
0.0
 13
167.8864002253
 23
201.6371366303
 33
0.0
  0
SOLID
  5
271
330
26D
100
AcDbEntity
  8
FORMAT
 62
     7
100
AcDbTrace
 10
167.3784002253
 20
164.9391366303
 30
0.0
 11
167.8864002253
 21
168.2411366303
 31
0.0
 12
166.8704002253
 22
168.2411366303
 32
0.0
 13
166.8704002253
 23
168.2411366303
 33
0.0
  0
LINE
  5
272
330
26D
100
AcDbEntity
  8
FORMAT
 62
     7
100
AcDbLine
 10
139.0009812593
 20
204.9391366303
 30
0.0
 11
168.3784002253
 21
204.9391366303
 31
0.0
  0
LINE
  5
273
330
26D
100
AcDbEntity
  8
FORMAT
 62
     7
100
AcDbLine
 10
139.773617727
 20
164.9391366303
 30
0.0
 11
168.3784002253
 21
164.9391366303
 31
0.0
  0
LINE
  5
274
330
26D
100
AcDbEntity
  8
FORMAT
 62
     7
100
AcDbLine
 10
167.3784002253
 20
204.9391366303
 30
0.0
 11
167.3784002253
 21
164.9391366303
 31
0.0
  0
MTEXT
  5
275
330
26D
100
AcDbEntity
  8
FORMAT
 62
     7
100
AcDbMText
 10
162.8666629033
 20
182.2655255855
 30
0.0
 40
3.5
 41
0.0
 71
     1
 72
     1
  1
40
  7
SLDTEXTSTYLE0
 11
-7.044195017643634E-15
 21
1.0
 31
0.0
 73
     1
 44
1.0
  0
ENDBLK
  5
26F
330
26D
100
AcDbEntity
  8
0
100
AcDbBlockEnd
  0
BLOCK
  5
279
330
278
100
AcDbEntity
  8
0
100
AcDbBlockBegin
  2
_D_3
 70
     0
 10
0.0
 20
0.0
 30
0.0
  3
_D_3
  1

  0
SOLID
  5
27B
330
278
100
AcDbEntity
  8
FORMAT
 62
     7
100
AcDbTrace
 10
138.0009812593
 20
212.5125350449
 30
0.0
 11
141.3029812593
 21
212.0045350449
 31
0.0
 12
141.3029812593
 22
213.0205350449
 32
0.0
 13
141.3029812593
 23
213.0205350449
 33
0.0
  0
SOLID
  5
27C
330
278
100
AcDbEntity
  8
FORMAT
 62
     7
100
AcDbTrace
 10
129.8009812593
 20
212.5125350449
 30
0.0
 11
126.4989812593
 21
213.0205350449
 31
0.0
 12
126.4989812593
 22
212.0045350449
 32
0.0
 13
126.4989812593
 23
212.0045350449
 33
0.0
  0
LINE
  5
27D
330
278
100
AcDbEntity
  8
FORMAT
 62
     7
100
AcDbLine
 10
138.0009812593
 20
205.9391366303
 30
0.0
 11
138.0009812593
 21
213.5125350449
 31
0.0
  0
LINE
  5
27E
330
278
100
AcDbEntity
  8
FORMAT
 62
     7
100
AcDbLine
 10
129.8009812593
 20
205.9391366303
 30
0.0
 11
129.8009812593
 21
213.5125350449
 31
0.0
  0
LINE
  5
27F
330
278
100
AcDbEntity
  8
FORMAT
 62
     7
100
AcDbLine
 10
138.0009812593
 20
212.5125350449
 30
0.0
 11
153.4670065708
 21
212.5125350449
 31
0.0
  0
LINE
  5
280
330
278
100
AcDbEntity
  8
FORMAT
 62
     7
100
AcDbLine
 10
138.0009812593
 20
212.5125350449
 30
0.0
 11
129.8009812593
 21
212.5125350449
 31
0.0
  0
LINE
  5
281
330
278
100
AcDbEntity
  8
FORMAT
 62
     7
100
AcDbLine
 10
129.8009812593
 20
212.5125350449
 30
0.0
 11
123.4509812593
 21
212.5125350449
 31
0.0
  0
MTEXT
  5
282
330
278
100
AcDbEntity
  8
FORMAT
 62
     7
100
AcDbMText
 10
141.6800278789
 20
217.0242721341
 30
0.0
 40
3.5
 41
0.0
 71
     1
 72
     1
  1
%%c
  7
SLDTEXTSTYLE0
 73
     1
 44
1.0
  0
MTEXT
  5
283
330
278
100
AcDbEntity
  8
FORMAT
 62
     7
100
AcDbMText
 10
146.7829794242
 20
217.0339944433
 30
0.0
 40
3.5
 41
0.0
 71
     1
 72
     1
  1
8,2
  7
SLDTEXTSTYLE0
 73
     1
 44
1.0
  0
ENDBLK
  5
27A
330
278
100
AcDbEntity
  8
0
100
AcDbBlockEnd
  0
BLOCK
  5
286
330
285
100
AcDbEntity
  8
0
100
AcDbBlockBegin
  2
_D_4
 70
     0
 10
0.0
 20
0.0
 30
0.0
  3
_D_4
  1

  0
SOLID
  5
288
330
285
100
AcDbEntity
  8
FORMAT
 62
     7
100
AcDbTrace
 10
114.4002222649
 20
175.4391366303
 30
0.0
 11
114.9082222649
 21
178.7411366303
 31
0.0
 12
113.8922222649
 22
178.7411366303
 32
0.0
 13
113.8922222649
 23
178.7411366303
 33
0.0
  0
SOLID
  5
289
330
285
100
AcDbEntity
  8
FORMAT
 62
     7
100
AcDbTrace
 10
114.4002222649
 20
164.9391366303
 30
0.0
 11
113.8922222649
 21
161.6371366303
 31
0.0
 12
114.9082222649
 22
161.6371366303
 32
0.0
 13
114.9082222649
 23
161.6371366303
 33
0.0
  0
LINE
  5
28A
330
285
100
AcDbEntity
  8
FORMAT
 62
     7
100
AcDbLine
 10
128.6938016492
 20
175.4391366303
 30
0.0
 11
113.4002222649
 21
175.4391366303
 31
0.0
  0
LINE
  5
28B
330
285
100
AcDbEntity
  8
FORMAT
 62
     7
100
AcDbLine
 10
134.3803122387
 20
164.9391366303
 30
0.0
 11
113.4002222649
 21
164.9391366303
 31
0.0
  0
LINE
  5
28C
330
285
100
AcDbEntity
  8
FORMAT
 62
     7
100
AcDbLine
 10
114.4002222649
 20
175.4391366303
 30
0.0
 11
114.4002222649
 21
189.6179559589
 31
0.0
  0
LINE
  5
28D
330
285
100
AcDbEntity
  8
FORMAT
 62
     7
100
AcDbLine
 10
114.4002222649
 20
175.4391366303
 30
0.0
 11
114.4002222649
 21
164.9391366303
 31
0.0
  0
LINE
  5
28E
330
285
100
AcDbEntity
  8
FORMAT
 62
     7
100
AcDbLine
 10
114.4002222649
 20
164.9391366303
 30
0.0
 11
114.4002222649
 21
158.5891366303
 31
0.0
  0
MTEXT
  5
28F
330
285
100
AcDbEntity
  8
FORMAT
 62
     7
100
AcDbMText
 10
109.8884849429
 20
180.2603173018
 30
0.0
 40
3.5
 41
0.0
 71
     1
 72
     1
  1
10,5
  7
SLDTEXTSTYLE0
 11
-7.044195017643634E-15
 21
1.0
 31
0.0
 73
     1
 44
1.0
  0
ENDBLK
  5
287
330
285
100
AcDbEntity
  8
0
100
AcDbBlockEnd
  0
ENDSEC
  0
SECTION
  2
ENTITIES
  0
LINE
  5
BE
330
1F
100
AcDbEntity
  8
FORMAT
  6
Continuous
 62
     7
370
    18
100
AcDbLine
 10
168.2233544162
 20
35.6464717326
 30
0.0
 11
100.034011087
 21
35.6464717326
 31
0.0
  0
LINE
  5
BF
330
1F
100
AcDbEntity
  8
FORMAT
  6
Continuous
 62
     7
370
    18
100
AcDbLine
 10
168.2233544162
 20
48.7420674192
 30
0.0
 11
199.7748262501
 21
48.7420674192
 31
0.0
  0
LINE
  5
C0
330
1F
100
AcDbEntity
  8
FORMAT
  6
Continuous
 62
     7
370
    18
100
AcDbLine
 10
154.5410273733
 20
35.6464717326
 30
0.0
 11
154.5410273733
 21
25.9765524102
 31
0.0
  0
LINE
  5
C1
330
1F
100
AcDbEntity
  8
BEMASSUNG
  6
Continuous
 62
     7
370
    18
100
AcDbLine
 10
168.2233544162
 20
40.5638075942
 30
0.0
 11
199.7748262501
 21
40.5638075942
 31
0.0
  0
LINE
  5
C2
330
1F
100
AcDbEntity
  8
FORMAT
100
AcDbLine
 10
9.9438597858
 20
287.0
 30
0.0
 11
9.9438597858
 21
10.0
 31
0.0
  0
LINE
  5
C3
330
1F
100
AcDbEntity
  8
FORMAT
 62
     7
370
    18
100
AcDbLine
 10
100.034011087
 20
52.6963884738
 30
0.0
 11
100.034011087
 21
10.0
 31
0.0
  0
LINE
  5
C4
330
1F
100
AcDbEntity
  8
FORMAT
 62
     7
100
AcDbLine
 10
185.0302857672
 20
10.0
 30
0.0
 11
185.0302857672
 21
19.3470401503
 31
0.0
  0
LINE
  5
C5
330
1F
100
AcDbEntity
  8
FORMAT
 62
     7
100
AcDbLine
 10
100.034011087
 20
25.9765524102
 30
0.0
 11
199.7748262501
 21
25.9765524102
 31
0.0
  0
LINE
  5
C6
330
1F
100
AcDbEntity
  8
FORMAT
 62
     7
100
AcDbLine
 10
168.2233544162
 20
19.3470401503
 30
0.0
 11
199.7748262501
 21
19.3470401503
 31
0.0
  0
LINE
  5
C7
330
1F
100
AcDbEntity
  8
FORMAT
100
AcDbLine
 10
9.9438597858
 20
10.0
 30
0.0
 11
199.9438597858
 21
10.0
 31
0.0
  0
LINE
  5
C8
330
1F
100
AcDbEntity
  8
FORMAT
 62
     7
100
AcDbLine
 10
100.034011087
 20
52.6963884738
 30
0.0
 11
199.7882081366
 21
52.6963884738
 31
0.0
  0
LINE
  5
C9
330
1F
100
AcDbEntity
  8
FORMAT
 62
     7
100
AcDbLine
 10
168.2233544162
 20
10.0
 30
0.0
 11
168.2233544162
 21
52.6963884738
 31
0.0
  0
LINE
  5
CA
330
1F
100
AcDbEntity
  8
FORMAT
100
AcDbLine
 10
199.9438597858
 20
10.0
 30
0.0
 11
199.9438597858
 21
287.0
 31
0.0
  0
LINE
  5
CB
330
1F
100
AcDbEntity
  8
FORMAT
100
AcDbLine
 10
199.9438597858
 20
287.0
 30
0.0
 11
9.9438597858
 21
287.0
 31
0.0
  0
INSERT
  5
CC
330
1F
100
AcDbEntity
  8
FORMAT
100
AcDbBlockReference
  2
Block1
 10
175.6328999998
 20
27.0956685316
 30
0.0
  0
INSERT
  5
CD
330
1F
100
AcDbEntity
  8
FORMAT
100
AcDbBlockReference
  2
Block2
 10
-130.7567167495
 20
-36.9711154434
 30
0.0
  0
MTEXT
  5
CF
330
1F
100
AcDbEntity
  8
0
  6
Continuous
 62
     7
370
     0
100
AcDbMText
 10
101.379344253
 20
31.2497388993
 30
0.0
 40
3.175
 41
0.0
 71
     1
 72
     1
  1
D054-49159
  7
SLDTEXTSTYLE3
 73
     1
 44
1.0
  0
MTEXT
  5
D0
330
1F
100
AcDbEntity
  8
BEMASSUNG
 62
     7
100
AcDbMText
 10
169.1138237549
 20
47.9795870073
 30
0.0
 40
2.0
 41
0.0
 71
     1
 72
     1
  1
Ausführung:
  7
SLDTEXTSTYLE0
 73
     1
 44
1.0
  0
MTEXT
  5
D1
330
1F
100
AcDbEntity
  8
FORMAT
100
AcDbMText
 10
157.9048085267
 20
34.4345411691
 30
0.0
 40
2.0
 41
0.0
 71
     1
 72
     1
  1
Index:
  7
SLDTEXTSTYLE0
 73
     1
 44
1.0
  0
MTEXT
  5
D2
330
1F
100
AcDbEntity
  8
FORMAT
100
AcDbMText
 10
170.7771570289
 20
51.6009600552
 30
0.0
 40
1.8
 41
0.0
 71
     1
 72
     1
  1
KATALOGZEICHNUNG
  7
SLDTEXTSTYLE3
 73
     1
 44
1.0
  0
MTEXT
  5
D3
330
1F
100
AcDbEntity
  8
FORMAT
100
AcDbMText
 10
101.6738581533
 20
34.7696723378
 30
0.0
 40
2.0
 41
0.0
 71
     1
 72
     1
  1
Zeichnungsnummer:
  7
SLDTEXTSTYLE0
 73
     1
 44
1.0
  0
MTEXT
  5
D4
330
1F
100
AcDbEntity
  8
FORMAT
100
AcDbMText
 10
178.7654032586
 20
14.2806067945
 30
0.0
 40
2.1166666667
 41
0.0
 71
     1
 72
     1
  1
1
  7
SLDTEXTSTYLE0
 73
     1
 44
1.0
  0
MTEXT
  5
D5
330
1F
100
AcDbEntity
  8
FORMAT
100
AcDbMText
 10
172.6928815371
 20
14.2806067945
 30
0.0
 40
2.1166666667
 41
0.0
 71
     1
 72
     1
  1
1
  7
SLDTEXTSTYLE0
 73
     1
 44
1.0
  0
MTEXT
  5
D6
330
1F
100
AcDbEntity
  8
FORMAT
100
AcDbMText
 10
190.3665335114
 20
14.1724992936
 30
0.0
 40
2.1166666667
 41
0.0
 71
     1
 72
     1
  1
A4
  7
SLDTEXTSTYLE0
 73
     1
 44
1.0
  0
MTEXT
  5
D7
330
1F
100
AcDbEntity
  8
FORMAT
100
AcDbMText
 10
183.0445761222
 20
23.7012230636
 30
0.0
 40
2.1166666667
 41
0.0
 71
     1
 72
     1
  1
1:1
  7
SLDTEXTSTYLE0
 73
     1
 44
1.0
  0
MTEXT
  5
D8
330
1F
100
AcDbEntity
  8
FORMAT
100
AcDbMText
 10
176.4699079998
 20
14.3853488894
 30
0.0
 40
2.5
 41
0.0
 71
     2
 72
     1
  1
/
  7
SLDTEXTSTYLE0
 73
     1
 44
1.0
  0
MTEXT
  5
D9
330
1F
100
AcDbEntity
  8
FORMAT
100
AcDbMText
 10
170.4739006917
 20
17.8898077508
 30
0.0
 40
2.0
 41
0.0
 71
     1
 72
     1
  1
Blatt / von
  7
SLDTEXTSTYLE0
 73
     1
 44
1.0
  0
MTEXT
  5
DA
330
1F
100
AcDbEntity
  8
FORMAT
100
AcDbMText
 10
101.4386342429
 20
51.292111694
 30
0.0
 40
2.0
 41
0.0
 71
     1
 72
     1
  1
Benennung:
  7
SLDTEXTSTYLE0
 73
     1
 44
1.0
  0
MTEXT
  5
DB
330
1F
100
AcDbEntity
  8
FORMAT
100
AcDbMText
 10
187.8238638594
 20
17.8898077508
 30
0.0
 40
2.0
 41
0.0
 71
     1
 72
     1
  1
Format
  7
SLDTEXTSTYLE0
 73
     1
 44
1.0
  0
MTEXT
  5
DC
330
1F
100
AcDbEntity
  8
FORMAT
100
AcDbMText
 10
169.1523306895
 20
23.5727761737
 30
0.0
 40
2.0
 41
0.0
 71
     1
 72
     1
  1
Maßstab:
  7
SLDTEXTSTYLE0
 73
     1
 44
1.0
  0
MTEXT
  5
DD
330
1F
100
AcDbEntity
  8
FORMAT
100
AcDbMText
 10
101.3063537626
 20
47.9174905769
 30
0.0
 40
3.5
 41
0.0
 71
     1
 72
     1
  1
Achsverlängerung 30mm
  7
SLDTEXTSTYLE3
 73
     1
 44
1.0
  0
MTEXT
  5
DE
330
1F
100
AcDbEntity
  8
FORMAT
100
AcDbMText
 10
101.3063537626
 20
43.3217919868
 30
0.0
 40
2.5
 41
0.0
 71
     1
 72
     1
  1
AV 30-ER
  7
SLDTEXTSTYLE3
 73
     1
 44
1.0
  0
INSERT
  5
EC
330
1F
100
AcDbEntity
  8
FORMAT
100
AcDbBlockReference
  2
SW_NOTE_0_3
 10
11.7828650021
 20
40.9161213672
 30
0.0
  0
LINE
  5
ED
330
1F
100
AcDbEntity
  8
0
  6
Continuous
 62
     7
370
    25
100
AcDbLine
 10
74.6732690696
 20
164.9391366303
 30
0.0
 11
74.6732690696
 21
194.9391366303
 31
0.0
  0
LINE
  5
EE
330
1F
100
AcDbEntity
  8
0
  6
Continuous
 62
     7
370
    25
100
AcDbLine
 10
44.6732690696
 20
194.9391366303
 30
0.0
 11
44.6732690696
 21
164.9391366303
 31
0.0
  0
ARC
  5
EF
330
1F
100
AcDbEntity
  8
0
  6
Continuous
 62
     7
370
    25
100
AcDbCircle
 10
70.5172617673
 20
195.9391366303
 30
0.0
 40
1.0
100
AcDbArc
 50
192.2984589193
 51
270.0
  0
ARC
  5
F0
330
1F
100
AcDbEntity
  8
0
  6
Continuous
 62
     7
370
    25
100
AcDbCircle
 10
48.8292763719
 20
195.9391366303
 30
0.0
 40
1.000000000000006
100
AcDbArc
 50
270.0
 51
347.6520249574
  0
LINE
  5
F1
330
1F
100
AcDbEntity
  8
0
  6
Continuous
 62
     7
370
    25
100
AcDbLine
 10
69.5414412724
 20
195.7205631602
 30
0.0
 11
67.5465908259
 21
204.6265660184
 31
0.0
  0
ARC
  5
F2
330
1F
100
AcDbEntity
  8
0
  6
Continuous
 62
     7
370
    25
100
AcDbCircle
 10
67.1562626279
 20
204.5391366303
 30
0.0
 40
0.4000000000000142
100
AcDbArc
 50
12.6252598463
 51
90.0
  0
LINE
  5
F3
330
1F
100
AcDbEntity
  8
0
  6
Continuous
 62
     7
370
    25
100
AcDbLine
 10
51.7999473133
 20
204.6265660184
 30
0.0
 11
49.8050968667
 21
195.7205631602
 31
0.0
  0
ARC
  5
F4
330
1F
100
AcDbEntity
  8
0
  6
Continuous
 62
     7
370
    25
100
AcDbCircle
 10
52.1902755112
 20
204.5391366303
 30
0.0
 40
0.4000000000000004
100
AcDbArc
 50
90.0
 51
167.3747401537
  0
LINE
  5
F5
330
1F
100
AcDbEntity
  8
0
  6
Continuous
 62
     7
370
    25
100
AcDbLine
 10
59.6732690696
 20
164.9391366303
 30
0.0
 11
74.6732690696
 21
164.9391366303
 31
0.0
  0
LINE
  5
F6
330
1F
100
AcDbEntity
  8
0
  6
Continuous
 62
     7
370
    25
100
AcDbLine
 10
44.6732690696
 20
164.9391366303
 30
0.0
 11
59.6732690696
 21
164.9391366303
 31
0.0
  0
LINE
  5
F7
330
1F
100
AcDbEntity
  8
0
  6
Continuous
 62
     7
370
    25
100
AcDbLine
 10
59.6732690696
 20
194.9391366303
 30
0.0
 11
74.6732690696
 21
194.9391366303
 31
0.0
  0
LINE
  5
F8
330
1F
100
AcDbEntity
  8
0
  6
Continuous
 62
     7
370
    25
100
AcDbLine
 10
44.6732690696
 20
194.9391366303
 30
0.0
 11
59.6732690696
 21
194.9391366303
 31
0.0
  0
ELLIPSE
  5
F9
330
1F
100
AcDbEntity
  8
0
  6
Continuous
 62
     7
370
    25
100
AcDbEllipse
 10
59.6732690696
 20
195.9391366303
 30
0.0
 11
0.3999999999999986
 21
0.0
 31
0.0
210
0.0
220
0.0
230
1.0
 40
0.5464336754
 41
3.939227909517593
 42
5.485550051251819
  0
ARC
  5
FA
330
1F
100
AcDbEntity
  8
0
  6
Continuous
 62
     7
370
    25
100
AcDbCircle
 10
60.7911913886
 20
195.766069292
 30
0.0
 40
0.8387268099340696
100
AcDbArc
 50
178.8636873101
 51
260.3800924999
  0
ARC
  5
FB
330
1F
100
AcDbEntity
  8
0
  6
Continuous
 62
     7
370
    25
100
AcDbCircle
 10
58.5553467506
 20
195.766069292
 30
0.0
 40
0.8387268099340696
100
AcDbArc
 50
279.6199075001
 51
1.1363126899
  0
LINE
  5
FC
330
1F
100
AcDbEntity
  8
0
  6
Continuous
 62
     7
370
    25
100
AcDbLine
 10
56.8550494358
 20
195.7827021653
 30
0.0
 11
59.3939086202
 21
195.7827021653
 31
0.0
  0
ELLIPSE
  5
FD
330
1F
100
AcDbEntity
  8
0
  6
Continuous
 62
     7
370
    25
100
AcDbEllipse
 10
56.3302206428
 20
195.9391366303
 30
0.0
 11
0.0
 21
1.0
 31
0.0
210
0.0
220
0.0
230
1.0
 40
0.5313708499
 41
3.14159265358978
 42
4.555309347705204
  0
LINE
  5
FE
330
1F
100
AcDbEntity
  8
0
  6
Continuous
 62
     7
370
    25
100
AcDbLine
 10
59.9526295189
 20
195.7827021653
 30
0.0
 11
62.4914887034
 21
195.7827021653
 31
0.0
  0
ELLIPSE
  5
FF
330
1F
100
AcDbEntity
  8
0
  6
Continuous
 62
     7
370
    25
100
AcDbEllipse
 10
63.0163174963
 20
195.9391366303
 30
0.0
 11
0.0
 21
1.0
 31
0.0
210
0.0
220
0.0
230
1.0
 40
0.5313708499
 41
1.727875959474389
 42
3.141592653589793
  0
ARC
  5
100
330
1F
100
AcDbEntity
  8
0
  6
Continuous
 62
     7
370
    25
100
AcDbCircle
 10
59.6732690696
 20
203.0870915963
 30
0.0
 40
1.540166364579508
100
AcDbArc
 50
79.5496568302
 51
100.4503431698
  0
LINE
  5
101
330
1F
100
AcDbEntity
  8
0
  6
Continuous
 62
     7
370
    25
100
AcDbLine
 10
59.9526295189
 20
204.6017104164
 30
0.0
 11
59.9526295189
 21
195.7827021653
 31
0.0
  0
LINE
  5
102
330
1F
100
AcDbEntity
  8
0
  6
Continuous
 62
     7
370
    25
100
AcDbLine
 10
59.3939086202
 20
195.7827021653
 30
0.0
 11
59.3939086202
 21
204.6017104164
 31
0.0
  0
LINE
  5
103
330
1F
100
AcDbEntity
  8
0
  6
Continuous
 62
     7
370
    25
100
AcDbLine
 10
59.3939086202
 20
204.6017104164
 30
0.0
 11
57.4336203244
 21
204.6017104164
 31
0.0
  0
LINE
  5
104
330
1F
100
AcDbEntity
  8
0
  6
Continuous
 62
     7
370
    25
100
AcDbLine
 10
57.4336203244
 20
204.6017104164
 30
0.0
 11
56.8550494358
 21
195.7827021653
 31
0.0
  0
LINE
  5
105
330
1F
100
AcDbEntity
  8
0
  6
Continuous
 62
     7
370
    25
100
AcDbLine
 10
61.9129178148
 20
204.6017104164
 30
0.0
 11
59.9526295189
 21
204.6017104164
 31
0.0
  0
LINE
  5
106
330
1F
100
AcDbEntity
  8
0
  6
Continuous
 62
     7
370
    25
100
AcDbLine
 10
62.4914887034
 20
195.7827021653
 30
0.0
 11
61.9129178148
 21
204.6017104164
 31
0.0
  0
LINE
  5
107
330
1F
100
AcDbEntity
  8
0
  6
Continuous
 62
     7
370
    25
100
AcDbLine
 10
66.3613382443
 20
195.7827021653
 30
0.0
 11
66.3613382443
 21
194.9391366303
 31
0.0
  0
ELLIPSE
  5
108
330
1F
100
AcDbEntity
  8
0
  6
Continuous
 62
     7
370
    25
100
AcDbEllipse
 10
66.326650745
 20
195.9391366303
 30
0.0
 11
0.4272971872166806
 21
-0.1808886101656526
 31
0.0
210
0.0
220
0.0
230
1.0
 40
0.2871383489
 41
4.914023598964635
 42
6.460345740699069
  0
ARC
  5
109
330
1F
100
AcDbEntity
  8
0
  6
Continuous
 62
     7
370
    25
100
AcDbCircle
 10
67.7441019211
 20
195.9391366303
 30
0.0
 40
1.000000000000005
100
AcDbArc
 50
189.0
 51
270.0
  0
LINE
  5
10A
330
1F
100
AcDbEntity
  8
0
  6
Continuous
 62
     7
370
    25
100
AcDbLine
 10
62.7708491527
 20
195.7827021653
 30
0.0
 11
66.3613382443
 21
195.7827021653
 31
0.0
  0
ELLIPSE
  5
10B
330
1F
100
AcDbEntity
  8
0
  6
Continuous
 62
     7
370
    25
100
AcDbEllipse
 10
63.0163174963
 20
195.9391366303
 30
0.0
 11
0.0
 21
1.0
 31
0.0
210
0.0
220
0.0
230
1.0
 40
0.2485281374
 41
1.72787595947439
 42
3.141592653589793
  0
ARC
  5
10C
330
1F
100
AcDbEntity
  8
0
  6
Continuous
 62
     7
370
    25
100
AcDbCircle
 10
62.631168928
 20
197.7032842062
 30
0.0
 40
1.925654678540436
100
AcDbArc
 50
265.8403122795
 51
274.1596877205
  0
ELLIPSE
  5
10D
330
1F
100
AcDbEntity
  8
0
  6
Continuous
 62
     7
370
    25
100
AcDbEllipse
 10
56.3302206428
 20
195.9391366303
 30
0.0
 11
0.0
 21
1.0
 31
0.0
210
0.0
220
0.0
230
1.0
 40
0.2485281374
 41
3.141592653589764
 42
4.555309347705196
  0
ARC
  5
10E
330
1F
100
AcDbEntity
  8
0
  6
Continuous
 62
     7
370
    25
100
AcDbCircle
 10
56.7153692111
 20
197.7032842062
 30
0.0
 40
1.92565467854038
100
AcDbArc
 50
265.8403122795
 51
274.1596877205
  0
LINE
  5
10F
330
1F
100
AcDbEntity
  8
0
  6
Continuous
 62
     7
370
    25
100
AcDbLine
 10
52.9851998948
 20
195.7827021653
 30
0.0
 11
56.5756889864
 21
195.7827021653
 31
0.0
  0
LINE
  5
110
330
1F
100
AcDbEntity
  8
0
  6
Continuous
 62
     7
370
    25
100
AcDbLine
 10
52.9851998948
 20
195.7827021653
 30
0.0
 11
52.9851998948
 21
194.9391366303
 31
0.0
  0
ELLIPSE
  5
111
330
1F
100
AcDbEntity
  8
0
  6
Continuous
 62
     7
370
    25
100
AcDbEllipse
 10
53.0198873941
 20
195.9391366303
 30
0.0
 11
0.4272971872166877
 21
0.1808886101656242
 31
0.0
210
0.0
220
0.0
230
1.0
 40
0.2871383489
 41
2.964432220070505
 42
4.510754361804763
  0
ARC
  5
112
330
1F
100
AcDbEntity
  8
0
  6
Continuous
 62
     7
370
    25
100
AcDbCircle
 10
51.602436218
 20
195.9391366303
 30
0.0
 40
1.000000000000012
100
AcDbArc
 50
270.0
 51
351.0
  0
ARC
  5
113
330
1F
100
AcDbEntity
  8
0
  6
Continuous
 62
     7
370
    25
100
AcDbCircle
 10
59.7293333681
 20
204.6083635657
 30
0.0
 40
0.3354907239735705
100
AcDbArc
 50
99.6199075001
 51
181.13631269
  0
ARC
  5
114
330
1F
100
AcDbEntity
  8
0
  6
Continuous
 62
     7
370
    25
100
AcDbCircle
 10
59.617204771
 20
204.6083635657
 30
0.0
 40
0.3354907239736116
100
AcDbArc
 50
358.8636873101
 51
80.3800924999
  0
ARC
  5
115
330
1F
100
AcDbEntity
  8
0
  6
Continuous
 62
     7
370
    25
100
AcDbCircle
 10
57.7690450722
 20
204.6083635657
 30
0.0
 40
0.3354907239735776
100
AcDbArc
 50
99.6199075001
 51
181.13631269
  0
LINE
  5
116
330
1F
100
AcDbEntity
  8
0
  6
Continuous
 62
     7
370
    25
100
AcDbLine
 10
57.7129807737
 20
204.9391366303
 30
0.0
 11
59.6732690696
 21
204.9391366303
 31
0.0
  0
LINE
  5
117
330
1F
100
AcDbEntity
  8
0
  6
Continuous
 62
     7
370
    25
100
AcDbLine
 10
59.6732690696
 20
204.9391366303
 30
0.0
 11
61.6335573654
 21
204.9391366303
 31
0.0
  0
ARC
  5
118
330
1F
100
AcDbEntity
  8
0
  6
Continuous
 62
     7
370
    25
100
AcDbCircle
 10
61.5774930669
 20
204.6083635657
 30
0.0
 40
0.3354907239736116
100
AcDbArc
 50
358.8636873101
 51
80.3800924999
  0
ELLIPSE
  5
119
330
1F
100
AcDbEntity
  8
0
  6
Continuous
 62
     7
370
    25
100
AcDbEllipse
 10
62.2004885685
 20
204.5391366303
 30
0.0
 11
0.4025764986539783
 21
-0.02746477246384415
 31
0.0
210
0.0
220
0.0
230
1.0
 40
0.1534013253
 41
1.601656058263213
 42
2.376865614607747
  0
LINE
  5
11A
330
1F
100
AcDbEntity
  8
0
  6
Continuous
 62
     7
370
    25
100
AcDbLine
 10
62.1922782641
 20
204.6017104164
 30
0.0
 11
62.7708491527
 21
195.7827021653
 31
0.0
  0
ELLIPSE
  5
11B
330
1F
100
AcDbEntity
  8
0
  6
Continuous
 62
     7
370
    25
100
AcDbEllipse
 10
57.1460495707
 20
204.5391366303
 30
0.0
 11
0.4025764986539855
 21
0.02746477246384416
 31
0.0
210
0.0
220
0.0
230
1.0
 40
0.1534013253
 41
0.7647270389820152
 42
1.539936595326563
  0
LINE
  5
11C
330
1F
100
AcDbEntity
  8
0
  6
Continuous
 62
     7
370
    25
100
AcDbLine
 10
56.5756889864
 20
195.7827021653
 30
0.0
 11
57.154259875
 21
204.6017104164
 31
0.0
  0
ARC
  5
11D
330
1F
100
AcDbEntity
  8
0
  6
Continuous
 62
     7
370
    25
100
AcDbCircle
 10
65.1620822264
 20
203.9519602205
 30
0.0
 40
0.6791144581834917
100
AcDbArc
 50
73.0896296931
 51
106.9103703069
  0
LINE
  5
11E
330
1F
100
AcDbEntity
  8
0
  6
Continuous
 62
     7
370
    25
100
AcDbLine
 10
65.3596198945
 20
204.6017104164
 30
0.0
 11
66.7564135806
 21
195.7827021653
 31
0.0
  0
LINE
  5
11F
330
1F
100
AcDbEntity
  8
0
  6
Continuous
 62
     7
370
    25
100
AcDbLine
 10
66.3613382443
 20
195.7827021653
 30
0.0
 11
64.9645445583
 21
204.6017104164
 31
0.0
  0
ARC
  5
120
330
1F
100
AcDbEntity
  8
0
  6
Continuous
 62
     7
370
    25
100
AcDbCircle
 10
54.1844559128
 20
203.9519602205
 30
0.0
 40
0.6791144581833516
100
AcDbArc
 50
73.0896296931
 51
106.9103703069
  0
LINE
  5
121
330
1F
100
AcDbEntity
  8
0
  6
Continuous
 62
     7
370
    25
100
AcDbLine
 10
54.3819935809
 20
204.6017104164
 30
0.0
 11
52.9851998948
 21
195.7827021653
 31
0.0
  0
LINE
  5
122
330
1F
100
AcDbEntity
  8
0
  6
Continuous
 62
     7
370
    25
100
AcDbLine
 10
52.5901245586
 20
195.7827021653
 30
0.0
 11
53.9869182447
 21
204.6017104164
 31
0.0
  0
LINE
  5
123
330
1F
100
AcDbEntity
  8
0
  6
Continuous
 62
     7
370
    25
100
AcDbLine
 10
64.9645445583
 20
204.6017104164
 30
0.0
 11
62.1922782641
 21
204.6017104164
 31
0.0
  0
LINE
  5
124
330
1F
100
AcDbEntity
  8
0
  6
Continuous
 62
     7
370
    25
100
AcDbLine
 10
57.154259875
 20
204.6017104164
 30
0.0
 11
54.3819935809
 21
204.6017104164
 31
0.0
  0
LINE
  5
125
330
1F
100
AcDbEntity
  8
0
  6
Continuous
 62
     7
370
    25
100
AcDbLine
 10
62.1922782641
 20
204.9391366303
 30
0.0
 11
62.1922782641
 21
204.6017104164
 31
0.0
  0
LINE
  5
126
330
1F
100
AcDbEntity
  8
0
  6
Continuous
 62
     7
370
    25
100
AcDbLine
 10
62.1922782641
 20
204.9391366303
 30
0.0
 11
61.6335573654
 21
204.9391366303
 31
0.0
  0
LINE
  5
127
330
1F
100
AcDbEntity
  8
0
  6
Continuous
 62
     7
370
    25
100
AcDbLine
 10
57.154259875
 20
204.6017104164
 30
0.0
 11
57.154259875
 21
204.9391366303
 31
0.0
  0
LINE
  5
128
330
1F
100
AcDbEntity
  8
0
  6
Continuous
 62
     7
370
    25
100
AcDbLine
 10
57.7129807737
 20
204.9391366303
 30
0.0
 11
57.154259875
 21
204.9391366303
 31
0.0
  0
LINE
  5
129
330
1F
100
AcDbEntity
  8
0
  6
Continuous
 62
     7
370
    25
100
AcDbLine
 10
64.9645445583
 20
204.9391366303
 30
0.0
 11
64.9645445583
 21
204.6017104164
 31
0.0
  0
LINE
  5
12A
330
1F
100
AcDbEntity
  8
0
  6
Continuous
 62
     7
370
    25
100
AcDbLine
 10
62.1922782641
 20
204.9391366303
 30
0.0
 11
64.9645445583
 21
204.9391366303
 31
0.0
  0
ARC
  5
12B
330
1F
100
AcDbEntity
  8
0
  6
Continuous
 62
     7
370
    25
100
AcDbCircle
 10
64.9645445583
 20
204.5391366303
 30
0.0
 40
0.4000000000000093
100
AcDbArc
 50
9.0
 51
90.0
  0
ARC
  5
12C
330
1F
100
AcDbEntity
  8
0
  6
Continuous
 62
     7
370
    25
100
AcDbCircle
 10
54.3819935809
 20
204.5391366303
 30
0.0
 40
0.3999999999999953
100
AcDbArc
 50
90.0
 51
171.0
  0
LINE
  5
12D
330
1F
100
AcDbEntity
  8
0
  6
Continuous
 62
     7
370
    25
100
AcDbLine
 10
54.3819935809
 20
204.6017104164
 30
0.0
 11
54.3819935809
 21
204.9391366303
 31
0.0
  0
LINE
  5
12E
330
1F
100
AcDbEntity
  8
0
  6
Continuous
 62
     7
370
    25
100
AcDbLine
 10
54.3819935809
 20
204.9391366303
 30
0.0
 11
57.154259875
 21
204.9391366303
 31
0.0
  0
ARC
  5
12F
330
1F
100
AcDbEntity
  8
0
  6
Continuous
 62
     7
370
    25
100
AcDbCircle
 10
66.814271024
 20
196.0517187352
 30
0.0
 40
0.2751679462507582
100
AcDbArc
 50
257.8622762533
 51
282.1377237467
  0
ELLIPSE
  5
130
330
1F
100
AcDbEntity
  8
0
  6
Continuous
 62
     7
370
    25
100
AcDbEllipse
 10
67.7441019211
 20
195.9391366303
 30
0.0
 11
0.0
 21
1.0
 31
0.0
210
0.0
220
0.0
230
1.0
 40
0.8828427125
 41
1.727875959474388
 42
3.141592653589793
  0
LINE
  5
131
330
1F
100
AcDbEntity
  8
0
  6
Continuous
 62
     7
370
    25
100
AcDbLine
 10
66.8721284675
 20
195.7827021653
 30
0.0
 11
69.4109876519
 21
195.7827021653
 31
0.0
  0
ARC
  5
132
330
1F
100
AcDbEntity
  8
0
  6
Continuous
 62
     7
370
    25
100
AcDbCircle
 10
70.2495495216
 20
195.766069292
 30
0.0
 40
0.8387268099340683
100
AcDbArc
 50
178.8636873101
 51
260.3800924999
  0
LINE
  5
133
330
1F
100
AcDbEntity
  8
0
  6
Continuous
 62
     7
370
    25
100
AcDbLine
 10
49.9355504872
 20
195.7827021653
 30
0.0
 11
52.4744096717
 21
195.7827021653
 31
0.0
  0
ELLIPSE
  5
134
330
1F
100
AcDbEntity
  8
0
  6
Continuous
 62
     7
370
    25
100
AcDbEllipse
 10
51.602436218
 20
195.9391366303
 30
0.0
 11
0.0
 21
1.0
 31
0.0
210
0.0
220
0.0
230
1.0
 40
0.8828427125
 41
3.141592653589793
 42
4.555309347705208
  0
ARC
  5
135
330
1F
100
AcDbEntity
  8
0
  6
Continuous
 62
     7
370
    25
100
AcDbCircle
 10
49.0969886176
 20
195.766069292
 30
0.0
 40
0.838726809934045
100
AcDbArc
 50
279.6199075001
 51
1.1363126899
  0
ARC
  5
136
330
1F
100
AcDbEntity
  8
0
  6
Continuous
 62
     7
370
    25
100
AcDbCircle
 10
52.5322671151
 20
196.0517187352
 30
0.0
 40
0.2751679462508108
100
AcDbArc
 50
257.8622762533
 51
282.1377237467
  0
ELLIPSE
  5
137
330
1F
100
AcDbEntity
  8
0
  6
Continuous
 62
     7
370
    25
100
AcDbEllipse
 10
65.7745166589
 20
204.5391366303
 30
0.0
 11
0.4148999663868552
 21
-0.06303997778368853
 31
0.0
210
0.0
220
0.0
230
1.0
 40
0.0587446133
 41
2.385060344801094
 42
3.160269901146469
  0
LINE
  5
138
330
1F
100
AcDbEntity
  8
0
  6
Continuous
 62
     7
370
    25
100
AcDbLine
 10
65.4753347814
 20
204.6017104164
 30
0.0
 11
66.8721284675
 21
195.7827021653
 31
0.0
  0
ELLIPSE
  5
139
330
1F
100
AcDbEntity
  8
0
  6
Continuous
 62
     7
370
    25
100
AcDbEllipse
 10
53.5720214803
 20
204.5391366303
 30
0.0
 11
0.4148999663868551
 21
0.06303997778366011
 31
0.0
210
0.0
220
0.0
230
1.0
 40
0.0587446133
 41
6.264508059624484
 42
7.039717615968812
  0
LINE
  5
13A
330
1F
100
AcDbEntity
  8
0
  6
Continuous
 62
     7
370
    25
100
AcDbLine
 10
52.4744096717
 20
195.7827021653
 30
0.0
 11
53.8712033577
 21
204.6017104164
 31
0.0
  0
LINE
  5
13B
330
1F
100
AcDbEntity
  8
0
  6
Continuous
 62
     7
370
    25
100
AcDbLine
 10
67.4356230773
 20
204.6017104164
 30
0.0
 11
65.4753347814
 21
204.6017104164
 31
0.0
  0
LINE
  5
13C
330
1F
100
AcDbEntity
  8
0
  6
Continuous
 62
     7
370
    25
100
AcDbLine
 10
69.4109876519
 20
195.7827021653
 30
0.0
 11
67.4356230773
 21
204.6017104164
 31
0.0
  0
LINE
  5
13D
330
1F
100
AcDbEntity
  8
0
  6
Continuous
 62
     7
370
    25
100
AcDbLine
 10
53.8712033577
 20
204.6017104164
 30
0.0
 11
51.9109150619
 21
204.6017104164
 31
0.0
  0
LINE
  5
13E
330
1F
100
AcDbEntity
  8
0
  6
Continuous
 62
     7
370
    25
100
AcDbLine
 10
51.9109150619
 20
204.6017104164
 30
0.0
 11
49.9355504872
 21
195.7827021653
 31
0.0
  0
ARC
  5
13F
330
1F
100
AcDbEntity
  8
0
  6
Continuous
 62
     7
370
    25
100
AcDbCircle
 10
65.1399100335
 20
204.6083635657
 30
0.0
 40
0.3354907239736128
100
AcDbArc
 50
358.8636873101
 51
80.3800924999
  0
LINE
  5
140
330
1F
100
AcDbEntity
  8
0
  6
Continuous
 62
     7
370
    25
100
AcDbLine
 10
65.1959743321
 20
204.9391366303
 30
0.0
 11
64.9645445583
 21
204.9391366303
 31
0.0
  0
ARC
  5
141
330
1F
100
AcDbEntity
  8
0
  6
Continuous
 62
     7
370
    25
100
AcDbCircle
 10
54.2066281056
 20
204.6083635657
 30
0.0
 40
0.3354907239736092
100
AcDbArc
 50
99.6199075001
 51
181.1363126899
  0
LINE
  5
142
330
1F
100
AcDbEntity
  8
0
  6
Continuous
 62
     7
370
    25
100
AcDbLine
 10
54.3819935809
 20
204.9391366303
 30
0.0
 11
54.1505638071
 21
204.9391366303
 31
0.0
  0
ARC
  5
143
330
1F
100
AcDbEntity
  8
0
  6
Continuous
 62
     7
370
    25
100
AcDbCircle
 10
67.1001983294
 20
204.6083635657
 30
0.0
 40
0.3354907239735563
100
AcDbArc
 50
358.86368731
 51
80.3800924999
  0
LINE
  5
144
330
1F
100
AcDbEntity
  8
0
  6
Continuous
 62
     7
370
    25
100
AcDbLine
 10
65.1959743321
 20
204.9391366303
 30
0.0
 11
67.1562626279
 21
204.9391366303
 31
0.0
  0
ARC
  5
145
330
1F
100
AcDbEntity
  8
0
  6
Continuous
 62
     7
370
    25
100
AcDbCircle
 10
52.2463398098
 20
204.6083635657
 30
0.0
 40
0.3354907239736092
100
AcDbArc
 50
99.6199075001
 51
181.1363126899
  0
LINE
  5
146
330
1F
100
AcDbEntity
  8
0
  6
Continuous
 62
     7
370
    25
100
AcDbLine
 10
52.1902755112
 20
204.9391366303
 30
0.0
 11
54.1505638071
 21
204.9391366303
 31
0.0
  0
LINE
  5
147
330
1F
100
AcDbEntity
  8
0
  6
Continuous
 62
     1
370
    25
100
AcDbLine
 10
69.4109876519
 20
195.7827021653
 30
0.0
 11
69.5414412724
 21
195.7205631602
 31
0.0
  0
LINE
  5
148
330
1F
100
AcDbEntity
  8
0
  6
Continuous
 62
     1
370
    25
100
AcDbLine
 10
49.8051022688
 20
195.7205657334
 30
0.0
 11
49.9355504872
 21
195.7827021653
 31
0.0
  0
LINE
  5
149
330
1F
100
AcDbEntity
  8
0
  6
Continuous
 62
     1
370
    25
100
AcDbLine
 10
67.4356230773
 20
204.6017104164
 30
0.0
 11
67.5465908259
 21
204.6265660184
 31
0.0
  0
LINE
  5
14A
330
1F
100
AcDbEntity
  8
0
  6
Continuous
 62
     1
370
    25
100
AcDbLine
 10
51.7999473133
 20
204.6265660184
 30
0.0
 11
51.9109150619
 21
204.6017104164
 31
0.0
  0
DIMENSION
  5
14B
330
1F
100
AcDbEntity
  8
FORMAT
 62
     7
100
AcDbDimension
  2
_D
 10
44.6732690696
 20
145.2247062048
 30
0.0
 11
59.6732690696
 21
145.2247062048
 31
0.0
 70
   160
  1
%%c<>
 71
     2
 42
-1.0
  3
SLDDIMSTYLE0
100
AcDbAlignedDimension
 13
74.6732690696
 23
164.9391366303
 33
0.0
 14
44.6732690696
 24
164.9391366303
 34
0.0
100
AcDbRotatedDimension
  0
LINE
  5
157
330
1F
100
AcDbEntity
  8
0
  6
CENTER
 62
     7
370
    18
100
AcDbLine
 10
59.6732690696
 20
209.7391366303
 30
0.0
 11
59.6732690696
 21
160.1391366303
 31
0.0
  0
LINE
  5
158
330
1F
100
AcDbEntity
  8
0
  6
Continuous
 62
     7
370
    18
100
AcDbLine
 10
46.9732690696
 20
207.7391366303
 30
0.0
 11
59.6732690696
 21
207.7391366303
 31
0.0
  0
SOLID
  5
159
330
1F
100
AcDbEntity
  8
0
  6
Continuous
 62
     7
370
    18
100
AcDbTrace
 10
59.6732690696
 20
207.7391366303
 30
0.0
 11
53.3232690696
 21
208.7551366303
 31
0.0
 12
53.3232690696
 22
206.7231366303
 32
0.0
 13
53.3232690696
 23
206.7231366303
 33
0.0
  0
LINE
  5
15A
330
1F
100
AcDbEntity
  8
0
  6
Continuous
 62
     7
370
    18
100
AcDbLine
 10
46.9732690696
 20
162.1391366303
 30
0.0
 11
59.6732690696
 21
162.1391366303
 31
0.0
  0
SOLID
  5
15B
330
1F
100
AcDbEntity
  8
0
  6
Continuous
 62
     7
370
    18
100
AcDbTrace
 10
59.6732690696
 20
162.1391366303
 30
0.0
 11
53.3232690696
 21
163.1551366303
 31
0.0
 12
53.3232690696
 22
161.1231366303
 32
0.0
 13
53.3232690696
 23
161.1231366303
 33
0.0
  0
MTEXT
  5
15C
330
1F
100
AcDbEntity
  8
0
  6
Continuous
 62
     7
100
AcDbMText
 10
57.0459866777
 20
218.0684741224
 30
0.0
 40
5.0
 41
0.0
 71
     1
 72
     1
  1
A
  7
SLDTEXTSTYLE0
 73
     1
 44
1.0
  0
MTEXT
  5
15D
330
1F
100
AcDbEntity
  8
0
  6
Continuous
 62
     7
100
AcDbMText
 10
57.412267318
 20
157.2945062795
 30
0.0
 40
5.0
 41
0.0
 71
     1
 72
     1
  1
A
  7
SLDTEXTSTYLE0
 73
     1
 44
1.0
  0
LINE
  5
15E
330
1F
100
AcDbEntity
  8
0
  6
Continuous
 62
     7
370
    25
100
AcDbLine
 10
177.5154316848
 20
77.4469960003
 30
0.0
 11
177.5154316848
 21
101.9432203569
 31
0.0
  0
LINE
  5
15F
330
1F
100
AcDbEntity
  8
0
  6
Continuous
 62
     7
370
    25
100
AcDbLine
 10
147.5154316848
 20
101.9432203569
 30
0.0
 11
147.5154316848
 21
77.4469960003
 31
0.0
  0
LINE
  5
160
330
1F
100
AcDbEntity
  8
0
  6
Continuous
 62
     7
370
    25
100
AcDbLine
 10
172.378221328
 20
102.6186451844
 30
0.0
 11
170.384174875
 21
109.8878290758
 31
0.0
  0
LINE
  5
161
330
1F
100
AcDbEntity
  8
0
  6
Continuous
 62
     7
370
    25
100
AcDbLine
 10
154.6466884947
 20
109.8878290758
 30
0.0
 11
152.6526420417
 21
102.6186451844
 31
0.0
  0
ARC
  5
162
330
1F
100
AcDbEntity
  8
0
  6
Continuous
 62
     7
370
    25
100
AcDbCircle
 10
169.9984252432
 20
109.782012151
 30
0.0
 40
0.4000000000000027
100
AcDbArc
 50
15.3397586804
 51
60.0026882663
  0
ARC
  5
163
330
1F
100
AcDbEntity
  8
0
  6
Continuous
 62
     7
370
    25
100
AcDbCircle
 10
155.0324381265
 20
109.782012151
 30
0.0
 40
0.4000000000000027
100
AcDbArc
 50
119.9973117337
 51
164.6602413196
  0
LINE
  5
164
330
1F
100
AcDbEntity
  8
0
  6
Continuous
 62
     7
370
    25
100
AcDbLine
 10
170.1984089897
 20
110.128431696
 30
0.0
 11
168.2381206938
 21
111.2600820413
 31
0.0
  0
LINE
  5
165
330
1F
100
AcDbEntity
  8
0
  6
Continuous
 62
     7
370
    25
100
AcDbLine
 10
156.7927426758
 20
111.2600820413
 30
0.0
 11
154.83245438
 21
110.128431696
 31
0.0
  0
LWPOLYLINE
  5
166
330
1F
100
AcDbEntity
  8
0
  6
Continuous
 62
     7
370
    25
100
AcDbPolyline
 90
        3
 70
   128
 43
0.0
 10
156.8382499935
 20
111.2940857268
 10
156.8244055717
 20
111.2812353151
 10
156.7927426758
 20
111.2600820413
  0
LWPOLYLINE
  5
167
330
1F
100
AcDbEntity
  8
0
  6
Continuous
 62
     7
370
    25
100
AcDbPolyline
 90
        3
 70
   128
 43
0.0
 10
168.2381206938
 20
111.2600820413
 10
168.2080835774
 20
111.279961644
 10
168.1921482915
 20
111.2945400056
  0
LINE
  5
168
330
1F
100
AcDbEntity
  8
0
  6
Continuous
 62
     7
370
    25
100
AcDbLine
 10
167.8067071735
 20
113.2366004719
 30
0.0
 11
165.0344408793
 21
113.2366004719
 31
0.0
  0
LINE
  5
169
330
1F
100
AcDbEntity
  8
0
  6
Continuous
 62
     7
370
    25
100
AcDbLine
 10
159.9964224903
 20
113.2366004719
 30
0.0
 11
157.2241561961
 21
113.2366004719
 31
0.0
  0
ARC
  5
16A
330
1F
100
AcDbEntity
  8
0
  6
Continuous
 62
     7
370
    25
100
AcDbCircle
 10
157.2241561961
 20
112.8366004719
 30
0.0
 40
0.3999999999999895
100
AcDbArc
 50
90.0
 51
167.6784696052
  0
ARC
  5
16B
330
1F
100
AcDbEntity
  8
0
  6
Continuous
 62
     7
370
    25
100
AcDbCircle
 10
167.8067071735
 20
112.8366004719
 30
0.0
 40
0.3999999999999915
100
AcDbArc
 50
12.3215303948
 51
90.0
  0
ARC
  5
16C
330
1F
100
AcDbEntity
  8
0
  6
Continuous
 62
     7
370
    25
100
AcDbCircle
 10
160.0185074602
 20
113.9817183823
 30
0.0
 40
0.745445132996476
100
AcDbArc
 50
268.302275123
 51
296.8471738344
  0
ARC
  5
16D
330
1F
100
AcDbEntity
  8
0
  6
Continuous
 62
     7
370
    25
100
AcDbCircle
 10
165.0097892946
 20
113.9702121672
 30
0.0
 40
0.7340257625252944
100
AcDbArc
 50
242.9259627235
 51
271.9245883191
  0
ARC
  5
16E
330
1F
100
AcDbEntity
  8
0
  6
Continuous
 62
     7
370
    25
100
AcDbCircle
 10
172.7258388587
 20
102.6887230522
 30
0.0
 40
0.3522145133746211
100
AcDbArc
 50
190.8346355076
 51
222.8789072983
  0
ARC
  5
16F
330
1F
100
AcDbEntity
  8
0
  6
Continuous
 62
     7
370
    25
100
AcDbCircle
 10
152.3438275574
 20
102.6638157404
 30
0.0
 40
0.3065288933006541
100
AcDbArc
 50
314.6030372834
 51
352.9813927737
  0
LINE
  5
170
330
1F
100
AcDbEntity
  8
0
  6
Continuous
 62
     7
370
    25
100
AcDbLine
 10
156.8333700147
 20
112.9219594806
 30
0.0
 11
156.4238521543
 21
111.0471260761
 31
0.0
  0
LINE
  5
171
330
1F
100
AcDbEntity
  8
0
  6
Continuous
 62
     7
370
    25
100
AcDbLine
 10
168.6070112154
 20
111.0471260761
 30
0.0
 11
168.197493355
 21
112.9219594806
 31
0.0
  0
LINE
  5
172
330
1F
100
AcDbEntity
  8
0
  6
Continuous
 62
     7
370
    25
100
AcDbLine
 10
162.3154479383
 20
114.4482719268
 30
0.0
 11
160.3551596424
 21
113.3166215815
 31
0.0
  0
LINE
  5
173
330
1F
100
AcDbEntity
  8
0
  6
Continuous
 62
     7
370
    25
100
AcDbLine
 10
164.6757037272
 20
113.3166215815
 30
0.0
 11
162.7154154314
 21
114.4482719268
 31
0.0
  0
ARC
  5
174
330
1F
100
AcDbEntity
  8
0
  6
Continuous
 62
     7
370
    25
100
AcDbCircle
 10
162.5154316848
 20
114.1018523819
 30
0.0
 40
0.4000000000000077
100
AcDbArc
 50
60.0026882664
 51
119.9973117336
  0
LWPOLYLINE
  5
175
330
1F
100
AcDbEntity
  8
0
  6
Continuous
 62
     7
370
    25
100
AcDbPolyline
 90
       51
 70
   128
 43
0.0
 10
151.908829967
 20
95.8201595182
 10
152.6490767095
 20
95.4207622921
 10
153.4343413667
 20
95.0511255462
 10
154.2610409563
 20
94.7129358481
 10
155.1254034375
 20
94.4077362799
 10
156.0234849226
 20
94.1369193971
 10
156.9511876718
 20
93.9017208752
 10
157.9042787902
 20
93.7032138711
 10
158.8784095417
 20
93.5423041266
 10
159.869135191
 20
93.419725836
 10
160.8719352842
 20
93.336038296
 10
161.8822342746
 20
93.2916233536
 10
162.8954223995
 20
93.2866836639
 10
163.906876714
 20
93.3212417658
 10
164.9119821839
 20
93.3951399784
 10
165.9061527436
 20
93.5080411212
 10
166.8848522208
 20
93.6594300521
 10
167.8436150342
 20
93.8486160183
 10
168.7780665691
 20
94.0747358074
 10
169.6839431374
 20
94.3367576869
 10
170.5571114322
 20
94.6334861108
 10
171.3935873866
 20
94.9635671756
 10
172.1895543529
 20
95.325494797
 10
172.9413805164
 20
95.7176175823
 10
173.6456354666
 20
96.1381463651
 10
174.2991058498
 20
96.5851623692
 10
174.8988100304
 20
97.0566259628
 10
175.442011696
 20
97.550385966
 10
175.9262323418
 20
98.0641894649
 10
176.3492625801
 20
98.595692092
 10
176.7091722209
 20
99.1424687229
 10
177.0043190792
 20
99.702024541
 10
177.2333564674
 20
100.2718064217
 10
177.3952393406
 20
100.8492145808
 10
177.4892290643
 20
101.4316144373
 10
177.5148967849
 20
102.0163486342
 10
177.4721253865
 20
102.6007491637
 10
177.3611100253
 20
103.1821495399
 10
177.1823572388
 20
103.7578969665
 10
176.936682635
 20
104.3253644399
 10
176.6252071708
 20
104.8819627363
 10
176.2493520373
 20
105.4251522252
 10
175.8108321752
 20
105.9524544576
 10
175.3116484501
 20
106.4614634744
 10
174.7540785228
 20
106.9498567841
 10
174.1406664571
 20
107.4154059601
 10
173.4742111115
 20
107.8559868083
 10
172.7577533688
 20
108.2695890594
 10
171.9945622615
 20
108.654325541
 10
171.1881200555
 20
109.008440789
 10
170.5584668209
 20
109.252457616
  0
LWPOLYLINE
  5
176
330
1F
100
AcDbEntity
  8
0
  6
Continuous
 62
     7
370
    25
100
AcDbPolyline
 90
       28
 70
   128
 43
0.0
 10
154.4723965487
 20
109.252457616
 10
154.0506847454
 20
109.0919925099
 10
153.2339973574
 20
108.7457906556
 10
152.4596590255
 20
108.3685502331
 10
151.7312028778
 20
107.9619925042
 10
151.0519526927
 20
107.5279724984
 10
150.425007733
 20
107.0684705495
 10
149.8532286047
 20
106.5855832596
 10
149.3392242049
 20
106.0815139324
 10
148.8853398177
 20
105.5585625209
 10
148.4936464135
 20
105.0191151322
 10
148.1659311994
 20
104.4656331412
 10
147.9036894649
 20
103.9006419592
 10
147.7081177588
 20
103.3267195114
 10
147.5801084298
 20
102.7464844743
 10
147.5202455554
 20
102.1625843272
 10
147.5288022759
 20
101.5776832727
 10
147.6057395491
 20
100.99445008
 10
147.7507063279
 20
100.4155459085
 10
147.963041162
 20
99.8436121651
 10
148.2417752163
 20
99.2812584523
 10
148.5856366912
 20
98.7310506611
 10
148.9930566258
 20
98.1954992636
 10
149.4621760563
 20
97.6770478577
 10
149.9908544983
 20
97.1780620186
 10
150.5766797134
 20
96.7008185039
 10
151.2169787155
 20
96.2474948666
 10
151.908829967
 20
95.8201595182
  0
LINE
  5
177
330
1F
100
AcDbEntity
  8
0
  6
Continuous
 62
     7
370
    25
100
AcDbLine
 10
169.2035008596
 20
97.2840277254
 30
0.0
 11
165.8584801116
 21
97.2840277254
 31
0.0
  0
ELLIPSE
  5
178
330
1F
100
AcDbEntity
  8
0
  6
Continuous
 62
     7
370
    25
100
AcDbEllipse
 10
169.1688133603
 20
98.1023048718
 30
0.0
 11
1.417345370853468
 21
-0.03001803403269321
 31
0.0
210
0.0
220
0.0
230
1.0
 40
0.5769422052
 41
4.749081647443838
 42
6.295403789178207
  0
LINE
  5
179
330
1F
100
AcDbEntity
  8
0
  6
Continuous
 62
     7
370
    25
100
AcDbLine
 10
170.5862645364
 20
100.0133195792
 30
0.0
 11
170.5862645364
 21
98.0822802048
 31
0.0
  0
LINE
  5
17A
330
1F
100
AcDbEntity
  8
0
  6
Continuous
 62
     7
370
    25
100
AcDbLine
 10
172.9515513905
 20
101.3787706157
 30
0.0
 11
170.5862645364
 21
100.0133195792
 31
0.0
  0
ELLIPSE
  5
17B
330
1F
100
AcDbEntity
  8
0
  6
Continuous
 62
     7
370
    25
100
AcDbEllipse
 10
171.9247342859
 20
101.9432203569
 30
0.0
 11
1.434690096596739
 21
0.0
 31
0.0
210
0.0
220
0.0
230
1.0
 40
0.5633291809
 41
5.510024236312413
 42
7.056346378046788
  0
ELLIPSE
  5
17C
330
1F
100
AcDbEntity
  8
0
  6
Continuous
 62
     7
370
    25
100
AcDbEllipse
 10
153.1061290837
 20
101.9432203569
 30
0.0
 11
1.434690096596711
 21
0.0
 31
0.0
210
0.0
220
0.0
230
1.0
 40
0.5633291809
 41
2.368431582722613
 42
3.914753724457002
  0
LINE
  5
17D
330
1F
100
AcDbEntity
  8
0
  6
Continuous
 62
     7
370
    25
100
AcDbLine
 10
154.4445988333
 20
100.0133195792
 30
0.0
 11
152.0793119792
 21
101.3787706157
 31
0.0
  0
LINE
  5
17E
330
1F
100
AcDbEntity
  8
0
  6
Continuous
 62
     7
370
    25
100
AcDbLine
 10
154.4445988333
 20
98.0822802048
 30
0.0
 11
154.4445988333
 21
100.0133195792
 31
0.0
  0
ELLIPSE
  5
17F
330
1F
100
AcDbEntity
  8
0
  6
Continuous
 62
     7
370
    25
100
AcDbEllipse
 10
155.8620500094
 20
98.1023048718
 30
0.0
 11
1.417345370853525
 21
0.030018034032679
 31
0.0
210
0.0
220
0.0
230
1.0
 40
0.5769422052
 41
3.129374171591208
 42
4.675696313325584
  0
LINE
  5
180
330
1F
100
AcDbEntity
  8
0
  6
Continuous
 62
     7
370
    25
100
AcDbLine
 10
159.1723832581
 20
97.2840277254
 30
0.0
 11
155.8273625101
 21
97.2840277254
 31
0.0
  0
LINE
  5
181
330
1F
100
AcDbEntity
  8
0
  6
Continuous
 62
     7
370
    25
100
AcDbLine
 10
161.5376701122
 20
95.918576689
 30
0.0
 11
159.1723832581
 21
97.2840277254
 31
0.0
  0
ELLIPSE
  5
182
330
1F
100
AcDbEntity
  8
0
  6
Continuous
 62
     7
370
    25
100
AcDbEllipse
 10
162.5154316848
 20
96.511345586
 30
0.0
 11
1.399999999999977
 21
0.0
 31
0.0
210
0.0
220
0.0
230
1.0
 40
0.5915921167
 41
3.939227909517504
 42
5.485550051251907
  0
LINE
  5
183
330
1F
100
AcDbEntity
  8
0
  6
Continuous
 62
     7
370
    25
100
AcDbLine
 10
165.8584801116
 20
97.2840277254
 30
0.0
 11
163.4931932575
 21
95.918576689
 31
0.0
  0
LWPOLYLINE
  5
184
330
1F
100
AcDbEntity
  8
0
  6
Continuous
 62
     7
370
    25
100
AcDbPolyline
 90
       36
 70
   128
 43
0.0
 10
151.908829967
 20
71.3239351617
 10
152.6490767095
 20
70.9245379356
 10
153.4343413667
 20
70.5549011896
 10
154.2610409563
 20
70.2167114915
 10
155.1254034375
 20
69.9115119233
 10
156.0234849226
 20
69.6406950406
 10
156.9511876718
 20
69.4054965187
 10
157.9042787902
 20
69.2069895145
 10
158.8784095417
 20
69.04607977
 10
159.869135191
 20
68.9235014794
 10
160.8719352842
 20
68.8398139394
 10
161.8822342746
 20
68.795398997
 10
162.8954223995
 20
68.7904593074
 10
163.906876714
 20
68.8250174092
 10
164.9119821839
 20
68.8989156218
 10
165.9061527436
 20
69.0118167646
 10
166.8848522208
 20
69.1632056956
 10
167.8436150342
 20
69.3523916617
 10
168.7780665691
 20
69.5785114509
 10
169.6839431374
 20
69.8405333303
 10
170.5571114322
 20
70.1372617543
 10
171.3935873866
 20
70.4673428191
 10
172.1895543529
 20
70.8292704405
 10
172.9413805164
 20
71.2213932257
 10
173.6456354666
 20
71.6419220086
 10
174.2991058498
 20
72.0889380126
 10
174.8988100304
 20
72.5604016063
 10
175.442011696
 20
73.0541616094
 10
175.9262323418
 20
73.5679651083
 10
176.3492625801
 20
74.0994677354
 10
176.7091722209
 20
74.6462443663
 10
177.0043190792
 20
75.2058001845
 10
177.2333564674
 20
75.7755820651
 10
177.3952393406
 20
76.3529902242
 10
177.4892290643
 20
76.9353900807
 10
177.5154316848
 20
77.4469960003
  0
ARC
  5
185
330
1F
100
AcDbEntity
  8
0
  6
Continuous
 62
     7
370
    25
100
AcDbCircle
 10
154.9844635133
 20
78.1684522248
 30
0.0
 40
7.503794742561788
100
AcDbArc
 50
185.5172549231
 51
245.8028860345
  0
LINE
  5
186
330
1F
100
AcDbEntity
  8
0
  6
Continuous
 62
     7
370
    25
100
AcDbLine
 10
162.5154316848
 20
105.7887882449
 30
0.0
 11
164.4757199807
 21
106.9204385903
 31
0.0
  0
LINE
  5
187
330
1F
100
AcDbEntity
  8
0
  6
Continuous
 62
     7
370
    25
100
AcDbLine
 10
160.555143389
 20
106.9204385903
 30
0.0
 11
162.5154316848
 21
105.7887882449
 31
0.0
  0
ELLIPSE
  5
188
330
1F
100
AcDbEntity
  8
0
  6
Continuous
 62
     7
370
    25
100
AcDbEllipse
 10
159.9882121859
 20
106.5864532141
 30
0.0
 11
0.8017085891592898
 21
0.007256327649059812
 31
0.0
210
0.0
220
0.0
230
1.0
 40
0.5831677987
 41
0.7800674770253245
 42
1.555277033369661
  0
LINE
  5
189
330
1F
100
AcDbEntity
  8
0
  6
Continuous
 62
     7
370
    25
100
AcDbLine
 10
157.2241561961
 20
107.0540401549
 30
0.0
 11
159.9964224903
 21
107.0540401549
 31
0.0
  0
LINE
  5
18A
330
1F
100
AcDbEntity
  8
0
  6
Continuous
 62
     7
370
    25
100
AcDbLine
 10
157.2241561961
 20
108.6544354211
 30
0.0
 11
157.2241561961
 21
107.0540401549
 31
0.0
  0
ELLIPSE
  5
18B
330
1F
100
AcDbEntity
  8
0
  6
Continuous
 62
     7
370
    25
100
AcDbEllipse
 10
156.4141840955
 20
108.6496957133
 30
0.0
 11
0.8099621222382609
 21
0.007036861233473245
 31
0.0
210
0.0
220
0.0
230
1.0
 40
0.5713470464
 41
6.278221548071915
 42
7.053431104416211
  0
LINE
  5
18C
330
1F
100
AcDbEntity
  8
0
  6
Continuous
 62
     7
370
    25
100
AcDbLine
 10
155.0324381265
 20
110.1086284758
 30
0.0
 11
156.9927264223
 21
108.9769781304
 31
0.0
  0
LINE
  5
18D
330
1F
100
AcDbEntity
  8
0
  6
Continuous
 62
     7
370
    25
100
AcDbLine
 10
156.9927264223
 20
111.2402788211
 30
0.0
 11
155.0324381265
 21
110.1086284758
 31
0.0
  0
ELLIPSE
  5
18E
330
1F
100
AcDbEntity
  8
0
  6
Continuous
 62
     7
370
    25
100
AcDbEllipse
 10
156.4141840955
 20
111.5675612382
 30
0.0
 11
0.8099621222382609
 21
-0.007036861233487456
 31
0.0
210
0.0
220
0.0
230
1.0
 40
0.5713470464
 41
5.512939509943001
 42
6.288149066287343
  0
LINE
  5
18F
330
1F
100
AcDbEntity
  8
0
  6
Continuous
 62
     7
370
    25
100
AcDbLine
 10
157.2241561961
 20
113.1632167966
 30
0.0
 11
157.2241561961
 21
111.5628215304
 31
0.0
  0
LINE
  5
190
330
1F
100
AcDbEntity
  8
0
  6
Continuous
 62
     7
370
    25
100
AcDbLine
 10
159.9964224903
 20
113.1632167966
 30
0.0
 11
157.2241561961
 21
113.1632167966
 31
0.0
  0
ELLIPSE
  5
191
330
1F
100
AcDbEntity
  8
0
  6
Continuous
 62
     7
370
    25
100
AcDbEllipse
 10
159.9882121859
 20
113.6308037375
 30
0.0
 11
0.8017085891592899
 21
-0.007256327649074024
 31
0.0
210
0.0
220
0.0
230
1.0
 40
0.5831677987
 41
4.727908273809944
 42
5.503117830154334
  0
LINE
  5
192
330
1F
100
AcDbEntity
  8
0
  6
Continuous
 62
     7
370
    25
100
AcDbLine
 10
162.5154316848
 20
114.4284687066
 30
0.0
 11
160.555143389
 21
113.2968183613
 31
0.0
  0
LINE
  5
193
330
1F
100
AcDbEntity
  8
0
  6
Continuous
 62
     7
370
    25
100
AcDbLine
 10
164.4757199807
 20
113.2968183613
 30
0.0
 11
162.5154316848
 21
114.4284687066
 31
0.0
  0
ELLIPSE
  5
194
330
1F
100
AcDbEntity
  8
0
  6
Continuous
 62
     7
370
    25
100
AcDbEllipse
 10
165.0426511837
 20
113.6308037375
 30
0.0
 11
0.8017085891592899
 21
0.007256327649074024
 31
0.0
210
0.0
220
0.0
230
1.0
 40
0.5831677987
 41
3.921660130615135
 42
4.696869686959488
  0
LINE
  5
195
330
1F
100
AcDbEntity
  8
0
  6
Continuous
 62
     7
370
    25
100
AcDbLine
 10
167.8067071735
 20
113.1632167966
 30
0.0
 11
165.0344408793
 21
113.1632167966
 31
0.0
  0
LINE
  5
196
330
1F
100
AcDbEntity
  8
0
  6
Continuous
 62
     7
370
    25
100
AcDbLine
 10
167.8067071735
 20
111.5628215304
 30
0.0
 11
167.8067071735
 21
113.1632167966
 31
0.0
  0
ELLIPSE
  5
197
330
1F
100
AcDbEntity
  8
0
  6
Continuous
 62
     7
370
    25
100
AcDbEllipse
 10
168.6166792741
 20
111.5675612382
 30
0.0
 11
0.8099621222382893
 21
0.007036861233473248
 31
0.0
210
0.0
220
0.0
230
1.0
 40
0.5713470464
 41
3.136628894482067
 42
3.911838450826428
  0
LINE
  5
198
330
1F
100
AcDbEntity
  8
0
  6
Continuous
 62
     7
370
    25
100
AcDbLine
 10
169.9984252432
 20
110.1086284758
 30
0.0
 11
168.0381369473
 21
111.2402788211
 31
0.0
  0
LINE
  5
199
330
1F
100
AcDbEntity
  8
0
  6
Continuous
 62
     7
370
    25
100
AcDbLine
 10
168.0381369473
 20
108.9769781304
 30
0.0
 11
169.9984252432
 21
110.1086284758
 31
0.0
  0
ELLIPSE
  5
19A
330
1F
100
AcDbEntity
  8
0
  6
Continuous
 62
     7
370
    25
100
AcDbEllipse
 10
168.6166792741
 20
108.6496957133
 30
0.0
 11
0.8099621222382609
 21
-0.007036861233487456
 31
0.0
210
0.0
220
0.0
230
1.0
 40
0.5713470464
 41
2.371346856353213
 42
3.146556412697574
  0
LINE
  5
19B
330
1F
100
AcDbEntity
  8
0
  6
Continuous
 62
     7
370
    25
100
AcDbLine
 10
167.8067071735
 20
107.0540401549
 30
0.0
 11
167.8067071735
 21
108.6544354211
 31
0.0
  0
LINE
  5
19C
330
1F
100
AcDbEntity
  8
0
  6
Continuous
 62
     7
370
    25
100
AcDbLine
 10
165.0344408793
 20
107.0540401549
 30
0.0
 11
167.8067071735
 21
107.0540401549
 31
0.0
  0
ELLIPSE
  5
19D
330
1F
100
AcDbEntity
  8
0
  6
Continuous
 62
     7
370
    25
100
AcDbEllipse
 10
165.0426511837
 20
106.5864532141
 30
0.0
 11
0.8017085891592899
 21
-0.007256327649074024
 31
0.0
210
0.0
220
0.0
230
1.0
 40
0.5831677987
 41
1.586315620220107
 42
2.361525176564464
  0
LWPOLYLINE
  5
19E
330
1F
100
AcDbEntity
  8
0
  6
Continuous
 62
     7
370
    25
100
AcDbPolyline
 90
       49
 70
   128
 43
0.0
 10
159.616293882
 20
108.4349918465
 10
160.0195098259
 20
108.2308566235
 10
160.4654316848
 20
108.0588505975
 10
160.9464296121
 20
107.9219168393
 10
161.4542735999
 20
107.8223983235
 10
161.9802742967
 20
107.7619978395
 10
162.5154316848
 20
107.7417488562
 10
163.0505890729
 20
107.7619978395
 10
163.5765897697
 20
107.8223983235
 10
164.0844337575
 20
107.9219168393
 10
164.5654316848
 20
108.0588505975
 10
165.0113535438
 20
108.2308566235
 10
165.4145694877
 20
108.4349918465
 10
165.76818038
 20
108.6677634563
 10
166.0661358403
 20
108.925188666
 10
166.3033377681
 20
109.202862859
 10
166.4757275726
 20
109.4960349528
 10
166.5803556165
 20
109.7996886916
 10
166.6154316848
 20
110.1086284758
 10
166.5803556165
 20
110.41756826
 10
166.4757275726
 20
110.7212219988
 10
166.3033377681
 20
111.0143940926
 10
166.0661358403
 20
111.2920682855
 10
165.76818038
 20
111.5494934953
 10
165.4145694877
 20
111.782265105
 10
165.0113535438
 20
111.986400328
 10
164.5654316848
 20
112.158406354
 10
164.0844337575
 20
112.2953401122
 10
163.5765897697
 20
112.394858628
 10
163.0505890729
 20
112.4552591121
 10
162.5154316848
 20
112.4755080953
 10
161.9802742967
 20
112.4552591121
 10
161.4542735999
 20
112.394858628
 10
160.9464296121
 20
112.2953401122
 10
160.4654316848
 20
112.158406354
 10
160.0195098259
 20
111.986400328
 10
159.616293882
 20
111.782265105
 10
159.2626829896
 20
111.5494934953
 10
158.9647275293
 20
111.2920682855
 10
158.7275256015
 20
111.0143940926
 10
158.555135797
 20
110.7212219988
 10
158.4505077532
 20
110.41756826
 10
158.4154316848
 20
110.1086284758
 10
158.4505077532
 20
109.7996886916
 10
158.555135797
 20
109.4960349528
 10
158.7275256015
 20
109.202862859
 10
158.9647275293
 20
108.925188666
 10
159.2626829896
 20
108.6677634563
 10
159.616293882
 20
108.4349918465
  0
ARC
  5
19F
330
1F
100
AcDbEntity
  8
0
  6
Continuous
 62
     7
370
    25
100
AcDbCircle
 10
162.5154316848
 20
106.199944139
 30
0.0
 40
0.8927825350776667
100
AcDbArc
 50
251.7653206212
 51
288.2346793788
  0
LINE
  5
1A0
330
1F
100
AcDbEntity
  8
0
  6
Continuous
 62
     7
370
    25
100
AcDbLine
 10
162.7947921342
 20
105.3519946156
 30
0.0
 11
162.7947921342
 21
97.0105607624
 31
0.0
  0
ELLIPSE
  5
1A1
330
1F
100
AcDbEntity
  8
0
  6
Continuous
 62
     7
370
    25
100
AcDbEllipse
 10
162.5154316848
 20
97.3278863979
 30
0.0
 11
0.0
 21
0.4433739413197486
 31
0.0
210
0.0
220
0.0
230
1.0
 40
0.9021730028
 41
2.368431582722612
 42
3.914753724456989
  0
LINE
  5
1A2
330
1F
100
AcDbEntity
  8
0
  6
Continuous
 62
     7
370
    25
100
AcDbLine
 10
162.2360712355
 20
97.0105607624
 30
0.0
 11
162.2360712355
 21
105.3519946156
 31
0.0
  0
LINE
  5
1A3
330
1F
100
AcDbEntity
  8
0
  6
Continuous
 62
     7
370
    25
100
AcDbLine
 10
164.75508043
 20
106.4836449609
 30
0.0
 11
162.7947921342
 21
105.3519946156
 31
0.0
  0
LINE
  5
1A4
330
1F
100
AcDbEntity
  8
0
  6
Continuous
 62
     7
370
    25
100
AcDbLine
 10
165.3336513186
 20
98.4762129723
 30
0.0
 11
164.75508043
 21
106.4836449609
 31
0.0
  0
LINE
  5
1A5
330
1F
100
AcDbEntity
  8
0
  6
Continuous
 62
     7
370
    25
100
AcDbLine
 10
162.7947921342
 20
97.0105607624
 30
0.0
 11
165.3336513186
 21
98.4762129723
 31
0.0
  0
LINE
  5
1A6
330
1F
100
AcDbEntity
  8
0
  6
Continuous
 62
     7
370
    25
100
AcDbLine
 10
162.2360712355
 20
105.3519946156
 30
0.0
 11
160.2757829396
 21
106.4836449609
 31
0.0
  0
LINE
  5
1A7
330
1F
100
AcDbEntity
  8
0
  6
Continuous
 62
     7
370
    25
100
AcDbLine
 10
159.697212051
 20
98.4762129723
 30
0.0
 11
162.2360712355
 21
97.0105607624
 31
0.0
  0
LINE
  5
1A8
330
1F
100
AcDbEntity
  8
0
  6
Continuous
 62
     7
370
    25
100
AcDbLine
 10
160.2757829396
 20
106.4836449609
 30
0.0
 11
159.697212051
 21
98.4762129723
 31
0.0
  0
LINE
  5
1A9
330
1F
100
AcDbEntity
  8
0
  6
Continuous
 62
     7
370
    25
100
AcDbLine
 10
159.9964224903
 20
106.5504457432
 30
0.0
 11
157.2241561961
 21
106.5504457432
 31
0.0
  0
LINE
  5
1AA
330
1F
100
AcDbEntity
  8
0
  6
Continuous
 62
     7
370
    25
100
AcDbLine
 10
159.4178516017
 20
98.5430137546
 30
0.0
 11
159.9964224903
 21
106.5504457432
 31
0.0
  0
LINE
  5
1AB
330
1F
100
AcDbEntity
  8
0
  6
Continuous
 62
     7
370
    25
100
AcDbLine
 10
155.8273625101
 20
98.5430137546
 30
0.0
 11
159.4178516017
 21
98.5430137546
 31
0.0
  0
LINE
  5
1AC
330
1F
100
AcDbEntity
  8
0
  6
Continuous
 62
     7
370
    25
100
AcDbLine
 10
157.2241561961
 20
106.5504457432
 30
0.0
 11
155.8273625101
 21
98.5430137546
 31
0.0
  0
LINE
  5
1AD
330
1F
100
AcDbEntity
  8
0
  6
Continuous
 62
     7
370
    25
100
AcDbLine
 10
167.8067071735
 20
106.5504457432
 30
0.0
 11
165.0344408793
 21
106.5504457432
 31
0.0
  0
LINE
  5
1AE
330
1F
100
AcDbEntity
  8
0
  6
Continuous
 62
     7
370
    25
100
AcDbLine
 10
169.2035008596
 20
98.5430137546
 30
0.0
 11
167.8067071735
 21
106.5504457432
 31
0.0
  0
LINE
  5
1AF
330
1F
100
AcDbEntity
  8
0
  6
Continuous
 62
     7
370
    25
100
AcDbLine
 10
165.613011768
 20
98.5430137546
 30
0.0
 11
169.2035008596
 21
98.5430137546
 31
0.0
  0
LINE
  5
1B0
330
1F
100
AcDbEntity
  8
0
  6
Continuous
 62
     7
370
    25
100
AcDbLine
 10
165.0344408793
 20
106.5504457432
 30
0.0
 11
165.613011768
 21
98.5430137546
 31
0.0
  0
ARC
  5
1B1
330
1F
100
AcDbEntity
  8
0
  6
Continuous
 62
     7
370
    25
100
AcDbCircle
 10
162.1760165793
 20
105.2639760484
 30
0.0
 40
0.6250043643648647
100
AcDbArc
 50
8.0958037616
 51
57.1077840338
  0
ARC
  5
1B2
330
1F
100
AcDbEntity
  8
0
  6
Continuous
 62
     7
370
    25
100
AcDbCircle
 10
162.8548467904
 20
105.2639760484
 30
0.0
 40
0.6250043643650515
100
AcDbArc
 50
122.8922159662
 51
171.9041962384
  0
ARC
  5
1B3
330
1F
100
AcDbEntity
  8
0
  6
Continuous
 62
     7
370
    25
100
AcDbCircle
 10
160.8945584945
 20
106.3956263938
 30
0.0
 40
0.6250043643648023
100
AcDbArc
 50
122.8922159662
 51
171.9041962384
  0
ARC
  5
1B4
330
1F
100
AcDbEntity
  8
0
  6
Continuous
 62
     7
370
    25
100
AcDbCircle
 10
164.1363048751
 20
106.3956263938
 30
0.0
 40
0.6250043643646753
100
AcDbArc
 50
8.0958037616
 51
57.1077840338
  0
LINE
  5
1B5
330
1F
100
AcDbEntity
  8
0
  6
Continuous
 62
     7
370
    25
100
AcDbLine
 10
159.9964224903
 20
107.0540401549
 30
0.0
 11
159.9964224903
 21
106.5504457432
 31
0.0
  0
LINE
  5
1B6
330
1F
100
AcDbEntity
  8
0
  6
Continuous
 62
     7
370
    25
100
AcDbLine
 10
157.2241561961
 20
106.5504457432
 30
0.0
 11
157.2241561961
 21
107.0540401549
 31
0.0
  0
LINE
  5
1B7
330
1F
100
AcDbEntity
  8
0
  6
Continuous
 62
     7
370
    25
100
AcDbLine
 10
167.8067071735
 20
107.0540401549
 30
0.0
 11
167.8067071735
 21
106.5504457432
 31
0.0
  0
LINE
  5
1B8
330
1F
100
AcDbEntity
  8
0
  6
Continuous
 62
     7
370
    25
100
AcDbLine
 10
165.0344408793
 20
107.0540401549
 30
0.0
 11
165.0344408793
 21
106.5504457432
 31
0.0
  0
ELLIPSE
  5
1B9
330
1F
100
AcDbEntity
  8
0
  6
Continuous
 62
     7
370
    25
100
AcDbEllipse
 10
165.0426511837
 20
106.2598368893
 30
0.0
 11
0.4003558838868457
 21
-0.05952972664181289
 31
0.0
210
0.0
220
0.0
230
1.0
 40
0.7128420405
 41
1.696790662448723
 42
2.472000218793123
  0
ARC
  5
1BA
330
1F
100
AcDbEntity
  8
0
  6
Continuous
 62
     7
370
    25
100
AcDbCircle
 10
165.6443006531
 20
97.794621627
 30
0.0
 40
0.7490459070948721
100
AcDbArc
 50
92.3940359358
 51
114.5021064338
  0
ELLIPSE
  5
1BB
330
1F
100
AcDbEntity
  8
0
  6
Continuous
 62
     7
370
    25
100
AcDbEllipse
 10
159.9882121859
 20
106.2598368893
 30
0.0
 11
0.4003558838868457
 21
0.05952972664179867
 31
0.0
210
0.0
220
0.0
230
1.0
 40
0.7128420405
 41
0.6695924347967005
 42
1.444801991141022
  0
ARC
  5
1BC
330
1F
100
AcDbEntity
  8
0
  6
Continuous
 62
     7
370
    25
100
AcDbCircle
 10
159.3865627166
 20
97.794621627
 30
0.0
 40
0.7490459070946912
100
AcDbArc
 50
65.4978935662
 51
87.6059640642
  0
ARC
  5
1BD
330
1F
100
AcDbEntity
  8
0
  6
Continuous
 62
     7
370
    25
100
AcDbCircle
 10
167.8197855011
 20
106.9840093828
 30
0.0
 40
0.4337608468194483
100
AcDbArc
 50
268.2722125263
 51
331.7224109411
  0
LINE
  5
1BE
330
1F
100
AcDbEntity
  8
0
  6
Continuous
 62
     7
370
    25
100
AcDbLine
 10
168.2017825097
 20
106.7785178802
 30
0.0
 11
169.5985761958
 21
98.7710858916
 31
0.0
  0
ELLIPSE
  5
1BF
330
1F
100
AcDbEntity
  8
0
  6
Continuous
 62
     7
370
    25
100
AcDbEllipse
 10
169.1688133603
 20
98.9188456837
 30
0.0
 11
0.3794757683848787
 21
-0.3200420513890663
 31
0.0
210
0.0
220
0.0
230
1.0
 40
0.6348285795
 41
5.284628147384325
 42
6.830950289118757
  0
ARC
  5
1C0
330
1F
100
AcDbEntity
  8
0
  6
Continuous
 62
     7
370
    25
100
AcDbCircle
 10
157.2110778685
 20
106.9840093828
 30
0.0
 40
0.4337608468193376
100
AcDbArc
 50
208.2775890589
 51
271.7277874738
  0
ELLIPSE
  5
1C1
330
1F
100
AcDbEntity
  8
0
  6
Continuous
 62
     7
370
    25
100
AcDbEllipse
 10
155.8620500094
 20
98.9188456837
 30
0.0
 11
0.379475768384907
 21
0.3200420513890662
 31
0.0
210
0.0
220
0.0
230
1.0
 40
0.6348285795
 41
2.593827671650693
 42
4.140149813385186
  0
LINE
  5
1C2
330
1F
100
AcDbEntity
  8
0
  6
Continuous
 62
     7
370
    25
100
AcDbLine
 10
155.4322871738
 20
98.7710858916
 30
0.0
 11
156.8290808599
 21
106.7785178802
 31
0.0
  0
LINE
  5
1C3
330
1F
100
AcDbEntity
  8
0
  6
Continuous
 62
     7
370
    25
100
AcDbLine
 10
168.2017825097
 20
108.3789131464
 30
0.0
 11
168.2017825097
 21
106.7785178802
 31
0.0
  0
LINE
  5
1C4
330
1F
100
AcDbEntity
  8
0
  6
Continuous
 62
     7
370
    25
100
AcDbLine
 10
169.5985761958
 20
100.8438311245
 30
0.0
 11
168.2017825097
 21
108.3789131464
 31
0.0
  0
LINE
  5
1C5
330
1F
100
AcDbEntity
  8
0
  6
Continuous
 62
     7
370
    25
100
AcDbLine
 10
169.5985761958
 20
98.7710858916
 30
0.0
 11
169.5985761958
 21
100.8438311245
 31
0.0
  0
LINE
  5
1C6
330
1F
100
AcDbEntity
  8
0
  6
Continuous
 62
     7
370
    25
100
AcDbLine
 10
156.8290808599
 20
106.7785178802
 30
0.0
 11
156.8290808599
 21
108.3789131464
 31
0.0
  0
LINE
  5
1C7
330
1F
100
AcDbEntity
  8
0
  6
Continuous
 62
     7
370
    25
100
AcDbLine
 10
155.4322871738
 20
100.8438311245
 30
0.0
 11
155.4322871738
 21
98.7710858916
 31
0.0
  0
LINE
  5
1C8
330
1F
100
AcDbEntity
  8
0
  6
Continuous
 62
     7
370
    25
100
AcDbLine
 10
156.8290808599
 20
108.3789131464
 30
0.0
 11
155.4322871738
 21
100.8438311245
 31
0.0
  0
ARC
  5
1C9
330
1F
100
AcDbEntity
  8
0
  6
Continuous
 62
     7
370
    25
100
AcDbCircle
 10
167.8331304103
 20
106.6709155835
 30
0.0
 40
0.3840346659528612
100
AcDbArc
 50
16.2714863297
 51
93.9453131291
  0
ARC
  5
1CA
330
1F
100
AcDbEntity
  8
0
  6
Continuous
 62
     7
370
    25
100
AcDbCircle
 10
157.1977329593
 20
106.6709155835
 30
0.0
 40
0.3840346659527787
100
AcDbArc
 50
86.0546868709
 51
163.7285136703
  0
ARC
  5
1CB
330
1F
100
AcDbEntity
  8
0
  6
Continuous
 62
     7
370
    25
100
AcDbCircle
 10
167.8331304103
 20
108.2713108497
 30
0.0
 40
0.3840346659528716
100
AcDbArc
 50
16.2714863297
 51
93.9453131291
  0
ARC
  5
1CC
330
1F
100
AcDbEntity
  8
0
  6
Continuous
 62
     7
370
    25
100
AcDbCircle
 10
157.1977329593
 20
108.2713108497
 30
0.0
 40
0.3840346659528471
100
AcDbArc
 50
86.0546868709
 51
163.7285136703
  0
ARC
  5
1CD
330
1F
100
AcDbEntity
  8
0
  6
Continuous
 62
     7
370
    25
100
AcDbCircle
 10
160.6891323483
 20
97.2306071802
 30
0.0
 40
1.562510910911935
100
AcDbArc
 50
302.8922159662
 51
351.9041962384
  0
ARC
  5
1CE
330
1F
100
AcDbEntity
  8
0
  6
Continuous
 62
     7
370
    25
100
AcDbCircle
 10
164.3417310214
 20
97.2306071802
 30
0.0
 40
1.562510910911935
100
AcDbArc
 50
188.0958037616
 51
237.1077840338
  0
ELLIPSE
  5
1CF
330
1F
100
AcDbEntity
  8
0
  6
Continuous
 62
     7
370
    25
100
AcDbEllipse
 10
165.8584801116
 20
98.1005685373
 30
0.0
 11
-0.3467989943035832
 21
0.9512858509568788
 31
0.0
210
0.0
220
0.0
230
1.0
 40
0.4232149121
 41
1.016799629683599
 42
2.430516323799009
  0
ELLIPSE
  5
1D0
330
1F
100
AcDbEntity
  8
0
  6
Continuous
 62
     7
370
    25
100
AcDbEllipse
 10
159.1723832581
 20
98.1005685373
 30
0.0
 11
0.3467989943035832
 21
0.951285850956893
 31
0.0
210
0.0
220
0.0
230
1.0
 40
0.4232149121
 41
3.852668983380592
 42
5.266385677496012
  0
ELLIPSE
  5
1D1
330
1F
100
AcDbEntity
  8
0
  6
Continuous
 62
     7
370
    25
100
AcDbEllipse
 10
168.6166792741
 20
108.3230793886
 30
0.0
 11
0.4114728256879232
 21
-0.09030256922478941
 31
0.0
210
0.0
220
0.0
230
1.0
 40
0.5907487896
 41
2.505062568658017
 42
3.280272125002293
  0
LINE
  5
1D2
330
1F
100
AcDbEntity
  8
0
  6
Continuous
 62
     7
370
    25
100
AcDbLine
 10
168.3174973967
 20
108.5401845011
 30
0.0
 11
169.7142910827
 21
101.0051024792
 31
0.0
  0
ARC
  5
1D3
330
1F
100
AcDbEntity
  8
0
  6
Continuous
 62
     7
370
    25
100
AcDbCircle
 10
169.8161526679
 20
100.8098657347
 30
0.0
 40
0.2202116457001023
100
AcDbArc
 50
117.5525661164
 51
171.1272929259
  0
ELLIPSE
  5
1D4
330
1F
100
AcDbEntity
  8
0
  6
Continuous
 62
     7
370
    25
100
AcDbEllipse
 10
156.4141840955
 20
108.3230793886
 30
0.0
 11
0.4114728256879232
 21
0.09030256922478941
 31
0.0
210
0.0
220
0.0
230
1.0
 40
0.5907487896
 41
6.144505835767141
 42
6.919715392111507
  0
ARC
  5
1D5
330
1F
100
AcDbEntity
  8
0
  6
Continuous
 62
     7
370
    25
100
AcDbCircle
 10
155.2147107018
 20
100.8098657347
 30
0.0
 40
0.2202116456999424
100
AcDbArc
 50
8.872707074
 51
62.4474338836
  0
LINE
  5
1D6
330
1F
100
AcDbEntity
  8
0
  6
Continuous
 62
     7
370
    25
100
AcDbLine
 10
155.3165722869
 20
101.0051024792
 30
0.0
 11
156.713365973
 21
108.5401845011
 31
0.0
  0
ELLIPSE
  5
1D7
330
1F
100
AcDbEntity
  8
0
  6
Continuous
 62
     7
370
    25
100
AcDbEllipse
 10
159.1723832581
 20
98.1005685373
 30
0.0
 11
0.1494337461712689
 21
0.9995592050542964
 31
0.0
210
0.0
220
0.0
230
1.0
 40
0.1986720408
 41
3.786688418079029
 42
5.200405112194356
  0
LINE
  5
1D8
330
1F
100
AcDbEntity
  8
0
  6
Continuous
 62
     7
370
    25
100
AcDbLine
 10
155.8273625101
 20
98.5430137546
 30
0.0
 11
155.8273625101
 21
97.2840277254
 31
0.0
  0
ELLIPSE
  5
1D9
330
1F
100
AcDbEntity
  8
0
  6
Continuous
 62
     7
370
    25
100
AcDbEllipse
 10
165.8584801116
 20
98.1005685373
 30
0.0
 11
-0.1494337461712405
 21
0.9995592050542825
 31
0.0
210
0.0
220
0.0
230
1.0
 40
0.1986720408
 41
1.082780194985274
 42
2.496496889100697
  0
LINE
  5
1DA
330
1F
100
AcDbEntity
  8
0
  6
Continuous
 62
     7
370
    25
100
AcDbLine
 10
169.2035008596
 20
97.2840277254
 30
0.0
 11
169.2035008596
 21
98.5430137546
 31
0.0
  0
LINE
  5
1DB
330
1F
100
AcDbEntity
  8
0
  6
Continuous
 62
     7
370
    25
100
AcDbLine
 10
170.2777856925
 20
109.6718348464
 30
0.0
 11
168.3174973967
 21
108.5401845011
 31
0.0
  0
LINE
  5
1DC
330
1F
100
AcDbEntity
  8
0
  6
Continuous
 62
     7
370
    25
100
AcDbLine
 10
172.2531502672
 20
102.4707546891
 30
0.0
 11
170.2777856925
 21
109.6718348464
 31
0.0
  0
LINE
  5
1DD
330
1F
100
AcDbEntity
  8
0
  6
Continuous
 62
     7
370
    25
100
AcDbLine
 10
169.7142910827
 20
101.0051024792
 30
0.0
 11
172.2531502672
 21
102.4707546891
 31
0.0
  0
LINE
  5
1DE
330
1F
100
AcDbEntity
  8
0
  6
Continuous
 62
     7
370
    25
100
AcDbLine
 10
156.713365973
 20
108.5401845011
 30
0.0
 11
154.7530776772
 21
109.6718348464
 31
0.0
  0
LINE
  5
1DF
330
1F
100
AcDbEntity
  8
0
  6
Continuous
 62
     7
370
    25
100
AcDbLine
 10
152.7777131025
 20
102.4707546891
 30
0.0
 11
155.3165722869
 21
101.0051024792
 31
0.0
  0
LINE
  5
1E0
330
1F
100
AcDbEntity
  8
0
  6
Continuous
 62
     7
370
    25
100
AcDbLine
 10
154.7530776772
 20
109.6718348464
 30
0.0
 11
152.7777131025
 21
102.4707546891
 31
0.0
  0
ARC
  5
1E1
330
1F
100
AcDbEntity
  8
0
  6
Continuous
 62
     7
370
    25
100
AcDbCircle
 10
167.6987218418
 20
108.4521659339
 30
0.0
 40
0.6250043643647182
100
AcDbArc
 50
8.0958037616
 51
57.1077840338
  0
ARC
  5
1E2
330
1F
100
AcDbEntity
  8
0
  6
Continuous
 62
     7
370
    25
100
AcDbCircle
 10
157.3321415279
 20
108.4521659339
 30
0.0
 40
0.6250043643648087
100
AcDbArc
 50
122.8922159662
 51
171.9041962384
  0
ARC
  5
1E3
330
1F
100
AcDbEntity
  8
0
  6
Continuous
 62
     7
370
    25
100
AcDbCircle
 10
169.6590101376
 20
109.5838162793
 30
0.0
 40
0.6250043643649729
100
AcDbArc
 50
8.0958037616
 51
57.1077840338
  0
ARC
  5
1E4
330
1F
100
AcDbEntity
  8
0
  6
Continuous
 62
     7
370
    25
100
AcDbCircle
 10
155.371853232
 20
109.5838162793
 30
0.0
 40
0.6250043643648928
100
AcDbArc
 50
122.8922159662
 51
171.9041962384
  0
ARC
  5
1E5
330
1F
100
AcDbEntity
  8
0
  6
Continuous
 62
     7
370
    25
100
AcDbCircle
 10
170.5202064443
 20
99.0400916333
 30
0.0
 40
0.9600866648821174
100
AcDbArc
 50
196.2714863297
 51
273.9453131291
  0
ARC
  5
1E6
330
1F
100
AcDbEntity
  8
0
  6
Continuous
 62
     7
370
    25
100
AcDbCircle
 10
154.5106569253
 20
99.0400916333
 30
0.0
 40
0.9600866648821839
100
AcDbArc
 50
266.0546868709
 51
343.7285136703
  0
ELLIPSE
  5
1E7
330
1F
100
AcDbEntity
  8
0
  6
Continuous
 62
     7
370
    25
100
AcDbEllipse
 10
170.5862645364
 20
100.8298603911
 30
0.0
 11
0.9575439692246732
 21
-0.3727792952053477
 31
0.0
210
0.0
220
0.0
230
1.0
 40
0.7733456993
 41
3.591109965857084
 42
5.00482665997249
  0
ELLIPSE
  5
1E8
330
1F
100
AcDbEntity
  8
0
  6
Continuous
 62
     7
370
    25
100
AcDbEllipse
 10
154.4445988333
 20
100.8298603911
 30
0.0
 11
0.9575439692246732
 21
0.3727792952053335
 31
0.0
210
0.0
220
0.0
230
1.0
 40
0.7733456993
 41
4.419951300796929
 42
5.833667994912337
  0
LINE
  5
1E9
330
1F
100
AcDbEntity
  8
0
  6
Continuous
 62
     7
370
    25
100
AcDbLine
 10
156.7873311959
 20
111.2567842536
 30
0.0
 11
156.7927426758
 21
111.2600820413
 31
0.0
  0
ARC
  5
1EA
330
1F
100
AcDbEntity
  8
0
  6
Continuous
 62
     7
370
    25
100
AcDbCircle
 10
157.1977329593
 20
111.179696959
 30
0.0
 40
0.3840346659528845
100
AcDbArc
 50
86.0546868709
 51
163.7285136703
  0
ARC
  5
1EB
330
1F
100
AcDbEntity
  8
0
  6
Continuous
 62
     7
370
    25
100
AcDbCircle
 10
167.8331304103
 20
111.179696959
 30
0.0
 40
0.3840346659528554
100
AcDbArc
 50
16.2714863297
 51
93.9453131291
  0
LINE
  5
1EC
330
1F
100
AcDbEntity
  8
0
  6
Continuous
 62
     7
370
    25
100
AcDbLine
 10
156.8290808599
 20
111.2872992557
 30
0.0
 11
156.8290808599
 21
112.8876945219
 31
0.0
  0
ARC
  5
1ED
330
1F
100
AcDbEntity
  8
0
  6
Continuous
 62
     7
370
    25
100
AcDbCircle
 10
157.1977329593
 20
112.7800922252
 30
0.0
 40
0.384034665952833
100
AcDbArc
 50
86.0546868709
 51
163.7285136703
  0
ARC
  5
1EE
330
1F
100
AcDbEntity
  8
0
  6
Continuous
 62
     7
370
    25
100
AcDbCircle
 10
167.8331304103
 20
112.7800922252
 30
0.0
 40
0.3840346659528532
100
AcDbArc
 50
16.2714863297
 51
93.9453131291
  0
LINE
  5
1EF
330
1F
100
AcDbEntity
  8
0
  6
Continuous
 62
     7
370
    25
100
AcDbLine
 10
168.2017825097
 20
112.8876945219
 30
0.0
 11
168.2017825097
 21
111.2872992557
 31
0.0
  0
ELLIPSE
  5
1F0
330
1F
100
AcDbEntity
  8
0
  6
Continuous
 62
     7
370
    25
100
AcDbEllipse
 10
170.5862645364
 20
100.8298603911
 30
0.0
 11
0.7337508469655916
 21
-0.7090192856055921
 31
0.0
210
0.0
220
0.0
230
1.0
 40
0.6924195928
 41
3.888344578392554
 42
5.302061272507941
  0
ELLIPSE
  5
1F1
330
1F
100
AcDbEntity
  8
0
  6
Continuous
 62
     7
370
    25
100
AcDbEllipse
 10
154.4445988333
 20
100.8298603911
 30
0.0
 11
0.7337508469655916
 21
0.7090192856055779
 31
0.0
210
0.0
220
0.0
230
1.0
 40
0.6924195928
 41
4.122716688261482
 42
5.536433382376865
  0
ARC
  5
1F2
330
1F
100
AcDbEntity
  8
0
  6
Continuous
 62
     7
370
    25
100
AcDbCircle
 10
173.8000891544
 20
102.6908011069
 30
0.0
 40
1.562510910912119
100
AcDbArc
 50
188.0958037616
 51
237.1077840338
  0
ARC
  5
1F3
330
1F
100
AcDbEntity
  8
0
  6
Continuous
 62
     7
370
    25
100
AcDbCircle
 10
151.2307742153
 20
102.6908011069
 30
0.0
 40
1.562510910912143
100
AcDbArc
 50
302.8922159662
 51
351.9041962384
  0
LINE
  5
1F4
330
1F
100
AcDbEntity
  8
0
  6
Continuous
 62
     1
370
    25
100
AcDbLine
 10
172.3065165902
 20
102.8800407622
 30
0.0
 11
172.9515513905
 21
102.5076700982
 31
0.0
  0
LINE
  5
1F5
330
1F
100
AcDbEntity
  8
0
  6
Continuous
 62
     1
370
    25
100
AcDbLine
 10
152.0793119792
 20
102.5076700982
 30
0.0
 11
152.7243467794
 21
102.8800407622
 31
0.0
  0
ARC
  5
1F6
330
1F
100
AcDbEntity
  8
0
  6
Continuous
 62
     1
370
    25
100
AcDbCircle
 10
170.1695109902
 20
109.8593645772
 30
0.0
 40
0.2165428620418321
100
AcDbArc
 50
300.000999467
 51
7.5533741143
  0
ELLIPSE
  5
1F7
330
1F
100
AcDbEntity
  8
0
  6
Continuous
 62
     1
370
    25
100
AcDbEllipse
 10
171.9247342859
 20
102.7597611688
 30
0.0
 11
0.449211584268312
 21
-0.2218446913205554
 31
0.0
210
0.0
220
0.0
230
1.0
 40
0.4221407643
 41
5.715556040758782
 42
6.642034079230241
  0
ARC
  5
1F8
330
1F
100
AcDbEntity
  8
0
  6
Continuous
 62
     1
370
    25
100
AcDbCircle
 10
154.8687696204
 20
109.8630179813
 30
0.0
 40
0.2234627861869406
100
AcDbArc
 50
173.6253005492
 51
238.8203258695
  0
ELLIPSE
  5
1F9
330
1F
100
AcDbEntity
  8
0
  6
Continuous
 62
     1
370
    25
100
AcDbEllipse
 10
153.1061290837
 20
102.7597611688
 30
0.0
 11
0.449211584268312
 21
0.2218446913205412
 31
0.0
210
0.0
220
0.0
230
1.0
 40
0.4221407643
 41
2.782743881539137
 42
3.709221920010688
  0
ARC
  5
1FA
330
1F
100
AcDbEntity
  8
0
  6
Continuous
 62
     1
370
    25
100
AcDbCircle
 10
170.1149295308
 20
109.9517786962
 30
0.0
 40
0.1953844988571312
100
AcDbArc
 50
64.7063712167
 51
126.6040872124
  0
ARC
  5
1FB
330
1F
100
AcDbEntity
  8
0
  6
Continuous
 62
     1
370
    25
100
AcDbCircle
 10
154.9153437564
 20
109.9458197206
 30
0.0
 40
0.2005437165807318
100
AcDbArc
 50
54.2757750644
 51
114.4137665065
  0
ARC
  5
1FC
330
1F
100
AcDbEntity
  8
0
  6
Continuous
 62
     1
370
    25
100
AcDbCircle
 10
168.1546412349
 20
111.0834290415
 30
0.0
 40
0.1953844988574217
100
AcDbArc
 50
64.7063712167
 51
126.6040872124
  0
ARC
  5
1FD
330
1F
100
AcDbEntity
  8
0
  6
Continuous
 62
     1
370
    25
100
AcDbCircle
 10
156.8756320522
 20
111.077470066
 30
0.0
 40
0.2005437165808483
100
AcDbArc
 50
54.2757750644
 51
114.4137665065
  0
LINE
  5
1FE
330
1F
100
AcDbEntity
  8
0
  6
Continuous
 62
     1
370
    25
100
AcDbLine
 10
156.8286484923
 20
111.2851735999
 30
0.0
 11
156.8290808599
 21
111.2872992557
 31
0.0
  0
LINE
  5
1FF
330
1F
100
AcDbEntity
  8
0
  6
Continuous
 62
     1
370
    25
100
AcDbLine
 10
168.2017825097
 20
111.2872992557
 30
0.0
 11
168.2021756389
 21
111.2853665087
 31
0.0
  0
LINE
  5
200
330
1F
100
AcDbEntity
  8
0
  6
Continuous
 62
     1
370
    25
100
AcDbLine
 10
156.8290808599
 20
112.8876945219
 30
0.0
 11
156.4275085111
 21
111.049236846
 31
0.0
  0
LINE
  5
201
330
1F
100
AcDbEntity
  8
0
  6
Continuous
 62
     1
370
    25
100
AcDbLine
 10
168.6033548585
 20
111.049236846
 30
0.0
 11
168.2017825097
 21
112.8876945219
 31
0.0
  0
LINE
  5
202
330
1F
100
AcDbEntity
  8
0
  6
Continuous
 62
     1
370
    25
100
AcDbLine
 10
165.0344408793
 20
113.2366004719
 30
0.0
 11
165.0344408793
 21
113.1632167966
 31
0.0
  0
LINE
  5
203
330
1F
100
AcDbEntity
  8
0
  6
Continuous
 62
     1
370
    25
100
AcDbLine
 10
167.8067071735
 20
113.1632167966
 30
0.0
 11
167.8067071735
 21
113.2366004719
 31
0.0
  0
LINE
  5
204
330
1F
100
AcDbEntity
  8
0
  6
Continuous
 62
     1
370
    25
100
AcDbLine
 10
159.9964224903
 20
113.2366004719
 30
0.0
 11
159.9964224903
 21
113.1632167966
 31
0.0
  0
LINE
  5
205
330
1F
100
AcDbEntity
  8
0
  6
Continuous
 62
     1
370
    25
100
AcDbLine
 10
157.2241561961
 20
113.2366004719
 30
0.0
 11
157.2241561961
 21
113.1632167966
 31
0.0
  0
LINE
  5
206
330
1F
100
AcDbEntity
  8
0
  6
Continuous
 62
     1
370
    25
100
AcDbLine
 10
156.8333700147
 20
112.9219594806
 30
0.0
 11
156.8290808599
 21
112.8876945219
 31
0.0
  0
LINE
  5
207
330
1F
100
AcDbEntity
  8
0
  6
Continuous
 62
     1
370
    25
100
AcDbLine
 10
168.2017825097
 20
112.8876945219
 30
0.0
 11
168.197493355
 21
112.9219594806
 31
0.0
  0
ARC
  5
208
330
1F
100
AcDbEntity
  8
0
  6
Continuous
 62
     1
370
    25
100
AcDbCircle
 10
160.4375917943
 20
113.1327333724
 30
0.0
 40
0.2018471228259858
100
AcDbArc
 50
54.3819324943
 51
113.195819673
  0
ARC
  5
209
330
1F
100
AcDbEntity
  8
0
  6
Continuous
 62
     1
370
    25
100
AcDbCircle
 10
164.59332868
 20
113.1325738069
 30
0.0
 40
0.2020100982270241
100
AcDbArc
 50
66.9540861977
 51
125.604877016
  0
ARC
  5
20A
330
1F
100
AcDbEntity
  8
0
  6
Continuous
 62
     1
370
    25
100
AcDbCircle
 10
172.6603293268
 20
102.8996752065
 30
0.0
 40
0.4883423955953471
100
AcDbArc
 50
244.6571039874
 51
306.6087954523
  0
ARC
  5
20B
330
1F
100
AcDbEntity
  8
0
  6
Continuous
 62
     1
370
    25
100
AcDbCircle
 10
152.3720479044
 20
102.914691986
 30
0.0
 40
0.5013592914520066
100
AcDbArc
 50
234.2757750644
 51
294.4137665065
  0
ARC
  5
20C
330
1F
100
AcDbEntity
  8
0
  6
Continuous
 62
     1
370
    25
100
AcDbCircle
 10
162.3983373147
 20
114.2656599515
 30
0.0
 40
0.2005437165809789
100
AcDbArc
 50
54.2757750645
 51
114.4137665065
  0
ARC
  5
20D
330
1F
100
AcDbEntity
  8
0
  6
Continuous
 62
     1
370
    25
100
AcDbCircle
 10
162.6325260549
 20
114.2656599515
 30
0.0
 40
0.2005437165808293
100
AcDbArc
 50
65.5862334935
 51
125.7242249356
  0
ARC
  5
20E
330
1F
100
AcDbEntity
  8
0
  6
Continuous
 62
     7
370
    25
100
AcDbCircle
 10
123.0569885616
 20
195.9391366303
 30
0.0
 40
1.0
100
AcDbArc
 50
270.0
 51
347.3747401537
  0
ARC
  5
20F
330
1F
100
AcDbEntity
  8
0
  6
Continuous
 62
     7
370
    25
100
AcDbCircle
 10
126.417987701
 20
204.5391366303
 30
0.0
 40
0.3999999999999865
100
AcDbArc
 50
90.0
 51
167.3747401537
  0
ARC
  5
210
330
1F
100
AcDbEntity
  8
0
  6
Continuous
 62
     7
370
    25
100
AcDbCircle
 10
141.3839748177
 20
204.5391366303
 30
0.0
 40
0.4000000000000142
100
AcDbArc
 50
12.6252598463
 51
90.0
  0
ARC
  5
211
330
1F
100
AcDbEntity
  8
0
  6
Continuous
 62
     7
370
    25
100
AcDbCircle
 10
144.744973957
 20
195.9391366303
 30
0.0
 40
1.000000000000011
100
AcDbArc
 50
192.6252598463
 51
270.0
  0
LINE
  5
212
330
1F
100
AcDbEntity
  8
0
  6
Continuous
 62
     7
370
    25
100
AcDbLine
 10
118.9009812593
 20
164.9391366303
 30
0.0
 11
118.9009812593
 21
194.9391366303
 31
0.0
  0
LINE
  5
213
330
1F
100
AcDbEntity
  8
0
  6
Continuous
 62
     7
370
    25
100
AcDbLine
 10
148.9009812593
 20
194.9391366303
 30
0.0
 11
148.9009812593
 21
164.9391366303
 31
0.0
  0
LINE
  5
214
330
1F
100
AcDbEntity
  8
0
  6
Continuous
 62
     7
370
    25
100
AcDbLine
 10
126.027659503
 20
204.6265660184
 30
0.0
 11
124.0328090565
 21
195.7205631602
 31
0.0
  0
LINE
  5
215
330
1F
100
AcDbEntity
  8
0
  6
Continuous
 62
     7
370
    25
100
AcDbLine
 10
129.8009812593
 20
204.9391366303
 30
0.0
 11
129.8009812593
 21
175.4391366303
 31
0.0
  0
LINE
  5
216
330
1F
100
AcDbEntity
  8
0
  6
Continuous
 62
     7
370
    25
100
AcDbLine
 10
129.8009812593
 20
175.4391366303
 30
0.0
 11
126.8846993207
 21
175.4391366303
 31
0.0
  0
ARC
  5
217
330
1F
100
AcDbEntity
  8
0
  6
Continuous
 62
     7
370
    25
100
AcDbCircle
 10
126.8846993207
 20
175.0391366303
 30
0.0
 40
0.3999999999999939
100
AcDbArc
 50
90.0
 51
167.1650407292
  0
LINE
  5
218
330
1F
100
AcDbEntity
  8
0
  6
Continuous
 62
     7
370
    25
100
AcDbLine
 10
126.4946937231
 20
175.1279940095
 30
0.0
 11
124.1733035449
 21
164.9391366303
 31
0.0
  0
LINE
  5
219
330
1F
100
AcDbEntity
  8
0
  6
Continuous
 62
     7
370
    25
100
AcDbLine
 10
124.1733035449
 20
164.9391366303
 30
0.0
 11
118.9009812593
 21
164.9391366303
 31
0.0
  0
LINE
  5
21A
330
1F
100
AcDbEntity
  8
0
  6
Continuous
 62
     7
370
    25
100
AcDbLine
 10
129.8009812593
 20
204.9391366303
 30
0.0
 11
126.417987701
 21
204.9391366303
 31
0.0
  0
LINE
  5
21B
330
1F
100
AcDbEntity
  8
0
  6
Continuous
 62
     7
370
    25
100
AcDbLine
 10
123.0569885616
 20
194.9391366303
 30
0.0
 11
118.9009812593
 21
194.9391366303
 31
0.0
  0
LINE
  5
21C
330
1F
100
AcDbEntity
  8
0
  6
Continuous
 62
     7
370
    25
100
AcDbLine
 10
126.6100555373
 20
175.1017104164
 30
0.0
 11
124.2946537121
 21
164.9391366303
 31
0.0
  0
LINE
  5
21D
330
1F
100
AcDbEntity
  8
0
  6
Continuous
 62
     7
370
    25
100
AcDbLine
 10
126.4946937231
 20
175.1279940095
 30
0.0
 11
126.6100555373
 21
175.1017104164
 31
0.0
  0
LINE
  5
21E
330
1F
100
AcDbEntity
  8
0
  6
Continuous
 62
     7
370
    25
100
AcDbLine
 10
124.2946537121
 20
164.9391366303
 30
0.0
 11
124.1733035449
 21
164.9391366303
 31
0.0
  0
ARC
  5
21F
330
1F
100
AcDbEntity
  8
0
  6
Continuous
 62
     7
370
    25
100
AcDbCircle
 10
126.943635867
 20
175.1106814591
 30
0.0
 40
0.3337009379804808
100
AcDbArc
 50
100.1726470198
 51
181.5404955812
  0
LINE
  5
220
330
1F
100
AcDbEntity
  8
0
  6
Continuous
 62
     7
370
    25
100
AcDbLine
 10
138.0009812593
 20
175.4391366303
 30
0.0
 11
138.0009812593
 21
204.9391366303
 31
0.0
  0
LINE
  5
221
330
1F
100
AcDbEntity
  8
0
  6
Continuous
 62
     7
370
    25
100
AcDbLine
 10
138.0009812593
 20
175.4391366303
 30
0.0
 11
129.8009812593
 21
175.4391366303
 31
0.0
  0
LINE
  5
222
330
1F
100
AcDbEntity
  8
0
  6
Continuous
 62
     7
370
    25
100
AcDbLine
 10
138.0009812593
 20
204.9391366303
 30
0.0
 11
129.8009812593
 21
204.9391366303
 31
0.0
  0
LINE
  5
223
330
1F
100
AcDbEntity
  8
0
  6
Continuous
 62
     7
370
    25
100
AcDbLine
 10
143.6286589738
 20
164.9391366303
 30
0.0
 11
141.3072687956
 21
175.1279940095
 31
0.0
  0
ARC
  5
224
330
1F
100
AcDbEntity
  8
0
  6
Continuous
 62
     7
370
    25
100
AcDbCircle
 10
140.917263198
 20
175.0391366303
 30
0.0
 40
0.4000000000000077
100
AcDbArc
 50
12.8349592708
 51
90.0
  0
LINE
  5
225
330
1F
100
AcDbEntity
  8
0
  6
Continuous
 62
     7
370
    25
100
AcDbLine
 10
143.7691534622
 20
195.7205631602
 30
0.0
 11
141.7743030156
 21
204.6265660184
 31
0.0
  0
LINE
  5
226
330
1F
100
AcDbEntity
  8
0
  6
Continuous
 62
     7
370
    25
100
AcDbLine
 10
140.917263198
 20
175.4391366303
 30
0.0
 11
138.0009812593
 21
175.4391366303
 31
0.0
  0
LINE
  5
227
330
1F
100
AcDbEntity
  8
0
  6
Continuous
 62
     7
370
    25
100
AcDbLine
 10
148.9009812593
 20
164.9391366303
 30
0.0
 11
143.6286589738
 21
164.9391366303
 31
0.0
  0
LINE
  5
228
330
1F
100
AcDbEntity
  8
0
  6
Continuous
 62
     7
370
    25
100
AcDbLine
 10
141.3839748177
 20
204.9391366303
 30
0.0
 11
138.0009812593
 21
204.9391366303
 31
0.0
  0
LINE
  5
229
330
1F
100
AcDbEntity
  8
0
  6
Continuous
 62
     7
370
    25
100
AcDbLine
 10
148.9009812593
 20
194.9391366303
 30
0.0
 11
144.744973957
 21
194.9391366303
 31
0.0
  0
ARC
  5
22A
330
1F
100
AcDbEntity
  8
0
  6
Continuous
 62
     7
370
    25
100
AcDbCircle
 10
127.4309837762
 20
175.0518345242
 30
0.0
 40
0.3873242272043394
100
AcDbArc
 50
90.6123572572
 51
172.6014562961
  0
LINE
  5
22B
330
1F
100
AcDbEntity
  8
0
  6
Continuous
 62
     7
370
    25
100
AcDbLine
 10
127.0468842418
 20
175.1017104164
 30
0.0
 11
126.6100555373
 21
175.1017104164
 31
0.0
  0
ARC
  5
22C
330
1F
100
AcDbEntity
  8
0
  6
Continuous
 62
     7
370
    25
100
AcDbCircle
 10
140.8583266516
 20
175.1106814591
 30
0.0
 40
0.33370093798048
100
AcDbArc
 50
358.4595044188
 51
79.8273529802
  0
LINE
  5
22D
330
1F
100
AcDbEntity
  8
0
  6
Continuous
 62
     7
370
    25
100
AcDbLine
 10
141.1919069814
 20
175.1017104164
 30
0.0
 11
141.3072687956
 21
175.1279940095
 31
0.0
  0
LINE
  5
22E
330
1F
100
AcDbEntity
  8
0
  6
Continuous
 62
     7
370
    25
100
AcDbLine
 10
143.5073088066
 20
164.9391366303
 30
0.0
 11
141.1919069814
 21
175.1017104164
 31
0.0
  0
LINE
  5
22F
330
1F
100
AcDbEntity
  8
0
  6
Continuous
 62
     7
370
    25
100
AcDbLine
 10
143.6286589738
 20
164.9391366303
 30
0.0
 11
143.5073088066
 21
164.9391366303
 31
0.0
  0
LINE
  5
230
330
1F
100
AcDbEntity
  8
0
  6
Continuous
 62
     7
370
    25
100
AcDbLine
 10
141.1919069814
 20
175.1017104164
 30
0.0
 11
140.7550782769
 21
175.1017104164
 31
0.0
  0
ARC
  5
231
330
1F
100
AcDbEntity
  8
0
  6
Continuous
 62
     7
370
    25
100
AcDbCircle
 10
140.3709787425
 20
175.0518345242
 30
0.0
 40
0.3873242272043713
100
AcDbArc
 50
7.3985437039
 51
89.3876427428
  0
LINE
  5
232
330
1F
100
AcDbEntity
  8
0
  6
Continuous
 62
     7
370
    25
100
AcDbLine
 10
127.0468842418
 20
175.1017104164
 30
0.0
 11
125.5307017028
 21
164.9391366303
 31
0.0
  0
LINE
  5
233
330
1F
100
AcDbEntity
  8
0
  6
Continuous
 62
     7
370
    25
100
AcDbLine
 10
124.2946537121
 20
164.9391366303
 30
0.0
 11
125.5307017028
 21
164.9391366303
 31
0.0
  0
LINE
  5
234
330
1F
100
AcDbEntity
  8
0
  6
Continuous
 62
     7
370
    25
100
AcDbLine
 10
140.7550782769
 20
175.1017104164
 30
0.0
 11
142.2712608158
 21
164.9391366303
 31
0.0
  0
LINE
  5
235
330
1F
100
AcDbEntity
  8
0
  6
Continuous
 62
     7
370
    25
100
AcDbLine
 10
142.2712608158
 20
164.9391366303
 30
0.0
 11
143.5073088066
 21
164.9391366303
 31
0.0
  0
ARC
  5
236
330
1F
100
AcDbEntity
  8
0
  6
Continuous
 62
     7
370
    25
100
AcDbCircle
 10
128.951635925
 20
175.0371602145
 30
0.0
 40
0.4019770475336814
100
AcDbArc
 50
89.8984283758
 51
170.7593318381
  0
LINE
  5
237
330
1F
100
AcDbEntity
  8
0
  6
Continuous
 62
     7
370
    25
100
AcDbLine
 10
128.554875521
 20
175.1017104164
 30
0.0
 11
127.0468842418
 21
175.1017104164
 31
0.0
  0
LINE
  5
238
330
1F
100
AcDbEntity
  8
0
  6
Continuous
 62
     7
370
    25
100
AcDbLine
 10
140.7550782769
 20
175.1017104164
 30
0.0
 11
139.2470869976
 21
175.1017104164
 31
0.0
  0
ARC
  5
239
330
1F
100
AcDbEntity
  8
0
  6
Continuous
 62
     7
370
    25
100
AcDbCircle
 10
138.8503265936
 20
175.0371602145
 30
0.0
 40
0.4019770475336814
100
AcDbArc
 50
9.2406681619
 51
90.1015716242
  0
LINE
  5
23A
330
1F
100
AcDbEntity
  8
0
  6
Continuous
 62
     7
370
    25
100
AcDbLine
 10
128.554875521
 20
175.1017104164
 30
0.0
 11
126.9362548574
 21
164.9391366303
 31
0.0
  0
LINE
  5
23B
330
1F
100
AcDbEntity
  8
0
  6
Continuous
 62
     7
370
    25
100
AcDbLine
 10
126.9362548574
 20
164.9391366303
 30
0.0
 11
125.5307017028
 21
164.9391366303
 31
0.0
  0
LINE
  5
23C
330
1F
100
AcDbEntity
  8
0
  6
Continuous
 62
     7
370
    25
100
AcDbLine
 10
139.2470869976
 20
175.1017104164
 30
0.0
 11
140.8657076613
 21
164.9391366303
 31
0.0
  0
LINE
  5
23D
330
1F
100
AcDbEntity
  8
0
  6
Continuous
 62
     7
370
    25
100
AcDbLine
 10
142.2712608158
 20
164.9391366303
 30
0.0
 11
140.8657076613
 21
164.9391366303
 31
0.0
  0
LWPOLYLINE
  5
23E
330
1F
100
AcDbEntity
  8
0
  6
Continuous
 62
     7
370
    25
100
AcDbPolyline
 90
        7
 70
   128
 43
0.0
 10
138.1081608695
 20
175.4391366303
 10
138.1098202498
 20
175.4391101146
 10
138.123278698
 20
175.4369221554
 10
138.169598342
 20
175.4003526209
 10
138.2070873449
 20
175.3267554087
 10
138.233816973
 20
175.224824381
 10
138.2480324811
 20
175.1017104164
  0
LINE
  5
23F
330
1F
100
AcDbEntity
  8
0
  6
Continuous
 62
     7
370
    25
100
AcDbLine
 10
138.2480324811
 20
175.1017104164
 30
0.0
 11
134.6074194827
 21
175.1017104164
 31
0.0
  0
LWPOLYLINE
  5
240
330
1F
100
AcDbEntity
  8
0
  6
Continuous
 62
     7
370
    25
100
AcDbPolyline
 90
        7
 70
   128
 43
0.0
 10
134.4252677856
 20
175.4391366303
 10
134.4273712074
 20
175.4391101146
 10
134.4444820497
 20
175.4369221554
 10
134.5040663892
 20
175.4003526209
 10
134.553079966
 20
175.3267554087
 10
134.588458063
 20
175.224824381
 10
134.6074194827
 20
175.1017104164
  0
ARC
  5
241
330
1F
100
AcDbEntity
  8
0
  6
Continuous
 62
     7
370
    25
100
AcDbCircle
 10
143.5962649149
 20
175.1775516857
 30
0.0
 40
4.741244727414825
100
AcDbArc
 50
176.8372593467
 51
180.9165462294
  0
LINE
  5
242
330
1F
100
AcDbEntity
  8
0
  6
Continuous
 62
     7
370
    25
100
AcDbLine
 10
138.8556268073
 20
175.1017104164
 30
0.0
 11
138.2480324811
 21
175.1017104164
 31
0.0
  0
LWPOLYLINE
  5
243
330
1F
100
AcDbEntity
  8
0
  6
Continuous
 62
     7
370
    25
100
AcDbPolyline
 90
        7
 70
   128
 43
0.0
 10
129.6938016492
 20
175.4391366303
 10
129.6921422688
 20
175.4391101146
 10
129.6786838206
 20
175.4369221554
 10
129.6323641766
 20
175.4003526209
 10
129.5948751737
 20
175.3267554087
 10
129.5681455457
 20
175.224824381
 10
129.5539300375
 20
175.1017104164
  0
LINE
  5
244
330
1F
100
AcDbEntity
  8
0
  6
Continuous
 62
     7
370
    25
100
AcDbLine
 10
129.5539300375
 20
175.1017104164
 30
0.0
 11
128.9463357114
 21
175.1017104164
 31
0.0
  0
ARC
  5
245
330
1F
100
AcDbEntity
  8
0
  6
Continuous
 62
     7
370
    25
100
AcDbCircle
 10
124.2056976038
 20
175.1775516857
 30
0.0
 40
4.741244727424882
100
AcDbArc
 50
359.0834537706
 51
3.1627406533
  0
LWPOLYLINE
  5
246
330
1F
100
AcDbEntity
  8
0
  6
Continuous
 62
     7
370
    25
100
AcDbPolyline
 90
        7
 70
   128
 43
0.0
 10
133.3766947331
 20
175.4391366303
 10
133.3745913113
 20
175.4391101146
 10
133.3574804689
 20
175.4369221554
 10
133.2978961294
 20
175.4003526209
 10
133.2488825527
 20
175.3267554087
 10
133.2135044557
 20
175.224824381
 10
133.1945430359
 20
175.1017104164
  0
LINE
  5
247
330
1F
100
AcDbEntity
  8
0
  6
Continuous
 62
     7
370
    25
100
AcDbLine
 10
133.1945430359
 20
175.1017104164
 30
0.0
 11
129.5539300375
 21
175.1017104164
 31
0.0
  0
LINE
  5
248
330
1F
100
AcDbEntity
  8
0
  6
Continuous
 62
     7
370
    25
100
AcDbLine
 10
140.492863139
 20
164.9391366303
 30
0.0
 11
138.8556268073
 21
175.1017104164
 31
0.0
  0
ARC
  5
249
330
1F
100
AcDbEntity
  8
0
  6
Continuous
 62
     7
370
    25
100
AcDbCircle
 10
139.0564442785
 20
174.4731333731
 30
0.0
 40
0.659876318743411
100
AcDbArc
 50
72.2823854397
 51
107.7176145603
  0
LINE
  5
24A
330
1F
100
AcDbEntity
  8
0
  6
Continuous
 62
     7
370
    25
100
AcDbLine
 10
140.8657076613
 20
164.9391366303
 30
0.0
 11
140.492863139
 21
164.9391366303
 31
0.0
  0
ARC
  5
24B
330
1F
100
AcDbEntity
  8
0
  6
Continuous
 62
     7
370
    25
100
AcDbCircle
 10
128.7455182401
 20
174.4731333731
 30
0.0
 40
0.6598763187435008
100
AcDbArc
 50
72.2823854397
 51
107.7176145603
  0
LINE
  5
24C
330
1F
100
AcDbEntity
  8
0
  6
Continuous
 62
     7
370
    25
100
AcDbLine
 10
128.9463357114
 20
175.1017104164
 30
0.0
 11
127.3090993796
 21
164.9391366303
 31
0.0
  0
LINE
  5
24D
330
1F
100
AcDbEntity
  8
0
  6
Continuous
 62
     7
370
    25
100
AcDbLine
 10
127.3090993796
 20
164.9391366303
 30
0.0
 11
126.9362548574
 21
164.9391366303
 31
0.0
  0
LINE
  5
24E
330
1F
100
AcDbEntity
  8
0
  6
Continuous
 62
     7
370
    25
100
AcDbLine
 10
134.6074194827
 20
175.1017104164
 30
0.0
 11
135.3803122387
 21
164.9391366303
 31
0.0
  0
LINE
  5
24F
330
1F
100
AcDbEntity
  8
0
  6
Continuous
 62
     7
370
    25
100
AcDbLine
 10
138.2480324811
 20
175.1017104164
 30
0.0
 11
138.773617727
 21
164.9391366303
 31
0.0
  0
LINE
  5
250
330
1F
100
AcDbEntity
  8
0
  6
Continuous
 62
     7
370
    25
100
AcDbLine
 10
138.773617727
 20
164.9391366303
 30
0.0
 11
135.3803122387
 21
164.9391366303
 31
0.0
  0
LINE
  5
251
330
1F
100
AcDbEntity
  8
0
  6
Continuous
 62
     7
370
    25
100
AcDbLine
 10
138.773617727
 20
164.9391366303
 30
0.0
 11
140.492863139
 21
164.9391366303
 31
0.0
  0
LINE
  5
252
330
1F
100
AcDbEntity
  8
0
  6
Continuous
 62
     7
370
    25
100
AcDbLine
 10
129.5539300375
 20
175.1017104164
 30
0.0
 11
129.0283447916
 21
164.9391366303
 31
0.0
  0
LINE
  5
253
330
1F
100
AcDbEntity
  8
0
  6
Continuous
 62
     7
370
    25
100
AcDbLine
 10
127.3090993796
 20
164.9391366303
 30
0.0
 11
129.0283447916
 21
164.9391366303
 31
0.0
  0
LINE
  5
254
330
1F
100
AcDbEntity
  8
0
  6
Continuous
 62
     7
370
    25
100
AcDbLine
 10
133.1945430359
 20
175.1017104164
 30
0.0
 11
132.42165028
 21
164.9391366303
 31
0.0
  0
LINE
  5
255
330
1F
100
AcDbEntity
  8
0
  6
Continuous
 62
     7
370
    25
100
AcDbLine
 10
132.42165028
 20
164.9391366303
 30
0.0
 11
129.0283447916
 21
164.9391366303
 31
0.0
  0
ARC
  5
256
330
1F
100
AcDbEntity
  8
0
  6
Continuous
 62
     7
370
    25
100
AcDbCircle
 10
133.9542833847
 20
175.1060456723
 30
0.0
 40
0.3373287757076783
100
AcDbArc
 50
99.0915469014
 51
180.7363697467
  0
LINE
  5
257
330
1F
100
AcDbEntity
  8
0
  6
Continuous
 62
     7
370
    25
100
AcDbLine
 10
133.6169824679
 20
175.1017104164
 30
0.0
 11
133.1945430359
 21
175.1017104164
 31
0.0
  0
LINE
  5
258
330
1F
100
AcDbEntity
  8
0
  6
Continuous
 62
     7
370
    25
100
AcDbLine
 10
134.6074194827
 20
175.1017104164
 30
0.0
 11
134.1849800507
 21
175.1017104164
 31
0.0
  0
ARC
  5
259
330
1F
100
AcDbEntity
  8
0
  6
Continuous
 62
     7
370
    25
100
AcDbCircle
 10
133.8476791339
 20
175.1060456723
 30
0.0
 40
0.3373287757077348
100
AcDbArc
 50
359.2636302533
 51
80.9084530986
  0
LINE
  5
25A
330
1F
100
AcDbEntity
  8
0
  6
Continuous
 62
     7
370
    25
100
AcDbLine
 10
133.6169824679
 20
164.9391366303
 30
0.0
 11
133.6169824679
 21
175.1017104164
 31
0.0
  0
LINE
  5
25B
330
1F
100
AcDbEntity
  8
0
  6
Continuous
 62
     7
370
    25
100
AcDbLine
 10
132.42165028
 20
164.9391366303
 30
0.0
 11
133.6169824679
 21
164.9391366303
 31
0.0
  0
LINE
  5
25C
330
1F
100
AcDbEntity
  8
0
  6
Continuous
 62
     7
370
    25
100
AcDbLine
 10
134.1849800507
 20
175.1017104164
 30
0.0
 11
134.1849800507
 21
164.9391366303
 31
0.0
  0
LINE
  5
25D
330
1F
100
AcDbEntity
  8
0
  6
Continuous
 62
     7
370
    25
100
AcDbLine
 10
134.1849800507
 20
164.9391366303
 30
0.0
 11
135.3803122387
 21
164.9391366303
 31
0.0
  0
ARC
  5
25E
330
1F
100
AcDbEntity
  8
0
  6
Continuous
 62
     7
370
    25
100
AcDbCircle
 10
133.9009812593
 20
173.6244061958
 30
0.0
 40
1.504354703345347
100
AcDbArc
 50
79.1181447838
 51
100.8818552162
  0
LINE
  5
25F
330
1F
100
AcDbEntity
  8
0
  6
Continuous
 62
     7
370
    25
100
AcDbLine
 10
134.1849800507
 20
164.9391366303
 30
0.0
 11
133.6169824679
 21
164.9391366303
 31
0.0
  0
HATCH
  5
260
330
1F
100
AcDbEntity
  8
FORMAT
  6
Continuous
370
    18
100
AcDbHatch
 10
0.0
 20
0.0
 30
0.0
210
0.0
220
0.0
230
1.0
  2
ANSI31
 70
     0
 71
     0
 91
        1
 92
        0
 93
       11
 72
     1
 10
148.9009812593239
 20
164.9391366303437
 11
148.9009812593239
 21
194.9391366303437
 72
     1
 10
148.9009812593239
 20
194.9391366303437
 11
144.7449739570183
 21
194.9391366303437
 72
     2
 10
144.7449739570183
 20
195.9391366303437
 40
1.0
 50
90.0
 51
167.3747401537368
 73
     0
 72
     1
 10
143.7691534621804
 20
195.7205631601915
 11
141.7743030156046
 21
204.6265660184046
 72
     2
 10
141.3839748176694
 20
204.5391366303437
 40
0.4
 50
12.62525984626209
 51
90.0
 73
     1
 72
     1
 10
141.3839748176694
 20
204.9391366303437
 11
138.0009812593239
 21
204.9391366303437
 72
     1
 10
138.0009812593239
 20
204.9391366303437
 11
138.0009812593239
 21
175.4391366303437
 72
     1
 10
138.0009812593239
 20
175.4391366303437
 11
140.917263197953
 21
175.4391366303437
 72
     2
 10
140.917263197953
 20
175.0391366303437
 40
0.4
 50
270.0000000000008
 51
347.1650407292151
 73
     0
 72
     1
 10
141.3072687955568
 20
175.1279940095403
 11
143.6286589737651
 21
164.9391366303437
 72
     1
 10
143.6286589737651
 20
164.9391366303437
 11
148.9009812593239
 21
164.9391366303437
 97
        0
 75
     0
 76
     1
 52
0.0
 41
1.0
 77
     0
 78
     1
 53
45.0
 43
0.0
 44
0.0
 45
-2.245064030267288
 46
2.245064030267288
 79
     0
 98
        1
 10
0.0
 20
0.0
  0
HATCH
  5
261
330
1F
100
AcDbEntity
  8
FORMAT
  6
Continuous
370
    18
100
AcDbHatch
 10
0.0
 20
0.0
 30
0.0
210
0.0
220
0.0
230
1.0
  2
ANSI31
 70
     0
 71
     0
 91
        1
 92
        0
 93
       11
 72
     2
 10
123.0569885616288
 20
195.9391366303437
 40
1.0
 50
12.62525984626324
 51
90.0
 73
     0
 72
     1
 10
123.0569885616288
 20
194.9391366303437
 11
118.9009812593239
 21
194.9391366303437
 72
     1
 10
118.9009812593239
 20
194.9391366303437
 11
118.9009812593239
 21
164.9391366303437
 72
     1
 10
118.9009812593239
 20
164.9391366303437
 11
124.1733035448828
 21
164.9391366303437
 72
     1
 10
124.1733035448828
 20
164.9391366303437
 11
126.4946937230911
 21
175.1279940095403
 72
     2
 10
126.8846993206949
 20
175.0391366303437
 40
0.4
 50
192.834959270787
 51
270.0000000000008
 73
     0
 72
     1
 10
126.8846993206949
 20
175.4391366303437
 11
129.8009812593239
 21
175.4391366303437
 72
     1
 10
129.8009812593239
 20
175.4391366303437
 11
129.8009812593239
 21
204.9391366303437
 72
     1
 10
129.8009812593239
 20
204.9391366303437
 11
126.4179877009777
 21
204.9391366303437
 72
     2
 10
126.4179877009777
 20
204.5391366303437
 40
0.4
 50
90.0
 51
167.374740153737
 73
     1
 72
     1
 10
126.0276595030425
 20
204.6265660184046
 11
124.0328090564667
 21
195.7205631601915
 97
        0
 75
     0
 76
     1
 52
0.0
 41
1.0
 77
     0
 78
     1
 53
45.0
 43
0.0
 44
0.0
 45
-2.245064030267288
 46
2.245064030267288
 79
     0
 98
        1
 10
0.0
 20
0.0
  0
DIMENSION
  5
262
330
1F
100
AcDbEntity
  8
FORMAT
 62
     7
100
AcDbDimension
  2
_D_1
 10
158.9009812593
 20
164.9391366303
 30
0.0
 11
158.9009812593
 21
179.9391366303
 31
0.0
 70
   160
  1
<>
 71
     2
 42
-1.0
  3
SLDDIMSTYLE0
100
AcDbAlignedDimension
 13
148.9009812593
 23
194.9391366303
 33
0.0
 14
148.9009812593
 24
164.9391366303
 34
0.0
 50
90.0
100
AcDbRotatedDimension
  0
DIMENSION
  5
26C
330
1F
100
AcDbEntity
  8
FORMAT
 62
     7
100
AcDbDimension
  2
_D_2
 10
167.3784002253
 20
164.9391366303
 30
0.0
 11
167.3784002253
 21
184.9391366303
 31
0.0
 70
   160
  1
<>
 71
     2
 42
-1.0
  3
SLDDIMSTYLE0
100
AcDbAlignedDimension
 13
138.0009812593
 23
204.9391366303
 33
0.0
 14
138.773617727
 24
164.9391366303
 34
0.0
 50
90.0
100
AcDbRotatedDimension
  0
DIMENSION
  5
276
330
1F
100
AcDbEntity
  8
FORMAT
 62
     7
100
AcDbDimension
  2
_D_3
 10
129.8009812593
 20
212.5125350449
 30
0.0
 11
147.5735172248
 21
212.5125350449
 31
0.0
 70
   160
  1
%%c<>
 71
     2
 42
-1.0
  3
SLDDIMSTYLE1
100
AcDbAlignedDimension
 13
138.0009812593
 23
204.9391366303
 33
0.0
 14
129.8009812593
 24
204.9391366303
 34
0.0
100
AcDbRotatedDimension
  0
DIMENSION
  5
284
330
1F
100
AcDbEntity
  8
FORMAT
 62
     7
100
AcDbDimension
  2
_D_4
 10
114.4002222649
 20
164.9391366303
 30
0.0
 11
114.4002222649
 21
184.9391366303
 31
0.0
 70
   160
  1
<>
 71
     2
 42
-1.0
  3
SLDDIMSTYLE1
100
AcDbAlignedDimension
 13
129.6938016492
 23
175.4391366303
 33
0.0
 14
135.3803122387
 24
164.9391366303
 34
0.0
 50
90.0
100
AcDbRotatedDimension
  0
MTEXT
  5
290
330
1F
100
AcDbEntity
  8
FORMAT
100
AcDbMText
 10
133.8002873704
 20
225.1761421014
 30
0.0
 40
5.0
 41
0.0
 71
     2
 72
     1
  1
A-A
  7
SLDTEXTSTYLE0
 73
     1
 44
1.0
  0
LINE
  5
291
330
1F
100
AcDbEntity
  8
FORMAT
  6
CENTERX2
 62
     7
370
    18
100
AcDbLine
 10
133.9009812593
 20
206.9391366303
 30
0.0
 11
133.9009812593
 21
161.1758706309
 31
0.0
  0
ENDSEC
  0
SECTION
  2
OBJECTS
  0
DICTIONARY
  5
C
330
0
100
AcDbDictionary
281
     1
  3
ACAD_GROUP
350
D
  3
ACAD_LAYOUT
350
1A
  3
ACAD_MLINESTYLE
350
17
  3
ACAD_PLOTSETTINGS
350
19
  3
ACAD_PLOTSTYLENAME
350
E
  3
ACAD_SCALELIST
350
47
  3
DWGPROPS
350
292
  0
DICTIONARY
  5
D
102
{ACAD_REACTORS
330
C
102
}
330
C
100
AcDbDictionary
281
     1
  0
DICTIONARY
  5
1A
102
{ACAD_REACTORS
330
C
102
}
330
C
100
AcDbDictionary
281
     1
  3
Layout1
350
1E
  3
Layout2
350
26
  3
Model
350
22
  0
DICTIONARY
  5
17
102
{ACAD_REACTORS
330
C
102
}
330
C
100
AcDbDictionary
281
     1
  3
Standard
350
18
  0
DICTIONARY
  5
19
102
{ACAD_REACTORS
330
C
102
}
330
C
100
AcDbDictionary
281
     1
  0
ACDBDICTIONARYWDFLT
  5
E
102
{ACAD_REACTORS
330
C
102
}
330
C
100
AcDbDictionary
281
     1
  3
Normal
350
F
100
AcDbDictionaryWithDefault
340
F
  0
DICTIONARY
  5
47
102
{ACAD_REACTORS
330
C
102
}
330
C
100
AcDbDictionary
281
     1
  3
A0
350
48
  3
A1
350
49
  3
A2
350
4A
  3
A3
350
4B
  3
A4
350
4C
  3
A5
350
4D
  3
A6
350
4E
  3
A7
350
4F
  3
A8
350
50
  3
A9
350
51
  3
B0
350
52
  3
B1
350
53
  3
B2
350
54
  3
B3
350
55
  3
B4
350
56
  3
B5
350
57
  3
B6
350
58
  3
B7
350
59
  3
B8
350
5A
  3
B9
350
5B
  3
C0
350
5C
  3
C1
350
5D
  3
C2
350
5E
  3
C3
350
5F
  3
C4
350
60
  3
C5
350
61
  3
C6
350
62
  3
C7
350
63
  3
C8
350
64
  3
C9
350
65
  3
D0
350
66
  3
D1
350
67
  3
D2
350
68
  0
XRECORD
  5
292
102
{ACAD_REACTORS
330
C
102
}
330
C
100
AcDbXrecord
280
     1
  1
DWGPROPS COOKIE
  2

  3

  4

  6

  7

  8
beland
  9

300
=
301
=
302
=
303
=
304
=
305
=
306
=
307
=
308
=
309
=
 40
0.0
 41
2459892.542408704
 42
2459892.542410151
  1

 90
        0
  0
LAYOUT
  5
1E
102
{ACAD_REACTORS
330
1A
102
}
330
1A
100
AcDbPlotSettings
  1

  2
none_device
  4

  6

 40
0.0
 41
0.0
 42
0.0
 43
0.0
 44
0.0
 45
0.0
 46
0.0
 47
0.0
 48
0.0
 49
0.0
140
0.0
141
0.0
142
1.0
143
1.0
 70
   688
 72
     1
 73
     0
 74
     5
  7

 75
    16
147
1.0
148
0.0
149
0.0
100
AcDbLayout
  1
Layout1
 70
     1
 71
     1
 10
0.0
 20
0.0
 11
420.0
 21
297.0
 12
0.0
 22
0.0
 32
0.0
 14
1.0000000000E+20
 24
1.0000000000E+20
 34
1.0000000000E+20
 15
-1.0000000000E+20
 25
-1.0000000000E+20
 35
-1.0000000000E+20
146
0.0
 13
0.0
 23
0.0
 33
0.0
 16
1.0
 26
0.0
 36
0.0
 17
0.0
 27
1.0
 37
0.0
 76
     0
330
1B
  0
LAYOUT
  5
26
102
{ACAD_REACTORS
330
1A
102
}
330
1A
100
AcDbPlotSettings
  1

  2
none_device
  4

  6

 40
0.0
 41
0.0
 42
0.0
 43
0.0
 44
0.0
 45
0.0
 46
0.0
 47
0.0
 48
0.0
 49
0.0
140
0.0
141
0.0
142
1.0
143
1.0
 70
   688
 72
     1
 73
     0
 74
     5
  7

 75
    16
147
1.0
148
0.0
149
0.0
100
AcDbLayout
  1
Layout2
 70
     1
 71
     2
 10
0.0
 20
0.0
 11
0.0
 21
0.0
 12
0.0
 22
0.0
 32
0.0
 14
0.0
 24
0.0
 34
0.0
 15
0.0
 25
0.0
 35
0.0
146
0.0
 13
0.0
 23
0.0
 33
0.0
 16
1.0
 26
0.0
 36
0.0
 17
0.0
 27
1.0
 37
0.0
 76
     0
330
23
  0
LAYOUT
  5
22
102
{ACAD_REACTORS
330
1A
102
}
330
1A
100
AcDbPlotSettings
  1

  2
none_device
  4
Letter_(8.50_x_11.00_Inches)
  6

 40
6.35
 41
6.35
 42
6.35000508
 43
6.35000508
 44
215.9
 45
279.4
 46
0.0
 47
0.0
 48
0.0
 49
0.0
140
0.0
141
0.0
142
1.0
143
1.0
 70
  1712
 72
     1
 73
     0
 74
     0
  7

 75
     0
147
1.0
148
0.0
149
0.0
100
AcDbLayout
  1
Model
 70
     1
 71
     0
 10
0.0
 20
0.0
 11
210.0
 21
297.0
 12
0.0
 22
0.0
 32
0.0
 14
0.0
 24
0.0
 34
0.0
 15
210.0
 25
297.0
 35
0.0
146
0.0
 13
0.0
 23
0.0
 33
0.0
 16
1.0
 26
0.0
 36
0.0
 17
0.0
 27
1.0
 37
0.0
 76
     0
330
1F
331
29
  0
MLINESTYLE
  5
18
102
{ACAD_REACTORS
330
17
102
}
330
17
100
AcDbMlineStyle
  2
Standard
 70
     0
  3

 62
   256
 51
90.0
 52
90.0
 71
     2
 49
0.5
 62
   256
  6
BYLAYER
 49
-0.5
 62
   256
  6
BYLAYER
  0
ACDBPLACEHOLDER
  5
F
102
{ACAD_REACTORS
330
E
102
}
330
E
  0
SCALE
  5
48
102
{ACAD_REACTORS
330
47
102
}
330
47
100
AcDbScale
 70
     0
300
1:1
140
1.0
141
1.0
290
     1
  0
SCALE
  5
49
102
{ACAD_REACTORS
330
47
102
}
330
47
100
AcDbScale
 70
     0
300
1:2
140
1.0
141
2.0
290
     0
  0
SCALE
  5
4A
102
{ACAD_REACTORS
330
47
102
}
330
47
100
AcDbScale
 70
     0
300
1:4
140
1.0
141
4.0
290
     0
  0
SCALE
  5
4B
102
{ACAD_REACTORS
330
47
102
}
330
47
100
AcDbScale
 70
     0
300
1:5
140
1.0
141
5.0
290
     0
  0
SCALE
  5
4C
102
{ACAD_REACTORS
330
47
102
}
330
47
100
AcDbScale
 70
     0
300
1:8
140
1.0
141
8.0
290
     0
  0
SCALE
  5
4D
102
{ACAD_REACTORS
330
47
102
}
330
47
100
AcDbScale
 70
     0
300
1:10
140
1.0
141
10.0
290
     0
  0
SCALE
  5
4E
102
{ACAD_REACTORS
330
47
102
}
330
47
100
AcDbScale
 70
     0
300
1:16
140
1.0
141
16.0
290
     0
  0
SCALE
  5
4F
102
{ACAD_REACTORS
330
47
102
}
330
47
100
AcDbScale
 70
     0
300
1:20
140
1.0
141
20.0
290
     0
  0
SCALE
  5
50
102
{ACAD_REACTORS
330
47
102
}
330
47
100
AcDbScale
 70
     0
300
1:30
140
1.0
141
30.0
290
     0
  0
SCALE
  5
51
102
{ACAD_REACTORS
330
47
102
}
330
47
100
AcDbScale
 70
     0
300
1:40
140
1.0
141
40.0
290
     0
  0
SCALE
  5
52
102
{ACAD_REACTORS
330
47
102
}
330
47
100
AcDbScale
 70
     0
300
1:50
140
1.0
141
50.0
290
     0
  0
SCALE
  5
53
102
{ACAD_REACTORS
330
47
102
}
330
47
100
AcDbScale
 70
     0
300
1:100
140
1.0
141
100.0
290
     0
  0
SCALE
  5
54
102
{ACAD_REACTORS
330
47
102
}
330
47
100
AcDbScale
 70
     0
300
2:1
140
2.0
141
1.0
290
     0
  0
SCALE
  5
55
102
{ACAD_REACTORS
330
47
102
}
330
47
100
AcDbScale
 70
     0
300
4:1
140
4.0
141
1.0
290
     0
  0
SCALE
  5
56
102
{ACAD_REACTORS
330
47
102
}
330
47
100
AcDbScale
 70
     0
300
8:1
140
8.0
141
1.0
290
     0
  0
SCALE
  5
57
102
{ACAD_REACTORS
330
47
102
}
330
47
100
AcDbScale
 70
     0
300
10:1
140
10.0
141
1.0
290
     0
  0
SCALE
  5
58
102
{ACAD_REACTORS
330
47
102
}
330
47
100
AcDbScale
 70
     0
300
100:1
140
100.0
141
1.0
290
     0
  0
SCALE
  5
59
102
{ACAD_REACTORS
330
47
102
}
330
47
100
AcDbScale
 70
     0
300
1/128" = 1'-0"
140
0.0078125
141
12.0
290
     0
  0
SCALE
  5
5A
102
{ACAD_REACTORS
330
47
102
}
330
47
100
AcDbScale
 70
     0
300
1/64" = 1'-0"
140
0.015625
141
12.0
290
     0
  0
SCALE
  5
5B
102
{ACAD_REACTORS
330
47
102
}
330
47
100
AcDbScale
 70
     0
300
1/32" = 1'-0"
140
0.03125
141
12.0
290
     0
  0
SCALE
  5
5C
102
{ACAD_REACTORS
330
47
102
}
330
47
100
AcDbScale
 70
     0
300
1/16" = 1'-0"
140
0.0625
141
12.0
290
     0
  0
SCALE
  5
5D
102
{ACAD_REACTORS
330
47
102
}
330
47
100
AcDbScale
 70
     0
300
3/32" = 1'-0"
140
0.09375
141
12.0
290
     0
  0
SCALE
  5
5E
102
{ACAD_REACTORS
330
47
102
}
330
47
100
AcDbScale
 70
     0
300
1/8" = 1'-0"
140
0.125
141
12.0
290
     0
  0
SCALE
  5
5F
102
{ACAD_REACTORS
330
47
102
}
330
47
100
AcDbScale
 70
     0
300
3/16" = 1'-0"
140
0.1875
141
12.0
290
     0
  0
SCALE
  5
60
102
{ACAD_REACTORS
330
47
102
}
330
47
100
AcDbScale
 70
     0
300
1/4" = 1'-0"
140
0.25
141
12.0
290
     0
  0
SCALE
  5
61
102
{ACAD_REACTORS
330
47
102
}
330
47
100
AcDbScale
 70
     0
300
3/8" = 1'-0"
140
0.375
141
12.0
290
     0
  0
SCALE
  5
62
102
{ACAD_REACTORS
330
47
102
}
330
47
100
AcDbScale
 70
     0
300
1/2" = 1'-0"
140
0.5
141
12.0
290
     0
  0
SCALE
  5
63
102
{ACAD_REACTORS
330
47
102
}
330
47
100
AcDbScale
 70
     0
300
3/4" = 1'-0"
140
0.75
141
12.0
290
     0
  0
SCALE
  5
64
102
{ACAD_REACTORS
330
47
102
}
330
47
100
AcDbScale
 70
     0
300
1" = 1'-0"
140
1.0
141
12.0
290
     0
  0
SCALE
  5
65
102
{ACAD_REACTORS
330
47
102
}
330
47
100
AcDbScale
 70
     0
300
1-1/2" = 1'-0"
140
1.5
141
12.0
290
     0
  0
SCALE
  5
66
102
{ACAD_REACTORS
330
47
102
}
330
47
100
AcDbScale
 70
     0
300
3" = 1'-0"
140
3.0
141
12.0
290
     0
  0
SCALE
  5
67
102
{ACAD_REACTORS
330
47
102
}
330
47
100
AcDbScale
 70
     0
300
6" = 1'-0"
140
6.0
141
12.0
290
     0
  0
SCALE
  5
68
102
{ACAD_REACTORS
330
47
102
}
330
47
100
AcDbScale
 70
     0
300
1'-0" = 1'-0"
140
12.0
141
12.0
290
     0
  0
ENDSEC
  0
EOF
