  0
SECTION
  2
HEADER
  9
$ACADVER
  1
AC1015
  9
$ACADMAINTVER
 70
     6
  9
$DWGCODEPAGE
  3
ANSI_1252
  9
$INSBASE
 10
0.0
 20
0.0
 30
0.0
  9
$EXTMIN
 10
0.0
 20
0.0
 30
0.0
  9
$EXTMAX
 10
2940.0
 20
2079.0
 30
0.0
  9
$LIMMIN
 10
0.0
 20
0.0
  9
$LIMMAX
 10
2940.0
 20
2079.0
  9
$ORTHOMODE
 70
     0
  9
$REGENMODE
 70
     1
  9
$FILLMODE
 70
     1
  9
$QTEXTMODE
 70
     0
  9
$MIRRTEXT
 70
     1
  9
$LTSCALE
 40
7.0
  9
$ATTMODE
 70
     1
  9
$TEXTSIZE
 40
24.5
  9
$TRACEWID
 40
1.0
  9
$TEXTSTYLE
  7
STANDARD
  9
$CLAYER
  8
0
  9
$CELTYPE
  6
ByLayer
  9
$CECOLOR
 62
   256
  9
$CELTSCALE
 40
1.0
  9
$DISPSILH
 70
     0
  9
$DIMSCALE
 40
1.0
  9
$DIMASZ
 40
23.114
  9
$DIMEXO
 40
7.0
  9
$DIMDLI
 40
3.75
  9
$DIMRND
 40
0.0
  9
$DIMDLE
 40
0.0
  9
$DIMEXE
 40
7.0
  9
$DIMTP
 40
0.0
  9
$DIMTM
 40
0.0
  9
$DIMTXT
 40
24.5
  9
$DIMCEN
 40
2.5
  9
$DIMTSZ
 40
0.0
  9
$DIMTOL
 70
     0
  9
$DIMLIM
 70
     0
  9
$DIMTIH
 70
     1
  9
$DIMTOH
 70
     1
  9
$DIMSE1
 70
     0
  9
$DIMSE2
 70
     0
  9
$DIMTAD
 70
     1
  9
$DIMZIN
 70
     0
  9
$DIMBLK
  1

  9
$DIMASO
 70
     1
  9
$DIMSHO
 70
     1
  9
$DIMPOST
  1

  9
$DIMAPOST
  1

  9
$DIMALT
 70
     0
  9
$DIMALTD
 70
     3
  9
$DIMALTF
 40
0.0393700787
  9
$DIMLFAC
 40
1.0
  9
$DIMTOFL
 70
     1
  9
$DIMTVP
 40
0.0
  9
$DIMTIX
 70
     0
  9
$DIMSOXD
 70
     0
  9
$DIMSAH
 70
     0
  9
$DIMBLK1
  1

  9
$DIMBLK2
  1

  9
$DIMSTYLE
  2
ISO-25
  9
$DIMCLRD
 70
     0
  9
$DIMCLRE
 70
     0
  9
$DIMCLRT
 70
     0
  9
$DIMTFAC
 40
1.0
  9
$DIMGAP
 40
21.0
  9
$DIMJUST
 70
     0
  9
$DIMSD1
 70
     0
  9
$DIMSD2
 70
     0
  9
$DIMTOLJ
 70
     0
  9
$DIMTZIN
 70
     0
  9
$DIMALTZ
 70
     0
  9
$DIMALTTZ
 70
     0
  9
$DIMUPT
 70
     0
  9
$DIMDEC
 70
     2
  9
$DIMTDEC
 70
     2
  9
$DIMALTU
 70
     2
  9
$DIMALTTD
 70
     3
  9
$DIMTXSTY
  7
STANDARD
  9
$DIMAUNIT
 70
     0
  9
$DIMADEC
 70
     2
  9
$DIMALTRND
 40
0.0
  9
$DIMAZIN
 70
     0
  9
$DIMDSEP
 70
    44
  9
$DIMATFIT
 70
     3
  9
$DIMFRAC
 70
     0
  9
$DIMLDRBLK
  1

  9
$DIMLUNIT
 70
     2
  9
$DIMLWD
 70
    -2
  9
$DIMLWE
 70
    -2
  9
$DIMTMOVE
 70
     0
  9
$LUNITS
 70
     2
  9
$LUPREC
 70
     2
  9
$SKETCHINC
 40
1.0
  9
$FILLETRAD
 40
10.0
  9
$AUNITS
 70
     0
  9
$AUPREC
 70
     2
  9
$MENU
  1
.
  9
$ELEVATION
 40
0.0
  9
$PELEVATION
 40
0.0
  9
$THICKNESS
 40
0.0
  9
$LIMCHECK
 70
     0
  9
$CHAMFERA
 40
0.0
  9
$CHAMFERB
 40
0.0
  9
$CHAMFERC
 40
0.0
  9
$CHAMFERD
 40
0.0
  9
$SKPOLY
 70
     0
  9
$TDCREATE
 40
2460005.364615359
  9
$TDUCREATE
 40
2460005.322948692
  9
$TDUPDATE
 40
2460005.364620602
  9
$TDUUPDATE
 40
2460005.322953935
  9
$TDINDWG
 40
0.0000000116
  9
$TDUSRTIMER
 40
0.0000000116
  9
$USRTIMER
 70
     1
  9
$ANGBASE
 50
0.0
  9
$ANGDIR
 70
     0
  9
$PDMODE
 70
     0
  9
$PDSIZE
 40
-1.0
  9
$PLINEWID
 40
0.0
  9
$SPLFRAME
 70
     0
  9
$SPLINETYPE
 70
     6
  9
$SPLINESEGS
 70
     8
  9
$HANDSEED
  5
79F
  9
$SURFTAB1
 70
     6
  9
$SURFTAB2
 70
     6
  9
$SURFTYPE
 70
     6
  9
$SURFU
 70
     6
  9
$SURFV
 70
     6
  9
$UCSBASE
  2

  9
$UCSNAME
  2

  9
$UCSORG
 10
0.0
 20
0.0
 30
0.0
  9
$UCSXDIR
 10
1.0
 20
0.0
 30
0.0
  9
$UCSYDIR
 10
0.0
 20
1.0
 30
0.0
  9
$UCSORTHOREF
  2

  9
$UCSORTHOVIEW
 70
     0
  9
$UCSORGTOP
 10
0.0
 20
0.0
 30
0.0
  9
$UCSORGBOTTOM
 10
0.0
 20
0.0
 30
0.0
  9
$UCSORGLEFT
 10
0.0
 20
0.0
 30
0.0
  9
$UCSORGRIGHT
 10
0.0
 20
0.0
 30
0.0
  9
$UCSORGFRONT
 10
0.0
 20
0.0
 30
0.0
  9
$UCSORGBACK
 10
0.0
 20
0.0
 30
0.0
  9
$PUCSBASE
  2

  9
$PUCSNAME
  2

  9
$PUCSORG
 10
0.0
 20
0.0
 30
0.0
  9
$PUCSXDIR
 10
1.0
 20
0.0
 30
0.0
  9
$PUCSYDIR
 10
0.0
 20
1.0
 30
0.0
  9
$PUCSORTHOREF
  2

  9
$PUCSORTHOVIEW
 70
     0
  9
$PUCSORGTOP
 10
0.0
 20
0.0
 30
0.0
  9
$PUCSORGBOTTOM
 10
0.0
 20
0.0
 30
0.0
  9
$PUCSORGLEFT
 10
0.0
 20
0.0
 30
0.0
  9
$PUCSORGRIGHT
 10
0.0
 20
0.0
 30
0.0
  9
$PUCSORGFRONT
 10
0.0
 20
0.0
 30
0.0
  9
$PUCSORGBACK
 10
0.0
 20
0.0
 30
0.0
  9
$USERI1
 70
     0
  9
$USERI2
 70
     0
  9
$USERI3
 70
     0
  9
$USERI4
 70
     0
  9
$USERI5
 70
     0
  9
$USERR1
 40
0.0
  9
$USERR2
 40
0.0
  9
$USERR3
 40
0.0
  9
$USERR4
 40
0.0
  9
$USERR5
 40
0.0
  9
$WORLDVIEW
 70
     1
  9
$SHADEDGE
 70
     3
  9
$SHADEDIF
 70
    70
  9
$TILEMODE
 70
     1
  9
$MAXACTVP
 70
    64
  9
$PINSBASE
 10
0.0
 20
0.0
 30
0.0
  9
$PLIMCHECK
 70
     0
  9
$PEXTMIN
 10
1.0000000000E+20
 20
1.0000000000E+20
 30
1.0000000000E+20
  9
$PEXTMAX
 10
-1.0000000000E+20
 20
-1.0000000000E+20
 30
-1.0000000000E+20
  9
$PLIMMIN
 10
0.0
 20
0.0
  9
$PLIMMAX
 10
420.0
 20
297.0
  9
$UNITMODE
 70
     0
  9
$VISRETAIN
 70
     1
  9
$PLINEGEN
 70
     0
  9
$PSLTSCALE
 70
     1
  9
$TREEDEPTH
 70
  3020
  9
$CMLSTYLE
  2
Standard
  9
$CMLJUST
 70
     0
  9
$CMLSCALE
 40
20.0
  9
$PROXYGRAPHICS
 70
     1
  9
$MEASUREMENT
 70
     1
  9
$CELWEIGHT
370
    -1
  9
$ENDCAPS
280
     0
  9
$JOINSTYLE
280
     0
  9
$LWDISPLAY
290
     1
  9
$INSUNITS
 70
     4
  9
$HYPERLINKBASE
  1

  9
$STYLESHEET
  1

  9
$XEDIT
290
     1
  9
$CEPSNTYPE
380
     0
  9
$PSTYLEMODE
290
     1
  9
$FINGERPRINTGUID
  2
{9f1e015c-cdc9-4843-9274-a8ad36cfb736}
  9
$VERSIONGUID
  2
{FAEB1C32-E019-11D5-929B-00C0DF256EC4}
  9
$EXTNAMES
290
     1
  9
$PSVPSCALE
 40
0.0
  9
$OLESTARTUP
290
     0
  0
ENDSEC
  0
SECTION
  2
CLASSES
  0
CLASS
  1
ACDBDICTIONARYWDFLT
  2
AcDbDictionaryWithDefault
  3
ObjectDBX Classes
 90
        0
280
     0
281
     0
  0
CLASS
  1
VISUALSTYLE
  2
AcDbVisualStyle
  3
ObjectDBX Classes
 90
     4095
280
     0
281
     0
  0
CLASS
  1
MATERIAL
  2
AcDbMaterial
  3
ObjectDBX Classes
 90
     1153
280
     0
281
     0
  0
CLASS
  1
SCALE
  2
AcDbScale
  3
ObjectDBX Classes
 90
     1153
280
     0
281
     0
  0
CLASS
  1
TABLESTYLE
  2
AcDbTableStyle
  3
ObjectDBX Classes
 90
     4095
280
     0
281
     0
  0
CLASS
  1
MLEADERSTYLE
  2
AcDbMLeaderStyle
  3
ACDB_MLEADERSTYLE_CLASS
 90
     4095
280
     0
281
     0
  0
CLASS
  1
SUN
  2
AcDbSun
  3
SCENEOE
 90
     1153
280
     0
281
     0
  0
CLASS
  1
ACDBPLACEHOLDER
  2
AcDbPlaceHolder
  3
ObjectDBX Classes
 90
        0
280
     0
281
     0
  0
CLASS
  1
LAYOUT
  2
AcDbLayout
  3
ObjectDBX Classes
 90
        0
280
     0
281
     0
  0
ENDSEC
  0
SECTION
  2
TABLES
  0
TABLE
  2
VPORT
  5
8
330
0
100
AcDbSymbolTable
 70
     1
  0
VPORT
  5
29
330
8
100
AcDbSymbolTableRecord
100
AcDbViewportTableRecord
  2
*Active
 70
     0
 10
0.0
 20
0.0
 11
1.0
 21
1.0
 12
1470.0
 22
1039.5
 13
0.0
 23
0.0
 14
10.0
 24
10.0
 15
10.0
 25
10.0
 16
0.0
 26
0.0
 36
1.0
 17
0.0
 27
0.0
 37
0.0
 40
2079.0
 41
1.4141414141
 42
50.0
 43
0.0
 44
0.0
 50
0.0
 51
0.0
 71
     0
 72
  2000
 73
     1
 74
     3
 75
     0
 76
     0
 77
     0
 78
     0
281
     0
 65
     1
110
0.0
120
0.0
130
0.0
111
1.0
121
0.0
131
0.0
112
0.0
122
1.0
132
0.0
 79
     0
146
0.0
  0
ENDTAB
  0
TABLE
  2
LTYPE
  5
5
330
0
100
AcDbSymbolTable
 70
     6
  0
LTYPE
  5
14
330
5
100
AcDbSymbolTableRecord
100
AcDbLinetypeTableRecord
  2
ByBlock
 70
     0
  3

 72
    65
 73
     0
 40
0.0
  0
LTYPE
  5
15
330
5
100
AcDbSymbolTableRecord
100
AcDbLinetypeTableRecord
  2
ByLayer
 70
     0
  3

 72
    65
 73
     0
 40
0.0
  0
LTYPE
  5
16
330
5
100
AcDbSymbolTableRecord
100
AcDbLinetypeTableRecord
  2
Continuous
 70
     0
  3
Solid line
 72
    65
 73
     0
 40
0.0
  0
LTYPE
  5
6E
330
5
100
AcDbSymbolTableRecord
100
AcDbLinetypeTableRecord
  2
HIDDEN
 70
     0
  3
Hidden __ __ __ __ __ __ __ __ __ __ __ __ __ __
 72
    65
 73
     2
 40
1.905
 49
1.27
 74
     0
 49
-0.635
 74
     0
  0
LTYPE
  5
6F
330
5
100
AcDbSymbolTableRecord
100
AcDbLinetypeTableRecord
  2
PHANTOM
 70
     0
  3
Phantom ______  __  __  ______  __  __  ______
 72
    65
 73
     6
 40
12.7
 49
6.35
 74
     0
 49
-1.27
 74
     0
 49
1.27
 74
     0
 49
-1.27
 74
     0
 49
1.27
 74
     0
 49
-1.27
 74
     0
  0
LTYPE
  5
70
330
5
100
AcDbSymbolTableRecord
100
AcDbLinetypeTableRecord
  2
CENTER
 70
     0
  3
Center ____ _ ____ _ ____ _ ____ _ ____ _ ____
 72
    65
 73
     4
 40
10.16
 49
6.35
 74
     0
 49
-1.27
 74
     0
 49
1.27
 74
     0
 49
-1.27
 74
     0
  0
LTYPE
  5
71
330
5
100
AcDbSymbolTableRecord
100
AcDbLinetypeTableRecord
  2
CENTERX2
 70
     0
  3
Center (2x) ________  __  ________  __  _____
 72
    65
 73
     4
 40
20.32
 49
12.7
 74
     0
 49
-2.54
 74
     0
 49
2.54
 74
     0
 49
-2.54
 74
     0
  0
LTYPE
  5
72
330
5
100
AcDbSymbolTableRecord
100
AcDbLinetypeTableRecord
  2
DOT2
 70
     0
  3
Dot (.5x) ........................................
 72
    65
 73
     2
 40
0.635
 49
0.0
 74
     0
 49
-0.635
 74
     0
  0
ENDTAB
  0
TABLE
  2
LAYER
  5
2
330
0
100
AcDbSymbolTable
 70
     8
  0
LAYER
  5
10
330
2
100
AcDbSymbolTableRecord
100
AcDbLayerTableRecord
  2
0
 70
     0
 62
     7
  6
Continuous
370
    -3
390
F
  0
LAYER
  5
73
330
2
100
AcDbSymbolTableRecord
100
AcDbLayerTableRecord
  2
FORMAT
 70
     0
 62
     7
  6
Continuous
370
    -3
390
F
  0
LAYER
  5
74
330
2
100
AcDbSymbolTableRecord
100
AcDbLayerTableRecord
  2
VORLAGE
 70
     0
 62
     7
  6
Continuous
370
    -3
390
F
  0
LAYER
  5
75
330
2
100
AcDbSymbolTableRecord
100
AcDbLayerTableRecord
  2
1
 70
     0
 62
   179
  6
Continuous
370
    -3
390
F
  0
LAYER
  5
76
330
2
100
AcDbSymbolTableRecord
100
AcDbLayerTableRecord
  2
LAYER0
 70
     0
 62
     7
  6
Continuous
370
    -3
390
F
  0
LAYER
  5
77
330
2
100
AcDbSymbolTableRecord
100
AcDbLayerTableRecord
  2
BEMASSUNG
 70
     0
 62
     1
  6
Continuous
370
    -3
390
F
  0
LAYER
  5
78
330
2
100
AcDbSymbolTableRecord
100
AcDbLayerTableRecord
  2
ÄNDERUNG
 70
     0
 62
     1
  6
Continuous
370
    -3
390
F
  0
LAYER
  5
79
330
2
100
AcDbSymbolTableRecord
100
AcDbLayerTableRecord
  2
KENNZEICHNUNG
 70
     0
 62
     7
  6
Continuous
370
    -3
390
F
  0
ENDTAB
  0
TABLE
  2
STYLE
  5
3
330
0
100
AcDbSymbolTable
 70
     5
  0
STYLE
  5
11
330
3
100
AcDbSymbolTableRecord
100
AcDbTextStyleTableRecord
  2
STANDARD
 70
     0
 40
0.0
 41
1.0
 50
0.0
 71
     0
 42
24.5
  3
ARIAL.TTF
  4

1001
ACAD
1000
ARIAL
1071
       34
  0
STYLE
  5
8B
330
3
100
AcDbSymbolTableRecord
100
AcDbTextStyleTableRecord
  2
SLDTEXTSTYLE0
 70
     0
 40
0.0
 41
0.948
 50
0.0
 71
     0
 42
24.5
  3
ARIAL.TTF
  4

1001
ACAD
1000
Arial
1071
      290
  0
STYLE
  5
B2
330
3
100
AcDbSymbolTableRecord
100
AcDbTextStyleTableRecord
  2
SLDTEXTSTYLE1
 70
     0
 40
0.0
 41
1.0
 50
0.0
 71
     0
 42
24.5
  3
ARIALUNI.TTF
  4

1001
ACAD
1000
Arial Unicode MS
1071
 33554722
  0
STYLE
  5
B8
330
3
100
AcDbSymbolTableRecord
100
AcDbTextStyleTableRecord
  2
SLDTEXTSTYLE2
 70
     0
 40
0.0
 41
0.87
 50
0.0
 71
     0
 42
24.5
  3
ARIALN.TTF
  4

1001
ACAD
1000
Arial Narrow
1071
      290
  0
STYLE
  5
F1
330
3
100
AcDbSymbolTableRecord
100
AcDbTextStyleTableRecord
  2
SLDTEXTSTYLE3
 70
     0
 40
0.0
 41
0.948
 50
0.0
 71
     0
 42
24.5
  3
ARIALBD.TTF
  4

1001
ACAD
1000
Arial
1071
 33554722
  0
ENDTAB
  0
TABLE
  2
VIEW
  5
6
330
0
100
AcDbSymbolTable
 70
     0
  0
ENDTAB
  0
TABLE
  2
UCS
  5
7
330
0
100
AcDbSymbolTable
 70
     0
  0
ENDTAB
  0
TABLE
  2
APPID
  5
9
330
0
100
AcDbSymbolTable
 70
     1
  0
APPID
  5
12
330
9
100
AcDbSymbolTableRecord
100
AcDbRegAppTableRecord
  2
ACAD
 70
     0
  0
ENDTAB
  0
TABLE
  2
DIMSTYLE
  5
A
330
0
100
AcDbSymbolTable
 70
    10
100
AcDbDimStyleTable
  0
DIMSTYLE
105
27
330
A
100
AcDbSymbolTableRecord
100
AcDbDimStyleTableRecord
  2
ISO-25
 70
     0
 41
2.5
 42
0.625
 43
3.75
 44
1.25
 73
     0
 74
     0
 77
     1
 78
     8
140
2.5
141
2.5
143
0.0393700787
147
0.625
171
     3
172
     1
178
     0
271
     2
272
     2
274
     3
278
    44
283
     0
284
     8
340
11
  0
DIMSTYLE
105
1A3
102
{ACAD_REACTORS
330
1A2
330
1AC
330
1B6
330
1BF
330
1C9
330
261
330
26B
330
275
330
27F
330
289
330
293
330
29C
330
2B2
330
5AE
330
5B8
330
5CD
102
}
330
A
100
AcDbSymbolTableRecord
100
AcDbDimStyleTableRecord
  2
SLDDIMSTYLE0
 70
     0
 41
23.114
 44
0.0
 45
0.000000001
 73
     0
 74
     0
 77
     1
 78
    12
 79
     3
140
24.5
147
6.125
173
     1
178
     0
271
     2
272
     2
276
     2
284
    12
340
8B
  0
DIMSTYLE
105
1D4
102
{ACAD_REACTORS
330
1D3
330
249
330
255
330
2BC
330
2C8
330
2D3
330
2E0
330
5C2
102
}
330
A
100
AcDbSymbolTableRecord
100
AcDbDimStyleTableRecord
  2
SLDDIMSTYLE1
 70
     0
 41
23.114
 44
0.0
 45
0.000000001
 73
     0
 74
     0
 77
     1
 78
    12
 79
     3
140
24.5
147
6.125
172
     1
173
     1
178
     0
271
     2
272
     2
276
     2
284
    12
289
     0
340
8B
  0
DIMSTYLE
105
2A7
102
{ACAD_REACTORS
330
2A6
102
}
330
A
100
AcDbSymbolTableRecord
100
AcDbDimStyleTableRecord
  2
SLDDIMSTYLE2
 70
     0
 41
23.114
 44
0.0
 45
0.000000001
 73
     0
 74
     0
 77
     1
 78
    12
 79
     3
140
24.5
147
6.125
172
     1
173
     1
178
     0
271
     0
272
     2
276
     2
284
    12
289
     0
340
8B
  0
DIMSTYLE
105
2EF
330
A
100
AcDbSymbolTableRecord
100
AcDbDimStyleTableRecord
  2
SLDDIMSTYLE3
 70
     0
 41
23.114
 44
0.0
 45
0.000000001
146
23.114
147
0.0
173
     1
178
     0
271
     0
272
     0
276
     2
340
11
  0
DIMSTYLE
105
582
102
{ACAD_REACTORS
330
581
330
593
102
}
330
A
100
AcDbSymbolTableRecord
100
AcDbDimStyleTableRecord
  2
SLDDIMSTYLE4
 70
     0
 41
7.112
 44
0.0
 45
0.000000001
 73
     0
 74
     0
 77
     1
 78
    12
 79
     3
140
17.9782307943
147
4.4945576986
172
     1
173
     1
178
     0
271
     2
272
     2
276
     2
284
    12
289
     0
340
8B
341
583
343
583
  0
DIMSTYLE
105
5A0
102
{ACAD_REACTORS
330
59F
102
}
330
A
100
AcDbSymbolTableRecord
100
AcDbDimStyleTableRecord
  2
SLDDIMSTYLE5
 70
     0
 41
23.114
 44
0.0
 45
0.000000001
 73
     0
 74
     0
 77
     1
 78
    12
 79
     3
140
17.9782307943
147
4.4945576986
172
     1
173
     1
178
     0
271
     2
272
     2
276
     2
284
    12
289
     0
340
8B
  0
DIMSTYLE
105
680
102
{ACAD_REACTORS
330
67F
330
68C
330
69A
330
6B6
330
6C2
330
6CE
330
70D
330
719
330
725
330
731
102
}
330
A
100
AcDbSymbolTableRecord
100
AcDbDimStyleTableRecord
  2
SLDDIMSTYLE6
 70
     0
 41
23.114
 44
0.0
 45
0.000000001
 73
     0
 74
     0
 77
     1
 78
    12
 79
     3
140
24.5
144
0.7142857143
147
6.125
172
     1
173
     1
178
     0
271
     2
272
     2
276
     2
284
    12
289
     0
340
8B
  0
DIMSTYLE
105
6A9
102
{ACAD_REACTORS
330
6A8
102
}
330
A
100
AcDbSymbolTableRecord
100
AcDbDimStyleTableRecord
  2
SLDDIMSTYLE7
 70
     0
 41
23.114
 44
0.0
 45
0.000000001
 73
     0
 74
     0
 77
     1
 78
    12
 79
     3
140
24.5
144
0.7142857143
147
6.125
172
     1
173
     1
178
     0
271
     2
272
     2
276
     2
284
    12
289
     0
340
F1
  0
DIMSTYLE
105
6DB
102
{ACAD_REACTORS
330
6DA
330
6E7
102
}
330
A
100
AcDbSymbolTableRecord
100
AcDbDimStyleTableRecord
  2
SLDDIMSTYLE8
 70
     0
 41
7.112
 44
0.0
 45
0.000000001
 73
     0
 74
     0
 77
     1
 78
    12
 79
     3
140
24.5
144
0.7142857143
147
6.125
172
     1
173
     1
178
     0
271
     2
272
     2
276
     2
284
    12
289
     0
340
8B
341
583
343
583
  0
ENDTAB
  0
TABLE
  2
BLOCK_RECORD
  5
1
330
0
100
AcDbSymbolTable
 70
   104
  0
BLOCK_RECORD
  5
1F
330
1
100
AcDbSymbolTableRecord
100
AcDbBlockTableRecord
  2
*Model_Space
340
22
  0
BLOCK_RECORD
  5
1B
330
1
100
AcDbSymbolTableRecord
100
AcDbBlockTableRecord
  2
*Paper_Space
340
1E
  0
BLOCK_RECORD
  5
23
330
1
100
AcDbSymbolTableRecord
100
AcDbBlockTableRecord
  2
*Paper_Space0
340
26
  0
BLOCK_RECORD
  5
7A
330
1
100
AcDbSymbolTableRecord
100
AcDbBlockTableRecord
  2
Block1_3_1
340
0
102
{BLKREFS
331
D9
102
}
  0
BLOCK_RECORD
  5
88
330
1
100
AcDbSymbolTableRecord
100
AcDbBlockTableRecord
  2
SW_NOTE_0
340
0
102
{BLKREFS
331
8E
102
}
  0
BLOCK_RECORD
  5
8F
330
1
100
AcDbSymbolTableRecord
100
AcDbBlockTableRecord
  2
Block2_3_1
340
0
102
{BLKREFS
331
D8
102
}
  0
BLOCK_RECORD
  5
AF
330
1
100
AcDbSymbolTableRecord
100
AcDbBlockTableRecord
  2
SW_NOTE_0_1
340
0
102
{BLKREFS
331
B4
102
}
  0
BLOCK_RECORD
  5
B5
330
1
100
AcDbSymbolTableRecord
100
AcDbBlockTableRecord
  2
SW_NOTE_0_2
340
0
102
{BLKREFS
331
BC
102
}
  0
BLOCK_RECORD
  5
BD
330
1
100
AcDbSymbolTableRecord
100
AcDbBlockTableRecord
  2
rechtlicher_Hinweis_Katalogzeichnungen_1
340
0
102
{BLKREFS
331
DA
102
}
  0
BLOCK_RECORD
  5
C0
330
1
100
AcDbSymbolTableRecord
100
AcDbBlockTableRecord
  2
SW_NOTE_0_3
340
0
102
{BLKREFS
331
C9
102
}
  0
BLOCK_RECORD
  5
DB
330
1
100
AcDbSymbolTableRecord
100
AcDbBlockTableRecord
  2
SW_NOTE_0_4
340
0
102
{BLKREFS
331
E1
102
}
  0
BLOCK_RECORD
  5
E5
330
1
100
AcDbSymbolTableRecord
100
AcDbBlockTableRecord
  2
SW_NOTE_0_5
340
0
102
{BLKREFS
331
EB
102
}
  0
BLOCK_RECORD
  5
1A4
330
1
100
AcDbSymbolTableRecord
100
AcDbBlockTableRecord
  2
_D
340
0
  0
BLOCK_RECORD
  5
1AD
330
1
100
AcDbSymbolTableRecord
100
AcDbBlockTableRecord
  2
_D_1
340
0
  0
BLOCK_RECORD
  5
1B7
330
1
100
AcDbSymbolTableRecord
100
AcDbBlockTableRecord
  2
_D_2
340
0
  0
BLOCK_RECORD
  5
1C0
330
1
100
AcDbSymbolTableRecord
100
AcDbBlockTableRecord
  2
_D_3
340
0
  0
BLOCK_RECORD
  5
1CA
330
1
100
AcDbSymbolTableRecord
100
AcDbBlockTableRecord
  2
_D_4
340
0
  0
BLOCK_RECORD
  5
1D5
330
1
100
AcDbSymbolTableRecord
100
AcDbBlockTableRecord
  2
_D_5
340
0
  0
BLOCK_RECORD
  5
24A
330
1
100
AcDbSymbolTableRecord
100
AcDbBlockTableRecord
  2
_D_6
340
0
  0
BLOCK_RECORD
  5
256
330
1
100
AcDbSymbolTableRecord
100
AcDbBlockTableRecord
  2
_D_7
340
0
  0
BLOCK_RECORD
  5
262
330
1
100
AcDbSymbolTableRecord
100
AcDbBlockTableRecord
  2
_D_8
340
0
  0
BLOCK_RECORD
  5
26C
330
1
100
AcDbSymbolTableRecord
100
AcDbBlockTableRecord
  2
_D_9
340
0
  0
BLOCK_RECORD
  5
276
330
1
100
AcDbSymbolTableRecord
100
AcDbBlockTableRecord
  2
_D_10
340
0
  0
BLOCK_RECORD
  5
280
330
1
100
AcDbSymbolTableRecord
100
AcDbBlockTableRecord
  2
_D_11
340
0
  0
BLOCK_RECORD
  5
28A
330
1
100
AcDbSymbolTableRecord
100
AcDbBlockTableRecord
  2
_D_12
340
0
  0
BLOCK_RECORD
  5
294
330
1
100
AcDbSymbolTableRecord
100
AcDbBlockTableRecord
  2
_D_13
340
0
  0
BLOCK_RECORD
  5
29D
330
1
100
AcDbSymbolTableRecord
100
AcDbBlockTableRecord
  2
_D_14
340
0
  0
BLOCK_RECORD
  5
2A8
330
1
100
AcDbSymbolTableRecord
100
AcDbBlockTableRecord
  2
_D_15
340
0
  0
BLOCK_RECORD
  5
2B3
330
1
100
AcDbSymbolTableRecord
100
AcDbBlockTableRecord
  2
_D_16
340
0
  0
BLOCK_RECORD
  5
2BD
330
1
100
AcDbSymbolTableRecord
100
AcDbBlockTableRecord
  2
_D_17
340
0
  0
BLOCK_RECORD
  5
2C9
330
1
100
AcDbSymbolTableRecord
100
AcDbBlockTableRecord
  2
_D_18
340
0
  0
BLOCK_RECORD
  5
2D4
330
1
100
AcDbSymbolTableRecord
100
AcDbBlockTableRecord
  2
_D_19
340
0
  0
BLOCK_RECORD
  5
2E1
330
1
100
AcDbSymbolTableRecord
100
AcDbBlockTableRecord
  2
_D_20
340
0
  0
BLOCK_RECORD
  5
2F3
330
1
100
AcDbSymbolTableRecord
100
AcDbBlockTableRecord
  2
SW_NOTE_0_6
340
0
102
{BLKREFS
331
2F8
102
}
  0
BLOCK_RECORD
  5
2FA
330
1
100
AcDbSymbolTableRecord
100
AcDbBlockTableRecord
  2
SW_CENTERMARKSYMBOL_0
340
0
102
{BLKREFS
331
305
102
}
  0
BLOCK_RECORD
  5
306
330
1
100
AcDbSymbolTableRecord
100
AcDbBlockTableRecord
  2
SW_CENTERMARKSYMBOL_1
340
0
102
{BLKREFS
331
311
102
}
  0
BLOCK_RECORD
  5
312
330
1
100
AcDbSymbolTableRecord
100
AcDbBlockTableRecord
  2
SW_CENTERMARKSYMBOL_2
340
0
102
{BLKREFS
331
31D
102
}
  0
BLOCK_RECORD
  5
31E
330
1
100
AcDbSymbolTableRecord
100
AcDbBlockTableRecord
  2
SW_CENTERMARKSYMBOL_3
340
0
102
{BLKREFS
331
329
102
}
  0
BLOCK_RECORD
  5
32A
330
1
100
AcDbSymbolTableRecord
100
AcDbBlockTableRecord
  2
SW_CENTERMARKSYMBOL_4
340
0
102
{BLKREFS
331
335
102
}
  0
BLOCK_RECORD
  5
336
330
1
100
AcDbSymbolTableRecord
100
AcDbBlockTableRecord
  2
SW_CENTERMARKSYMBOL_5
340
0
102
{BLKREFS
331
341
102
}
  0
BLOCK_RECORD
  5
342
330
1
100
AcDbSymbolTableRecord
100
AcDbBlockTableRecord
  2
SW_CENTERMARKSYMBOL_6
340
0
102
{BLKREFS
331
34D
102
}
  0
BLOCK_RECORD
  5
34E
330
1
100
AcDbSymbolTableRecord
100
AcDbBlockTableRecord
  2
SW_CENTERMARKSYMBOL_7
340
0
102
{BLKREFS
331
359
102
}
  0
BLOCK_RECORD
  5
35A
330
1
100
AcDbSymbolTableRecord
100
AcDbBlockTableRecord
  2
SW_CENTERMARKSYMBOL_8
340
0
102
{BLKREFS
331
365
102
}
  0
BLOCK_RECORD
  5
366
330
1
100
AcDbSymbolTableRecord
100
AcDbBlockTableRecord
  2
SW_CENTERMARKSYMBOL_9
340
0
102
{BLKREFS
331
371
102
}
  0
BLOCK_RECORD
  5
372
330
1
100
AcDbSymbolTableRecord
100
AcDbBlockTableRecord
  2
SW_CENTERMARKSYMBOL_10
340
0
102
{BLKREFS
331
37D
102
}
  0
BLOCK_RECORD
  5
37E
330
1
100
AcDbSymbolTableRecord
100
AcDbBlockTableRecord
  2
SW_CENTERMARKSYMBOL_11
340
0
102
{BLKREFS
331
389
102
}
  0
BLOCK_RECORD
  5
38A
330
1
100
AcDbSymbolTableRecord
100
AcDbBlockTableRecord
  2
SW_CENTERMARKSYMBOL_12
340
0
102
{BLKREFS
331
395
102
}
  0
BLOCK_RECORD
  5
396
330
1
100
AcDbSymbolTableRecord
100
AcDbBlockTableRecord
  2
SW_CENTERMARKSYMBOL_13
340
0
102
{BLKREFS
331
3A1
102
}
  0
BLOCK_RECORD
  5
3A2
330
1
100
AcDbSymbolTableRecord
100
AcDbBlockTableRecord
  2
SW_CENTERMARKSYMBOL_14
340
0
102
{BLKREFS
331
3AD
102
}
  0
BLOCK_RECORD
  5
3AE
330
1
100
AcDbSymbolTableRecord
100
AcDbBlockTableRecord
  2
SW_CENTERMARKSYMBOL_15
340
0
102
{BLKREFS
331
3B9
102
}
  0
BLOCK_RECORD
  5
3BA
330
1
100
AcDbSymbolTableRecord
100
AcDbBlockTableRecord
  2
SW_CENTERMARKSYMBOL_16
340
0
102
{BLKREFS
331
3C5
102
}
  0
BLOCK_RECORD
  5
3C6
330
1
100
AcDbSymbolTableRecord
100
AcDbBlockTableRecord
  2
SW_CENTERMARKSYMBOL_17
340
0
102
{BLKREFS
331
3D1
102
}
  0
BLOCK_RECORD
  5
3D2
330
1
100
AcDbSymbolTableRecord
100
AcDbBlockTableRecord
  2
SW_CENTERMARKSYMBOL_18
340
0
102
{BLKREFS
331
3DD
102
}
  0
BLOCK_RECORD
  5
3DE
330
1
100
AcDbSymbolTableRecord
100
AcDbBlockTableRecord
  2
SW_CENTERMARKSYMBOL_19
340
0
102
{BLKREFS
331
3E9
102
}
  0
BLOCK_RECORD
  5
3EA
330
1
100
AcDbSymbolTableRecord
100
AcDbBlockTableRecord
  2
SW_CENTERMARKSYMBOL_20
340
0
102
{BLKREFS
331
3F5
102
}
  0
BLOCK_RECORD
  5
3F6
330
1
100
AcDbSymbolTableRecord
100
AcDbBlockTableRecord
  2
SW_CENTERMARKSYMBOL_21
340
0
102
{BLKREFS
331
401
102
}
  0
BLOCK_RECORD
  5
402
330
1
100
AcDbSymbolTableRecord
100
AcDbBlockTableRecord
  2
SW_CENTERMARKSYMBOL_22
340
0
102
{BLKREFS
331
40D
102
}
  0
BLOCK_RECORD
  5
40E
330
1
100
AcDbSymbolTableRecord
100
AcDbBlockTableRecord
  2
SW_CENTERMARKSYMBOL_23
340
0
102
{BLKREFS
331
419
102
}
  0
BLOCK_RECORD
  5
41A
330
1
100
AcDbSymbolTableRecord
100
AcDbBlockTableRecord
  2
SW_CENTERMARKSYMBOL_24
340
0
102
{BLKREFS
331
425
102
}
  0
BLOCK_RECORD
  5
426
330
1
100
AcDbSymbolTableRecord
100
AcDbBlockTableRecord
  2
SW_CENTERMARKSYMBOL_25
340
0
102
{BLKREFS
331
431
102
}
  0
BLOCK_RECORD
  5
432
330
1
100
AcDbSymbolTableRecord
100
AcDbBlockTableRecord
  2
SW_CENTERMARKSYMBOL_26
340
0
102
{BLKREFS
331
43D
102
}
  0
BLOCK_RECORD
  5
43E
330
1
100
AcDbSymbolTableRecord
100
AcDbBlockTableRecord
  2
SW_CENTERMARKSYMBOL_27
340
0
102
{BLKREFS
331
449
102
}
  0
BLOCK_RECORD
  5
44A
330
1
100
AcDbSymbolTableRecord
100
AcDbBlockTableRecord
  2
SW_CENTERMARKSYMBOL_28
340
0
102
{BLKREFS
331
455
102
}
  0
BLOCK_RECORD
  5
456
330
1
100
AcDbSymbolTableRecord
100
AcDbBlockTableRecord
  2
SW_CENTERMARKSYMBOL_29
340
0
102
{BLKREFS
331
461
102
}
  0
BLOCK_RECORD
  5
462
330
1
100
AcDbSymbolTableRecord
100
AcDbBlockTableRecord
  2
SW_CENTERMARKSYMBOL_30
340
0
102
{BLKREFS
331
46D
102
}
  0
BLOCK_RECORD
  5
46E
330
1
100
AcDbSymbolTableRecord
100
AcDbBlockTableRecord
  2
SW_CENTERMARKSYMBOL_31
340
0
102
{BLKREFS
331
479
102
}
  0
BLOCK_RECORD
  5
47A
330
1
100
AcDbSymbolTableRecord
100
AcDbBlockTableRecord
  2
SW_CENTERMARKSYMBOL_32
340
0
102
{BLKREFS
331
485
102
}
  0
BLOCK_RECORD
  5
486
330
1
100
AcDbSymbolTableRecord
100
AcDbBlockTableRecord
  2
SW_CENTERMARKSYMBOL_33
340
0
102
{BLKREFS
331
491
102
}
  0
BLOCK_RECORD
  5
492
330
1
100
AcDbSymbolTableRecord
100
AcDbBlockTableRecord
  2
SW_CENTERMARKSYMBOL_34
340
0
102
{BLKREFS
331
49D
102
}
  0
BLOCK_RECORD
  5
49E
330
1
100
AcDbSymbolTableRecord
100
AcDbBlockTableRecord
  2
SW_CENTERMARKSYMBOL_35
340
0
102
{BLKREFS
331
4A9
102
}
  0
BLOCK_RECORD
  5
4AA
330
1
100
AcDbSymbolTableRecord
100
AcDbBlockTableRecord
  2
SW_CENTERMARKSYMBOL_36
340
0
102
{BLKREFS
331
4B5
102
}
  0
BLOCK_RECORD
  5
4B6
330
1
100
AcDbSymbolTableRecord
100
AcDbBlockTableRecord
  2
SW_CENTERMARKSYMBOL_37
340
0
102
{BLKREFS
331
4C1
102
}
  0
BLOCK_RECORD
  5
4C2
330
1
100
AcDbSymbolTableRecord
100
AcDbBlockTableRecord
  2
SW_CENTERMARKSYMBOL_38
340
0
102
{BLKREFS
331
4CD
102
}
  0
BLOCK_RECORD
  5
4CE
330
1
100
AcDbSymbolTableRecord
100
AcDbBlockTableRecord
  2
SW_CENTERMARKSYMBOL_39
340
0
102
{BLKREFS
331
4D9
102
}
  0
BLOCK_RECORD
  5
4DA
330
1
100
AcDbSymbolTableRecord
100
AcDbBlockTableRecord
  2
SW_CENTERMARKSYMBOL_40
340
0
102
{BLKREFS
331
4E5
102
}
  0
BLOCK_RECORD
  5
4E6
330
1
100
AcDbSymbolTableRecord
100
AcDbBlockTableRecord
  2
SW_CENTERMARKSYMBOL_41
340
0
102
{BLKREFS
331
4F1
102
}
  0
BLOCK_RECORD
  5
583
330
1
100
AcDbSymbolTableRecord
100
AcDbBlockTableRecord
  2
_Dot
340
0
102
{BLKREFS
331
58B
331
597
331
6DF
331
6EB
102
}
  0
BLOCK_RECORD
  5
588
330
1
100
AcDbSymbolTableRecord
100
AcDbBlockTableRecord
  2
_D_21
340
0
  0
BLOCK_RECORD
  5
594
330
1
100
AcDbSymbolTableRecord
100
AcDbBlockTableRecord
  2
_D_22
340
0
  0
BLOCK_RECORD
  5
5A1
330
1
100
AcDbSymbolTableRecord
100
AcDbBlockTableRecord
  2
_D_23
340
0
  0
BLOCK_RECORD
  5
5AF
330
1
100
AcDbSymbolTableRecord
100
AcDbBlockTableRecord
  2
_D_24
340
0
  0
BLOCK_RECORD
  5
5B9
330
1
100
AcDbSymbolTableRecord
100
AcDbBlockTableRecord
  2
_D_25
340
0
  0
BLOCK_RECORD
  5
5C3
330
1
100
AcDbSymbolTableRecord
100
AcDbBlockTableRecord
  2
_D_26
340
0
  0
BLOCK_RECORD
  5
5CE
330
1
100
AcDbSymbolTableRecord
100
AcDbBlockTableRecord
  2
_D_27
340
0
  0
BLOCK_RECORD
  5
5D8
330
1
100
AcDbSymbolTableRecord
100
AcDbBlockTableRecord
  2
SW_NOTE_0_7
340
0
102
{BLKREFS
331
5DD
102
}
  0
BLOCK_RECORD
  5
681
330
1
100
AcDbSymbolTableRecord
100
AcDbBlockTableRecord
  2
_D_28
340
0
  0
BLOCK_RECORD
  5
68D
330
1
100
AcDbSymbolTableRecord
100
AcDbBlockTableRecord
  2
_D_29
340
0
  0
BLOCK_RECORD
  5
69B
330
1
100
AcDbSymbolTableRecord
100
AcDbBlockTableRecord
  2
_D_30
340
0
  0
BLOCK_RECORD
  5
6AA
330
1
100
AcDbSymbolTableRecord
100
AcDbBlockTableRecord
  2
_D_31
340
0
  0
BLOCK_RECORD
  5
6B7
330
1
100
AcDbSymbolTableRecord
100
AcDbBlockTableRecord
  2
_D_32
340
0
  0
BLOCK_RECORD
  5
6C3
330
1
100
AcDbSymbolTableRecord
100
AcDbBlockTableRecord
  2
_D_33
340
0
  0
BLOCK_RECORD
  5
6CF
330
1
100
AcDbSymbolTableRecord
100
AcDbBlockTableRecord
  2
_D_34
340
0
  0
BLOCK_RECORD
  5
6DC
330
1
100
AcDbSymbolTableRecord
100
AcDbBlockTableRecord
  2
_D_35
340
0
  0
BLOCK_RECORD
  5
6E8
330
1
100
AcDbSymbolTableRecord
100
AcDbBlockTableRecord
  2
_D_36
340
0
  0
BLOCK_RECORD
  5
70E
330
1
100
AcDbSymbolTableRecord
100
AcDbBlockTableRecord
  2
_D_37
340
0
  0
BLOCK_RECORD
  5
71A
330
1
100
AcDbSymbolTableRecord
100
AcDbBlockTableRecord
  2
_D_38
340
0
  0
BLOCK_RECORD
  5
726
330
1
100
AcDbSymbolTableRecord
100
AcDbBlockTableRecord
  2
_D_39
340
0
  0
BLOCK_RECORD
  5
732
330
1
100
AcDbSymbolTableRecord
100
AcDbBlockTableRecord
  2
_D_40
340
0
  0
BLOCK_RECORD
  5
73E
330
1
100
AcDbSymbolTableRecord
100
AcDbBlockTableRecord
  2
SW_CENTERMARKSYMBOL_42
340
0
102
{BLKREFS
331
749
102
}
  0
BLOCK_RECORD
  5
74A
330
1
100
AcDbSymbolTableRecord
100
AcDbBlockTableRecord
  2
SW_CENTERMARKSYMBOL_43
340
0
102
{BLKREFS
331
755
102
}
  0
BLOCK_RECORD
  5
756
330
1
100
AcDbSymbolTableRecord
100
AcDbBlockTableRecord
  2
SW_CENTERMARKSYMBOL_44
340
0
102
{BLKREFS
331
761
102
}
  0
BLOCK_RECORD
  5
762
330
1
100
AcDbSymbolTableRecord
100
AcDbBlockTableRecord
  2
SW_CENTERMARKSYMBOL_45
340
0
102
{BLKREFS
331
76D
102
}
  0
BLOCK_RECORD
  5
76E
330
1
100
AcDbSymbolTableRecord
100
AcDbBlockTableRecord
  2
SW_CENTERMARKSYMBOL_46
340
0
102
{BLKREFS
331
779
102
}
  0
BLOCK_RECORD
  5
77A
330
1
100
AcDbSymbolTableRecord
100
AcDbBlockTableRecord
  2
SW_CENTERMARKSYMBOL_47
340
0
102
{BLKREFS
331
785
102
}
  0
BLOCK_RECORD
  5
786
330
1
100
AcDbSymbolTableRecord
100
AcDbBlockTableRecord
  2
SW_CENTERMARKSYMBOL_48
340
0
102
{BLKREFS
331
791
102
}
  0
BLOCK_RECORD
  5
792
330
1
100
AcDbSymbolTableRecord
100
AcDbBlockTableRecord
  2
SW_CENTERMARKSYMBOL_49
340
0
102
{BLKREFS
331
79D
102
}
  0
ENDTAB
  0
ENDSEC
  0
SECTION
  2
BLOCKS
  0
BLOCK
  5
20
330
1F
100
AcDbEntity
  8
0
100
AcDbBlockBegin
  2
*Model_Space
 70
     0
 10
0.0
 20
0.0
 30
0.0
  3
*Model_Space
  1

  0
ENDBLK
  5
21
330
1F
100
AcDbEntity
  8
0
100
AcDbBlockEnd
  0
BLOCK
  5
1C
330
1B
100
AcDbEntity
 67
     1
  8
0
100
AcDbBlockBegin
  2
*Paper_Space
 70
     0
 10
0.0
 20
0.0
 30
0.0
  3
*Paper_Space
  1

  0
ENDBLK
  5
1D
330
1B
100
AcDbEntity
 67
     1
  8
0
100
AcDbBlockEnd
  0
BLOCK
  5
24
330
23
100
AcDbEntity
  8
0
100
AcDbBlockBegin
  2
*Paper_Space0
 70
     0
 10
0.0
 20
0.0
 30
0.0
  3
*Paper_Space0
  1

  0
ENDBLK
  5
25
330
23
100
AcDbEntity
  8
0
100
AcDbBlockEnd
  0
BLOCK
  5
7B
330
7A
100
AcDbEntity
  8
0
100
AcDbBlockBegin
  2
Block1_3_1
 70
     0
 10
0.0
 20
0.0
 30
0.0
  3
Block1_3_1
  1

  0
CIRCLE
  5
7D
330
7A
100
AcDbEntity
  8
0
  6
Continuous
 62
     7
370
    18
100
AcDbCircle
 10
81.2962813747
 20
63.6276108944
 30
0.0
 40
8.79136307741128
  0
CIRCLE
  5
7E
330
7A
100
AcDbEntity
  8
0
  6
Continuous
 62
     7
370
    18
100
AcDbCircle
 10
81.2962813747
 20
63.6276108944
 30
0.0
 40
15.51210404558959
  0
LINE
  5
7F
330
7A
100
AcDbEntity
  8
0
  6
CENTERX2
 62
     7
370
    18
100
AcDbLine
 10
81.2962813747
 20
63.6276108944
 30
0.0
 11
55.2841773291
 21
63.6276108944
 31
0.0
  0
LINE
  5
80
330
7A
100
AcDbEntity
  8
0
  6
Continuous
 62
     7
370
    18
100
AcDbLine
 10
57.1602751158
 20
48.1155068489
 30
0.0
 11
57.1602751158
 21
79.150109214
 31
0.0
  0
LINE
  5
81
330
7A
100
AcDbEntity
  8
0
  6
Continuous
 62
     7
370
    18
100
AcDbLine
 10
18.7580035265
 20
72.4189739719
 30
0.0
 11
18.7580035265
 21
54.836247817
 31
0.0
  0
LINE
  5
82
330
7A
100
AcDbEntity
  8
0
  6
Continuous
 62
     7
370
    18
100
AcDbLine
 10
18.7580035265
 20
54.836247817
 30
0.0
 11
57.1602751158
 21
48.1155068489
 31
0.0
  0
LINE
  5
83
330
7A
100
AcDbEntity
  8
0
  6
CENTERX2
 62
     7
370
    18
100
AcDbLine
 10
67.6602751158
 20
63.6276108944
 30
0.0
 11
8.2580035265
 21
63.6276108944
 31
0.0
  0
LINE
  5
84
330
7A
100
AcDbEntity
  8
0
  6
Continuous
 62
     7
370
    18
100
AcDbLine
 10
57.1602751158
 20
79.150109214
 30
0.0
 11
18.7580035265
 21
72.4189739719
 31
0.0
  0
LINE
  5
85
330
7A
100
AcDbEntity
  8
0
  6
CENTERX2
 62
     7
370
    18
100
AcDbLine
 10
81.2962813747
 20
63.6276108944
 30
0.0
 11
81.2962813747
 21
37.6155068489
 31
0.0
  0
LINE
  5
86
330
7A
100
AcDbEntity
  8
0
  6
CENTERX2
 62
     7
370
    18
100
AcDbLine
 10
81.2962813747
 20
63.6276108944
 30
0.0
 11
81.2962813747
 21
89.63971494
 31
0.0
  0
LINE
  5
87
330
7A
100
AcDbEntity
  8
0
  6
CENTERX2
 62
     7
370
    18
100
AcDbLine
 10
81.2962813747
 20
63.6276108944
 30
0.0
 11
107.3083854203
 21
63.6276108944
 31
0.0
  0
INSERT
  5
8E
330
7A
100
AcDbEntity
  8
0
  6
Continuous
 62
     7
370
     0
100
AcDbBlockReference
  2
SW_NOTE_0
 10
14.7222830224
 20
16.6281309378
 30
0.0
  0
ENDBLK
  5
7C
330
7A
100
AcDbEntity
  8
0
100
AcDbBlockEnd
  0
BLOCK
  5
89
330
88
100
AcDbEntity
  8
0
100
AcDbBlockBegin
  2
SW_NOTE_0
 70
     0
 10
0.0
 20
0.0
 30
0.0
  3
SW_NOTE_0
  1

  0
MTEXT
  5
8C
330
88
100
AcDbEntity
  8
0
  6
Continuous
 62
     0
370
     0
100
AcDbMText
 10
46.134375
 20
17.144600939
 30
0.0
 40
13.3
 41
0.0
 71
     2
 72
     1
  1
DIN 6  T1 - 
  7
SLDTEXTSTYLE0
 73
     1
 44
1.0
  0
MTEXT
  5
8D
330
88
100
AcDbEntity
  8
0
  6
Continuous
 62
     0
370
     0
100
AcDbMText
 10
46.5984838367
 20
0.0023782104
 30
0.0
 40
13.3
 41
0.0
 71
     2
 72
     1
  1
Proj.methode 1
  7
SLDTEXTSTYLE0
 73
     1
 44
1.0
  0
ENDBLK
  5
8A
330
88
100
AcDbEntity
  8
0
100
AcDbBlockEnd
  0
BLOCK
  5
90
330
8F
100
AcDbEntity
  8
0
100
AcDbBlockBegin
  2
Block2_3_1
 70
     0
 10
0.0
 20
0.0
 30
0.0
  3
Block2_3_1
  1

  0
ARC
  5
92
330
8F
100
AcDbEntity
  8
FORMAT
100
AcDbCircle
 10
1657.2474557671
 20
399.6934206979
 30
0.0
 40
26.25000000000006
100
AcDbArc
 50
93.8225537293
 51
266.1774462707
  0
ARC
  5
93
330
8F
100
AcDbEntity
  8
FORMAT
100
AcDbCircle
 10
1657.2474557671
 20
399.6934206979
 30
0.0
 40
21.0000000000001
100
AcDbArc
 50
94.7801918472
 51
265.2198081528
  0
ARC
  5
94
330
8F
100
AcDbEntity
  8
FORMAT
100
AcDbCircle
 10
1657.2474557671
 20
399.6934206979
 30
0.0
 40
26.25000000000006
100
AcDbArc
 50
273.8225537293
 51
86.1774462707
  0
ARC
  5
95
330
8F
100
AcDbEntity
  8
FORMAT
100
AcDbCircle
 10
1657.2474557671
 20
399.6934206979
 30
0.0
 40
21.0000000000001
100
AcDbArc
 50
274.7801918472
 51
85.2198081528
  0
ARC
  5
96
330
8F
100
AcDbEntity
  8
FORMAT
100
AcDbCircle
 10
1657.2474557671
 20
407.6242915053
 30
0.0
 40
6.022819479648172
100
AcDbArc
 50
304.8395134495
 51
73.1084194601
  0
ARC
  5
97
330
8F
100
AcDbEntity
  8
FORMAT
100
AcDbCircle
 10
1657.2474557671
 20
407.6242915053
 30
0.0
 40
9.81620102162464
100
AcDbArc
 50
313.8988153445
 51
79.7306010333
  0
ARC
  5
98
330
8F
100
AcDbEntity
  8
FORMAT
100
AcDbCircle
 10
1657.2474557671
 20
388.4857005791
 30
0.0
 40
3.440714680707612
100
AcDbArc
 50
300.5716370086
 51
0.0
  0
ARC
  5
99
330
8F
100
AcDbEntity
  8
FORMAT
100
AcDbCircle
 10
1657.2474557671
 20
407.6242915053
 30
0.0
 40
9.81620102162464
100
AcDbArc
 50
100.2693989667
 51
226.1011846555
  0
ARC
  5
9A
330
8F
100
AcDbEntity
  8
FORMAT
100
AcDbCircle
 10
1657.2474557671
 20
388.4857005791
 30
0.0
 40
6.806425489791309
100
AcDbArc
 50
180.0
 51
255.1013518888
  0
ARC
  5
9B
330
8F
100
AcDbEntity
  8
FORMAT
100
AcDbCircle
 10
1657.2474557671
 20
388.4857005791
 30
0.0
 40
6.806425489791309
100
AcDbArc
 50
284.8986481112
 51
0.0
  0
ARC
  5
9C
330
8F
100
AcDbEntity
  8
FORMAT
100
AcDbCircle
 10
1657.2474557671
 20
388.4857005791
 30
0.0
 40
3.440714680707612
100
AcDbArc
 50
180.0
 51
239.4283629914
  0
ARC
  5
9D
330
8F
100
AcDbEntity
  8
FORMAT
100
AcDbCircle
 10
1657.2474557671
 20
407.6242915053
 30
0.0
 40
6.022819479648172
100
AcDbArc
 50
106.8915805399
 51
235.1604865505
  0
LINE
  5
9E
330
8F
100
AcDbEntity
  8
FORMAT
100
AcDbLine
 10
1627.7186808898
 20
370.1646458206
 30
0.0
 11
1686.7762306444
 21
370.1646458206
 31
0.0
  0
LINE
  5
9F
330
8F
100
AcDbEntity
  8
FORMAT
100
AcDbLine
 10
1627.7186808898
 20
429.2221955752
 30
0.0
 11
1686.7762306444
 21
429.2221955752
 31
0.0
  0
LINE
  5
A0
330
8F
100
AcDbEntity
  8
FORMAT
100
AcDbLine
 10
1627.7186808898
 20
429.2221955752
 30
0.0
 11
1627.7186808898
 21
370.1646458206
 31
0.0
  0
LINE
  5
A1
330
8F
100
AcDbEntity
  8
FORMAT
100
AcDbLine
 10
1686.7762306444
 20
429.2221955752
 30
0.0
 11
1686.7762306444
 21
370.1646458206
 31
0.0
  0
LINE
  5
A2
330
8F
100
AcDbEntity
  8
FORMAT
100
AcDbLine
 10
1655.4974557671
 20
425.8850224053
 30
0.0
 11
1655.4974557671
 21
420.6203769983
 31
0.0
  0
LINE
  5
A3
330
8F
100
AcDbEntity
  8
FORMAT
100
AcDbLine
 10
1658.9974557671
 20
425.8850224053
 30
0.0
 11
1658.9974557671
 21
420.6203769983
 31
0.0
  0
LINE
  5
A4
330
8F
100
AcDbEntity
  8
FORMAT
100
AcDbLine
 10
1655.4974557671
 20
378.7664643974
 30
0.0
 11
1655.4974557671
 21
373.5018189904
 31
0.0
  0
LINE
  5
A5
330
8F
100
AcDbEntity
  8
FORMAT
100
AcDbLine
 10
1658.9974557671
 20
378.7664643974
 30
0.0
 11
1658.9974557671
 21
373.5018189904
 31
0.0
  0
LINE
  5
A6
330
8F
100
AcDbEntity
  8
FORMAT
100
AcDbLine
 10
1658.9974557671
 20
417.2832408527
 30
0.0
 11
1658.9974557671
 21
413.3872642177
 31
0.0
  0
LINE
  5
A7
330
8F
100
AcDbEntity
  8
FORMAT
100
AcDbLine
 10
1655.4974557671
 20
417.2832408527
 30
0.0
 11
1655.4974557671
 21
413.3872642177
 31
0.0
  0
LINE
  5
A8
330
8F
100
AcDbEntity
  8
FORMAT
100
AcDbLine
 10
1650.4410302773
 20
388.4857005791
 30
0.0
 11
1650.4410302773
 21
400.5510762146
 31
0.0
  0
LINE
  5
A9
330
8F
100
AcDbEntity
  8
FORMAT
100
AcDbLine
 10
1664.0538812569
 20
388.4857005791
 30
0.0
 11
1664.0538812569
 21
400.5510762146
 31
0.0
  0
LINE
  5
AA
330
8F
100
AcDbEntity
  8
FORMAT
100
AcDbLine
 10
1660.6881704478
 20
388.4857005791
 30
0.0
 11
1660.6881704478
 21
402.6810297309
 31
0.0
  0
LINE
  5
AB
330
8F
100
AcDbEntity
  8
FORMAT
100
AcDbLine
 10
1653.8067410864
 20
388.4857005791
 30
0.0
 11
1653.8067410864
 21
402.6810297309
 31
0.0
  0
LINE
  5
AC
330
8F
100
AcDbEntity
  8
FORMAT
100
AcDbLine
 10
1655.4974557671
 20
385.5232661892
 30
0.0
 11
1655.4974557671
 21
381.9080925071
 31
0.0
  0
LINE
  5
AD
330
8F
100
AcDbEntity
  8
FORMAT
100
AcDbLine
 10
1658.9974557671
 20
385.5232661892
 30
0.0
 11
1658.9974557671
 21
381.9080925071
 31
0.0
  0
HATCH
  5
AE
330
8F
100
AcDbEntity
  8
FORMAT
100
AcDbHatch
 10
0.0
 20
0.0
 30
0.0
210
0.0
220
0.0
230
1.0
  2
SOLID
 70
     1
 71
     0
 91
        5
 92
        0
 93
        4
 72
     1
 10
1686.776230644441
 20
429.2221955751519
 11
1686.776230644441
 21
370.1646458205502
 72
     1
 10
1686.776230644441
 20
370.1646458205502
 11
1627.718680889839
 21
370.1646458205502
 72
     1
 10
1627.718680889839
 20
370.1646458205502
 11
1627.718680889839
 21
429.2221955751519
 72
     1
 10
1627.718680889839
 20
429.2221955751519
 11
1686.776230644441
 21
429.2221955751519
 97
        0
 92
        0
 93
        4
 72
     2
 10
1657.24745576714
 20
399.693420697851
 40
21.00000000000007
 50
94.78019184719915
 51
265.2198081528017
 73
     0
 72
     1
 10
1655.49745576714
 20
420.6203769982786
 11
1655.49745576714
 21
425.8850224052687
 72
     2
 10
1657.24745576714
 20
399.693420697851
 40
26.25000000000005
 50
93.82255372927435
 51
266.1774462707265
 73
     1
 72
     1
 10
1655.49745576714
 20
373.5018189904334
 11
1655.49745576714
 21
378.7664643974235
 97
        0
 92
        0
 93
        8
 72
     1
 10
1664.053881256931
 20
388.4857005790521
 11
1664.053881256931
 21
400.5510762145541
 72
     2
 10
1657.24745576714
 20
407.6242915052733
 40
9.816201021624591
 50
313.8988153445118
 51
439.730601033339
 73
     1
 72
     1
 10
1658.99745576714
 20
417.2832408527408
 11
1658.99745576714
 21
413.3872642177221
 72
     2
 10
1657.24745576714
 20
407.6242915052733
 40
6.022819479648148
 50
286.8915805399267
 51
415.1604865505418
 73
     0
 72
     1
 10
1660.688170447847
 20
402.6810297308583
 11
1660.688170447847
 21
388.4857005790521
 72
     2
 10
1657.24745576714
 20
388.4857005790521
 40
3.440714680707529
 50
0.0
 51
59.42836299135161
 73
     0
 72
     1
 10
1658.99745576714
 20
385.523266189224
 11
1658.99745576714
 21
381.9080925071099
 72
     2
 10
1657.24745576714
 20
388.4857005790521
 40
6.806425489791268
 50
284.8986481111874
 51
360.0000000000008
 73
     1
 97
        0
 92
        0
 93
        8
 72
     2
 10
1657.24745576714
 20
388.4857005790521
 40
3.440714680707529
 50
120.5716370086479
 51
180.0
 73
     0
 72
     1
 10
1653.806741086432
 20
388.4857005790521
 11
1653.806741086432
 21
402.6810297308583
 72
     2
 10
1657.24745576714
 20
407.6242915052733
 40
6.022819479648148
 50
124.839513449459
 51
253.1084194600749
 73
     0
 72
     1
 10
1655.49745576714
 20
413.3872642177221
 11
1655.49745576714
 21
417.2832408527408
 72
     2
 10
1657.24745576714
 20
407.6242915052733
 40
9.816201021624591
 50
100.2693989666618
 51
226.1011846554899
 73
     1
 72
     1
 10
1650.441030277349
 20
400.5510762145541
 11
1650.441030277349
 21
388.4857005790521
 72
     2
 10
1657.24745576714
 20
388.4857005790521
 40
6.806425489791268
 50
180.0
 51
255.1013518888142
 73
     1
 72
     1
 10
1655.49745576714
 20
381.9080925071099
 11
1655.49745576714
 21
385.5232661892239
 97
        0
 92
        0
 93
        4
 72
     2
 10
1657.24745576714
 20
399.693420697851
 40
21.00000000000007
 50
274.7801918471999
 51
445.2198081528016
 73
     0
 72
     1
 10
1658.99745576714
 20
378.7664643974235
 11
1658.99745576714
 21
373.5018189904334
 72
     2
 10
1657.24745576714
 20
399.693420697851
 40
26.25000000000005
 50
273.8225537292751
 51
446.1774462707265
 73
     1
 72
     1
 10
1658.99745576714
 20
425.8850224052687
 11
1658.99745576714
 21
420.6203769982786
 97
        0
 75
     0
 76
     1
 98
        1
 10
0.0
 20
0.0
  0
INSERT
  5
B4
330
8F
100
AcDbEntity
  8
FORMAT
 62
     7
100
AcDbBlockReference
  2
SW_NOTE_0_1
 10
1625.7602656139
 20
334.0630571774
 30
0.0
  0
INSERT
  5
BC
330
8F
100
AcDbEntity
  8
0
  6
Continuous
 62
     7
370
     0
100
AcDbBlockReference
  2
SW_NOTE_0_2
 10
1708.506124485
 20
399.8232127904
 30
0.0
  0
ENDBLK
  5
91
330
8F
100
AcDbEntity
  8
0
100
AcDbBlockEnd
  0
BLOCK
  5
B0
330
AF
100
AcDbEntity
  8
0
100
AcDbBlockBegin
  2
SW_NOTE_0_1
 70
     0
 10
0.0
 20
0.0
 30
0.0
  3
SW_NOTE_0_1
  1

  0
MTEXT
  5
B3
330
AF
100
AcDbEntity
  8
FORMAT
 62
     0
100
AcDbMText
 10
0.0
 20
27.0563380282
 30
0.0
 40
21.0
 41
0.0
 71
     1
 72
     1
  1
ECO
  7
SLDTEXTSTYLE1
 73
     1
 44
1.0
  0
ENDBLK
  5
B1
330
AF
100
AcDbEntity
  8
0
100
AcDbBlockEnd
  0
BLOCK
  5
B6
330
B5
100
AcDbEntity
  8
0
100
AcDbBlockBegin
  2
SW_NOTE_0_2
 70
     0
 10
0.0
 20
0.0
 30
0.0
  3
SW_NOTE_0_2
  1

  0
MTEXT
  5
B9
330
B5
100
AcDbEntity
  8
0
  6
Continuous
 62
     0
370
     0
100
AcDbMText
 10
0.0
 20
22.558685446
 30
0.0
 40
17.5
 41
0.0
 71
     1
 72
     1
  1
ECO Schulte GmbH & Co. KG
  7
SLDTEXTSTYLE2
 73
     1
 44
1.0
  0
MTEXT
  5
BA
330
B5
100
AcDbEntity
  8
0
  6
Continuous
 62
     0
370
     0
100
AcDbMText
 10
0.0
 20
-1.9413153102
 30
0.0
 40
17.5
 41
0.0
 71
     1
 72
     1
  1
Postfach 206
  7
SLDTEXTSTYLE2
 73
     1
 44
1.0
  0
MTEXT
  5
BB
330
B5
100
AcDbEntity
  8
0
  6
Continuous
 62
     0
370
     0
100
AcDbMText
 10
0.0
 20
-26.4413160665
 30
0.0
 40
17.5
 41
0.0
 71
     1
 72
     1
  1
58682 Menden
  7
SLDTEXTSTYLE2
 73
     1
 44
1.0
  0
ENDBLK
  5
B7
330
B5
100
AcDbEntity
  8
0
100
AcDbBlockEnd
  0
BLOCK
  5
BE
330
BD
100
AcDbEntity
  8
0
100
AcDbBlockBegin
  2
rechtlicher_Hinweis_Katalogzeichnungen_1
 70
     0
 10
0.0
 20
0.0
 30
0.0
  3
rechtlicher_Hinweis_Katalogzeichnungen_1
  1

  0
INSERT
  5
C9
330
BD
100
AcDbEntity
  8
0
  6
Continuous
 62
     7
370
     0
100
AcDbBlockReference
  2
SW_NOTE_0_3
 10
2.1768074632
 20
401.5030406501
 30
0.0
  0
ENDBLK
  5
BF
330
BD
100
AcDbEntity
  8
0
100
AcDbBlockEnd
  0
BLOCK
  5
C1
330
C0
100
AcDbEntity
  8
0
100
AcDbBlockBegin
  2
SW_NOTE_0_3
 70
     0
 10
0.0
 20
0.0
 30
0.0
  3
SW_NOTE_0_3
  1

  0
MTEXT
  5
C3
330
C0
100
AcDbEntity
  8
0
  6
Continuous
 62
     0
370
     0
100
AcDbMText
 10
0.0
 20
45.117370892
 30
0.0
 40
35.0
 41
0.0
 71
     1
 72
     1
  1
Technische Änderungen und Irrtümer vorbehalten. Aus dem Gebrauch der Zeichnung können keinerlei Ansprüche (inkl. 
  7
SLDTEXTSTYLE0
 73
     1
 44
1.0
  0
MTEXT
  5
C4
330
C0
100
AcDbEntity
  8
0
  6
Continuous
 62
     0
370
     0
100
AcDbMText
 10
0.0
 20
-3.8826306204
 30
0.0
 40
35.0
 41
0.0
 71
     1
 72
     1
  1
Schadenersatzansprüche) erhoben und gegen ECO Schulte geltend gemacht werden. Die Zeichnung bleibt unser 
  7
SLDTEXTSTYLE0
 73
     1
 44
1.0
  0
MTEXT
  5
C5
330
C0
100
AcDbEntity
  8
0
  6
Continuous
 62
     0
370
     0
100
AcDbMText
 10
0.0
 20
-52.8826321329
 30
0.0
 40
35.0
 41
0.0
 71
     1
 72
     1
  1
Eigentum. Sämtliche sich aus der Zeichnung ergebenden Ansprüche stehen ausschließlich ECO Schulte zu.
  7
SLDTEXTSTYLE0
 73
     1
 44
1.0
  0
MTEXT
  5
C6
330
C0
100
AcDbEntity
  8
0
  6
Continuous
 62
     0
370
     0
100
AcDbMText
 10
0.0
 20
-150.8826351579
 30
0.0
 40
35.0
 41
0.0
 71
     1
 72
     1
  1
Technical changes and errors excepted. No claims (including compensation claims) may be raised against ECO Schulte by 
  7
SLDTEXTSTYLE0
 73
     1
 44
1.0
  0
MTEXT
  5
C7
330
C0
100
AcDbEntity
  8
0
  6
Continuous
 62
     0
370
     0
100
AcDbMText
 10
0.0
 20
-199.8826366703
 30
0.0
 40
35.0
 41
0.0
 71
     1
 72
     1
  1
using of this drawing. The drawing remains the property of ECO Schulte. All claims resulting from this drawing are solely 
  7
SLDTEXTSTYLE0
 73
     1
 44
1.0
  0
MTEXT
  5
C8
330
C0
100
AcDbEntity
  8
0
  6
Continuous
 62
     0
370
     0
100
AcDbMText
 10
0.0
 20
-248.8826381828
 30
0.0
 40
35.0
 41
0.0
 71
     1
 72
     1
  1
entitled to ECO Schulte.
  7
SLDTEXTSTYLE0
 73
     1
 44
1.0
  0
ENDBLK
  5
C2
330
C0
100
AcDbEntity
  8
0
100
AcDbBlockEnd
  0
BLOCK
  5
DC
330
DB
100
AcDbEntity
  8
0
100
AcDbBlockBegin
  2
SW_NOTE_0_4
 70
     0
 10
0.0
 20
0.0
 30
0.0
  3
SW_NOTE_0_4
  1

  0
MTEXT
  5
DE
330
DB
100
AcDbEntity
  8
FORMAT
 62
     0
100
AcDbMText
 10
0.0
 20
23.8746087637
 30
0.0
 40
18.5208333333
 41
0.0
 71
     1
 72
     1
  1
\LBefestigungsmittel:
  7
SLDTEXTSTYLE0
 73
     1
 44
1.0
  0
MTEXT
  5
DF
330
DB
100
AcDbEntity
  8
FORMAT
 62
     0
100
AcDbMText
 10
0.0
 20
-9.7180977825
 30
0.0
 40
18.5208333333
 41
0.0
 71
     1
 72
     1
  1
1. Montageplatte: Stahl/Alu-Tür: 6x M6 (Einnietmutter M6) ; Holztür: 6x Senkschraube ø6x60
  7
SLDTEXTSTYLE0
 73
     1
 44
1.0
  0
MTEXT
  5
E0
330
DB
100
AcDbEntity
  8
FORMAT
 62
     0
100
AcDbMText
 10
0.0
 20
-41.4125430759
 30
0.0
 40
18.5208333333
 41
0.0
 71
     1
 72
     1
  1
2. Gleitschiene: Stahl/Alu-Tür: 2xM6 (Einnietmutter M6) ; Holztür: 2x Senkschraube ø4x30
  7
SLDTEXTSTYLE0
 73
     1
 44
1.0
  0
ENDBLK
  5
DD
330
DB
100
AcDbEntity
  8
0
100
AcDbBlockEnd
  0
BLOCK
  5
E6
330
E5
100
AcDbEntity
  8
0
100
AcDbBlockBegin
  2
SW_NOTE_0_5
 70
     0
 10
0.0
 20
0.0
 30
0.0
  3
SW_NOTE_0_5
  1

  0
MTEXT
  5
E8
330
E5
100
AcDbEntity
  8
FORMAT
 62
     0
100
AcDbMText
 10
0.0
 20
23.8746087637
 30
0.0
 40
18.5208333333
 41
0.0
 71
     1
 72
     1
  1
Bei Verwendung von Drehflügelantrieben an FS/RS Türen muss die
  7
SLDTEXTSTYLE0
 73
     1
 44
1.0
  0
MTEXT
  5
E9
330
E5
100
AcDbEntity
  8
FORMAT
 62
     0
100
AcDbMText
 10
0.0
 20
-7.8198365297
 30
0.0
 40
18.5208333333
 41
0.0
 71
     1
 72
     1
  1
technische Machbarkeit und die Zulassung durch den
  7
SLDTEXTSTYLE0
 73
     1
 44
1.0
  0
MTEXT
  5
EA
330
E5
100
AcDbEntity
  8
FORMAT
 62
     0
100
AcDbMText
 10
0.0
 20
-39.5142818231
 30
0.0
 40
18.5208333333
 41
0.0
 71
     1
 72
     1
  1
Türenhersteller/Systemgeber geprüft und feigegeben werden
  7
SLDTEXTSTYLE0
 73
     1
 44
1.0
  0
ENDBLK
  5
E7
330
E5
100
AcDbEntity
  8
0
100
AcDbBlockEnd
  0
BLOCK
  5
1A5
330
1A4
100
AcDbEntity
  8
0
100
AcDbBlockBegin
  2
_D
 70
     0
 10
0.0
 20
0.0
 30
0.0
  3
_D
  1

  0
SOLID
  5
1A7
330
1A4
100
AcDbEntity
  8
FORMAT
100
AcDbTrace
 10
519.5262545767
 20
1463.3772145142
 30
0.0
 11
542.6402545767
 21
1459.8212145142
 31
0.0
 12
542.6402545767
 22
1466.9332145142
 32
0.0
 13
542.6402545767
 23
1466.9332145142
 33
0.0
  0
SOLID
  5
1A8
330
1A4
100
AcDbEntity
  8
FORMAT
100
AcDbTrace
 10
598.5262545589
 20
1463.3772145142
 30
0.0
 11
575.4122545589
 21
1466.9332145142
 31
0.0
 12
575.4122545589
 22
1459.8212145142
 32
0.0
 13
575.4122545589
 23
1459.8212145142
 33
0.0
  0
LINE
  5
1A9
330
1A4
100
AcDbEntity
  8
FORMAT
100
AcDbLine
 10
598.5262545589
 20
1594.8501293767
 30
0.0
 11
598.5262545589
 21
1456.3772145142
 31
0.0
  0
LINE
  5
1AA
330
1A4
100
AcDbEntity
  8
FORMAT
100
AcDbLine
 10
519.5262545767
 20
1463.3772145142
 30
0.0
 11
598.5262545589
 21
1463.3772145142
 31
0.0
  0
MTEXT
  5
1AB
330
1A4
100
AcDbEntity
  8
FORMAT
100
AcDbMText
 10
540.3109772536
 20
1494.9593757685
 30
0.0
 40
24.5
 41
0.0
 71
     1
 72
     1
  1
79
  7
SLDTEXTSTYLE0
 73
     1
 44
1.0
  0
ENDBLK
  5
1A6
330
1A4
100
AcDbEntity
  8
0
100
AcDbBlockEnd
  0
BLOCK
  5
1AE
330
1AD
100
AcDbEntity
  8
0
100
AcDbBlockBegin
  2
_D_1
 70
     0
 10
0.0
 20
0.0
 30
0.0
  3
_D_1
  1

  0
SOLID
  5
1B0
330
1AD
100
AcDbEntity
  8
FORMAT
100
AcDbTrace
 10
598.5262545589
 20
1463.3772145142
 30
0.0
 11
621.6402545589
 21
1459.8212145142
 31
0.0
 12
621.6402545589
 22
1466.9332145142
 32
0.0
 13
621.6402545589
 23
1466.9332145142
 33
0.0
  0
SOLID
  5
1B1
330
1AD
100
AcDbEntity
  8
FORMAT
100
AcDbTrace
 10
1251.5262545589
 20
1463.3772145143
 30
0.0
 11
1228.4122545589
 21
1466.9332145143
 31
0.0
 12
1228.4122545589
 22
1459.8212145143
 32
0.0
 13
1228.4122545589
 23
1459.8212145143
 33
0.0
  0
LINE
  5
1B2
330
1AD
100
AcDbEntity
  8
FORMAT
100
AcDbLine
 10
598.5262545589
 20
1594.8501293767
 30
0.0
 11
598.5262545589
 21
1456.3772145142
 31
0.0
  0
LINE
  5
1B3
330
1AD
100
AcDbEntity
  8
FORMAT
100
AcDbLine
 10
1251.5262545589
 20
1594.8501293767
 30
0.0
 11
1251.5262545589
 21
1456.3772145143
 31
0.0
  0
LINE
  5
1B4
330
1AD
100
AcDbEntity
  8
FORMAT
100
AcDbLine
 10
598.5262545589
 20
1463.3772145142
 30
0.0
 11
1251.5262545589
 21
1463.3772145143
 31
0.0
  0
MTEXT
  5
1B5
330
1AD
100
AcDbEntity
  8
FORMAT
100
AcDbMText
 10
896.9533385876
 20
1494.9593757685
 30
0.0
 40
24.5
 41
0.0
 71
     1
 72
     1
  1
653
  7
SLDTEXTSTYLE0
 73
     1
 44
1.0
  0
ENDBLK
  5
1AF
330
1AD
100
AcDbEntity
  8
0
100
AcDbBlockEnd
  0
BLOCK
  5
1B8
330
1B7
100
AcDbEntity
  8
0
100
AcDbBlockBegin
  2
_D_2
 70
     0
 10
0.0
 20
0.0
 30
0.0
  3
_D_2
  1

  0
SOLID
  5
1BA
330
1B7
100
AcDbEntity
  8
FORMAT
100
AcDbTrace
 10
519.5262545767
 20
1419.9997773474
 30
0.0
 11
542.6402545767
 21
1416.4437773474
 31
0.0
 12
542.6402545767
 22
1423.5557773474
 32
0.0
 13
542.6402545767
 23
1423.5557773474
 33
0.0
  0
SOLID
  5
1BB
330
1B7
100
AcDbEntity
  8
FORMAT
100
AcDbTrace
 10
799.5262545773
 20
1419.9997773474
 30
0.0
 11
776.4122545773
 21
1423.5557773474
 31
0.0
 12
776.4122545773
 22
1416.4437773474
 32
0.0
 13
776.4122545773
 23
1416.4437773474
 33
0.0
  0
LINE
  5
1BC
330
1B7
100
AcDbEntity
  8
FORMAT
100
AcDbLine
 10
799.5262545773
 20
1605.3501293707
 30
0.0
 11
799.5262545773
 21
1412.9997773474
 31
0.0
  0
LINE
  5
1BD
330
1B7
100
AcDbEntity
  8
FORMAT
100
AcDbLine
 10
519.5262545767
 20
1419.9997773474
 30
0.0
 11
799.5262545773
 21
1419.9997773474
 31
0.0
  0
MTEXT
  5
1BE
330
1B7
100
AcDbEntity
  8
FORMAT
100
AcDbMText
 10
631.4533386057
 20
1451.5819386017
 30
0.0
 40
24.5
 41
0.0
 71
     1
 72
     1
  1
280
  7
SLDTEXTSTYLE0
 73
     1
 44
1.0
  0
ENDBLK
  5
1B9
330
1B7
100
AcDbEntity
  8
0
100
AcDbBlockEnd
  0
BLOCK
  5
1C1
330
1C0
100
AcDbEntity
  8
0
100
AcDbBlockBegin
  2
_D_3
 70
     0
 10
0.0
 20
0.0
 30
0.0
  3
_D_3
  1

  0
SOLID
  5
1C3
330
1C0
100
AcDbEntity
  8
FORMAT
100
AcDbTrace
 10
477.3425582037
 20
1633.3501293705
 30
0.0
 11
480.8985582037
 21
1656.4641293705
 31
0.0
 12
473.7865582037
 22
1656.4641293705
 32
0.0
 13
473.7865582037
 23
1656.4641293705
 33
0.0
  0
SOLID
  5
1C4
330
1C0
100
AcDbEntity
  8
FORMAT
100
AcDbTrace
 10
477.3425582037
 20
1728.3501293705
 30
0.0
 11
473.7865582037
 21
1705.2361293705
 31
0.0
 12
480.8985582037
 22
1705.2361293705
 32
0.0
 13
480.8985582037
 23
1705.2361293705
 33
0.0
  0
LINE
  5
1C5
330
1C0
100
AcDbEntity
  8
FORMAT
100
AcDbLine
 10
522.5262545773
 20
1633.3501293705
 30
0.0
 11
470.3425582037
 21
1633.3501293705
 31
0.0
  0
LINE
  5
1C6
330
1C0
100
AcDbEntity
  8
FORMAT
100
AcDbLine
 10
522.5262545773
 20
1728.3501293705
 30
0.0
 11
470.3425582037
 21
1728.3501293705
 31
0.0
  0
LINE
  5
1C7
330
1C0
100
AcDbEntity
  8
FORMAT
100
AcDbLine
 10
477.3425582037
 20
1633.3501293705
 30
0.0
 11
477.3425582037
 21
1728.3501293705
 31
0.0
  0
MTEXT
  5
1C8
330
1C0
100
AcDbEntity
  8
FORMAT
100
AcDbMText
 10
445.7603969495
 20
1662.1348520563
 30
0.0
 40
24.5
 41
0.0
 71
     1
 72
     1
  1
95
  7
SLDTEXTSTYLE0
 11
6.123233995736766E-17
 21
1.0
 31
0.0
 73
     1
 44
1.0
  0
ENDBLK
  5
1C2
330
1C0
100
AcDbEntity
  8
0
100
AcDbBlockEnd
  0
BLOCK
  5
1CB
330
1CA
100
AcDbEntity
  8
0
100
AcDbBlockBegin
  2
_D_4
 70
     0
 10
0.0
 20
0.0
 30
0.0
  3
_D_4
  1

  0
SOLID
  5
1CD
330
1CA
100
AcDbEntity
  8
FORMAT
100
AcDbTrace
 10
520.0262545773
 20
1776.451400194
 30
0.0
 11
543.1402545773
 21
1772.895400194
 31
0.0
 12
543.1402545773
 22
1780.007400194
 32
0.0
 13
543.1402545773
 23
1780.007400194
 33
0.0
  0
SOLID
  5
1CE
330
1CA
100
AcDbEntity
  8
FORMAT
100
AcDbTrace
 10
1209.0262545773
 20
1776.451400194
 30
0.0
 11
1185.9122545773
 21
1780.007400194
 31
0.0
 12
1185.9122545773
 22
1772.895400194
 32
0.0
 13
1185.9122545773
 23
1772.895400194
 33
0.0
  0
LINE
  5
1CF
330
1CA
100
AcDbEntity
  8
FORMAT
100
AcDbLine
 10
520.0262545773
 20
1730.3501293705
 30
0.0
 11
520.0262545773
 21
1783.451400194
 31
0.0
  0
LINE
  5
1D0
330
1CA
100
AcDbEntity
  8
FORMAT
100
AcDbLine
 10
1209.0262545773
 20
1730.3501293705
 30
0.0
 11
1209.0262545773
 21
1783.451400194
 31
0.0
  0
LINE
  5
1D1
330
1CA
100
AcDbEntity
  8
FORMAT
100
AcDbLine
 10
520.0262545773
 20
1776.451400194
 30
0.0
 11
1209.0262545773
 21
1776.451400194
 31
0.0
  0
MTEXT
  5
1D2
330
1CA
100
AcDbEntity
  8
FORMAT
100
AcDbMText
 10
836.453338606
 20
1808.0335614483
 30
0.0
 40
24.5
 41
0.0
 71
     1
 72
     1
  1
689
  7
SLDTEXTSTYLE0
 73
     1
 44
1.0
  0
ENDBLK
  5
1CC
330
1CA
100
AcDbEntity
  8
0
100
AcDbBlockEnd
  0
BLOCK
  5
1D6
330
1D5
100
AcDbEntity
  8
0
100
AcDbBlockBegin
  2
_D_5
 70
     0
 10
0.0
 20
0.0
 30
0.0
  3
_D_5
  1

  0
SOLID
  5
1D8
330
1D5
100
AcDbEntity
  8
FORMAT
100
AcDbTrace
 10
1295.1336438535
 20
1601.3501293767
 30
0.0
 11
1291.5776438535
 21
1578.2361293767
 31
0.0
 12
1298.6896438535
 22
1578.2361293767
 32
0.0
 13
1298.6896438535
 23
1578.2361293767
 33
0.0
  0
SOLID
  5
1D9
330
1D5
100
AcDbEntity
  8
FORMAT
100
AcDbTrace
 10
1295.1336438535
 20
1618.3501293767
 30
0.0
 11
1298.6896438535
 21
1641.4641293767
 31
0.0
 12
1291.5776438535
 22
1641.4641293767
 32
0.0
 13
1291.5776438535
 23
1641.4641293767
 33
0.0
  0
LINE
  5
1DA
330
1D5
100
AcDbEntity
  8
FORMAT
100
AcDbLine
 10
1258.0262545589
 20
1601.3501293767
 30
0.0
 11
1302.1336438535
 21
1601.3501293767
 31
0.0
  0
LINE
  5
1DB
330
1D5
100
AcDbEntity
  8
FORMAT
100
AcDbLine
 10
1258.0262545589
 20
1618.3501293767
 30
0.0
 11
1302.1336438535
 21
1618.3501293767
 31
0.0
  0
LINE
  5
1DC
330
1D5
100
AcDbEntity
  8
FORMAT
100
AcDbLine
 10
1295.1336438535
 20
1601.3501293767
 30
0.0
 11
1295.1336438535
 21
1536.7624184497
 31
0.0
  0
LINE
  5
1DD
330
1D5
100
AcDbEntity
  8
FORMAT
100
AcDbLine
 10
1295.1336438535
 20
1601.3501293767
 30
0.0
 11
1295.1336438535
 21
1618.3501293767
 31
0.0
  0
LINE
  5
1DE
330
1D5
100
AcDbEntity
  8
FORMAT
100
AcDbLine
 10
1295.1336438535
 20
1618.3501293767
 30
0.0
 11
1295.1336438535
 21
1662.8001293767
 31
0.0
  0
MTEXT
  5
1DF
330
1D5
100
AcDbEntity
  8
FORMAT
100
AcDbMText
 10
1263.5514825993
 20
1536.7624184497
 30
0.0
 40
24.5
 41
0.0
 71
     1
 72
     1
  1
17
  7
SLDTEXTSTYLE0
 11
-3.269436733918102E-15
 21
1.0
 31
0.0
 73
     1
 44
1.0
  0
ENDBLK
  5
1D7
330
1D5
100
AcDbEntity
  8
0
100
AcDbBlockEnd
  0
BLOCK
  5
24B
330
24A
100
AcDbEntity
  8
0
100
AcDbBlockBegin
  2
_D_6
 70
     0
 10
0.0
 20
0.0
 30
0.0
  3
_D_6
  1

  0
SOLID
  5
24D
330
24A
100
AcDbEntity
  8
FORMAT
100
AcDbTrace
 10
519.5262545767
 20
981.0049314965
 30
0.0
 11
496.4122545767
 21
984.5609314965
 31
0.0
 12
496.4122545767
 22
977.4489314965
 32
0.0
 13
496.4122545767
 23
977.4489314965
 33
0.0
  0
SOLID
  5
24E
330
24A
100
AcDbEntity
  8
FORMAT
100
AcDbTrace
 10
529.5262545767
 20
981.0049314965
 30
0.0
 11
552.6402545767
 21
977.4489314965
 31
0.0
 12
552.6402545767
 22
984.5609314965
 32
0.0
 13
552.6402545767
 23
984.5609314965
 33
0.0
  0
LINE
  5
24F
330
24A
100
AcDbEntity
  8
FORMAT
100
AcDbLine
 10
519.5262545767
 20
628.2896142362
 30
0.0
 11
519.5262545767
 21
988.0049314965
 31
0.0
  0
LINE
  5
250
330
24A
100
AcDbEntity
  8
FORMAT
100
AcDbLine
 10
529.5262545767
 20
788.2896142385
 30
0.0
 11
529.5262545767
 21
988.0049314965
 31
0.0
  0
LINE
  5
251
330
24A
100
AcDbEntity
  8
FORMAT
100
AcDbLine
 10
519.5262545767
 20
981.0049314965
 30
0.0
 11
441.6170362874
 21
981.0049314965
 31
0.0
  0
LINE
  5
252
330
24A
100
AcDbEntity
  8
FORMAT
100
AcDbLine
 10
519.5262545767
 20
981.0049314965
 30
0.0
 11
529.5262545767
 21
981.0049314965
 31
0.0
  0
LINE
  5
253
330
24A
100
AcDbEntity
  8
FORMAT
100
AcDbLine
 10
529.5262545767
 20
981.0049314965
 30
0.0
 11
573.9762545767
 21
981.0049314965
 31
0.0
  0
MTEXT
  5
254
330
24A
100
AcDbEntity
  8
FORMAT
100
AcDbMText
 10
441.6170362874
 20
1012.5870927507
 30
0.0
 40
24.5
 41
0.0
 71
     1
 72
     1
  1
10
  7
SLDTEXTSTYLE0
 73
     1
 44
1.0
  0
ENDBLK
  5
24C
330
24A
100
AcDbEntity
  8
0
100
AcDbBlockEnd
  0
BLOCK
  5
257
330
256
100
AcDbEntity
  8
0
100
AcDbBlockBegin
  2
_D_7
 70
     0
 10
0.0
 20
0.0
 30
0.0
  3
_D_7
  1

  0
SOLID
  5
259
330
256
100
AcDbEntity
  8
FORMAT
100
AcDbTrace
 10
519.5262545767
 20
1026.2896142362
 30
0.0
 11
496.4122545767
 21
1029.8456142362
 31
0.0
 12
496.4122545767
 22
1022.7336142362
 32
0.0
 13
496.4122545767
 23
1022.7336142362
 33
0.0
  0
SOLID
  5
25A
330
256
100
AcDbEntity
  8
FORMAT
100
AcDbTrace
 10
543.5262545767
 20
1026.2896142362
 30
0.0
 11
566.6402545767
 21
1022.7336142362
 31
0.0
 12
566.6402545767
 22
1029.8456142362
 32
0.0
 13
566.6402545767
 23
1029.8456142362
 33
0.0
  0
LINE
  5
25B
330
256
100
AcDbEntity
  8
FORMAT
100
AcDbLine
 10
519.5262545767
 20
628.2896142362
 30
0.0
 11
519.5262545767
 21
1033.2896142362
 31
0.0
  0
LINE
  5
25C
330
256
100
AcDbEntity
  8
FORMAT
100
AcDbLine
 10
543.5262545767
 20
813.7896142362
 30
0.0
 11
543.5262545767
 21
1033.2896142362
 31
0.0
  0
LINE
  5
25D
330
256
100
AcDbEntity
  8
FORMAT
100
AcDbLine
 10
519.5262545767
 20
1026.2896142362
 30
0.0
 11
441.6170362874
 21
1026.2896142362
 31
0.0
  0
LINE
  5
25E
330
256
100
AcDbEntity
  8
FORMAT
100
AcDbLine
 10
519.5262545767
 20
1026.2896142362
 30
0.0
 11
543.5262545767
 21
1026.2896142362
 31
0.0
  0
LINE
  5
25F
330
256
100
AcDbEntity
  8
FORMAT
100
AcDbLine
 10
543.5262545767
 20
1026.2896142362
 30
0.0
 11
587.9762545767
 21
1026.2896142362
 31
0.0
  0
MTEXT
  5
260
330
256
100
AcDbEntity
  8
FORMAT
100
AcDbMText
 10
441.6170362874
 20
1057.8717754904
 30
0.0
 40
24.5
 41
0.0
 71
     1
 72
     1
  1
24
  7
SLDTEXTSTYLE0
 73
     1
 44
1.0
  0
ENDBLK
  5
258
330
256
100
AcDbEntity
  8
0
100
AcDbBlockEnd
  0
BLOCK
  5
263
330
262
100
AcDbEntity
  8
0
100
AcDbBlockBegin
  2
_D_8
 70
     0
 10
0.0
 20
0.0
 30
0.0
  3
_D_8
  1

  0
SOLID
  5
265
330
262
100
AcDbEntity
  8
FORMAT
100
AcDbTrace
 10
519.5262545767
 20
1068.2896142362
 30
0.0
 11
542.6402545767
 21
1064.7336142362
 31
0.0
 12
542.6402545767
 22
1071.8456142362
 32
0.0
 13
542.6402545767
 23
1071.8456142362
 33
0.0
  0
SOLID
  5
266
330
262
100
AcDbEntity
  8
FORMAT
100
AcDbTrace
 10
629.5262545767
 20
1068.2896142362
 30
0.0
 11
606.4122545767
 21
1071.8456142362
 31
0.0
 12
606.4122545767
 22
1064.7336142362
 32
0.0
 13
606.4122545767
 23
1064.7336142362
 33
0.0
  0
LINE
  5
267
330
262
100
AcDbEntity
  8
FORMAT
100
AcDbLine
 10
519.5262545767
 20
628.2896142362
 30
0.0
 11
519.5262545767
 21
1075.2896142362
 31
0.0
  0
LINE
  5
268
330
262
100
AcDbEntity
  8
FORMAT
100
AcDbLine
 10
629.5262545767
 20
845.9896142385
 30
0.0
 11
629.5262545767
 21
1075.2896142362
 31
0.0
  0
LINE
  5
269
330
262
100
AcDbEntity
  8
FORMAT
100
AcDbLine
 10
519.5262545767
 20
1068.2896142362
 30
0.0
 11
629.5262545767
 21
1068.2896142362
 31
0.0
  0
MTEXT
  5
26A
330
262
100
AcDbEntity
  8
FORMAT
100
AcDbMText
 10
546.4533386054
 20
1099.8717754904
 30
0.0
 40
24.5
 41
0.0
 71
     1
 72
     1
  1
110
  7
SLDTEXTSTYLE0
 73
     1
 44
1.0
  0
ENDBLK
  5
264
330
262
100
AcDbEntity
  8
0
100
AcDbBlockEnd
  0
BLOCK
  5
26D
330
26C
100
AcDbEntity
  8
0
100
AcDbBlockBegin
  2
_D_9
 70
     0
 10
0.0
 20
0.0
 30
0.0
  3
_D_9
  1

  0
SOLID
  5
26F
330
26C
100
AcDbEntity
  8
FORMAT
100
AcDbTrace
 10
629.5262545767
 20
1068.2896142362
 30
0.0
 11
652.6402545767
 21
1064.7336142362
 31
0.0
 12
652.6402545767
 22
1071.8456142362
 32
0.0
 13
652.6402545767
 23
1071.8456142362
 33
0.0
  0
SOLID
  5
270
330
26C
100
AcDbEntity
  8
FORMAT
100
AcDbTrace
 10
854.5262545767
 20
1068.2896142362
 30
0.0
 11
831.4122545767
 21
1071.8456142362
 31
0.0
 12
831.4122545767
 22
1064.7336142362
 32
0.0
 13
831.4122545767
 23
1064.7336142362
 33
0.0
  0
LINE
  5
271
330
26C
100
AcDbEntity
  8
FORMAT
100
AcDbLine
 10
629.5262545767
 20
845.9896142385
 30
0.0
 11
629.5262545767
 21
1075.2896142362
 31
0.0
  0
LINE
  5
272
330
26C
100
AcDbEntity
  8
FORMAT
100
AcDbLine
 10
854.5262545767
 20
845.9896142385
 30
0.0
 11
854.5262545767
 21
1075.2896142362
 31
0.0
  0
LINE
  5
273
330
26C
100
AcDbEntity
  8
FORMAT
100
AcDbLine
 10
629.5262545767
 20
1068.2896142362
 30
0.0
 11
854.5262545767
 21
1068.2896142362
 31
0.0
  0
MTEXT
  5
274
330
26C
100
AcDbEntity
  8
FORMAT
100
AcDbMText
 10
713.9533386054
 20
1099.8717754904
 30
0.0
 40
24.5
 41
0.0
 71
     1
 72
     1
  1
225
  7
SLDTEXTSTYLE0
 73
     1
 44
1.0
  0
ENDBLK
  5
26E
330
26C
100
AcDbEntity
  8
0
100
AcDbBlockEnd
  0
BLOCK
  5
277
330
276
100
AcDbEntity
  8
0
100
AcDbBlockBegin
  2
_D_10
 70
     0
 10
0.0
 20
0.0
 30
0.0
  3
_D_10
  1

  0
SOLID
  5
279
330
276
100
AcDbEntity
  8
FORMAT
100
AcDbTrace
 10
854.5262545767
 20
1068.2896142362
 30
0.0
 11
877.6402545767
 21
1064.7336142362
 31
0.0
 12
877.6402545767
 22
1071.8456142362
 32
0.0
 13
877.6402545767
 23
1071.8456142362
 33
0.0
  0
SOLID
  5
27A
330
276
100
AcDbEntity
  8
FORMAT
100
AcDbTrace
 10
1079.5262545767
 20
1068.2896142362
 30
0.0
 11
1056.4122545767
 21
1071.8456142362
 31
0.0
 12
1056.4122545767
 22
1064.7336142362
 32
0.0
 13
1056.4122545767
 23
1064.7336142362
 33
0.0
  0
LINE
  5
27B
330
276
100
AcDbEntity
  8
FORMAT
100
AcDbLine
 10
854.5262545767
 20
845.9896142385
 30
0.0
 11
854.5262545767
 21
1075.2896142362
 31
0.0
  0
LINE
  5
27C
330
276
100
AcDbEntity
  8
FORMAT
100
AcDbLine
 10
1079.5262545767
 20
845.9896142385
 30
0.0
 11
1079.5262545767
 21
1075.2896142362
 31
0.0
  0
LINE
  5
27D
330
276
100
AcDbEntity
  8
FORMAT
100
AcDbLine
 10
854.5262545767
 20
1068.2896142362
 30
0.0
 11
1079.5262545767
 21
1068.2896142362
 31
0.0
  0
MTEXT
  5
27E
330
276
100
AcDbEntity
  8
FORMAT
100
AcDbMText
 10
938.9533386054
 20
1099.8717754904
 30
0.0
 40
24.5
 41
0.0
 71
     1
 72
     1
  1
225
  7
SLDTEXTSTYLE0
 73
     1
 44
1.0
  0
ENDBLK
  5
278
330
276
100
AcDbEntity
  8
0
100
AcDbBlockEnd
  0
BLOCK
  5
281
330
280
100
AcDbEntity
  8
0
100
AcDbBlockBegin
  2
_D_11
 70
     0
 10
0.0
 20
0.0
 30
0.0
  3
_D_11
  1

  0
SOLID
  5
283
330
280
100
AcDbEntity
  8
FORMAT
100
AcDbTrace
 10
519.5262545767
 20
1120.2457038055
 30
0.0
 11
542.6402545767
 21
1116.6897038055
 31
0.0
 12
542.6402545767
 22
1123.8017038055
 32
0.0
 13
542.6402545767
 23
1123.8017038055
 33
0.0
  0
SOLID
  5
284
330
280
100
AcDbEntity
  8
FORMAT
100
AcDbTrace
 10
1185.5262545767
 20
1120.2457038055
 30
0.0
 11
1162.4122545767
 21
1123.8017038055
 31
0.0
 12
1162.4122545767
 22
1116.6897038055
 32
0.0
 13
1162.4122545767
 23
1116.6897038055
 33
0.0
  0
LINE
  5
285
330
280
100
AcDbEntity
  8
FORMAT
100
AcDbLine
 10
519.5262545767
 20
628.2896142362
 30
0.0
 11
519.5262545767
 21
1127.2457038055
 31
0.0
  0
LINE
  5
286
330
280
100
AcDbEntity
  8
FORMAT
100
AcDbLine
 10
1185.5262545767
 20
837.7896142362
 30
0.0
 11
1185.5262545767
 21
1127.2457038055
 31
0.0
  0
LINE
  5
287
330
280
100
AcDbEntity
  8
FORMAT
100
AcDbLine
 10
519.5262545767
 20
1120.2457038055
 30
0.0
 11
1185.5262545767
 21
1120.2457038055
 31
0.0
  0
MTEXT
  5
288
330
280
100
AcDbEntity
  8
FORMAT
100
AcDbMText
 10
824.4533386054
 20
1151.8278650598
 30
0.0
 40
24.5
 41
0.0
 71
     1
 72
     1
  1
666
  7
SLDTEXTSTYLE0
 73
     1
 44
1.0
  0
ENDBLK
  5
282
330
280
100
AcDbEntity
  8
0
100
AcDbBlockEnd
  0
BLOCK
  5
28B
330
28A
100
AcDbEntity
  8
0
100
AcDbBlockBegin
  2
_D_12
 70
     0
 10
0.0
 20
0.0
 30
0.0
  3
_D_12
  1

  0
SOLID
  5
28D
330
28A
100
AcDbEntity
  8
FORMAT
100
AcDbTrace
 10
519.5262545767
 20
1165.0766392524
 30
0.0
 11
542.6402545767
 21
1161.5206392524
 31
0.0
 12
542.6402545767
 22
1168.6326392524
 32
0.0
 13
542.6402545767
 23
1168.6326392524
 33
0.0
  0
SOLID
  5
28E
330
28A
100
AcDbEntity
  8
FORMAT
100
AcDbTrace
 10
1199.5262545767
 20
1165.0766392524
 30
0.0
 11
1176.4122545767
 21
1168.6326392524
 31
0.0
 12
1176.4122545767
 22
1161.5206392524
 32
0.0
 13
1176.4122545767
 23
1161.5206392524
 33
0.0
  0
LINE
  5
28F
330
28A
100
AcDbEntity
  8
FORMAT
100
AcDbLine
 10
519.5262545767
 20
628.2896142362
 30
0.0
 11
519.5262545767
 21
1172.0766392524
 31
0.0
  0
LINE
  5
290
330
28A
100
AcDbEntity
  8
FORMAT
100
AcDbLine
 10
1199.5262545767
 20
857.2896142385
 30
0.0
 11
1199.5262545767
 21
1172.0766392524
 31
0.0
  0
LINE
  5
291
330
28A
100
AcDbEntity
  8
FORMAT
100
AcDbLine
 10
519.5262545767
 20
1165.0766392524
 30
0.0
 11
1199.5262545767
 21
1165.0766392524
 31
0.0
  0
MTEXT
  5
292
330
28A
100
AcDbEntity
  8
FORMAT
100
AcDbMText
 10
831.4533386054
 20
1196.6588005066
 30
0.0
 40
24.5
 41
0.0
 71
     1
 72
     1
  1
680
  7
SLDTEXTSTYLE0
 73
     1
 44
1.0
  0
ENDBLK
  5
28C
330
28A
100
AcDbEntity
  8
0
100
AcDbBlockEnd
  0
BLOCK
  5
295
330
294
100
AcDbEntity
  8
0
100
AcDbBlockBegin
  2
_D_13
 70
     0
 10
0.0
 20
0.0
 30
0.0
  3
_D_13
  1

  0
SOLID
  5
297
330
294
100
AcDbEntity
  8
FORMAT
100
AcDbTrace
 10
519.5262545767
 20
578.2102780426
 30
0.0
 11
542.6402545767
 21
574.6542780426
 31
0.0
 12
542.6402545767
 22
581.7662780426
 32
0.0
 13
542.6402545767
 23
581.7662780426
 33
0.0
  0
SOLID
  5
298
330
294
100
AcDbEntity
  8
FORMAT
100
AcDbTrace
 10
608.5262545767
 20
578.2102780426
 30
0.0
 11
585.4122545767
 21
581.7662780426
 31
0.0
 12
585.4122545767
 22
574.6542780426
 32
0.0
 13
585.4122545767
 23
574.6542780426
 33
0.0
  0
LINE
  5
299
330
294
100
AcDbEntity
  8
FORMAT
100
AcDbLine
 10
608.5262545767
 20
722.0396142362
 30
0.0
 11
608.5262545767
 21
571.2102780426
 31
0.0
  0
LINE
  5
29A
330
294
100
AcDbEntity
  8
FORMAT
100
AcDbLine
 10
519.5262545767
 20
578.2102780426
 30
0.0
 11
608.5262545767
 21
578.2102780426
 31
0.0
  0
MTEXT
  5
29B
330
294
100
AcDbEntity
  8
FORMAT
100
AcDbMText
 10
545.3109772625
 20
609.7924392968
 30
0.0
 40
24.5
 41
0.0
 71
     1
 72
     1
  1
89
  7
SLDTEXTSTYLE0
 73
     1
 44
1.0
  0
ENDBLK
  5
296
330
294
100
AcDbEntity
  8
0
100
AcDbBlockEnd
  0
BLOCK
  5
29E
330
29D
100
AcDbEntity
  8
0
100
AcDbBlockBegin
  2
_D_14
 70
     0
 10
0.0
 20
0.0
 30
0.0
  3
_D_14
  1

  0
SOLID
  5
2A0
330
29D
100
AcDbEntity
  8
FORMAT
100
AcDbTrace
 10
608.5262545767
 20
578.2102780426
 30
0.0
 11
631.6402545767
 21
574.6542780426
 31
0.0
 12
631.6402545767
 22
581.7662780426
 32
0.0
 13
631.6402545767
 23
581.7662780426
 33
0.0
  0
SOLID
  5
2A1
330
29D
100
AcDbEntity
  8
FORMAT
100
AcDbTrace
 10
1241.5262545767
 20
578.2102780426
 30
0.0
 11
1218.4122545767
 21
581.7662780426
 31
0.0
 12
1218.4122545767
 22
574.6542780426
 32
0.0
 13
1218.4122545767
 23
574.6542780426
 33
0.0
  0
LINE
  5
2A2
330
29D
100
AcDbEntity
  8
FORMAT
100
AcDbLine
 10
608.5262545767
 20
722.0396142362
 30
0.0
 11
608.5262545767
 21
571.2102780426
 31
0.0
  0
LINE
  5
2A3
330
29D
100
AcDbEntity
  8
FORMAT
100
AcDbLine
 10
1241.5262545767
 20
722.0396142362
 30
0.0
 11
1241.5262545767
 21
571.2102780426
 31
0.0
  0
LINE
  5
2A4
330
29D
100
AcDbEntity
  8
FORMAT
100
AcDbLine
 10
608.5262545767
 20
578.2102780426
 30
0.0
 11
1241.5262545767
 21
578.2102780426
 31
0.0
  0
MTEXT
  5
2A5
330
29D
100
AcDbEntity
  8
FORMAT
100
AcDbMText
 10
896.9533386054
 20
609.7924392968
 30
0.0
 40
24.5
 41
0.0
 71
     1
 72
     1
  1
633
  7
SLDTEXTSTYLE0
 73
     1
 44
1.0
  0
ENDBLK
  5
29F
330
29D
100
AcDbEntity
  8
0
100
AcDbBlockEnd
  0
BLOCK
  5
2A9
330
2A8
100
AcDbEntity
  8
0
100
AcDbBlockBegin
  2
_D_15
 70
     0
 10
0.0
 20
0.0
 30
0.0
  3
_D_15
  1

  0
SOLID
  5
2AB
330
2A8
100
AcDbEntity
  8
FORMAT
100
AcDbTrace
 10
1286.4790859725
 20
734.0396142362
 30
0.0
 11
1282.9230859725
 21
710.9256142362
 31
0.0
 12
1290.0350859725
 22
710.9256142362
 32
0.0
 13
1290.0350859725
 23
710.9256142362
 33
0.0
  0
SOLID
  5
2AC
330
2A8
100
AcDbEntity
  8
FORMAT
100
AcDbTrace
 10
1286.4790859725
 20
756.2896142362
 30
0.0
 11
1290.0350859725
 21
779.4036142362
 31
0.0
 12
1282.9230859725
 22
779.4036142362
 32
0.0
 13
1282.9230859725
 23
779.4036142362
 33
0.0
  0
LINE
  5
2AD
330
2A8
100
AcDbEntity
  8
FORMAT
100
AcDbLine
 10
1253.5262545767
 20
734.0396142362
 30
0.0
 11
1293.4790859725
 21
734.0396142362
 31
0.0
  0
LINE
  5
2AE
330
2A8
100
AcDbEntity
  8
FORMAT
100
AcDbLine
 10
1286.4790859725
 20
734.0396142362
 30
0.0
 11
1286.4790859725
 21
663.0933387378
 31
0.0
  0
LINE
  5
2AF
330
2A8
100
AcDbEntity
  8
FORMAT
100
AcDbLine
 10
1286.4790859725
 20
734.0396142362
 30
0.0
 11
1286.4790859725
 21
756.2896142362
 31
0.0
  0
LINE
  5
2B0
330
2A8
100
AcDbEntity
  8
FORMAT
100
AcDbLine
 10
1286.4790859725
 20
756.2896142362
 30
0.0
 11
1286.4790859725
 21
800.7396142362
 31
0.0
  0
MTEXT
  5
2B1
330
2A8
100
AcDbEntity
  8
FORMAT
100
AcDbMText
 10
1254.8969247183
 20
663.0933387378
 30
0.0
 40
24.5
 41
0.0
 71
     1
 72
     1
  1
22
  7
SLDTEXTSTYLE0
 11
6.123233995736766E-17
 21
1.0
 31
0.0
 73
     1
 44
1.0
  0
ENDBLK
  5
2AA
330
2A8
100
AcDbEntity
  8
0
100
AcDbBlockEnd
  0
BLOCK
  5
2B4
330
2B3
100
AcDbEntity
  8
0
100
AcDbBlockBegin
  2
_D_16
 70
     0
 10
0.0
 20
0.0
 30
0.0
  3
_D_16
  1

  0
SOLID
  5
2B6
330
2B3
100
AcDbEntity
  8
FORMAT
100
AcDbTrace
 10
1245.4589751399
 20
760.2896142385
 30
0.0
 11
1249.0149751399
 21
783.4036142385
 31
0.0
 12
1241.9029751399
 22
783.4036142385
 32
0.0
 13
1241.9029751399
 23
783.4036142385
 33
0.0
  0
SOLID
  5
2B7
330
2B3
100
AcDbEntity
  8
FORMAT
100
AcDbTrace
 10
1245.4589751399
 20
850.2896142385
 30
0.0
 11
1241.9029751399
 21
827.1756142385
 31
0.0
 12
1249.0149751399
 22
827.1756142385
 32
0.0
 13
1249.0149751399
 23
827.1756142385
 33
0.0
  0
LINE
  5
2B8
330
2B3
100
AcDbEntity
  8
FORMAT
100
AcDbLine
 10
1206.5262545767
 20
760.2896142385
 30
0.0
 11
1252.4589751399
 21
760.2896142385
 31
0.0
  0
LINE
  5
2B9
330
2B3
100
AcDbEntity
  8
FORMAT
100
AcDbLine
 10
1206.5262545767
 20
850.2896142385
 30
0.0
 11
1252.4589751399
 21
850.2896142385
 31
0.0
  0
LINE
  5
2BA
330
2B3
100
AcDbEntity
  8
FORMAT
100
AcDbLine
 10
1245.4589751399
 20
760.2896142385
 30
0.0
 11
1245.4589751399
 21
850.2896142385
 31
0.0
  0
MTEXT
  5
2BB
330
2B3
100
AcDbEntity
  8
FORMAT
100
AcDbMText
 10
1213.8768138856
 20
786.5743369243
 30
0.0
 40
24.5
 41
0.0
 71
     1
 72
     1
  1
90
  7
SLDTEXTSTYLE0
 11
6.123233995736766E-17
 21
1.0
 31
0.0
 73
     1
 44
1.0
  0
ENDBLK
  5
2B5
330
2B3
100
AcDbEntity
  8
0
100
AcDbBlockEnd
  0
BLOCK
  5
2BE
330
2BD
100
AcDbEntity
  8
0
100
AcDbBlockBegin
  2
_D_17
 70
     0
 10
0.0
 20
0.0
 30
0.0
  3
_D_17
  1

  0
SOLID
  5
2C0
330
2BD
100
AcDbEntity
  8
FORMAT
100
AcDbTrace
 10
403.7084883516
 20
756.2896142362
 30
0.0
 11
400.1524883516
 21
733.1756142362
 31
0.0
 12
407.2644883516
 22
733.1756142362
 32
0.0
 13
407.2644883516
 23
733.1756142362
 33
0.0
  0
SOLID
  5
2C1
330
2BD
100
AcDbEntity
  8
FORMAT
100
AcDbTrace
 10
403.7084883516
 20
760.2896142385
 30
0.0
 11
407.2644883516
 21
783.4036142385
 31
0.0
 12
400.1524883516
 22
783.4036142385
 32
0.0
 13
400.1524883516
 23
783.4036142385
 33
0.0
  0
LINE
  5
2C2
330
2BD
100
AcDbEntity
  8
FORMAT
100
AcDbLine
 10
532.5262545767
 20
756.2896142362
 30
0.0
 11
396.7084883516
 21
756.2896142362
 31
0.0
  0
LINE
  5
2C3
330
2BD
100
AcDbEntity
  8
FORMAT
100
AcDbLine
 10
522.5262545767
 20
760.2896142385
 30
0.0
 11
396.7084883516
 21
760.2896142385
 31
0.0
  0
LINE
  5
2C4
330
2BD
100
AcDbEntity
  8
FORMAT
100
AcDbLine
 10
403.7084883516
 20
756.2896142362
 30
0.0
 11
403.7084883516
 21
707.3086993225
 31
0.0
  0
LINE
  5
2C5
330
2BD
100
AcDbEntity
  8
FORMAT
100
AcDbLine
 10
403.7084883516
 20
756.2896142362
 30
0.0
 11
403.7084883516
 21
760.2896142385
 31
0.0
  0
LINE
  5
2C6
330
2BD
100
AcDbEntity
  8
FORMAT
100
AcDbLine
 10
403.7084883516
 20
760.2896142385
 30
0.0
 11
403.7084883516
 21
804.7396142385
 31
0.0
  0
MTEXT
  5
2C7
330
2BD
100
AcDbEntity
  8
FORMAT
100
AcDbMText
 10
372.1263270974
 20
707.3086993225
 30
0.0
 40
24.5
 41
0.0
 71
     1
 72
     1
  1
4
  7
SLDTEXTSTYLE0
 11
6.123233995736766E-17
 21
1.0
 31
0.0
 73
     1
 44
1.0
  0
ENDBLK
  5
2BF
330
2BD
100
AcDbEntity
  8
0
100
AcDbBlockEnd
  0
BLOCK
  5
2CA
330
2C9
100
AcDbEntity
  8
0
100
AcDbBlockBegin
  2
_D_18
 70
     0
 10
0.0
 20
0.0
 30
0.0
  3
_D_18
  1

  0
SOLID
  5
2CC
330
2C9
100
AcDbEntity
  8
FORMAT
100
AcDbTrace
 10
820.0771502369
 20
756.2896142362
 30
0.0
 11
816.5211502369
 21
733.1756142362
 31
0.0
 12
823.6331502369
 22
733.1756142362
 32
0.0
 13
823.6331502369
 23
733.1756142362
 33
0.0
  0
SOLID
  5
2CD
330
2C9
100
AcDbEntity
  8
FORMAT
100
AcDbTrace
 10
820.0771502369
 20
770.2896142385
 30
0.0
 11
823.6331502369
 21
793.4036142385
 31
0.0
 12
816.5211502369
 22
793.4036142385
 32
0.0
 13
816.5211502369
 23
793.4036142385
 33
0.0
  0
LINE
  5
2CE
330
2C9
100
AcDbEntity
  8
FORMAT
100
AcDbLine
 10
838.8262545767
 20
770.2896142385
 30
0.0
 11
813.0771502369
 21
770.2896142385
 31
0.0
  0
LINE
  5
2CF
330
2C9
100
AcDbEntity
  8
FORMAT
100
AcDbLine
 10
820.0771502369
 20
756.2896142362
 30
0.0
 11
820.0771502369
 21
688.4665808958
 31
0.0
  0
LINE
  5
2D0
330
2C9
100
AcDbEntity
  8
FORMAT
100
AcDbLine
 10
820.0771502369
 20
756.2896142362
 30
0.0
 11
820.0771502369
 21
770.2896142385
 31
0.0
  0
LINE
  5
2D1
330
2C9
100
AcDbEntity
  8
FORMAT
100
AcDbLine
 10
820.0771502369
 20
770.2896142385
 30
0.0
 11
820.0771502369
 21
814.7396142385
 31
0.0
  0
MTEXT
  5
2D2
330
2C9
100
AcDbEntity
  8
FORMAT
100
AcDbMText
 10
788.4949889827
 20
688.4665808958
 30
0.0
 40
24.5
 41
0.0
 71
     1
 72
     1
  1
14
  7
SLDTEXTSTYLE0
 11
6.123233995736766E-17
 21
1.0
 31
0.0
 73
     1
 44
1.0
  0
ENDBLK
  5
2CB
330
2C9
100
AcDbEntity
  8
0
100
AcDbBlockEnd
  0
BLOCK
  5
2D5
330
2D4
100
AcDbEntity
  8
0
100
AcDbBlockBegin
  2
_D_19
 70
     0
 10
0.0
 20
0.0
 30
0.0
  3
_D_19
  1

  0
SOLID
  5
2D7
330
2D4
100
AcDbEntity
  8
FORMAT
100
AcDbTrace
 10
356.2860895036
 20
760.2896142385
 30
0.0
 11
352.7300895036
 21
737.1756142385
 31
0.0
 12
359.8420895036
 22
737.1756142385
 32
0.0
 13
359.8420895036
 23
737.1756142385
 33
0.0
  0
SOLID
  5
2D8
330
2D4
100
AcDbEntity
  8
FORMAT
100
AcDbTrace
 10
356.2860895036
 20
794.2896142362
 30
0.0
 11
359.8420895036
 21
817.4036142362
 31
0.0
 12
352.7300895036
 22
817.4036142362
 32
0.0
 13
352.7300895036
 23
817.4036142362
 33
0.0
  0
LINE
  5
2D9
330
2D4
100
AcDbEntity
  8
FORMAT
100
AcDbLine
 10
509.0262545767
 20
760.2896142385
 30
0.0
 11
349.2860895036
 21
760.2896142385
 31
0.0
  0
LINE
  5
2DA
330
2D4
100
AcDbEntity
  8
FORMAT
100
AcDbLine
 10
509.0262545767
 20
794.2896142362
 30
0.0
 11
414.2084883516
 21
794.2896142362
 31
0.0
  0
LINE
  5
2DB
330
2D4
100
AcDbEntity
  8
FORMAT
100
AcDbLine
 10
393.2084883516
 20
794.2896142362
 30
0.0
 11
349.2860895036
 21
794.2896142362
 31
0.0
  0
LINE
  5
2DC
330
2D4
100
AcDbEntity
  8
FORMAT
100
AcDbLine
 10
356.2860895036
 20
760.2896142385
 30
0.0
 11
356.2860895036
 21
697.9510606654
 31
0.0
  0
LINE
  5
2DD
330
2D4
100
AcDbEntity
  8
FORMAT
100
AcDbLine
 10
356.2860895036
 20
760.2896142385
 30
0.0
 11
356.2860895036
 21
794.2896142362
 31
0.0
  0
LINE
  5
2DE
330
2D4
100
AcDbEntity
  8
FORMAT
100
AcDbLine
 10
356.2860895036
 20
794.2896142362
 30
0.0
 11
356.2860895036
 21
838.7396142362
 31
0.0
  0
MTEXT
  5
2DF
330
2D4
100
AcDbEntity
  8
FORMAT
100
AcDbMText
 10
324.7039282494
 20
697.9510606654
 30
0.0
 40
24.5
 41
0.0
 71
     1
 72
     1
  1
34
  7
SLDTEXTSTYLE0
 11
6.123233995736766E-17
 21
1.0
 31
0.0
 73
     1
 44
1.0
  0
ENDBLK
  5
2D6
330
2D4
100
AcDbEntity
  8
0
100
AcDbBlockEnd
  0
BLOCK
  5
2E2
330
2E1
100
AcDbEntity
  8
0
100
AcDbBlockBegin
  2
_D_20
 70
     0
 10
0.0
 20
0.0
 30
0.0
  3
_D_20
  1

  0
SOLID
  5
2E4
330
2E1
100
AcDbEntity
  8
FORMAT
100
AcDbTrace
 10
314.1653904154
 20
794.2896142362
 30
0.0
 11
310.6093904154
 21
771.1756142362
 31
0.0
 12
317.7213904154
 22
771.1756142362
 32
0.0
 13
317.7213904154
 23
771.1756142362
 33
0.0
  0
SOLID
  5
2E5
330
2E1
100
AcDbEntity
  8
FORMAT
100
AcDbTrace
 10
314.1653904154
 20
818.2896142362
 30
0.0
 11
317.7213904154
 21
841.4036142362
 31
0.0
 12
310.6093904154
 22
841.4036142362
 32
0.0
 13
310.6093904154
 23
841.4036142362
 33
0.0
  0
LINE
  5
2E6
330
2E1
100
AcDbEntity
  8
FORMAT
100
AcDbLine
 10
509.0262545767
 20
794.2896142362
 30
0.0
 11
414.2084883516
 21
794.2896142362
 31
0.0
  0
LINE
  5
2E7
330
2E1
100
AcDbEntity
  8
FORMAT
100
AcDbLine
 10
393.2084883516
 20
794.2896142362
 30
0.0
 11
307.1653904154
 21
794.2896142362
 31
0.0
  0
LINE
  5
2E8
330
2E1
100
AcDbEntity
  8
FORMAT
100
AcDbLine
 10
509.0262545767
 20
818.2896142362
 30
0.0
 11
366.7860895036
 21
818.2896142362
 31
0.0
  0
LINE
  5
2E9
330
2E1
100
AcDbEntity
  8
FORMAT
100
AcDbLine
 10
345.7860895036
 20
818.2896142362
 30
0.0
 11
307.1653904154
 21
818.2896142362
 31
0.0
  0
LINE
  5
2EA
330
2E1
100
AcDbEntity
  8
FORMAT
100
AcDbLine
 10
314.1653904154
 20
794.2896142362
 30
0.0
 11
314.1653904154
 21
697.9510606654
 31
0.0
  0
LINE
  5
2EB
330
2E1
100
AcDbEntity
  8
FORMAT
100
AcDbLine
 10
314.1653904154
 20
794.2896142362
 30
0.0
 11
314.1653904154
 21
818.2896142362
 31
0.0
  0
LINE
  5
2EC
330
2E1
100
AcDbEntity
  8
FORMAT
100
AcDbLine
 10
314.1653904154
 20
818.2896142362
 30
0.0
 11
314.1653904154
 21
862.7396142362
 31
0.0
  0
MTEXT
  5
2ED
330
2E1
100
AcDbEntity
  8
FORMAT
100
AcDbMText
 10
282.5832291612
 20
697.9510606654
 30
0.0
 40
24.5
 41
0.0
 71
     1
 72
     1
  1
24
  7
SLDTEXTSTYLE0
 11
6.123233995736766E-17
 21
1.0
 31
0.0
 73
     1
 44
1.0
  0
ENDBLK
  5
2E3
330
2E1
100
AcDbEntity
  8
0
100
AcDbBlockEnd
  0
BLOCK
  5
2F4
330
2F3
100
AcDbEntity
  8
0
100
AcDbBlockBegin
  2
SW_NOTE_0_6
 70
     0
 10
0.0
 20
0.0
 30
0.0
  3
SW_NOTE_0_6
  1

  0
MTEXT
  5
2F6
330
2F3
100
AcDbEntity
  8
FORMAT
 62
     0
100
AcDbMText
 10
-306.6238580877
 20
37.4805252973
 30
0.0
 40
18.5208333333
 41
0.0
 71
     1
 72
     1
  1
ø20
  7
SLDTEXTSTYLE0
 73
     1
 44
1.0
  0
MTEXT
  5
2F7
330
2F3
100
AcDbEntity
  8
FORMAT
 62
     0
100
AcDbMText
 10
-306.6238580877
 20
5.7860800039
 30
0.0
 40
18.5208333333
 41
0.0
 71
     1
 72
     1
  1
(verdeckte Kabelzuführung)
  7
SLDTEXTSTYLE0
 73
     1
 44
1.0
  0
ENDBLK
  5
2F5
330
2F3
100
AcDbEntity
  8
0
100
AcDbBlockEnd
  0
BLOCK
  5
2FB
330
2FA
100
AcDbEntity
  8
0
100
AcDbBlockBegin
  2
SW_CENTERMARKSYMBOL_0
 70
     0
 10
0.0
 20
0.0
 30
0.0
  3
SW_CENTERMARKSYMBOL_0
  1

  0
LINE
  5
2FD
330
2FA
100
AcDbEntity
  8
FORMAT
 62
     0
100
AcDbLine
 10
0.0
 20
0.0
 30
0.0
 11
0.0
 21
2.5
 31
0.0
  0
LINE
  5
2FE
330
2FA
100
AcDbEntity
  8
FORMAT
 62
     0
100
AcDbLine
 10
0.0
 20
0.0
 30
0.0
 11
-2.5
 21
0.0
 31
0.0
  0
LINE
  5
2FF
330
2FA
100
AcDbEntity
  8
FORMAT
 62
     0
100
AcDbLine
 10
0.0
 20
0.0
 30
0.0
 11
0.0
 21
-2.5
 31
0.0
  0
LINE
  5
300
330
2FA
100
AcDbEntity
  8
FORMAT
 62
     0
100
AcDbLine
 10
0.0
 20
0.0
 30
0.0
 11
2.5
 21
0.0
 31
0.0
  0
LINE
  5
301
330
2FA
100
AcDbEntity
  8
FORMAT
 62
     0
100
AcDbLine
 10
0.0
 20
2.5
 30
0.0
 11
0.0
 21
5.0
 31
0.0
  0
LINE
  5
302
330
2FA
100
AcDbEntity
  8
FORMAT
 62
     0
100
AcDbLine
 10
-2.5
 20
0.0
 30
0.0
 11
-5.0
 21
0.0
 31
0.0
  0
LINE
  5
303
330
2FA
100
AcDbEntity
  8
FORMAT
 62
     0
100
AcDbLine
 10
0.0
 20
-2.5
 30
0.0
 11
0.0
 21
-5.0
 31
0.0
  0
LINE
  5
304
330
2FA
100
AcDbEntity
  8
FORMAT
 62
     0
100
AcDbLine
 10
2.5
 20
0.0
 30
0.0
 11
5.0
 21
0.0
 31
0.0
  0
ENDBLK
  5
2FC
330
2FA
100
AcDbEntity
  8
0
100
AcDbBlockEnd
  0
BLOCK
  5
307
330
306
100
AcDbEntity
  8
0
100
AcDbBlockBegin
  2
SW_CENTERMARKSYMBOL_1
 70
     0
 10
0.0
 20
0.0
 30
0.0
  3
SW_CENTERMARKSYMBOL_1
  1

  0
LINE
  5
309
330
306
100
AcDbEntity
  8
FORMAT
 62
     0
100
AcDbLine
 10
0.0
 20
0.0
 30
0.0
 11
0.0
 21
2.5
 31
0.0
  0
LINE
  5
30A
330
306
100
AcDbEntity
  8
FORMAT
 62
     0
100
AcDbLine
 10
0.0
 20
0.0
 30
0.0
 11
-2.5
 21
0.0
 31
0.0
  0
LINE
  5
30B
330
306
100
AcDbEntity
  8
FORMAT
 62
     0
100
AcDbLine
 10
0.0
 20
0.0
 30
0.0
 11
0.0
 21
-2.5
 31
0.0
  0
LINE
  5
30C
330
306
100
AcDbEntity
  8
FORMAT
 62
     0
100
AcDbLine
 10
0.0
 20
0.0
 30
0.0
 11
2.5
 21
0.0
 31
0.0
  0
LINE
  5
30D
330
306
100
AcDbEntity
  8
FORMAT
 62
     0
100
AcDbLine
 10
0.0
 20
2.5
 30
0.0
 11
0.0
 21
5.0
 31
0.0
  0
LINE
  5
30E
330
306
100
AcDbEntity
  8
FORMAT
 62
     0
100
AcDbLine
 10
-2.5
 20
0.0
 30
0.0
 11
-5.0
 21
0.0
 31
0.0
  0
LINE
  5
30F
330
306
100
AcDbEntity
  8
FORMAT
 62
     0
100
AcDbLine
 10
0.0
 20
-2.5
 30
0.0
 11
0.0
 21
-5.0
 31
0.0
  0
LINE
  5
310
330
306
100
AcDbEntity
  8
FORMAT
 62
     0
100
AcDbLine
 10
2.5
 20
0.0
 30
0.0
 11
5.0
 21
0.0
 31
0.0
  0
ENDBLK
  5
308
330
306
100
AcDbEntity
  8
0
100
AcDbBlockEnd
  0
BLOCK
  5
313
330
312
100
AcDbEntity
  8
0
100
AcDbBlockBegin
  2
SW_CENTERMARKSYMBOL_2
 70
     0
 10
0.0
 20
0.0
 30
0.0
  3
SW_CENTERMARKSYMBOL_2
  1

  0
LINE
  5
315
330
312
100
AcDbEntity
  8
FORMAT
 62
     0
100
AcDbLine
 10
0.0
 20
0.0
 30
0.0
 11
0.0
 21
2.5
 31
0.0
  0
LINE
  5
316
330
312
100
AcDbEntity
  8
FORMAT
 62
     0
100
AcDbLine
 10
0.0
 20
0.0
 30
0.0
 11
-2.5
 21
0.0
 31
0.0
  0
LINE
  5
317
330
312
100
AcDbEntity
  8
FORMAT
 62
     0
100
AcDbLine
 10
0.0
 20
0.0
 30
0.0
 11
0.0
 21
-2.5
 31
0.0
  0
LINE
  5
318
330
312
100
AcDbEntity
  8
FORMAT
 62
     0
100
AcDbLine
 10
0.0
 20
0.0
 30
0.0
 11
2.5
 21
0.0
 31
0.0
  0
LINE
  5
319
330
312
100
AcDbEntity
  8
FORMAT
 62
     0
100
AcDbLine
 10
0.0
 20
5.0
 30
0.0
 11
0.0
 21
12.5
 31
0.0
  0
LINE
  5
31A
330
312
100
AcDbEntity
  8
FORMAT
 62
     0
100
AcDbLine
 10
-5.0
 20
0.0
 30
0.0
 11
-12.5
 21
0.0
 31
0.0
  0
LINE
  5
31B
330
312
100
AcDbEntity
  8
FORMAT
 62
     0
100
AcDbLine
 10
0.0
 20
-5.0
 30
0.0
 11
0.0
 21
-12.5
 31
0.0
  0
LINE
  5
31C
330
312
100
AcDbEntity
  8
FORMAT
 62
     0
100
AcDbLine
 10
5.0
 20
0.0
 30
0.0
 11
12.5
 21
0.0
 31
0.0
  0
ENDBLK
  5
314
330
312
100
AcDbEntity
  8
0
100
AcDbBlockEnd
  0
BLOCK
  5
31F
330
31E
100
AcDbEntity
  8
0
100
AcDbBlockBegin
  2
SW_CENTERMARKSYMBOL_3
 70
     0
 10
0.0
 20
0.0
 30
0.0
  3
SW_CENTERMARKSYMBOL_3
  1

  0
LINE
  5
321
330
31E
100
AcDbEntity
  8
FORMAT
 62
     0
100
AcDbLine
 10
0.0
 20
0.0
 30
0.0
 11
0.0
 21
2.5
 31
0.0
  0
LINE
  5
322
330
31E
100
AcDbEntity
  8
FORMAT
 62
     0
100
AcDbLine
 10
0.0
 20
0.0
 30
0.0
 11
-2.5
 21
0.0
 31
0.0
  0
LINE
  5
323
330
31E
100
AcDbEntity
  8
FORMAT
 62
     0
100
AcDbLine
 10
0.0
 20
0.0
 30
0.0
 11
0.0
 21
-2.5
 31
0.0
  0
LINE
  5
324
330
31E
100
AcDbEntity
  8
FORMAT
 62
     0
100
AcDbLine
 10
0.0
 20
0.0
 30
0.0
 11
2.5
 21
0.0
 31
0.0
  0
LINE
  5
325
330
31E
100
AcDbEntity
  8
FORMAT
 62
     0
100
AcDbLine
 10
0.0
 20
5.0
 30
0.0
 11
0.0
 21
12.5
 31
0.0
  0
LINE
  5
326
330
31E
100
AcDbEntity
  8
FORMAT
 62
     0
100
AcDbLine
 10
-5.0
 20
0.0
 30
0.0
 11
-12.5
 21
0.0
 31
0.0
  0
LINE
  5
327
330
31E
100
AcDbEntity
  8
FORMAT
 62
     0
100
AcDbLine
 10
0.0
 20
-5.0
 30
0.0
 11
0.0
 21
-12.5
 31
0.0
  0
LINE
  5
328
330
31E
100
AcDbEntity
  8
FORMAT
 62
     0
100
AcDbLine
 10
5.0
 20
0.0
 30
0.0
 11
12.5
 21
0.0
 31
0.0
  0
ENDBLK
  5
320
330
31E
100
AcDbEntity
  8
0
100
AcDbBlockEnd
  0
BLOCK
  5
32B
330
32A
100
AcDbEntity
  8
0
100
AcDbBlockBegin
  2
SW_CENTERMARKSYMBOL_4
 70
     0
 10
0.0
 20
0.0
 30
0.0
  3
SW_CENTERMARKSYMBOL_4
  1

  0
LINE
  5
32D
330
32A
100
AcDbEntity
  8
FORMAT
 62
     0
100
AcDbLine
 10
0.0
 20
0.0
 30
0.0
 11
0.0
 21
2.5
 31
0.0
  0
LINE
  5
32E
330
32A
100
AcDbEntity
  8
FORMAT
 62
     0
100
AcDbLine
 10
0.0
 20
0.0
 30
0.0
 11
-2.5
 21
0.0
 31
0.0
  0
LINE
  5
32F
330
32A
100
AcDbEntity
  8
FORMAT
 62
     0
100
AcDbLine
 10
0.0
 20
0.0
 30
0.0
 11
0.0
 21
-2.5
 31
0.0
  0
LINE
  5
330
330
32A
100
AcDbEntity
  8
FORMAT
 62
     0
100
AcDbLine
 10
0.0
 20
0.0
 30
0.0
 11
2.5
 21
0.0
 31
0.0
  0
LINE
  5
331
330
32A
100
AcDbEntity
  8
FORMAT
 62
     0
100
AcDbLine
 10
0.0
 20
2.5
 30
0.0
 11
0.0
 21
5.0
 31
0.0
  0
LINE
  5
332
330
32A
100
AcDbEntity
  8
FORMAT
 62
     0
100
AcDbLine
 10
-2.5
 20
0.0
 30
0.0
 11
-5.0
 21
0.0
 31
0.0
  0
LINE
  5
333
330
32A
100
AcDbEntity
  8
FORMAT
 62
     0
100
AcDbLine
 10
0.0
 20
-2.5
 30
0.0
 11
0.0
 21
-5.0
 31
0.0
  0
LINE
  5
334
330
32A
100
AcDbEntity
  8
FORMAT
 62
     0
100
AcDbLine
 10
2.5
 20
0.0
 30
0.0
 11
5.0
 21
0.0
 31
0.0
  0
ENDBLK
  5
32C
330
32A
100
AcDbEntity
  8
0
100
AcDbBlockEnd
  0
BLOCK
  5
337
330
336
100
AcDbEntity
  8
0
100
AcDbBlockBegin
  2
SW_CENTERMARKSYMBOL_5
 70
     0
 10
0.0
 20
0.0
 30
0.0
  3
SW_CENTERMARKSYMBOL_5
  1

  0
LINE
  5
339
330
336
100
AcDbEntity
  8
FORMAT
 62
     0
100
AcDbLine
 10
0.0
 20
0.0
 30
0.0
 11
0.0
 21
2.5
 31
0.0
  0
LINE
  5
33A
330
336
100
AcDbEntity
  8
FORMAT
 62
     0
100
AcDbLine
 10
0.0
 20
0.0
 30
0.0
 11
-2.5
 21
0.0
 31
0.0
  0
LINE
  5
33B
330
336
100
AcDbEntity
  8
FORMAT
 62
     0
100
AcDbLine
 10
0.0
 20
0.0
 30
0.0
 11
0.0
 21
-2.5
 31
0.0
  0
LINE
  5
33C
330
336
100
AcDbEntity
  8
FORMAT
 62
     0
100
AcDbLine
 10
0.0
 20
0.0
 30
0.0
 11
2.5
 21
0.0
 31
0.0
  0
LINE
  5
33D
330
336
100
AcDbEntity
  8
FORMAT
 62
     0
100
AcDbLine
 10
0.0
 20
2.5
 30
0.0
 11
0.0
 21
5.0
 31
0.0
  0
LINE
  5
33E
330
336
100
AcDbEntity
  8
FORMAT
 62
     0
100
AcDbLine
 10
-2.5
 20
0.0
 30
0.0
 11
-5.0
 21
0.0
 31
0.0
  0
LINE
  5
33F
330
336
100
AcDbEntity
  8
FORMAT
 62
     0
100
AcDbLine
 10
0.0
 20
-2.5
 30
0.0
 11
0.0
 21
-5.0
 31
0.0
  0
LINE
  5
340
330
336
100
AcDbEntity
  8
FORMAT
 62
     0
100
AcDbLine
 10
2.5
 20
0.0
 30
0.0
 11
5.0
 21
0.0
 31
0.0
  0
ENDBLK
  5
338
330
336
100
AcDbEntity
  8
0
100
AcDbBlockEnd
  0
BLOCK
  5
343
330
342
100
AcDbEntity
  8
0
100
AcDbBlockBegin
  2
SW_CENTERMARKSYMBOL_6
 70
     0
 10
0.0
 20
0.0
 30
0.0
  3
SW_CENTERMARKSYMBOL_6
  1

  0
LINE
  5
345
330
342
100
AcDbEntity
  8
FORMAT
 62
     0
100
AcDbLine
 10
0.0
 20
0.0
 30
0.0
 11
0.0
 21
2.5
 31
0.0
  0
LINE
  5
346
330
342
100
AcDbEntity
  8
FORMAT
 62
     0
100
AcDbLine
 10
0.0
 20
0.0
 30
0.0
 11
-2.5
 21
0.0
 31
0.0
  0
LINE
  5
347
330
342
100
AcDbEntity
  8
FORMAT
 62
     0
100
AcDbLine
 10
0.0
 20
0.0
 30
0.0
 11
0.0
 21
-2.5
 31
0.0
  0
LINE
  5
348
330
342
100
AcDbEntity
  8
FORMAT
 62
     0
100
AcDbLine
 10
0.0
 20
0.0
 30
0.0
 11
2.5
 21
0.0
 31
0.0
  0
LINE
  5
349
330
342
100
AcDbEntity
  8
FORMAT
 62
     0
100
AcDbLine
 10
0.0
 20
5.0
 30
0.0
 11
0.0
 21
8.7
 31
0.0
  0
LINE
  5
34A
330
342
100
AcDbEntity
  8
FORMAT
 62
     0
100
AcDbLine
 10
-5.0
 20
0.0
 30
0.0
 11
-8.7
 21
0.0
 31
0.0
  0
LINE
  5
34B
330
342
100
AcDbEntity
  8
FORMAT
 62
     0
100
AcDbLine
 10
0.0
 20
-5.0
 30
0.0
 11
0.0
 21
-8.7
 31
0.0
  0
LINE
  5
34C
330
342
100
AcDbEntity
  8
FORMAT
 62
     0
100
AcDbLine
 10
5.0
 20
0.0
 30
0.0
 11
8.7
 21
0.0
 31
0.0
  0
ENDBLK
  5
344
330
342
100
AcDbEntity
  8
0
100
AcDbBlockEnd
  0
BLOCK
  5
34F
330
34E
100
AcDbEntity
  8
0
100
AcDbBlockBegin
  2
SW_CENTERMARKSYMBOL_7
 70
     0
 10
0.0
 20
0.0
 30
0.0
  3
SW_CENTERMARKSYMBOL_7
  1

  0
LINE
  5
351
330
34E
100
AcDbEntity
  8
FORMAT
 62
     0
100
AcDbLine
 10
0.0
 20
0.0
 30
0.0
 11
0.0
 21
2.5
 31
0.0
  0
LINE
  5
352
330
34E
100
AcDbEntity
  8
FORMAT
 62
     0
100
AcDbLine
 10
0.0
 20
0.0
 30
0.0
 11
-2.5
 21
0.0
 31
0.0
  0
LINE
  5
353
330
34E
100
AcDbEntity
  8
FORMAT
 62
     0
100
AcDbLine
 10
0.0
 20
0.0
 30
0.0
 11
0.0
 21
-2.5
 31
0.0
  0
LINE
  5
354
330
34E
100
AcDbEntity
  8
FORMAT
 62
     0
100
AcDbLine
 10
0.0
 20
0.0
 30
0.0
 11
2.5
 21
0.0
 31
0.0
  0
LINE
  5
355
330
34E
100
AcDbEntity
  8
FORMAT
 62
     0
100
AcDbLine
 10
0.0
 20
5.0
 30
0.0
 11
0.0
 21
8.7
 31
0.0
  0
LINE
  5
356
330
34E
100
AcDbEntity
  8
FORMAT
 62
     0
100
AcDbLine
 10
-5.0
 20
0.0
 30
0.0
 11
-8.7
 21
0.0
 31
0.0
  0
LINE
  5
357
330
34E
100
AcDbEntity
  8
FORMAT
 62
     0
100
AcDbLine
 10
0.0
 20
-5.0
 30
0.0
 11
0.0
 21
-8.7
 31
0.0
  0
LINE
  5
358
330
34E
100
AcDbEntity
  8
FORMAT
 62
     0
100
AcDbLine
 10
5.0
 20
0.0
 30
0.0
 11
8.7
 21
0.0
 31
0.0
  0
ENDBLK
  5
350
330
34E
100
AcDbEntity
  8
0
100
AcDbBlockEnd
  0
BLOCK
  5
35B
330
35A
100
AcDbEntity
  8
0
100
AcDbBlockBegin
  2
SW_CENTERMARKSYMBOL_8
 70
     0
 10
0.0
 20
0.0
 30
0.0
  3
SW_CENTERMARKSYMBOL_8
  1

  0
LINE
  5
35D
330
35A
100
AcDbEntity
  8
FORMAT
 62
     0
100
AcDbLine
 10
0.0
 20
0.0
 30
0.0
 11
0.0
 21
2.5
 31
0.0
  0
LINE
  5
35E
330
35A
100
AcDbEntity
  8
FORMAT
 62
     0
100
AcDbLine
 10
0.0
 20
0.0
 30
0.0
 11
-2.5
 21
0.0
 31
0.0
  0
LINE
  5
35F
330
35A
100
AcDbEntity
  8
FORMAT
 62
     0
100
AcDbLine
 10
0.0
 20
0.0
 30
0.0
 11
0.0
 21
-2.5
 31
0.0
  0
LINE
  5
360
330
35A
100
AcDbEntity
  8
FORMAT
 62
     0
100
AcDbLine
 10
0.0
 20
0.0
 30
0.0
 11
2.5
 21
0.0
 31
0.0
  0
LINE
  5
361
330
35A
100
AcDbEntity
  8
FORMAT
 62
     0
100
AcDbLine
 10
0.0
 20
5.0
 30
0.0
 11
0.0
 21
8.7
 31
0.0
  0
LINE
  5
362
330
35A
100
AcDbEntity
  8
FORMAT
 62
     0
100
AcDbLine
 10
-5.0
 20
0.0
 30
0.0
 11
-8.7
 21
0.0
 31
0.0
  0
LINE
  5
363
330
35A
100
AcDbEntity
  8
FORMAT
 62
     0
100
AcDbLine
 10
0.0
 20
-5.0
 30
0.0
 11
0.0
 21
-8.7
 31
0.0
  0
LINE
  5
364
330
35A
100
AcDbEntity
  8
FORMAT
 62
     0
100
AcDbLine
 10
5.0
 20
0.0
 30
0.0
 11
8.7
 21
0.0
 31
0.0
  0
ENDBLK
  5
35C
330
35A
100
AcDbEntity
  8
0
100
AcDbBlockEnd
  0
BLOCK
  5
367
330
366
100
AcDbEntity
  8
0
100
AcDbBlockBegin
  2
SW_CENTERMARKSYMBOL_9
 70
     0
 10
0.0
 20
0.0
 30
0.0
  3
SW_CENTERMARKSYMBOL_9
  1

  0
LINE
  5
369
330
366
100
AcDbEntity
  8
FORMAT
 62
     0
100
AcDbLine
 10
0.0
 20
0.0
 30
0.0
 11
0.0
 21
2.5
 31
0.0
  0
LINE
  5
36A
330
366
100
AcDbEntity
  8
FORMAT
 62
     0
100
AcDbLine
 10
0.0
 20
0.0
 30
0.0
 11
-2.5
 21
0.0
 31
0.0
  0
LINE
  5
36B
330
366
100
AcDbEntity
  8
FORMAT
 62
     0
100
AcDbLine
 10
0.0
 20
0.0
 30
0.0
 11
0.0
 21
-2.5
 31
0.0
  0
LINE
  5
36C
330
366
100
AcDbEntity
  8
FORMAT
 62
     0
100
AcDbLine
 10
0.0
 20
0.0
 30
0.0
 11
2.5
 21
0.0
 31
0.0
  0
LINE
  5
36D
330
366
100
AcDbEntity
  8
FORMAT
 62
     0
100
AcDbLine
 10
0.0
 20
5.0
 30
0.0
 11
0.0
 21
8.7
 31
0.0
  0
LINE
  5
36E
330
366
100
AcDbEntity
  8
FORMAT
 62
     0
100
AcDbLine
 10
-5.0
 20
0.0
 30
0.0
 11
-8.7
 21
0.0
 31
0.0
  0
LINE
  5
36F
330
366
100
AcDbEntity
  8
FORMAT
 62
     0
100
AcDbLine
 10
0.0
 20
-5.0
 30
0.0
 11
0.0
 21
-8.7
 31
0.0
  0
LINE
  5
370
330
366
100
AcDbEntity
  8
FORMAT
 62
     0
100
AcDbLine
 10
5.0
 20
0.0
 30
0.0
 11
8.7
 21
0.0
 31
0.0
  0
ENDBLK
  5
368
330
366
100
AcDbEntity
  8
0
100
AcDbBlockEnd
  0
BLOCK
  5
373
330
372
100
AcDbEntity
  8
0
100
AcDbBlockBegin
  2
SW_CENTERMARKSYMBOL_10
 70
     0
 10
0.0
 20
0.0
 30
0.0
  3
SW_CENTERMARKSYMBOL_10
  1

  0
LINE
  5
375
330
372
100
AcDbEntity
  8
FORMAT
 62
     0
100
AcDbLine
 10
0.0
 20
0.0
 30
0.0
 11
0.0
 21
2.5
 31
0.0
  0
LINE
  5
376
330
372
100
AcDbEntity
  8
FORMAT
 62
     0
100
AcDbLine
 10
0.0
 20
0.0
 30
0.0
 11
-2.5
 21
0.0
 31
0.0
  0
LINE
  5
377
330
372
100
AcDbEntity
  8
FORMAT
 62
     0
100
AcDbLine
 10
0.0
 20
0.0
 30
0.0
 11
0.0
 21
-2.5
 31
0.0
  0
LINE
  5
378
330
372
100
AcDbEntity
  8
FORMAT
 62
     0
100
AcDbLine
 10
0.0
 20
0.0
 30
0.0
 11
2.5
 21
0.0
 31
0.0
  0
LINE
  5
379
330
372
100
AcDbEntity
  8
FORMAT
 62
     0
100
AcDbLine
 10
0.0
 20
5.0
 30
0.0
 11
0.0
 21
8.7
 31
0.0
  0
LINE
  5
37A
330
372
100
AcDbEntity
  8
FORMAT
 62
     0
100
AcDbLine
 10
-5.0
 20
0.0
 30
0.0
 11
-8.7
 21
0.0
 31
0.0
  0
LINE
  5
37B
330
372
100
AcDbEntity
  8
FORMAT
 62
     0
100
AcDbLine
 10
0.0
 20
-5.0
 30
0.0
 11
0.0
 21
-8.7
 31
0.0
  0
LINE
  5
37C
330
372
100
AcDbEntity
  8
FORMAT
 62
     0
100
AcDbLine
 10
5.0
 20
0.0
 30
0.0
 11
8.7
 21
0.0
 31
0.0
  0
ENDBLK
  5
374
330
372
100
AcDbEntity
  8
0
100
AcDbBlockEnd
  0
BLOCK
  5
37F
330
37E
100
AcDbEntity
  8
0
100
AcDbBlockBegin
  2
SW_CENTERMARKSYMBOL_11
 70
     0
 10
0.0
 20
0.0
 30
0.0
  3
SW_CENTERMARKSYMBOL_11
  1

  0
LINE
  5
381
330
37E
100
AcDbEntity
  8
FORMAT
 62
     0
100
AcDbLine
 10
0.0
 20
0.0
 30
0.0
 11
0.0
 21
2.5
 31
0.0
  0
LINE
  5
382
330
37E
100
AcDbEntity
  8
FORMAT
 62
     0
100
AcDbLine
 10
0.0
 20
0.0
 30
0.0
 11
-2.5
 21
0.0
 31
0.0
  0
LINE
  5
383
330
37E
100
AcDbEntity
  8
FORMAT
 62
     0
100
AcDbLine
 10
0.0
 20
0.0
 30
0.0
 11
0.0
 21
-2.5
 31
0.0
  0
LINE
  5
384
330
37E
100
AcDbEntity
  8
FORMAT
 62
     0
100
AcDbLine
 10
0.0
 20
0.0
 30
0.0
 11
2.5
 21
0.0
 31
0.0
  0
LINE
  5
385
330
37E
100
AcDbEntity
  8
FORMAT
 62
     0
100
AcDbLine
 10
0.0
 20
5.0
 30
0.0
 11
0.0
 21
8.7
 31
0.0
  0
LINE
  5
386
330
37E
100
AcDbEntity
  8
FORMAT
 62
     0
100
AcDbLine
 10
-5.0
 20
0.0
 30
0.0
 11
-8.7
 21
0.0
 31
0.0
  0
LINE
  5
387
330
37E
100
AcDbEntity
  8
FORMAT
 62
     0
100
AcDbLine
 10
0.0
 20
-5.0
 30
0.0
 11
0.0
 21
-8.7
 31
0.0
  0
LINE
  5
388
330
37E
100
AcDbEntity
  8
FORMAT
 62
     0
100
AcDbLine
 10
5.0
 20
0.0
 30
0.0
 11
8.7
 21
0.0
 31
0.0
  0
ENDBLK
  5
380
330
37E
100
AcDbEntity
  8
0
100
AcDbBlockEnd
  0
BLOCK
  5
38B
330
38A
100
AcDbEntity
  8
0
100
AcDbBlockBegin
  2
SW_CENTERMARKSYMBOL_12
 70
     0
 10
0.0
 20
0.0
 30
0.0
  3
SW_CENTERMARKSYMBOL_12
  1

  0
LINE
  5
38D
330
38A
100
AcDbEntity
  8
FORMAT
 62
     0
100
AcDbLine
 10
0.0
 20
0.0
 30
0.0
 11
0.0
 21
2.5
 31
0.0
  0
LINE
  5
38E
330
38A
100
AcDbEntity
  8
FORMAT
 62
     0
100
AcDbLine
 10
0.0
 20
0.0
 30
0.0
 11
-2.5
 21
0.0
 31
0.0
  0
LINE
  5
38F
330
38A
100
AcDbEntity
  8
FORMAT
 62
     0
100
AcDbLine
 10
0.0
 20
0.0
 30
0.0
 11
0.0
 21
-2.5
 31
0.0
  0
LINE
  5
390
330
38A
100
AcDbEntity
  8
FORMAT
 62
     0
100
AcDbLine
 10
0.0
 20
0.0
 30
0.0
 11
2.5
 21
0.0
 31
0.0
  0
LINE
  5
391
330
38A
100
AcDbEntity
  8
FORMAT
 62
     0
100
AcDbLine
 10
0.0
 20
5.0
 30
0.0
 11
0.0
 21
8.7
 31
0.0
  0
LINE
  5
392
330
38A
100
AcDbEntity
  8
FORMAT
 62
     0
100
AcDbLine
 10
-5.0
 20
0.0
 30
0.0
 11
-8.7
 21
0.0
 31
0.0
  0
LINE
  5
393
330
38A
100
AcDbEntity
  8
FORMAT
 62
     0
100
AcDbLine
 10
0.0
 20
-5.0
 30
0.0
 11
0.0
 21
-8.7
 31
0.0
  0
LINE
  5
394
330
38A
100
AcDbEntity
  8
FORMAT
 62
     0
100
AcDbLine
 10
5.0
 20
0.0
 30
0.0
 11
8.7
 21
0.0
 31
0.0
  0
ENDBLK
  5
38C
330
38A
100
AcDbEntity
  8
0
100
AcDbBlockEnd
  0
BLOCK
  5
397
330
396
100
AcDbEntity
  8
0
100
AcDbBlockBegin
  2
SW_CENTERMARKSYMBOL_13
 70
     0
 10
0.0
 20
0.0
 30
0.0
  3
SW_CENTERMARKSYMBOL_13
  1

  0
LINE
  5
399
330
396
100
AcDbEntity
  8
FORMAT
 62
     0
100
AcDbLine
 10
0.0
 20
0.0
 30
0.0
 11
0.0
 21
2.5
 31
0.0
  0
LINE
  5
39A
330
396
100
AcDbEntity
  8
FORMAT
 62
     0
100
AcDbLine
 10
0.0
 20
0.0
 30
0.0
 11
-2.5
 21
0.0
 31
0.0
  0
LINE
  5
39B
330
396
100
AcDbEntity
  8
FORMAT
 62
     0
100
AcDbLine
 10
0.0
 20
0.0
 30
0.0
 11
0.0
 21
-2.5
 31
0.0
  0
LINE
  5
39C
330
396
100
AcDbEntity
  8
FORMAT
 62
     0
100
AcDbLine
 10
0.0
 20
0.0
 30
0.0
 11
2.5
 21
0.0
 31
0.0
  0
LINE
  5
39D
330
396
100
AcDbEntity
  8
FORMAT
 62
     0
100
AcDbLine
 10
0.0
 20
5.0
 30
0.0
 11
0.0
 21
8.7
 31
0.0
  0
LINE
  5
39E
330
396
100
AcDbEntity
  8
FORMAT
 62
     0
100
AcDbLine
 10
-5.0
 20
0.0
 30
0.0
 11
-8.7
 21
0.0
 31
0.0
  0
LINE
  5
39F
330
396
100
AcDbEntity
  8
FORMAT
 62
     0
100
AcDbLine
 10
0.0
 20
-5.0
 30
0.0
 11
0.0
 21
-8.7
 31
0.0
  0
LINE
  5
3A0
330
396
100
AcDbEntity
  8
FORMAT
 62
     0
100
AcDbLine
 10
5.0
 20
0.0
 30
0.0
 11
8.7
 21
0.0
 31
0.0
  0
ENDBLK
  5
398
330
396
100
AcDbEntity
  8
0
100
AcDbBlockEnd
  0
BLOCK
  5
3A3
330
3A2
100
AcDbEntity
  8
0
100
AcDbBlockBegin
  2
SW_CENTERMARKSYMBOL_14
 70
     0
 10
0.0
 20
0.0
 30
0.0
  3
SW_CENTERMARKSYMBOL_14
  1

  0
LINE
  5
3A5
330
3A2
100
AcDbEntity
  8
FORMAT
 62
     0
100
AcDbLine
 10
0.0
 20
0.0
 30
0.0
 11
0.0
 21
2.5
 31
0.0
  0
LINE
  5
3A6
330
3A2
100
AcDbEntity
  8
FORMAT
 62
     0
100
AcDbLine
 10
0.0
 20
0.0
 30
0.0
 11
-2.5
 21
0.0
 31
0.0
  0
LINE
  5
3A7
330
3A2
100
AcDbEntity
  8
FORMAT
 62
     0
100
AcDbLine
 10
0.0
 20
0.0
 30
0.0
 11
0.0
 21
-2.5
 31
0.0
  0
LINE
  5
3A8
330
3A2
100
AcDbEntity
  8
FORMAT
 62
     0
100
AcDbLine
 10
0.0
 20
0.0
 30
0.0
 11
2.5
 21
0.0
 31
0.0
  0
LINE
  5
3A9
330
3A2
100
AcDbEntity
  8
FORMAT
 62
     0
100
AcDbLine
 10
0.0
 20
2.5
 30
0.0
 11
0.0
 21
5.0
 31
0.0
  0
LINE
  5
3AA
330
3A2
100
AcDbEntity
  8
FORMAT
 62
     0
100
AcDbLine
 10
-2.5
 20
0.0
 30
0.0
 11
-5.0
 21
0.0
 31
0.0
  0
LINE
  5
3AB
330
3A2
100
AcDbEntity
  8
FORMAT
 62
     0
100
AcDbLine
 10
0.0
 20
-2.5
 30
0.0
 11
0.0
 21
-5.0
 31
0.0
  0
LINE
  5
3AC
330
3A2
100
AcDbEntity
  8
FORMAT
 62
     0
100
AcDbLine
 10
2.5
 20
0.0
 30
0.0
 11
5.0
 21
0.0
 31
0.0
  0
ENDBLK
  5
3A4
330
3A2
100
AcDbEntity
  8
0
100
AcDbBlockEnd
  0
BLOCK
  5
3AF
330
3AE
100
AcDbEntity
  8
0
100
AcDbBlockBegin
  2
SW_CENTERMARKSYMBOL_15
 70
     0
 10
0.0
 20
0.0
 30
0.0
  3
SW_CENTERMARKSYMBOL_15
  1

  0
LINE
  5
3B1
330
3AE
100
AcDbEntity
  8
FORMAT
 62
     0
100
AcDbLine
 10
0.0
 20
0.0
 30
0.0
 11
0.0
 21
2.5
 31
0.0
  0
LINE
  5
3B2
330
3AE
100
AcDbEntity
  8
FORMAT
 62
     0
100
AcDbLine
 10
0.0
 20
0.0
 30
0.0
 11
-2.5
 21
0.0
 31
0.0
  0
LINE
  5
3B3
330
3AE
100
AcDbEntity
  8
FORMAT
 62
     0
100
AcDbLine
 10
0.0
 20
0.0
 30
0.0
 11
0.0
 21
-2.5
 31
0.0
  0
LINE
  5
3B4
330
3AE
100
AcDbEntity
  8
FORMAT
 62
     0
100
AcDbLine
 10
0.0
 20
0.0
 30
0.0
 11
2.5
 21
0.0
 31
0.0
  0
LINE
  5
3B5
330
3AE
100
AcDbEntity
  8
FORMAT
 62
     0
100
AcDbLine
 10
0.0
 20
2.5
 30
0.0
 11
0.0
 21
5.0
 31
0.0
  0
LINE
  5
3B6
330
3AE
100
AcDbEntity
  8
FORMAT
 62
     0
100
AcDbLine
 10
-2.5
 20
0.0
 30
0.0
 11
-5.0
 21
0.0
 31
0.0
  0
LINE
  5
3B7
330
3AE
100
AcDbEntity
  8
FORMAT
 62
     0
100
AcDbLine
 10
0.0
 20
-2.5
 30
0.0
 11
0.0
 21
-5.0
 31
0.0
  0
LINE
  5
3B8
330
3AE
100
AcDbEntity
  8
FORMAT
 62
     0
100
AcDbLine
 10
2.5
 20
0.0
 30
0.0
 11
5.0
 21
0.0
 31
0.0
  0
ENDBLK
  5
3B0
330
3AE
100
AcDbEntity
  8
0
100
AcDbBlockEnd
  0
BLOCK
  5
3BB
330
3BA
100
AcDbEntity
  8
0
100
AcDbBlockBegin
  2
SW_CENTERMARKSYMBOL_16
 70
     0
 10
0.0
 20
0.0
 30
0.0
  3
SW_CENTERMARKSYMBOL_16
  1

  0
LINE
  5
3BD
330
3BA
100
AcDbEntity
  8
FORMAT
 62
     0
100
AcDbLine
 10
0.0
 20
0.0
 30
0.0
 11
0.0
 21
2.5
 31
0.0
  0
LINE
  5
3BE
330
3BA
100
AcDbEntity
  8
FORMAT
 62
     0
100
AcDbLine
 10
0.0
 20
0.0
 30
0.0
 11
-2.5
 21
0.0
 31
0.0
  0
LINE
  5
3BF
330
3BA
100
AcDbEntity
  8
FORMAT
 62
     0
100
AcDbLine
 10
0.0
 20
0.0
 30
0.0
 11
0.0
 21
-2.5
 31
0.0
  0
LINE
  5
3C0
330
3BA
100
AcDbEntity
  8
FORMAT
 62
     0
100
AcDbLine
 10
0.0
 20
0.0
 30
0.0
 11
2.5
 21
0.0
 31
0.0
  0
LINE
  5
3C1
330
3BA
100
AcDbEntity
  8
FORMAT
 62
     0
100
AcDbLine
 10
0.0
 20
2.5
 30
0.0
 11
0.0
 21
5.0
 31
0.0
  0
LINE
  5
3C2
330
3BA
100
AcDbEntity
  8
FORMAT
 62
     0
100
AcDbLine
 10
-2.5
 20
0.0
 30
0.0
 11
-5.0
 21
0.0
 31
0.0
  0
LINE
  5
3C3
330
3BA
100
AcDbEntity
  8
FORMAT
 62
     0
100
AcDbLine
 10
0.0
 20
-2.5
 30
0.0
 11
0.0
 21
-5.0
 31
0.0
  0
LINE
  5
3C4
330
3BA
100
AcDbEntity
  8
FORMAT
 62
     0
100
AcDbLine
 10
2.5
 20
0.0
 30
0.0
 11
5.0
 21
0.0
 31
0.0
  0
ENDBLK
  5
3BC
330
3BA
100
AcDbEntity
  8
0
100
AcDbBlockEnd
  0
BLOCK
  5
3C7
330
3C6
100
AcDbEntity
  8
0
100
AcDbBlockBegin
  2
SW_CENTERMARKSYMBOL_17
 70
     0
 10
0.0
 20
0.0
 30
0.0
  3
SW_CENTERMARKSYMBOL_17
  1

  0
LINE
  5
3C9
330
3C6
100
AcDbEntity
  8
FORMAT
 62
     0
100
AcDbLine
 10
0.0
 20
0.0
 30
0.0
 11
0.0
 21
2.5
 31
0.0
  0
LINE
  5
3CA
330
3C6
100
AcDbEntity
  8
FORMAT
 62
     0
100
AcDbLine
 10
0.0
 20
0.0
 30
0.0
 11
-2.5
 21
0.0
 31
0.0
  0
LINE
  5
3CB
330
3C6
100
AcDbEntity
  8
FORMAT
 62
     0
100
AcDbLine
 10
0.0
 20
0.0
 30
0.0
 11
0.0
 21
-2.5
 31
0.0
  0
LINE
  5
3CC
330
3C6
100
AcDbEntity
  8
FORMAT
 62
     0
100
AcDbLine
 10
0.0
 20
0.0
 30
0.0
 11
2.5
 21
0.0
 31
0.0
  0
LINE
  5
3CD
330
3C6
100
AcDbEntity
  8
FORMAT
 62
     0
100
AcDbLine
 10
0.0
 20
2.5
 30
0.0
 11
0.0
 21
5.0
 31
0.0
  0
LINE
  5
3CE
330
3C6
100
AcDbEntity
  8
FORMAT
 62
     0
100
AcDbLine
 10
-2.5
 20
0.0
 30
0.0
 11
-5.0
 21
0.0
 31
0.0
  0
LINE
  5
3CF
330
3C6
100
AcDbEntity
  8
FORMAT
 62
     0
100
AcDbLine
 10
0.0
 20
-2.5
 30
0.0
 11
0.0
 21
-5.0
 31
0.0
  0
LINE
  5
3D0
330
3C6
100
AcDbEntity
  8
FORMAT
 62
     0
100
AcDbLine
 10
2.5
 20
0.0
 30
0.0
 11
5.0
 21
0.0
 31
0.0
  0
ENDBLK
  5
3C8
330
3C6
100
AcDbEntity
  8
0
100
AcDbBlockEnd
  0
BLOCK
  5
3D3
330
3D2
100
AcDbEntity
  8
0
100
AcDbBlockBegin
  2
SW_CENTERMARKSYMBOL_18
 70
     0
 10
0.0
 20
0.0
 30
0.0
  3
SW_CENTERMARKSYMBOL_18
  1

  0
LINE
  5
3D5
330
3D2
100
AcDbEntity
  8
FORMAT
 62
     0
100
AcDbLine
 10
0.0
 20
0.0
 30
0.0
 11
0.0
 21
2.5
 31
0.0
  0
LINE
  5
3D6
330
3D2
100
AcDbEntity
  8
FORMAT
 62
     0
100
AcDbLine
 10
0.0
 20
0.0
 30
0.0
 11
-2.5
 21
0.0
 31
0.0
  0
LINE
  5
3D7
330
3D2
100
AcDbEntity
  8
FORMAT
 62
     0
100
AcDbLine
 10
0.0
 20
0.0
 30
0.0
 11
0.0
 21
-2.5
 31
0.0
  0
LINE
  5
3D8
330
3D2
100
AcDbEntity
  8
FORMAT
 62
     0
100
AcDbLine
 10
0.0
 20
0.0
 30
0.0
 11
2.5
 21
0.0
 31
0.0
  0
LINE
  5
3D9
330
3D2
100
AcDbEntity
  8
FORMAT
 62
     0
100
AcDbLine
 10
0.0
 20
5.0
 30
0.0
 11
0.0
 21
8.7
 31
0.0
  0
LINE
  5
3DA
330
3D2
100
AcDbEntity
  8
FORMAT
 62
     0
100
AcDbLine
 10
-5.0
 20
0.0
 30
0.0
 11
-8.7
 21
0.0
 31
0.0
  0
LINE
  5
3DB
330
3D2
100
AcDbEntity
  8
FORMAT
 62
     0
100
AcDbLine
 10
0.0
 20
-5.0
 30
0.0
 11
0.0
 21
-8.7
 31
0.0
  0
LINE
  5
3DC
330
3D2
100
AcDbEntity
  8
FORMAT
 62
     0
100
AcDbLine
 10
5.0
 20
0.0
 30
0.0
 11
8.7
 21
0.0
 31
0.0
  0
ENDBLK
  5
3D4
330
3D2
100
AcDbEntity
  8
0
100
AcDbBlockEnd
  0
BLOCK
  5
3DF
330
3DE
100
AcDbEntity
  8
0
100
AcDbBlockBegin
  2
SW_CENTERMARKSYMBOL_19
 70
     0
 10
0.0
 20
0.0
 30
0.0
  3
SW_CENTERMARKSYMBOL_19
  1

  0
LINE
  5
3E1
330
3DE
100
AcDbEntity
  8
FORMAT
 62
     0
100
AcDbLine
 10
0.0
 20
0.0
 30
0.0
 11
0.0
 21
2.5
 31
0.0
  0
LINE
  5
3E2
330
3DE
100
AcDbEntity
  8
FORMAT
 62
     0
100
AcDbLine
 10
0.0
 20
0.0
 30
0.0
 11
-2.5
 21
0.0
 31
0.0
  0
LINE
  5
3E3
330
3DE
100
AcDbEntity
  8
FORMAT
 62
     0
100
AcDbLine
 10
0.0
 20
0.0
 30
0.0
 11
0.0
 21
-2.5
 31
0.0
  0
LINE
  5
3E4
330
3DE
100
AcDbEntity
  8
FORMAT
 62
     0
100
AcDbLine
 10
0.0
 20
0.0
 30
0.0
 11
2.5
 21
0.0
 31
0.0
  0
LINE
  5
3E5
330
3DE
100
AcDbEntity
  8
FORMAT
 62
     0
100
AcDbLine
 10
0.0
 20
5.0
 30
0.0
 11
0.0
 21
8.7
 31
0.0
  0
LINE
  5
3E6
330
3DE
100
AcDbEntity
  8
FORMAT
 62
     0
100
AcDbLine
 10
-5.0
 20
0.0
 30
0.0
 11
-8.7
 21
0.0
 31
0.0
  0
LINE
  5
3E7
330
3DE
100
AcDbEntity
  8
FORMAT
 62
     0
100
AcDbLine
 10
0.0
 20
-5.0
 30
0.0
 11
0.0
 21
-8.7
 31
0.0
  0
LINE
  5
3E8
330
3DE
100
AcDbEntity
  8
FORMAT
 62
     0
100
AcDbLine
 10
5.0
 20
0.0
 30
0.0
 11
8.7
 21
0.0
 31
0.0
  0
ENDBLK
  5
3E0
330
3DE
100
AcDbEntity
  8
0
100
AcDbBlockEnd
  0
BLOCK
  5
3EB
330
3EA
100
AcDbEntity
  8
0
100
AcDbBlockBegin
  2
SW_CENTERMARKSYMBOL_20
 70
     0
 10
0.0
 20
0.0
 30
0.0
  3
SW_CENTERMARKSYMBOL_20
  1

  0
LINE
  5
3ED
330
3EA
100
AcDbEntity
  8
FORMAT
 62
     0
100
AcDbLine
 10
0.0
 20
0.0
 30
0.0
 11
0.0
 21
2.5
 31
0.0
  0
LINE
  5
3EE
330
3EA
100
AcDbEntity
  8
FORMAT
 62
     0
100
AcDbLine
 10
0.0
 20
0.0
 30
0.0
 11
-2.5
 21
0.0
 31
0.0
  0
LINE
  5
3EF
330
3EA
100
AcDbEntity
  8
FORMAT
 62
     0
100
AcDbLine
 10
0.0
 20
0.0
 30
0.0
 11
0.0
 21
-2.5
 31
0.0
  0
LINE
  5
3F0
330
3EA
100
AcDbEntity
  8
FORMAT
 62
     0
100
AcDbLine
 10
0.0
 20
0.0
 30
0.0
 11
2.5
 21
0.0
 31
0.0
  0
LINE
  5
3F1
330
3EA
100
AcDbEntity
  8
FORMAT
 62
     0
100
AcDbLine
 10
0.0
 20
5.0
 30
0.0
 11
0.0
 21
8.7
 31
0.0
  0
LINE
  5
3F2
330
3EA
100
AcDbEntity
  8
FORMAT
 62
     0
100
AcDbLine
 10
-5.0
 20
0.0
 30
0.0
 11
-8.7
 21
0.0
 31
0.0
  0
LINE
  5
3F3
330
3EA
100
AcDbEntity
  8
FORMAT
 62
     0
100
AcDbLine
 10
0.0
 20
-5.0
 30
0.0
 11
0.0
 21
-8.7
 31
0.0
  0
LINE
  5
3F4
330
3EA
100
AcDbEntity
  8
FORMAT
 62
     0
100
AcDbLine
 10
5.0
 20
0.0
 30
0.0
 11
8.7
 21
0.0
 31
0.0
  0
ENDBLK
  5
3EC
330
3EA
100
AcDbEntity
  8
0
100
AcDbBlockEnd
  0
BLOCK
  5
3F7
330
3F6
100
AcDbEntity
  8
0
100
AcDbBlockBegin
  2
SW_CENTERMARKSYMBOL_21
 70
     0
 10
0.0
 20
0.0
 30
0.0
  3
SW_CENTERMARKSYMBOL_21
  1

  0
LINE
  5
3F9
330
3F6
100
AcDbEntity
  8
FORMAT
 62
     0
100
AcDbLine
 10
0.0
 20
0.0
 30
0.0
 11
0.0
 21
2.5
 31
0.0
  0
LINE
  5
3FA
330
3F6
100
AcDbEntity
  8
FORMAT
 62
     0
100
AcDbLine
 10
0.0
 20
0.0
 30
0.0
 11
-2.5
 21
0.0
 31
0.0
  0
LINE
  5
3FB
330
3F6
100
AcDbEntity
  8
FORMAT
 62
     0
100
AcDbLine
 10
0.0
 20
0.0
 30
0.0
 11
0.0
 21
-2.5
 31
0.0
  0
LINE
  5
3FC
330
3F6
100
AcDbEntity
  8
FORMAT
 62
     0
100
AcDbLine
 10
0.0
 20
0.0
 30
0.0
 11
2.5
 21
0.0
 31
0.0
  0
LINE
  5
3FD
330
3F6
100
AcDbEntity
  8
FORMAT
 62
     0
100
AcDbLine
 10
0.0
 20
5.0
 30
0.0
 11
0.0
 21
8.7
 31
0.0
  0
LINE
  5
3FE
330
3F6
100
AcDbEntity
  8
FORMAT
 62
     0
100
AcDbLine
 10
-5.0
 20
0.0
 30
0.0
 11
-8.7
 21
0.0
 31
0.0
  0
LINE
  5
3FF
330
3F6
100
AcDbEntity
  8
FORMAT
 62
     0
100
AcDbLine
 10
0.0
 20
-5.0
 30
0.0
 11
0.0
 21
-8.7
 31
0.0
  0
LINE
  5
400
330
3F6
100
AcDbEntity
  8
FORMAT
 62
     0
100
AcDbLine
 10
5.0
 20
0.0
 30
0.0
 11
8.7
 21
0.0
 31
0.0
  0
ENDBLK
  5
3F8
330
3F6
100
AcDbEntity
  8
0
100
AcDbBlockEnd
  0
BLOCK
  5
403
330
402
100
AcDbEntity
  8
0
100
AcDbBlockBegin
  2
SW_CENTERMARKSYMBOL_22
 70
     0
 10
0.0
 20
0.0
 30
0.0
  3
SW_CENTERMARKSYMBOL_22
  1

  0
LINE
  5
405
330
402
100
AcDbEntity
  8
FORMAT
 62
     0
100
AcDbLine
 10
0.0
 20
0.0
 30
0.0
 11
0.0
 21
2.5
 31
0.0
  0
LINE
  5
406
330
402
100
AcDbEntity
  8
FORMAT
 62
     0
100
AcDbLine
 10
0.0
 20
0.0
 30
0.0
 11
-2.5
 21
0.0
 31
0.0
  0
LINE
  5
407
330
402
100
AcDbEntity
  8
FORMAT
 62
     0
100
AcDbLine
 10
0.0
 20
0.0
 30
0.0
 11
0.0
 21
-2.5
 31
0.0
  0
LINE
  5
408
330
402
100
AcDbEntity
  8
FORMAT
 62
     0
100
AcDbLine
 10
0.0
 20
0.0
 30
0.0
 11
2.5
 21
0.0
 31
0.0
  0
LINE
  5
409
330
402
100
AcDbEntity
  8
FORMAT
 62
     0
100
AcDbLine
 10
0.0
 20
5.0
 30
0.0
 11
0.0
 21
8.7
 31
0.0
  0
LINE
  5
40A
330
402
100
AcDbEntity
  8
FORMAT
 62
     0
100
AcDbLine
 10
-5.0
 20
0.0
 30
0.0
 11
-8.7
 21
0.0
 31
0.0
  0
LINE
  5
40B
330
402
100
AcDbEntity
  8
FORMAT
 62
     0
100
AcDbLine
 10
0.0
 20
-5.0
 30
0.0
 11
0.0
 21
-8.7
 31
0.0
  0
LINE
  5
40C
330
402
100
AcDbEntity
  8
FORMAT
 62
     0
100
AcDbLine
 10
5.0
 20
0.0
 30
0.0
 11
8.7
 21
0.0
 31
0.0
  0
ENDBLK
  5
404
330
402
100
AcDbEntity
  8
0
100
AcDbBlockEnd
  0
BLOCK
  5
40F
330
40E
100
AcDbEntity
  8
0
100
AcDbBlockBegin
  2
SW_CENTERMARKSYMBOL_23
 70
     0
 10
0.0
 20
0.0
 30
0.0
  3
SW_CENTERMARKSYMBOL_23
  1

  0
LINE
  5
411
330
40E
100
AcDbEntity
  8
FORMAT
 62
     0
100
AcDbLine
 10
0.0
 20
0.0
 30
0.0
 11
0.0
 21
2.5
 31
0.0
  0
LINE
  5
412
330
40E
100
AcDbEntity
  8
FORMAT
 62
     0
100
AcDbLine
 10
0.0
 20
0.0
 30
0.0
 11
-2.5
 21
0.0
 31
0.0
  0
LINE
  5
413
330
40E
100
AcDbEntity
  8
FORMAT
 62
     0
100
AcDbLine
 10
0.0
 20
0.0
 30
0.0
 11
0.0
 21
-2.5
 31
0.0
  0
LINE
  5
414
330
40E
100
AcDbEntity
  8
FORMAT
 62
     0
100
AcDbLine
 10
0.0
 20
0.0
 30
0.0
 11
2.5
 21
0.0
 31
0.0
  0
LINE
  5
415
330
40E
100
AcDbEntity
  8
FORMAT
 62
     0
100
AcDbLine
 10
0.0
 20
5.0
 30
0.0
 11
0.0
 21
8.7
 31
0.0
  0
LINE
  5
416
330
40E
100
AcDbEntity
  8
FORMAT
 62
     0
100
AcDbLine
 10
-5.0
 20
0.0
 30
0.0
 11
-8.7
 21
0.0
 31
0.0
  0
LINE
  5
417
330
40E
100
AcDbEntity
  8
FORMAT
 62
     0
100
AcDbLine
 10
0.0
 20
-5.0
 30
0.0
 11
0.0
 21
-8.7
 31
0.0
  0
LINE
  5
418
330
40E
100
AcDbEntity
  8
FORMAT
 62
     0
100
AcDbLine
 10
5.0
 20
0.0
 30
0.0
 11
8.7
 21
0.0
 31
0.0
  0
ENDBLK
  5
410
330
40E
100
AcDbEntity
  8
0
100
AcDbBlockEnd
  0
BLOCK
  5
41B
330
41A
100
AcDbEntity
  8
0
100
AcDbBlockBegin
  2
SW_CENTERMARKSYMBOL_24
 70
     0
 10
0.0
 20
0.0
 30
0.0
  3
SW_CENTERMARKSYMBOL_24
  1

  0
LINE
  5
41D
330
41A
100
AcDbEntity
  8
FORMAT
 62
     0
100
AcDbLine
 10
0.0
 20
0.0
 30
0.0
 11
0.0
 21
2.5
 31
0.0
  0
LINE
  5
41E
330
41A
100
AcDbEntity
  8
FORMAT
 62
     0
100
AcDbLine
 10
0.0
 20
0.0
 30
0.0
 11
-2.5
 21
0.0
 31
0.0
  0
LINE
  5
41F
330
41A
100
AcDbEntity
  8
FORMAT
 62
     0
100
AcDbLine
 10
0.0
 20
0.0
 30
0.0
 11
0.0
 21
-2.5
 31
0.0
  0
LINE
  5
420
330
41A
100
AcDbEntity
  8
FORMAT
 62
     0
100
AcDbLine
 10
0.0
 20
0.0
 30
0.0
 11
2.5
 21
0.0
 31
0.0
  0
LINE
  5
421
330
41A
100
AcDbEntity
  8
FORMAT
 62
     0
100
AcDbLine
 10
0.0
 20
5.0
 30
0.0
 11
0.0
 21
8.7
 31
0.0
  0
LINE
  5
422
330
41A
100
AcDbEntity
  8
FORMAT
 62
     0
100
AcDbLine
 10
-5.0
 20
0.0
 30
0.0
 11
-8.7
 21
0.0
 31
0.0
  0
LINE
  5
423
330
41A
100
AcDbEntity
  8
FORMAT
 62
     0
100
AcDbLine
 10
0.0
 20
-5.0
 30
0.0
 11
0.0
 21
-8.7
 31
0.0
  0
LINE
  5
424
330
41A
100
AcDbEntity
  8
FORMAT
 62
     0
100
AcDbLine
 10
5.0
 20
0.0
 30
0.0
 11
8.7
 21
0.0
 31
0.0
  0
ENDBLK
  5
41C
330
41A
100
AcDbEntity
  8
0
100
AcDbBlockEnd
  0
BLOCK
  5
427
330
426
100
AcDbEntity
  8
0
100
AcDbBlockBegin
  2
SW_CENTERMARKSYMBOL_25
 70
     0
 10
0.0
 20
0.0
 30
0.0
  3
SW_CENTERMARKSYMBOL_25
  1

  0
LINE
  5
429
330
426
100
AcDbEntity
  8
FORMAT
 62
     0
100
AcDbLine
 10
0.0
 20
0.0
 30
0.0
 11
0.0
 21
2.5
 31
0.0
  0
LINE
  5
42A
330
426
100
AcDbEntity
  8
FORMAT
 62
     0
100
AcDbLine
 10
0.0
 20
0.0
 30
0.0
 11
-2.5
 21
0.0
 31
0.0
  0
LINE
  5
42B
330
426
100
AcDbEntity
  8
FORMAT
 62
     0
100
AcDbLine
 10
0.0
 20
0.0
 30
0.0
 11
0.0
 21
-2.5
 31
0.0
  0
LINE
  5
42C
330
426
100
AcDbEntity
  8
FORMAT
 62
     0
100
AcDbLine
 10
0.0
 20
0.0
 30
0.0
 11
2.5
 21
0.0
 31
0.0
  0
LINE
  5
42D
330
426
100
AcDbEntity
  8
FORMAT
 62
     0
100
AcDbLine
 10
0.0
 20
5.0
 30
0.0
 11
0.0
 21
8.7
 31
0.0
  0
LINE
  5
42E
330
426
100
AcDbEntity
  8
FORMAT
 62
     0
100
AcDbLine
 10
-5.0
 20
0.0
 30
0.0
 11
-8.7
 21
0.0
 31
0.0
  0
LINE
  5
42F
330
426
100
AcDbEntity
  8
FORMAT
 62
     0
100
AcDbLine
 10
0.0
 20
-5.0
 30
0.0
 11
0.0
 21
-8.7
 31
0.0
  0
LINE
  5
430
330
426
100
AcDbEntity
  8
FORMAT
 62
     0
100
AcDbLine
 10
5.0
 20
0.0
 30
0.0
 11
8.7
 21
0.0
 31
0.0
  0
ENDBLK
  5
428
330
426
100
AcDbEntity
  8
0
100
AcDbBlockEnd
  0
BLOCK
  5
433
330
432
100
AcDbEntity
  8
0
100
AcDbBlockBegin
  2
SW_CENTERMARKSYMBOL_26
 70
     0
 10
0.0
 20
0.0
 30
0.0
  3
SW_CENTERMARKSYMBOL_26
  1

  0
LINE
  5
435
330
432
100
AcDbEntity
  8
FORMAT
 62
     0
100
AcDbLine
 10
0.0
 20
0.0
 30
0.0
 11
0.0
 21
2.5
 31
0.0
  0
LINE
  5
436
330
432
100
AcDbEntity
  8
FORMAT
 62
     0
100
AcDbLine
 10
0.0
 20
0.0
 30
0.0
 11
-2.5
 21
0.0
 31
0.0
  0
LINE
  5
437
330
432
100
AcDbEntity
  8
FORMAT
 62
     0
100
AcDbLine
 10
0.0
 20
0.0
 30
0.0
 11
0.0
 21
-2.5
 31
0.0
  0
LINE
  5
438
330
432
100
AcDbEntity
  8
FORMAT
 62
     0
100
AcDbLine
 10
0.0
 20
0.0
 30
0.0
 11
2.5
 21
0.0
 31
0.0
  0
LINE
  5
439
330
432
100
AcDbEntity
  8
FORMAT
 62
     0
100
AcDbLine
 10
0.0
 20
2.5
 30
0.0
 11
0.0
 21
5.0
 31
0.0
  0
LINE
  5
43A
330
432
100
AcDbEntity
  8
FORMAT
 62
     0
100
AcDbLine
 10
-2.5
 20
0.0
 30
0.0
 11
-5.0
 21
0.0
 31
0.0
  0
LINE
  5
43B
330
432
100
AcDbEntity
  8
FORMAT
 62
     0
100
AcDbLine
 10
0.0
 20
-2.5
 30
0.0
 11
0.0
 21
-5.0
 31
0.0
  0
LINE
  5
43C
330
432
100
AcDbEntity
  8
FORMAT
 62
     0
100
AcDbLine
 10
2.5
 20
0.0
 30
0.0
 11
5.0
 21
0.0
 31
0.0
  0
ENDBLK
  5
434
330
432
100
AcDbEntity
  8
0
100
AcDbBlockEnd
  0
BLOCK
  5
43F
330
43E
100
AcDbEntity
  8
0
100
AcDbBlockBegin
  2
SW_CENTERMARKSYMBOL_27
 70
     0
 10
0.0
 20
0.0
 30
0.0
  3
SW_CENTERMARKSYMBOL_27
  1

  0
LINE
  5
441
330
43E
100
AcDbEntity
  8
FORMAT
 62
     0
100
AcDbLine
 10
0.0
 20
0.0
 30
0.0
 11
0.0
 21
2.5
 31
0.0
  0
LINE
  5
442
330
43E
100
AcDbEntity
  8
FORMAT
 62
     0
100
AcDbLine
 10
0.0
 20
0.0
 30
0.0
 11
-2.5
 21
0.0
 31
0.0
  0
LINE
  5
443
330
43E
100
AcDbEntity
  8
FORMAT
 62
     0
100
AcDbLine
 10
0.0
 20
0.0
 30
0.0
 11
0.0
 21
-2.5
 31
0.0
  0
LINE
  5
444
330
43E
100
AcDbEntity
  8
FORMAT
 62
     0
100
AcDbLine
 10
0.0
 20
0.0
 30
0.0
 11
2.5
 21
0.0
 31
0.0
  0
LINE
  5
445
330
43E
100
AcDbEntity
  8
FORMAT
 62
     0
100
AcDbLine
 10
0.0
 20
2.5
 30
0.0
 11
0.0
 21
5.0
 31
0.0
  0
LINE
  5
446
330
43E
100
AcDbEntity
  8
FORMAT
 62
     0
100
AcDbLine
 10
-2.5
 20
0.0
 30
0.0
 11
-5.0
 21
0.0
 31
0.0
  0
LINE
  5
447
330
43E
100
AcDbEntity
  8
FORMAT
 62
     0
100
AcDbLine
 10
0.0
 20
-2.5
 30
0.0
 11
0.0
 21
-5.0
 31
0.0
  0
LINE
  5
448
330
43E
100
AcDbEntity
  8
FORMAT
 62
     0
100
AcDbLine
 10
2.5
 20
0.0
 30
0.0
 11
5.0
 21
0.0
 31
0.0
  0
ENDBLK
  5
440
330
43E
100
AcDbEntity
  8
0
100
AcDbBlockEnd
  0
BLOCK
  5
44B
330
44A
100
AcDbEntity
  8
0
100
AcDbBlockBegin
  2
SW_CENTERMARKSYMBOL_28
 70
     0
 10
0.0
 20
0.0
 30
0.0
  3
SW_CENTERMARKSYMBOL_28
  1

  0
LINE
  5
44D
330
44A
100
AcDbEntity
  8
FORMAT
 62
     0
100
AcDbLine
 10
0.0
 20
0.0
 30
0.0
 11
0.0
 21
2.5
 31
0.0
  0
LINE
  5
44E
330
44A
100
AcDbEntity
  8
FORMAT
 62
     0
100
AcDbLine
 10
0.0
 20
0.0
 30
0.0
 11
-2.5
 21
0.0
 31
0.0
  0
LINE
  5
44F
330
44A
100
AcDbEntity
  8
FORMAT
 62
     0
100
AcDbLine
 10
0.0
 20
0.0
 30
0.0
 11
0.0
 21
-2.5
 31
0.0
  0
LINE
  5
450
330
44A
100
AcDbEntity
  8
FORMAT
 62
     0
100
AcDbLine
 10
0.0
 20
0.0
 30
0.0
 11
2.5
 21
0.0
 31
0.0
  0
LINE
  5
451
330
44A
100
AcDbEntity
  8
FORMAT
 62
     0
100
AcDbLine
 10
0.0
 20
2.5
 30
0.0
 11
0.0
 21
5.0
 31
0.0
  0
LINE
  5
452
330
44A
100
AcDbEntity
  8
FORMAT
 62
     0
100
AcDbLine
 10
-2.5
 20
0.0
 30
0.0
 11
-5.0
 21
0.0
 31
0.0
  0
LINE
  5
453
330
44A
100
AcDbEntity
  8
FORMAT
 62
     0
100
AcDbLine
 10
0.0
 20
-2.5
 30
0.0
 11
0.0
 21
-5.0
 31
0.0
  0
LINE
  5
454
330
44A
100
AcDbEntity
  8
FORMAT
 62
     0
100
AcDbLine
 10
2.5
 20
0.0
 30
0.0
 11
5.0
 21
0.0
 31
0.0
  0
ENDBLK
  5
44C
330
44A
100
AcDbEntity
  8
0
100
AcDbBlockEnd
  0
BLOCK
  5
457
330
456
100
AcDbEntity
  8
0
100
AcDbBlockBegin
  2
SW_CENTERMARKSYMBOL_29
 70
     0
 10
0.0
 20
0.0
 30
0.0
  3
SW_CENTERMARKSYMBOL_29
  1

  0
LINE
  5
459
330
456
100
AcDbEntity
  8
FORMAT
 62
     0
100
AcDbLine
 10
0.0
 20
0.0
 30
0.0
 11
0.0
 21
2.5
 31
0.0
  0
LINE
  5
45A
330
456
100
AcDbEntity
  8
FORMAT
 62
     0
100
AcDbLine
 10
0.0
 20
0.0
 30
0.0
 11
-2.5
 21
0.0
 31
0.0
  0
LINE
  5
45B
330
456
100
AcDbEntity
  8
FORMAT
 62
     0
100
AcDbLine
 10
0.0
 20
0.0
 30
0.0
 11
0.0
 21
-2.5
 31
0.0
  0
LINE
  5
45C
330
456
100
AcDbEntity
  8
FORMAT
 62
     0
100
AcDbLine
 10
0.0
 20
0.0
 30
0.0
 11
2.5
 21
0.0
 31
0.0
  0
LINE
  5
45D
330
456
100
AcDbEntity
  8
FORMAT
 62
     0
100
AcDbLine
 10
0.0
 20
2.5
 30
0.0
 11
0.0
 21
5.0
 31
0.0
  0
LINE
  5
45E
330
456
100
AcDbEntity
  8
FORMAT
 62
     0
100
AcDbLine
 10
-2.5
 20
0.0
 30
0.0
 11
-5.0
 21
0.0
 31
0.0
  0
LINE
  5
45F
330
456
100
AcDbEntity
  8
FORMAT
 62
     0
100
AcDbLine
 10
0.0
 20
-2.5
 30
0.0
 11
0.0
 21
-5.0
 31
0.0
  0
LINE
  5
460
330
456
100
AcDbEntity
  8
FORMAT
 62
     0
100
AcDbLine
 10
2.5
 20
0.0
 30
0.0
 11
5.0
 21
0.0
 31
0.0
  0
ENDBLK
  5
458
330
456
100
AcDbEntity
  8
0
100
AcDbBlockEnd
  0
BLOCK
  5
463
330
462
100
AcDbEntity
  8
0
100
AcDbBlockBegin
  2
SW_CENTERMARKSYMBOL_30
 70
     0
 10
0.0
 20
0.0
 30
0.0
  3
SW_CENTERMARKSYMBOL_30
  1

  0
LINE
  5
465
330
462
100
AcDbEntity
  8
FORMAT
 62
     0
100
AcDbLine
 10
0.0
 20
0.0
 30
0.0
 11
0.0
 21
2.5
 31
0.0
  0
LINE
  5
466
330
462
100
AcDbEntity
  8
FORMAT
 62
     0
100
AcDbLine
 10
0.0
 20
0.0
 30
0.0
 11
-2.5
 21
0.0
 31
0.0
  0
LINE
  5
467
330
462
100
AcDbEntity
  8
FORMAT
 62
     0
100
AcDbLine
 10
0.0
 20
0.0
 30
0.0
 11
0.0
 21
-2.5
 31
0.0
  0
LINE
  5
468
330
462
100
AcDbEntity
  8
FORMAT
 62
     0
100
AcDbLine
 10
0.0
 20
0.0
 30
0.0
 11
2.5
 21
0.0
 31
0.0
  0
LINE
  5
469
330
462
100
AcDbEntity
  8
FORMAT
 62
     0
100
AcDbLine
 10
0.0
 20
5.0
 30
0.0
 11
0.0
 21
8.7
 31
0.0
  0
LINE
  5
46A
330
462
100
AcDbEntity
  8
FORMAT
 62
     0
100
AcDbLine
 10
-5.0
 20
0.0
 30
0.0
 11
-8.7
 21
0.0
 31
0.0
  0
LINE
  5
46B
330
462
100
AcDbEntity
  8
FORMAT
 62
     0
100
AcDbLine
 10
0.0
 20
-5.0
 30
0.0
 11
0.0
 21
-8.7
 31
0.0
  0
LINE
  5
46C
330
462
100
AcDbEntity
  8
FORMAT
 62
     0
100
AcDbLine
 10
5.0
 20
0.0
 30
0.0
 11
8.7
 21
0.0
 31
0.0
  0
ENDBLK
  5
464
330
462
100
AcDbEntity
  8
0
100
AcDbBlockEnd
  0
BLOCK
  5
46F
330
46E
100
AcDbEntity
  8
0
100
AcDbBlockBegin
  2
SW_CENTERMARKSYMBOL_31
 70
     0
 10
0.0
 20
0.0
 30
0.0
  3
SW_CENTERMARKSYMBOL_31
  1

  0
LINE
  5
471
330
46E
100
AcDbEntity
  8
FORMAT
 62
     0
100
AcDbLine
 10
0.0
 20
0.0
 30
0.0
 11
0.0
 21
2.5
 31
0.0
  0
LINE
  5
472
330
46E
100
AcDbEntity
  8
FORMAT
 62
     0
100
AcDbLine
 10
0.0
 20
0.0
 30
0.0
 11
-2.5
 21
0.0
 31
0.0
  0
LINE
  5
473
330
46E
100
AcDbEntity
  8
FORMAT
 62
     0
100
AcDbLine
 10
0.0
 20
0.0
 30
0.0
 11
0.0
 21
-2.5
 31
0.0
  0
LINE
  5
474
330
46E
100
AcDbEntity
  8
FORMAT
 62
     0
100
AcDbLine
 10
0.0
 20
0.0
 30
0.0
 11
2.5
 21
0.0
 31
0.0
  0
LINE
  5
475
330
46E
100
AcDbEntity
  8
FORMAT
 62
     0
100
AcDbLine
 10
0.0
 20
5.0
 30
0.0
 11
0.0
 21
8.7
 31
0.0
  0
LINE
  5
476
330
46E
100
AcDbEntity
  8
FORMAT
 62
     0
100
AcDbLine
 10
-5.0
 20
0.0
 30
0.0
 11
-8.7
 21
0.0
 31
0.0
  0
LINE
  5
477
330
46E
100
AcDbEntity
  8
FORMAT
 62
     0
100
AcDbLine
 10
0.0
 20
-5.0
 30
0.0
 11
0.0
 21
-8.7
 31
0.0
  0
LINE
  5
478
330
46E
100
AcDbEntity
  8
FORMAT
 62
     0
100
AcDbLine
 10
5.0
 20
0.0
 30
0.0
 11
8.7
 21
0.0
 31
0.0
  0
ENDBLK
  5
470
330
46E
100
AcDbEntity
  8
0
100
AcDbBlockEnd
  0
BLOCK
  5
47B
330
47A
100
AcDbEntity
  8
0
100
AcDbBlockBegin
  2
SW_CENTERMARKSYMBOL_32
 70
     0
 10
0.0
 20
0.0
 30
0.0
  3
SW_CENTERMARKSYMBOL_32
  1

  0
LINE
  5
47D
330
47A
100
AcDbEntity
  8
FORMAT
 62
     0
100
AcDbLine
 10
0.0
 20
0.0
 30
0.0
 11
0.0
 21
2.5
 31
0.0
  0
LINE
  5
47E
330
47A
100
AcDbEntity
  8
FORMAT
 62
     0
100
AcDbLine
 10
0.0
 20
0.0
 30
0.0
 11
-2.5
 21
0.0
 31
0.0
  0
LINE
  5
47F
330
47A
100
AcDbEntity
  8
FORMAT
 62
     0
100
AcDbLine
 10
0.0
 20
0.0
 30
0.0
 11
0.0
 21
-2.5
 31
0.0
  0
LINE
  5
480
330
47A
100
AcDbEntity
  8
FORMAT
 62
     0
100
AcDbLine
 10
0.0
 20
0.0
 30
0.0
 11
2.5
 21
0.0
 31
0.0
  0
LINE
  5
481
330
47A
100
AcDbEntity
  8
FORMAT
 62
     0
100
AcDbLine
 10
0.0
 20
5.0
 30
0.0
 11
0.0
 21
8.7
 31
0.0
  0
LINE
  5
482
330
47A
100
AcDbEntity
  8
FORMAT
 62
     0
100
AcDbLine
 10
-5.0
 20
0.0
 30
0.0
 11
-8.7
 21
0.0
 31
0.0
  0
LINE
  5
483
330
47A
100
AcDbEntity
  8
FORMAT
 62
     0
100
AcDbLine
 10
0.0
 20
-5.0
 30
0.0
 11
0.0
 21
-8.7
 31
0.0
  0
LINE
  5
484
330
47A
100
AcDbEntity
  8
FORMAT
 62
     0
100
AcDbLine
 10
5.0
 20
0.0
 30
0.0
 11
8.7
 21
0.0
 31
0.0
  0
ENDBLK
  5
47C
330
47A
100
AcDbEntity
  8
0
100
AcDbBlockEnd
  0
BLOCK
  5
487
330
486
100
AcDbEntity
  8
0
100
AcDbBlockBegin
  2
SW_CENTERMARKSYMBOL_33
 70
     0
 10
0.0
 20
0.0
 30
0.0
  3
SW_CENTERMARKSYMBOL_33
  1

  0
LINE
  5
489
330
486
100
AcDbEntity
  8
FORMAT
 62
     0
100
AcDbLine
 10
0.0
 20
0.0
 30
0.0
 11
0.0
 21
2.5
 31
0.0
  0
LINE
  5
48A
330
486
100
AcDbEntity
  8
FORMAT
 62
     0
100
AcDbLine
 10
0.0
 20
0.0
 30
0.0
 11
-2.5
 21
0.0
 31
0.0
  0
LINE
  5
48B
330
486
100
AcDbEntity
  8
FORMAT
 62
     0
100
AcDbLine
 10
0.0
 20
0.0
 30
0.0
 11
0.0
 21
-2.5
 31
0.0
  0
LINE
  5
48C
330
486
100
AcDbEntity
  8
FORMAT
 62
     0
100
AcDbLine
 10
0.0
 20
0.0
 30
0.0
 11
2.5
 21
0.0
 31
0.0
  0
LINE
  5
48D
330
486
100
AcDbEntity
  8
FORMAT
 62
     0
100
AcDbLine
 10
0.0
 20
5.0
 30
0.0
 11
0.0
 21
8.7
 31
0.0
  0
LINE
  5
48E
330
486
100
AcDbEntity
  8
FORMAT
 62
     0
100
AcDbLine
 10
-5.0
 20
0.0
 30
0.0
 11
-8.7
 21
0.0
 31
0.0
  0
LINE
  5
48F
330
486
100
AcDbEntity
  8
FORMAT
 62
     0
100
AcDbLine
 10
0.0
 20
-5.0
 30
0.0
 11
0.0
 21
-8.7
 31
0.0
  0
LINE
  5
490
330
486
100
AcDbEntity
  8
FORMAT
 62
     0
100
AcDbLine
 10
5.0
 20
0.0
 30
0.0
 11
8.7
 21
0.0
 31
0.0
  0
ENDBLK
  5
488
330
486
100
AcDbEntity
  8
0
100
AcDbBlockEnd
  0
BLOCK
  5
493
330
492
100
AcDbEntity
  8
0
100
AcDbBlockBegin
  2
SW_CENTERMARKSYMBOL_34
 70
     0
 10
0.0
 20
0.0
 30
0.0
  3
SW_CENTERMARKSYMBOL_34
  1

  0
LINE
  5
495
330
492
100
AcDbEntity
  8
FORMAT
 62
     0
100
AcDbLine
 10
0.0
 20
0.0
 30
0.0
 11
0.0
 21
2.5
 31
0.0
  0
LINE
  5
496
330
492
100
AcDbEntity
  8
FORMAT
 62
     0
100
AcDbLine
 10
0.0
 20
0.0
 30
0.0
 11
-2.5
 21
0.0
 31
0.0
  0
LINE
  5
497
330
492
100
AcDbEntity
  8
FORMAT
 62
     0
100
AcDbLine
 10
0.0
 20
0.0
 30
0.0
 11
0.0
 21
-2.5
 31
0.0
  0
LINE
  5
498
330
492
100
AcDbEntity
  8
FORMAT
 62
     0
100
AcDbLine
 10
0.0
 20
0.0
 30
0.0
 11
2.5
 21
0.0
 31
0.0
  0
LINE
  5
499
330
492
100
AcDbEntity
  8
FORMAT
 62
     0
100
AcDbLine
 10
0.0
 20
5.0
 30
0.0
 11
0.0
 21
8.7
 31
0.0
  0
LINE
  5
49A
330
492
100
AcDbEntity
  8
FORMAT
 62
     0
100
AcDbLine
 10
-5.0
 20
0.0
 30
0.0
 11
-8.7
 21
0.0
 31
0.0
  0
LINE
  5
49B
330
492
100
AcDbEntity
  8
FORMAT
 62
     0
100
AcDbLine
 10
0.0
 20
-5.0
 30
0.0
 11
0.0
 21
-8.7
 31
0.0
  0
LINE
  5
49C
330
492
100
AcDbEntity
  8
FORMAT
 62
     0
100
AcDbLine
 10
5.0
 20
0.0
 30
0.0
 11
8.7
 21
0.0
 31
0.0
  0
ENDBLK
  5
494
330
492
100
AcDbEntity
  8
0
100
AcDbBlockEnd
  0
BLOCK
  5
49F
330
49E
100
AcDbEntity
  8
0
100
AcDbBlockBegin
  2
SW_CENTERMARKSYMBOL_35
 70
     0
 10
0.0
 20
0.0
 30
0.0
  3
SW_CENTERMARKSYMBOL_35
  1

  0
LINE
  5
4A1
330
49E
100
AcDbEntity
  8
FORMAT
 62
     0
100
AcDbLine
 10
0.0
 20
0.0
 30
0.0
 11
0.0
 21
2.5
 31
0.0
  0
LINE
  5
4A2
330
49E
100
AcDbEntity
  8
FORMAT
 62
     0
100
AcDbLine
 10
0.0
 20
0.0
 30
0.0
 11
-2.5
 21
0.0
 31
0.0
  0
LINE
  5
4A3
330
49E
100
AcDbEntity
  8
FORMAT
 62
     0
100
AcDbLine
 10
0.0
 20
0.0
 30
0.0
 11
0.0
 21
-2.5
 31
0.0
  0
LINE
  5
4A4
330
49E
100
AcDbEntity
  8
FORMAT
 62
     0
100
AcDbLine
 10
0.0
 20
0.0
 30
0.0
 11
2.5
 21
0.0
 31
0.0
  0
LINE
  5
4A5
330
49E
100
AcDbEntity
  8
FORMAT
 62
     0
100
AcDbLine
 10
0.0
 20
5.0
 30
0.0
 11
0.0
 21
8.7
 31
0.0
  0
LINE
  5
4A6
330
49E
100
AcDbEntity
  8
FORMAT
 62
     0
100
AcDbLine
 10
-5.0
 20
0.0
 30
0.0
 11
-8.7
 21
0.0
 31
0.0
  0
LINE
  5
4A7
330
49E
100
AcDbEntity
  8
FORMAT
 62
     0
100
AcDbLine
 10
0.0
 20
-5.0
 30
0.0
 11
0.0
 21
-8.7
 31
0.0
  0
LINE
  5
4A8
330
49E
100
AcDbEntity
  8
FORMAT
 62
     0
100
AcDbLine
 10
5.0
 20
0.0
 30
0.0
 11
8.7
 21
0.0
 31
0.0
  0
ENDBLK
  5
4A0
330
49E
100
AcDbEntity
  8
0
100
AcDbBlockEnd
  0
BLOCK
  5
4AB
330
4AA
100
AcDbEntity
  8
0
100
AcDbBlockBegin
  2
SW_CENTERMARKSYMBOL_36
 70
     0
 10
0.0
 20
0.0
 30
0.0
  3
SW_CENTERMARKSYMBOL_36
  1

  0
LINE
  5
4AD
330
4AA
100
AcDbEntity
  8
FORMAT
 62
     0
100
AcDbLine
 10
0.0
 20
0.0
 30
0.0
 11
0.0
 21
2.5
 31
0.0
  0
LINE
  5
4AE
330
4AA
100
AcDbEntity
  8
FORMAT
 62
     0
100
AcDbLine
 10
0.0
 20
0.0
 30
0.0
 11
-2.5
 21
0.0
 31
0.0
  0
LINE
  5
4AF
330
4AA
100
AcDbEntity
  8
FORMAT
 62
     0
100
AcDbLine
 10
0.0
 20
0.0
 30
0.0
 11
0.0
 21
-2.5
 31
0.0
  0
LINE
  5
4B0
330
4AA
100
AcDbEntity
  8
FORMAT
 62
     0
100
AcDbLine
 10
0.0
 20
0.0
 30
0.0
 11
2.5
 21
0.0
 31
0.0
  0
LINE
  5
4B1
330
4AA
100
AcDbEntity
  8
FORMAT
 62
     0
100
AcDbLine
 10
0.0
 20
5.0
 30
0.0
 11
0.0
 21
8.7
 31
0.0
  0
LINE
  5
4B2
330
4AA
100
AcDbEntity
  8
FORMAT
 62
     0
100
AcDbLine
 10
-5.0
 20
0.0
 30
0.0
 11
-8.7
 21
0.0
 31
0.0
  0
LINE
  5
4B3
330
4AA
100
AcDbEntity
  8
FORMAT
 62
     0
100
AcDbLine
 10
0.0
 20
-5.0
 30
0.0
 11
0.0
 21
-8.7
 31
0.0
  0
LINE
  5
4B4
330
4AA
100
AcDbEntity
  8
FORMAT
 62
     0
100
AcDbLine
 10
5.0
 20
0.0
 30
0.0
 11
8.7
 21
0.0
 31
0.0
  0
ENDBLK
  5
4AC
330
4AA
100
AcDbEntity
  8
0
100
AcDbBlockEnd
  0
BLOCK
  5
4B7
330
4B6
100
AcDbEntity
  8
0
100
AcDbBlockBegin
  2
SW_CENTERMARKSYMBOL_37
 70
     0
 10
0.0
 20
0.0
 30
0.0
  3
SW_CENTERMARKSYMBOL_37
  1

  0
LINE
  5
4B9
330
4B6
100
AcDbEntity
  8
FORMAT
 62
     0
100
AcDbLine
 10
0.0
 20
0.0
 30
0.0
 11
0.0
 21
2.5
 31
0.0
  0
LINE
  5
4BA
330
4B6
100
AcDbEntity
  8
FORMAT
 62
     0
100
AcDbLine
 10
0.0
 20
0.0
 30
0.0
 11
-2.5
 21
0.0
 31
0.0
  0
LINE
  5
4BB
330
4B6
100
AcDbEntity
  8
FORMAT
 62
     0
100
AcDbLine
 10
0.0
 20
0.0
 30
0.0
 11
0.0
 21
-2.5
 31
0.0
  0
LINE
  5
4BC
330
4B6
100
AcDbEntity
  8
FORMAT
 62
     0
100
AcDbLine
 10
0.0
 20
0.0
 30
0.0
 11
2.5
 21
0.0
 31
0.0
  0
LINE
  5
4BD
330
4B6
100
AcDbEntity
  8
FORMAT
 62
     0
100
AcDbLine
 10
0.0
 20
5.0
 30
0.0
 11
0.0
 21
8.7
 31
0.0
  0
LINE
  5
4BE
330
4B6
100
AcDbEntity
  8
FORMAT
 62
     0
100
AcDbLine
 10
-5.0
 20
0.0
 30
0.0
 11
-8.7
 21
0.0
 31
0.0
  0
LINE
  5
4BF
330
4B6
100
AcDbEntity
  8
FORMAT
 62
     0
100
AcDbLine
 10
0.0
 20
-5.0
 30
0.0
 11
0.0
 21
-8.7
 31
0.0
  0
LINE
  5
4C0
330
4B6
100
AcDbEntity
  8
FORMAT
 62
     0
100
AcDbLine
 10
5.0
 20
0.0
 30
0.0
 11
8.7
 21
0.0
 31
0.0
  0
ENDBLK
  5
4B8
330
4B6
100
AcDbEntity
  8
0
100
AcDbBlockEnd
  0
BLOCK
  5
4C3
330
4C2
100
AcDbEntity
  8
0
100
AcDbBlockBegin
  2
SW_CENTERMARKSYMBOL_38
 70
     0
 10
0.0
 20
0.0
 30
0.0
  3
SW_CENTERMARKSYMBOL_38
  1

  0
LINE
  5
4C5
330
4C2
100
AcDbEntity
  8
FORMAT
 62
     0
100
AcDbLine
 10
0.0
 20
0.0
 30
0.0
 11
0.0
 21
2.5
 31
0.0
  0
LINE
  5
4C6
330
4C2
100
AcDbEntity
  8
FORMAT
 62
     0
100
AcDbLine
 10
0.0
 20
0.0
 30
0.0
 11
-2.5
 21
0.0
 31
0.0
  0
LINE
  5
4C7
330
4C2
100
AcDbEntity
  8
FORMAT
 62
     0
100
AcDbLine
 10
0.0
 20
0.0
 30
0.0
 11
0.0
 21
-2.5
 31
0.0
  0
LINE
  5
4C8
330
4C2
100
AcDbEntity
  8
FORMAT
 62
     0
100
AcDbLine
 10
0.0
 20
0.0
 30
0.0
 11
2.5
 21
0.0
 31
0.0
  0
LINE
  5
4C9
330
4C2
100
AcDbEntity
  8
FORMAT
 62
     0
100
AcDbLine
 10
0.0
 20
2.5
 30
0.0
 11
0.0
 21
5.0
 31
0.0
  0
LINE
  5
4CA
330
4C2
100
AcDbEntity
  8
FORMAT
 62
     0
100
AcDbLine
 10
-2.5
 20
0.0
 30
0.0
 11
-5.0
 21
0.0
 31
0.0
  0
LINE
  5
4CB
330
4C2
100
AcDbEntity
  8
FORMAT
 62
     0
100
AcDbLine
 10
0.0
 20
-2.5
 30
0.0
 11
0.0
 21
-5.0
 31
0.0
  0
LINE
  5
4CC
330
4C2
100
AcDbEntity
  8
FORMAT
 62
     0
100
AcDbLine
 10
2.5
 20
0.0
 30
0.0
 11
5.0
 21
0.0
 31
0.0
  0
ENDBLK
  5
4C4
330
4C2
100
AcDbEntity
  8
0
100
AcDbBlockEnd
  0
BLOCK
  5
4CF
330
4CE
100
AcDbEntity
  8
0
100
AcDbBlockBegin
  2
SW_CENTERMARKSYMBOL_39
 70
     0
 10
0.0
 20
0.0
 30
0.0
  3
SW_CENTERMARKSYMBOL_39
  1

  0
LINE
  5
4D1
330
4CE
100
AcDbEntity
  8
FORMAT
 62
     0
100
AcDbLine
 10
0.0
 20
0.0
 30
0.0
 11
0.0
 21
2.5
 31
0.0
  0
LINE
  5
4D2
330
4CE
100
AcDbEntity
  8
FORMAT
 62
     0
100
AcDbLine
 10
0.0
 20
0.0
 30
0.0
 11
-2.5
 21
0.0
 31
0.0
  0
LINE
  5
4D3
330
4CE
100
AcDbEntity
  8
FORMAT
 62
     0
100
AcDbLine
 10
0.0
 20
0.0
 30
0.0
 11
0.0
 21
-2.5
 31
0.0
  0
LINE
  5
4D4
330
4CE
100
AcDbEntity
  8
FORMAT
 62
     0
100
AcDbLine
 10
0.0
 20
0.0
 30
0.0
 11
2.5
 21
0.0
 31
0.0
  0
LINE
  5
4D5
330
4CE
100
AcDbEntity
  8
FORMAT
 62
     0
100
AcDbLine
 10
0.0
 20
2.5
 30
0.0
 11
0.0
 21
5.0
 31
0.0
  0
LINE
  5
4D6
330
4CE
100
AcDbEntity
  8
FORMAT
 62
     0
100
AcDbLine
 10
-2.5
 20
0.0
 30
0.0
 11
-5.0
 21
0.0
 31
0.0
  0
LINE
  5
4D7
330
4CE
100
AcDbEntity
  8
FORMAT
 62
     0
100
AcDbLine
 10
0.0
 20
-2.5
 30
0.0
 11
0.0
 21
-5.0
 31
0.0
  0
LINE
  5
4D8
330
4CE
100
AcDbEntity
  8
FORMAT
 62
     0
100
AcDbLine
 10
2.5
 20
0.0
 30
0.0
 11
5.0
 21
0.0
 31
0.0
  0
ENDBLK
  5
4D0
330
4CE
100
AcDbEntity
  8
0
100
AcDbBlockEnd
  0
BLOCK
  5
4DB
330
4DA
100
AcDbEntity
  8
0
100
AcDbBlockBegin
  2
SW_CENTERMARKSYMBOL_40
 70
     0
 10
0.0
 20
0.0
 30
0.0
  3
SW_CENTERMARKSYMBOL_40
  1

  0
LINE
  5
4DD
330
4DA
100
AcDbEntity
  8
FORMAT
 62
     0
100
AcDbLine
 10
0.0
 20
0.0
 30
0.0
 11
0.0
 21
2.5
 31
0.0
  0
LINE
  5
4DE
330
4DA
100
AcDbEntity
  8
FORMAT
 62
     0
100
AcDbLine
 10
0.0
 20
0.0
 30
0.0
 11
-2.5
 21
0.0
 31
0.0
  0
LINE
  5
4DF
330
4DA
100
AcDbEntity
  8
FORMAT
 62
     0
100
AcDbLine
 10
0.0
 20
0.0
 30
0.0
 11
0.0
 21
-2.5
 31
0.0
  0
LINE
  5
4E0
330
4DA
100
AcDbEntity
  8
FORMAT
 62
     0
100
AcDbLine
 10
0.0
 20
0.0
 30
0.0
 11
2.5
 21
0.0
 31
0.0
  0
LINE
  5
4E1
330
4DA
100
AcDbEntity
  8
FORMAT
 62
     0
100
AcDbLine
 10
0.0
 20
5.0
 30
0.0
 11
0.0
 21
12.5
 31
0.0
  0
LINE
  5
4E2
330
4DA
100
AcDbEntity
  8
FORMAT
 62
     0
100
AcDbLine
 10
-5.0
 20
0.0
 30
0.0
 11
-12.5
 21
0.0
 31
0.0
  0
LINE
  5
4E3
330
4DA
100
AcDbEntity
  8
FORMAT
 62
     0
100
AcDbLine
 10
0.0
 20
-5.0
 30
0.0
 11
0.0
 21
-12.5
 31
0.0
  0
LINE
  5
4E4
330
4DA
100
AcDbEntity
  8
FORMAT
 62
     0
100
AcDbLine
 10
5.0
 20
0.0
 30
0.0
 11
12.5
 21
0.0
 31
0.0
  0
ENDBLK
  5
4DC
330
4DA
100
AcDbEntity
  8
0
100
AcDbBlockEnd
  0
BLOCK
  5
4E7
330
4E6
100
AcDbEntity
  8
0
100
AcDbBlockBegin
  2
SW_CENTERMARKSYMBOL_41
 70
     0
 10
0.0
 20
0.0
 30
0.0
  3
SW_CENTERMARKSYMBOL_41
  1

  0
LINE
  5
4E9
330
4E6
100
AcDbEntity
  8
FORMAT
 62
     0
100
AcDbLine
 10
0.0
 20
0.0
 30
0.0
 11
0.0
 21
2.5
 31
0.0
  0
LINE
  5
4EA
330
4E6
100
AcDbEntity
  8
FORMAT
 62
     0
100
AcDbLine
 10
0.0
 20
0.0
 30
0.0
 11
-2.5
 21
0.0
 31
0.0
  0
LINE
  5
4EB
330
4E6
100
AcDbEntity
  8
FORMAT
 62
     0
100
AcDbLine
 10
0.0
 20
0.0
 30
0.0
 11
0.0
 21
-2.5
 31
0.0
  0
LINE
  5
4EC
330
4E6
100
AcDbEntity
  8
FORMAT
 62
     0
100
AcDbLine
 10
0.0
 20
0.0
 30
0.0
 11
2.5
 21
0.0
 31
0.0
  0
LINE
  5
4ED
330
4E6
100
AcDbEntity
  8
FORMAT
 62
     0
100
AcDbLine
 10
0.0
 20
5.0
 30
0.0
 11
0.0
 21
12.5
 31
0.0
  0
LINE
  5
4EE
330
4E6
100
AcDbEntity
  8
FORMAT
 62
     0
100
AcDbLine
 10
-5.0
 20
0.0
 30
0.0
 11
-12.5
 21
0.0
 31
0.0
  0
LINE
  5
4EF
330
4E6
100
AcDbEntity
  8
FORMAT
 62
     0
100
AcDbLine
 10
0.0
 20
-5.0
 30
0.0
 11
0.0
 21
-12.5
 31
0.0
  0
LINE
  5
4F0
330
4E6
100
AcDbEntity
  8
FORMAT
 62
     0
100
AcDbLine
 10
5.0
 20
0.0
 30
0.0
 11
12.5
 21
0.0
 31
0.0
  0
ENDBLK
  5
4E8
330
4E6
100
AcDbEntity
  8
0
100
AcDbBlockEnd
  0
BLOCK
  5
584
330
583
100
AcDbEntity
  8
0
100
AcDbBlockBegin
  2
_Dot
 70
     0
 10
0.0
 20
0.0
 30
0.0
  3
_Dot
  1

  0
LWPOLYLINE
  5
586
330
583
100
AcDbEntity
  8
0
  6
ByBlock
 62
     0
100
AcDbPolyline
 90
        2
 70
     1
 43
0.5
 10
-0.25
 20
0.0
 42
1.0
 10
0.25
 20
0.0
 42
1.0
  0
LINE
  5
587
330
583
100
AcDbEntity
  8
0
  6
ByBlock
 62
     0
370
    -2
100
AcDbLine
 10
-0.5
 20
0.0
 30
0.0
 11
-1.0
 21
0.0
 31
0.0
  0
ENDBLK
  5
585
330
583
100
AcDbEntity
  8
0
100
AcDbBlockEnd
  0
BLOCK
  5
589
330
588
100
AcDbEntity
  8
0
100
AcDbBlockBegin
  2
_D_21
 70
     0
 10
0.0
 20
0.0
 30
0.0
  3
_D_21
  1

  0
INSERT
  5
58B
330
588
100
AcDbEntity
  8
FORMAT
100
AcDbBlockReference
  2
_Dot
 10
2269.1757954586
 20
1868.1494147155
 30
0.0
 41
7.112
 42
7.112
 50
0.0
  0
SOLID
  5
58C
330
588
100
AcDbEntity
  8
FORMAT
100
AcDbTrace
 10
2299.1757954586
 20
1868.1494147155
 30
0.0
 11
2322.2897954586
 21
1864.5934147155
 31
0.0
 12
2322.2897954586
 22
1871.7054147155
 32
0.0
 13
2322.2897954586
 23
1871.7054147155
 33
0.0
  0
LINE
  5
58D
330
588
100
AcDbEntity
  8
FORMAT
100
AcDbLine
 10
2269.1757954586
 20
1838.8501293705
 30
0.0
 11
2269.1757954586
 21
1875.1494147155
 31
0.0
  0
LINE
  5
58E
330
588
100
AcDbEntity
  8
FORMAT
100
AcDbLine
 10
2269.1757954586
 20
1868.1494147155
 30
0.0
 11
2224.7257954586
 21
1868.1494147155
 31
0.0
  0
LINE
  5
58F
330
588
100
AcDbEntity
  8
FORMAT
100
AcDbLine
 10
2269.1757954586
 20
1868.1494147155
 30
0.0
 11
2299.1757954586
 21
1868.1494147155
 31
0.0
  0
LINE
  5
590
330
588
100
AcDbEntity
  8
FORMAT
100
AcDbLine
 10
2299.1757954586
 20
1868.1494147155
 30
0.0
 11
2424.6480005549
 21
1868.1494147155
 31
0.0
  0
MTEXT
  5
591
330
588
100
AcDbEntity
  8
FORMAT
100
AcDbMText
 10
2322.4404292868
 20
1892.0240247015
 30
0.0
 40
18.5208333333
 41
0.0
 71
     1
 72
     1
  1
max. +
  7
SLDTEXTSTYLE0
 73
     1
 44
1.0
  0
MTEXT
  5
592
330
588
100
AcDbEntity
  8
FORMAT
100
AcDbMText
 10
2397.2097213136
 20
1892.0240247015
 30
0.0
 40
18.5208333333
 41
0.0
 71
     1
 72
     1
  1
30
  7
SLDTEXTSTYLE0
 73
     1
 44
1.0
  0
ENDBLK
  5
58A
330
588
100
AcDbEntity
  8
0
100
AcDbBlockEnd
  0
BLOCK
  5
595
330
594
100
AcDbEntity
  8
0
100
AcDbBlockBegin
  2
_D_22
 70
     0
 10
0.0
 20
0.0
 30
0.0
  3
_D_22
  1

  0
INSERT
  5
597
330
594
100
AcDbEntity
  8
FORMAT
100
AcDbBlockReference
  2
_Dot
 10
2269.1757954586
 20
1868.1494147155
 30
0.0
 41
7.112
 42
7.112
 50
180.0
  0
SOLID
  5
598
330
594
100
AcDbEntity
  8
FORMAT
100
AcDbTrace
 10
2239.1757954586
 20
1868.1494147155
 30
0.0
 11
2216.0617954586
 21
1871.7054147155
 31
0.0
 12
2216.0617954586
 22
1864.5934147155
 32
0.0
 13
2216.0617954586
 23
1864.5934147155
 33
0.0
  0
LINE
  5
599
330
594
100
AcDbEntity
  8
FORMAT
100
AcDbLine
 10
2269.1757954586
 20
1838.8501293705
 30
0.0
 11
2269.1757954586
 21
1875.1494147155
 31
0.0
  0
LINE
  5
59A
330
594
100
AcDbEntity
  8
FORMAT
100
AcDbLine
 10
2269.1757954586
 20
1868.1494147155
 30
0.0
 11
2313.6257954586
 21
1868.1494147155
 31
0.0
  0
LINE
  5
59B
330
594
100
AcDbEntity
  8
FORMAT
100
AcDbLine
 10
2269.1757954586
 20
1868.1494147155
 30
0.0
 11
2239.1757954586
 21
1868.1494147155
 31
0.0
  0
LINE
  5
59C
330
594
100
AcDbEntity
  8
FORMAT
100
AcDbLine
 10
2239.1757954586
 20
1868.1494147155
 30
0.0
 11
2115.4935123036
 21
1868.1494147155
 31
0.0
  0
MTEXT
  5
59D
330
594
100
AcDbEntity
  8
FORMAT
100
AcDbMText
 10
2115.4935123036
 20
1892.0240247016
 30
0.0
 40
18.5208333333
 41
0.0
 71
     1
 72
     1
  1
max. -
  7
SLDTEXTSTYLE0
 73
     1
 44
1.0
  0
MTEXT
  5
59E
330
594
100
AcDbEntity
  8
FORMAT
100
AcDbMText
 10
2184.0891908491
 20
1892.0240247016
 30
0.0
 40
18.5208333333
 41
0.0
 71
     1
 72
     1
  1
30
  7
SLDTEXTSTYLE0
 73
     1
 44
1.0
  0
ENDBLK
  5
596
330
594
100
AcDbEntity
  8
0
100
AcDbBlockEnd
  0
BLOCK
  5
5A2
330
5A1
100
AcDbEntity
  8
0
100
AcDbBlockBegin
  2
_D_23
 70
     0
 10
0.0
 20
0.0
 30
0.0
  3
_D_23
  1

  0
SOLID
  5
5A4
330
5A1
100
AcDbEntity
  8
FORMAT
100
AcDbTrace
 10
2577.9245526093
 20
1738.3501293705
 30
0.0
 11
2581.4805526093
 21
1761.4641293705
 31
0.0
 12
2574.3685526093
 22
1761.4641293705
 32
0.0
 13
2574.3685526093
 23
1761.4641293705
 33
0.0
  0
SOLID
  5
5A5
330
5A1
100
AcDbEntity
  8
FORMAT
100
AcDbTrace
 10
2577.9245526093
 20
1728.3501293705
 30
0.0
 11
2574.3685526093
 21
1705.2361293705
 31
0.0
 12
2581.4805526093
 22
1705.2361293705
 32
0.0
 13
2581.4805526093
 23
1705.2361293705
 33
0.0
  0
LINE
  5
5A6
330
5A1
100
AcDbEntity
  8
FORMAT
100
AcDbLine
 10
2547.2375524274
 20
1738.3501293705
 30
0.0
 11
2584.9245526093
 21
1738.3501293705
 31
0.0
  0
LINE
  5
5A7
330
5A1
100
AcDbEntity
  8
FORMAT
100
AcDbLine
 10
2401.1757954605
 20
1728.3501293705
 30
0.0
 11
2584.9245526093
 21
1728.3501293705
 31
0.0
  0
LINE
  5
5A8
330
5A1
100
AcDbEntity
  8
FORMAT
100
AcDbLine
 10
2577.9245526093
 20
1738.3501293705
 30
0.0
 11
2577.9245526093
 21
1891.4026820516
 31
0.0
  0
LINE
  5
5A9
330
5A1
100
AcDbEntity
  8
FORMAT
100
AcDbLine
 10
2577.9245526093
 20
1738.3501293705
 30
0.0
 11
2577.9245526093
 21
1728.3501293705
 31
0.0
  0
LINE
  5
5AA
330
5A1
100
AcDbEntity
  8
FORMAT
100
AcDbLine
 10
2577.9245526093
 20
1728.3501293705
 30
0.0
 11
2577.9245526093
 21
1683.9001293705
 31
0.0
  0
MTEXT
  5
5AB
330
5A1
100
AcDbEntity
  8
FORMAT
100
AcDbMText
 10
2554.0499426232
 20
1791.2529797708
 30
0.0
 40
18.5208333333
 41
0.0
 71
     1
 72
     1
  1
min. 
  7
SLDTEXTSTYLE0
 11
-7.044195017643634E-15
 21
1.0
 31
0.0
 73
     1
 44
1.0
  0
MTEXT
  5
5AC
330
5A1
100
AcDbEntity
  8
FORMAT
100
AcDbMText
 10
2554.0499426232
 20
1844.7576092971
 30
0.0
 40
18.5208333333
 41
0.0
 71
     1
 72
     1
  1
10
  7
SLDTEXTSTYLE0
 11
-7.044195017643634E-15
 21
1.0
 31
0.0
 73
     1
 44
1.0
  0
MTEXT
  5
5AD
330
5A1
100
AcDbEntity
  8
FORMAT
100
AcDbMText
 10
2554.0499426232
 20
1872.1958852788
 30
0.0
 40
18.5208333333
 41
0.0
 71
     1
 72
     1
  1
**
  7
SLDTEXTSTYLE0
 11
-7.044195017643634E-15
 21
1.0
 31
0.0
 73
     1
 44
1.0
  0
ENDBLK
  5
5A3
330
5A1
100
AcDbEntity
  8
0
100
AcDbBlockEnd
  0
BLOCK
  5
5B0
330
5AF
100
AcDbEntity
  8
0
100
AcDbBlockBegin
  2
_D_24
 70
     0
 10
0.0
 20
0.0
 30
0.0
  3
_D_24
  1

  0
SOLID
  5
5B2
330
5AF
100
AcDbEntity
  8
FORMAT
100
AcDbTrace
 10
2097.2277878137
 20
1631.8501293705
 30
0.0
 11
2100.7837878137
 21
1654.9641293705
 31
0.0
 12
2093.6717878137
 22
1654.9641293705
 32
0.0
 13
2093.6717878137
 23
1654.9641293705
 33
0.0
  0
SOLID
  5
5B3
330
5AF
100
AcDbEntity
  8
FORMAT
100
AcDbTrace
 10
2097.2277878137
 20
1729.3501293705
 30
0.0
 11
2093.6717878137
 21
1706.2361293705
 31
0.0
 12
2100.7837878137
 22
1706.2361293705
 32
0.0
 13
2100.7837878137
 23
1706.2361293705
 33
0.0
  0
LINE
  5
5B4
330
5AF
100
AcDbEntity
  8
FORMAT
100
AcDbLine
 10
2232.1757954586
 20
1631.8501293705
 30
0.0
 11
2090.2277878137
 21
1631.8501293705
 31
0.0
  0
LINE
  5
5B5
330
5AF
100
AcDbEntity
  8
FORMAT
100
AcDbLine
 10
2273.1757954605
 20
1729.3501293705
 30
0.0
 11
2090.2277878137
 21
1729.3501293705
 31
0.0
  0
LINE
  5
5B6
330
5AF
100
AcDbEntity
  8
FORMAT
100
AcDbLine
 10
2097.2277878137
 20
1631.8501293705
 30
0.0
 11
2097.2277878137
 21
1729.3501293705
 31
0.0
  0
MTEXT
  5
5B7
330
5AF
100
AcDbEntity
  8
FORMAT
100
AcDbMText
 10
2065.6456265595
 20
1647.8483940707
 30
0.0
 40
24.5
 41
0.0
 71
     1
 72
     1
  1
97,5
  7
SLDTEXTSTYLE0
 11
7.044937210119229E-14
 21
1.0
 31
0.0
 73
     1
 44
1.0
  0
ENDBLK
  5
5B1
330
5AF
100
AcDbEntity
  8
0
100
AcDbBlockEnd
  0
BLOCK
  5
5BA
330
5B9
100
AcDbEntity
  8
0
100
AcDbBlockBegin
  2
_D_25
 70
     0
 10
0.0
 20
0.0
 30
0.0
  3
_D_25
  1

  0
SOLID
  5
5BC
330
5B9
100
AcDbEntity
  8
FORMAT
100
AcDbTrace
 10
2269.1757954605
 20
1436.0688336395
 30
0.0
 11
2292.2897954605
 21
1432.5128336395
 31
0.0
 12
2292.2897954605
 22
1439.6248336395
 32
0.0
 13
2292.2897954605
 23
1439.6248336395
 33
0.0
  0
SOLID
  5
5BD
330
5B9
100
AcDbEntity
  8
FORMAT
100
AcDbTrace
 10
2399.1757954605
 20
1436.0688336395
 30
0.0
 11
2376.0617954605
 21
1439.6248336395
 31
0.0
 12
2376.0617954605
 22
1432.5128336395
 32
0.0
 13
2376.0617954605
 23
1432.5128336395
 33
0.0
  0
LINE
  5
5BE
330
5B9
100
AcDbEntity
  8
FORMAT
100
AcDbLine
 10
2269.1757954605
 20
1631.5001293705
 30
0.0
 11
2269.1757954605
 21
1429.0688336395
 31
0.0
  0
LINE
  5
5BF
330
5B9
100
AcDbEntity
  8
FORMAT
100
AcDbLine
 10
2399.1757954605
 20
1631.3501293705
 30
0.0
 11
2399.1757954605
 21
1429.0688336395
 31
0.0
  0
LINE
  5
5C0
330
5B9
100
AcDbEntity
  8
FORMAT
100
AcDbLine
 10
2269.1757954605
 20
1436.0688336395
 30
0.0
 11
2399.1757954605
 21
1436.0688336395
 31
0.0
  0
MTEXT
  5
5C1
330
5B9
100
AcDbEntity
  8
FORMAT
100
AcDbMText
 10
2306.1028794891
 20
1467.6509948937
 30
0.0
 40
24.5
 41
0.0
 71
     1
 72
     1
  1
130
  7
SLDTEXTSTYLE0
 73
     1
 44
1.0
  0
ENDBLK
  5
5BB
330
5B9
100
AcDbEntity
  8
0
100
AcDbBlockEnd
  0
BLOCK
  5
5C4
330
5C3
100
AcDbEntity
  8
0
100
AcDbBlockBegin
  2
_D_26
 70
     0
 10
0.0
 20
0.0
 30
0.0
  3
_D_26
  1

  0
SOLID
  5
5C6
330
5C3
100
AcDbEntity
  8
FORMAT
100
AcDbTrace
 10
2269.1757954586
 20
1511.2139643759
 30
0.0
 11
2246.0617954586
 21
1514.7699643759
 31
0.0
 12
2246.0617954586
 22
1507.6579643759
 32
0.0
 13
2246.0617954586
 23
1507.6579643759
 33
0.0
  0
SOLID
  5
5C7
330
5C3
100
AcDbEntity
  8
FORMAT
100
AcDbTrace
 10
2297.1757954562
 20
1511.2139643759
 30
0.0
 11
2320.2897954562
 21
1507.6579643759
 31
0.0
 12
2320.2897954562
 22
1514.7699643759
 32
0.0
 13
2320.2897954562
 23
1514.7699643759
 33
0.0
  0
LINE
  5
5C8
330
5C3
100
AcDbEntity
  8
FORMAT
100
AcDbLine
 10
2297.1757954562
 20
1594.8501293767
 30
0.0
 11
2297.1757954562
 21
1504.2139643759
 31
0.0
  0
LINE
  5
5C9
330
5C3
100
AcDbEntity
  8
FORMAT
100
AcDbLine
 10
2269.1757954586
 20
1511.2139643759
 30
0.0
 11
2224.7257954586
 21
1511.2139643759
 31
0.0
  0
LINE
  5
5CA
330
5C3
100
AcDbEntity
  8
FORMAT
100
AcDbLine
 10
2269.1757954586
 20
1511.2139643759
 30
0.0
 11
2297.1757954562
 21
1511.2139643759
 31
0.0
  0
LINE
  5
5CB
330
5C3
100
AcDbEntity
  8
FORMAT
100
AcDbLine
 10
2297.1757954562
 20
1511.2139643759
 30
0.0
 11
2374.2191934946
 21
1511.2139643759
 31
0.0
  0
MTEXT
  5
5CC
330
5C3
100
AcDbEntity
  8
FORMAT
100
AcDbMText
 10
2336.7886388663
 20
1542.7961256301
 30
0.0
 40
24.5
 41
0.0
 71
     1
 72
     1
  1
28
  7
SLDTEXTSTYLE0
 73
     1
 44
1.0
  0
ENDBLK
  5
5C5
330
5C3
100
AcDbEntity
  8
0
100
AcDbBlockEnd
  0
BLOCK
  5
5CF
330
5CE
100
AcDbEntity
  8
0
100
AcDbBlockBegin
  2
_D_27
 70
     0
 10
0.0
 20
0.0
 30
0.0
  3
_D_27
  1

  0
SOLID
  5
5D1
330
5CE
100
AcDbEntity
  8
FORMAT
100
AcDbTrace
 10
2499.0364669094
 20
1601.3501293767
 30
0.0
 11
2502.5924669094
 21
1624.4641293767
 31
0.0
 12
2495.4804669094
 22
1624.4641293767
 32
0.0
 13
2495.4804669094
 23
1624.4641293767
 33
0.0
  0
SOLID
  5
5D2
330
5CE
100
AcDbEntity
  8
FORMAT
100
AcDbTrace
 10
2499.0364669094
 20
1728.3501293705
 30
0.0
 11
2495.4804669094
 21
1705.2361293705
 31
0.0
 12
2502.5924669094
 22
1705.2361293705
 32
0.0
 13
2502.5924669094
 23
1705.2361293705
 33
0.0
  0
LINE
  5
5D3
330
5CE
100
AcDbEntity
  8
FORMAT
100
AcDbLine
 10
2303.6757954562
 20
1601.3501293767
 30
0.0
 11
2506.0364669094
 21
1601.3501293767
 31
0.0
  0
LINE
  5
5D4
330
5CE
100
AcDbEntity
  8
FORMAT
100
AcDbLine
 10
2401.1757954605
 20
1728.3501293705
 30
0.0
 11
2506.0364669094
 21
1728.3501293705
 31
0.0
  0
LINE
  5
5D5
330
5CE
100
AcDbEntity
  8
FORMAT
100
AcDbLine
 10
2499.0364669094
 20
1601.3501293767
 30
0.0
 11
2499.0364669094
 21
1728.3501293705
 31
0.0
  0
MTEXT
  5
5D6
330
5CE
100
AcDbEntity
  8
FORMAT
100
AcDbMText
 10
2467.4543056552
 20
1636.7772134023
 30
0.0
 40
24.5
 41
0.0
 71
     1
 72
     1
  1
127
  7
SLDTEXTSTYLE0
 11
7.733275485386826E-14
 21
1.0
 31
0.0
 73
     1
 44
1.0
  0
ENDBLK
  5
5D0
330
5CE
100
AcDbEntity
  8
0
100
AcDbBlockEnd
  0
BLOCK
  5
5D9
330
5D8
100
AcDbEntity
  8
0
100
AcDbBlockBegin
  2
SW_NOTE_0_7
 70
     0
 10
0.0
 20
0.0
 30
0.0
  3
SW_NOTE_0_7
  1

  0
MTEXT
  5
5DB
330
5D8
100
AcDbEntity
  8
FORMAT
 62
     0
100
AcDbMText
 10
0.0
 20
23.8746087637
 30
0.0
 40
18.5208333333
 41
0.0
 71
     1
 72
     1
  1
** Für ETS 64-R IRM Mindestabstand von 10mm zwischen
  7
SLDTEXTSTYLE0
 73
     1
 44
1.0
  0
MTEXT
  5
5DC
330
5D8
100
AcDbEntity
  8
FORMAT
 62
     0
100
AcDbMText
 10
0.0
 20
-7.8198365297
 30
0.0
 40
18.5208333333
 41
0.0
 71
     1
 72
     1
  1
    Oberkante Abdeckung zu Unterkante Decke
  7
SLDTEXTSTYLE0
 73
     1
 44
1.0
  0
ENDBLK
  5
5DA
330
5D8
100
AcDbEntity
  8
0
100
AcDbBlockEnd
  0
BLOCK
  5
682
330
681
100
AcDbEntity
  8
0
100
AcDbBlockBegin
  2
_D_28
 70
     0
 10
0.0
 20
0.0
 30
0.0
  3
_D_28
  1

  0
SOLID
  5
684
330
681
100
AcDbEntity
  8
FORMAT
100
AcDbTrace
 10
2241.1141540938
 20
964.4107208094
 30
0.0
 11
2218.0001540938
 21
967.9667208094
 31
0.0
 12
2218.0001540938
 22
960.8547208094
 32
0.0
 13
2218.0001540938
 23
960.8547208094
 33
0.0
  0
SOLID
  5
685
330
681
100
AcDbEntity
  8
FORMAT
100
AcDbTrace
 10
2255.1141540938
 20
964.4107208094
 30
0.0
 11
2278.2281540938
 21
960.8547208094
 31
0.0
 12
2278.2281540938
 22
967.9667208094
 32
0.0
 13
2278.2281540938
 23
967.9667208094
 33
0.0
  0
LINE
  5
686
330
681
100
AcDbEntity
  8
FORMAT
100
AcDbLine
 10
2241.1141540938
 20
928.0601466262
 30
0.0
 11
2241.1141540938
 21
971.4107208094
 31
0.0
  0
LINE
  5
687
330
681
100
AcDbEntity
  8
FORMAT
100
AcDbLine
 10
2255.1141540938
 20
928.0601466262
 30
0.0
 11
2255.1141540938
 21
971.4107208094
 31
0.0
  0
LINE
  5
688
330
681
100
AcDbEntity
  8
FORMAT
100
AcDbLine
 10
2241.1141540938
 20
964.4107208094
 30
0.0
 11
2196.6641540938
 21
964.4107208094
 31
0.0
  0
LINE
  5
689
330
681
100
AcDbEntity
  8
FORMAT
100
AcDbLine
 10
2241.1141540938
 20
964.4107208094
 30
0.0
 11
2255.1141540938
 21
964.4107208094
 31
0.0
  0
LINE
  5
68A
330
681
100
AcDbEntity
  8
FORMAT
100
AcDbLine
 10
2255.1141540938
 20
964.4107208094
 30
0.0
 11
2316.0058067524
 21
964.4107208094
 31
0.0
  0
MTEXT
  5
68B
330
681
100
AcDbEntity
  8
FORMAT
100
AcDbMText
 10
2278.575252124
 20
995.9928820637
 30
0.0
 40
24.5
 41
0.0
 71
     1
 72
     1
  1
10
  7
SLDTEXTSTYLE0
 73
     1
 44
1.0
  0
ENDBLK
  5
683
330
681
100
AcDbEntity
  8
0
100
AcDbBlockEnd
  0
BLOCK
  5
68E
330
68D
100
AcDbEntity
  8
0
100
AcDbBlockBegin
  2
_D_29
 70
     0
 10
0.0
 20
0.0
 30
0.0
  3
_D_29
  1

  0
ARC
  5
690
330
68D
100
AcDbEntity
  8
FORMAT
100
AcDbCircle
 10
2363.6507311968
 20
646.2429792133
 30
0.0
 40
42.03885414329039
100
AcDbArc
 50
153.4349488229
 51
206.5650511771
  0
ARC
  5
691
330
68D
100
AcDbEntity
  8
FORMAT
100
AcDbCircle
 10
2325.8798973767
 20
646.2429792133
 30
0.0
 40
42.03885414329039
100
AcDbArc
 50
333.4349488229
 51
26.5650511771
  0
SOLID
  5
692
330
68D
100
AcDbEntity
  8
FORMAT
100
AcDbTrace
 10
2241.1141540911
 20
627.4426321011
 30
0.0
 11
2218.0001540911
 21
630.9986321011
 31
0.0
 12
2218.0001540911
 22
623.8866321011
 32
0.0
 13
2218.0001540911
 23
623.8866321011
 33
0.0
  0
SOLID
  5
693
330
68D
100
AcDbEntity
  8
FORMAT
100
AcDbTrace
 10
2280.3141540877
 20
627.4426321011
 30
0.0
 11
2303.4281540877
 21
623.8866321011
 31
0.0
 12
2303.4281540877
 22
630.9986321011
 32
0.0
 13
2303.4281540877
 23
630.9986321011
 33
0.0
  0
LINE
  5
694
330
68D
100
AcDbEntity
  8
FORMAT
100
AcDbLine
 10
2241.1141540911
 20
654.3495874226
 30
0.0
 11
2241.1141540911
 21
620.4426321011
 31
0.0
  0
LINE
  5
695
330
68D
100
AcDbEntity
  8
FORMAT
100
AcDbLine
 10
2280.3141540877
 20
744.1701466349
 30
0.0
 11
2280.3141540877
 21
620.4426321011
 31
0.0
  0
LINE
  5
696
330
68D
100
AcDbEntity
  8
FORMAT
100
AcDbLine
 10
2241.1141540911
 20
627.4426321011
 30
0.0
 11
2196.6641540911
 21
627.4426321011
 31
0.0
  0
LINE
  5
697
330
68D
100
AcDbEntity
  8
FORMAT
100
AcDbLine
 10
2241.1141540911
 20
627.4426321011
 30
0.0
 11
2280.3141540877
 21
627.4426321011
 31
0.0
  0
LINE
  5
698
330
68D
100
AcDbEntity
  8
FORMAT
100
AcDbLine
 10
2280.3141540877
 20
627.4426321011
 30
0.0
 11
2367.9187500749
 21
627.4426321011
 31
0.0
  0
MTEXT
  5
699
330
68D
100
AcDbEntity
  8
FORMAT
100
AcDbMText
 10
2326.0500369725
 20
659.0247933554
 30
0.0
 40
24.5
 41
0.0
 71
     1
 72
     1
  1
28
  7
SLDTEXTSTYLE0
 73
     1
 44
1.0
  0
ENDBLK
  5
68F
330
68D
100
AcDbEntity
  8
0
100
AcDbBlockEnd
  0
BLOCK
  5
69C
330
69B
100
AcDbEntity
  8
0
100
AcDbBlockBegin
  2
_D_30
 70
     0
 10
0.0
 20
0.0
 30
0.0
  3
_D_30
  1

  0
ARC
  5
69E
330
69B
100
AcDbEntity
  8
FORMAT
100
AcDbCircle
 10
2433.5511886836
 20
704.8752000561
 30
0.0
 40
42.03885414329049
100
AcDbArc
 50
243.4349488229
 51
296.5650511771
  0
ARC
  5
69F
330
69B
100
AcDbEntity
  8
FORMAT
100
AcDbCircle
 10
2433.5511886836
 20
667.104366236
 30
0.0
 40
42.03885414329039
100
AcDbArc
 50
63.4349488229
 51
116.5650511771
  0
SOLID
  5
6A0
330
69B
100
AcDbEntity
  8
FORMAT
100
AcDbTrace
 10
2452.3515357958
 20
750.4701466349
 30
0.0
 11
2448.7955357958
 21
727.3561466349
 31
0.0
 12
2455.9075357958
 22
727.3561466349
 32
0.0
 13
2455.9075357958
 23
727.3561466349
 33
0.0
  0
SOLID
  5
6A1
330
69B
100
AcDbEntity
  8
FORMAT
100
AcDbTrace
 10
2452.3515357958
 20
774.2701466349
 30
0.0
 11
2455.9075357958
 21
797.3841466349
 31
0.0
 12
2448.7955357958
 22
797.3841466349
 32
0.0
 13
2448.7955357958
 23
797.3841466349
 33
0.0
  0
LINE
  5
6A2
330
69B
100
AcDbEntity
  8
FORMAT
100
AcDbLine
 10
2286.6141540877
 20
750.4701466349
 30
0.0
 11
2459.3515357958
 21
750.4701466349
 31
0.0
  0
LINE
  5
6A3
330
69B
100
AcDbEntity
  8
FORMAT
100
AcDbLine
 10
2286.6141540877
 20
774.2701466349
 30
0.0
 11
2459.3515357958
 21
774.2701466349
 31
0.0
  0
LINE
  5
6A4
330
69B
100
AcDbEntity
  8
FORMAT
100
AcDbLine
 10
2452.3515357958
 20
750.4701466349
 30
0.0
 11
2452.3515357958
 21
662.8363457282
 31
0.0
  0
LINE
  5
6A5
330
69B
100
AcDbEntity
  8
FORMAT
100
AcDbLine
 10
2452.3515357958
 20
750.4701466349
 30
0.0
 11
2452.3515357958
 21
774.2701466349
 31
0.0
  0
LINE
  5
6A6
330
69B
100
AcDbEntity
  8
FORMAT
100
AcDbLine
 10
2452.3515357958
 20
774.2701466349
 30
0.0
 11
2452.3515357958
 21
818.7201466349
 31
0.0
  0
MTEXT
  5
6A7
330
69B
100
AcDbEntity
  8
FORMAT
100
AcDbMText
 10
2420.7693745415
 20
667.2745058319
 30
0.0
 40
24.5
 41
0.0
 71
     1
 72
     1
  1
17
  7
SLDTEXTSTYLE0
 11
-1.191767205047844E-13
 21
1.0
 31
0.0
 73
     1
 44
1.0
  0
ENDBLK
  5
69D
330
69B
100
AcDbEntity
  8
0
100
AcDbBlockEnd
  0
BLOCK
  5
6AB
330
6AA
100
AcDbEntity
  8
0
100
AcDbBlockBegin
  2
_D_31
 70
     0
 10
0.0
 20
0.0
 30
0.0
  3
_D_31
  1

  0
SOLID
  5
6AD
330
6AA
100
AcDbEntity
  8
FORMAT
100
AcDbTrace
 10
2055.1873348572
 20
787.5701466262
 30
0.0
 11
2051.6313348572
 21
764.4561466262
 31
0.0
 12
2058.7433348572
 22
764.4561466262
 32
0.0
 13
2058.7433348572
 23
764.4561466262
 33
0.0
  0
SOLID
  5
6AE
330
6AA
100
AcDbEntity
  8
FORMAT
100
AcDbTrace
 10
2055.1873348572
 20
793.1701466262
 30
0.0
 11
2058.7433348572
 21
816.2841466262
 31
0.0
 12
2051.6313348572
 22
816.2841466262
 32
0.0
 13
2051.6313348572
 23
816.2841466262
 33
0.0
  0
LINE
  5
6AF
330
6AA
100
AcDbEntity
  8
FORMAT
100
AcDbLine
 10
2238.7668670013
 20
787.5701466262
 30
0.0
 11
2048.1873348572
 21
787.5701466262
 31
0.0
  0
LINE
  5
6B0
330
6AA
100
AcDbEntity
  8
FORMAT
100
AcDbLine
 10
2192.1141540911
 20
793.1701466262
 30
0.0
 11
2048.1873348572
 21
793.1701466262
 31
0.0
  0
LINE
  5
6B1
330
6AA
100
AcDbEntity
  8
FORMAT
100
AcDbLine
 10
2055.1873348572
 20
787.5701466262
 30
0.0
 11
2055.1873348572
 21
714.075396793
 31
0.0
  0
LINE
  5
6B2
330
6AA
100
AcDbEntity
  8
FORMAT
100
AcDbLine
 10
2055.1873348572
 20
787.5701466262
 30
0.0
 11
2055.1873348572
 21
793.1701466262
 31
0.0
  0
LINE
  5
6B3
330
6AA
100
AcDbEntity
  8
FORMAT
100
AcDbLine
 10
2055.1873348572
 20
793.1701466262
 30
0.0
 11
2055.1873348572
 21
837.6201466262
 31
0.0
  0
MTEXT
  5
6B4
330
6AA
100
AcDbEntity
  8
FORMAT
100
AcDbMText
 10
2023.605173603
 20
714.075396793
 30
0.0
 40
24.5
 41
0.0
 71
     1
 72
     1
  1
4
  7
SLDTEXTSTYLE0
 11
6.123233995736766E-17
 21
1.0
 31
0.0
 73
     1
 44
1.0
  0
MTEXT
  5
6B5
330
6AA
100
AcDbEntity
  8
FORMAT
100
AcDbMText
 10
2023.605173603
 20
732.7906741072
 30
0.0
 40
24.5
 41
0.0
 71
     1
 72
     1
  1
*
  7
SLDTEXTSTYLE0
 11
6.123233995736766E-17
 21
1.0
 31
0.0
 73
     1
 44
1.0
  0
ENDBLK
  5
6AC
330
6AA
100
AcDbEntity
  8
0
100
AcDbBlockEnd
  0
BLOCK
  5
6B8
330
6B7
100
AcDbEntity
  8
0
100
AcDbBlockBegin
  2
_D_32
 70
     0
 10
0.0
 20
0.0
 30
0.0
  3
_D_32
  1

  0
SOLID
  5
6BA
330
6B7
100
AcDbEntity
  8
FORMAT
100
AcDbTrace
 10
2506.8514959387
 20
774.2701466354
 30
0.0
 11
2503.2954959388
 21
751.1561466354
 31
0.0
 12
2510.4074959388
 22
751.1561466355
 32
0.0
 13
2510.4074959388
 23
751.1561466355
 33
0.0
  0
SOLID
  5
6BB
330
6B7
100
AcDbEntity
  8
FORMAT
100
AcDbTrace
 10
2506.8514959387
 20
777.7701466269
 30
0.0
 11
2510.4074959386
 21
800.8841466269
 31
0.0
 12
2503.2954959386
 22
800.8841466269
 32
0.0
 13
2503.2954959386
 23
800.8841466269
 33
0.0
  0
LINE
  5
6BC
330
6B7
100
AcDbEntity
  8
FORMAT
100
AcDbLine
 10
2286.6141540877
 20
774.2701466349
 30
0.0
 11
2513.8514959387
 21
774.2701466355
 31
0.0
  0
LINE
  5
6BD
330
6B7
100
AcDbEntity
  8
FORMAT
100
AcDbLine
 10
2326.7124162998
 20
777.7701466264
 30
0.0
 11
2513.8514959387
 21
777.7701466269
 31
0.0
  0
LINE
  5
6BE
330
6B7
100
AcDbEntity
  8
FORMAT
100
AcDbLine
 10
2506.8514959387
 20
774.2701466354
 30
0.0
 11
2506.851495939
 21
662.5956856885
 31
0.0
  0
LINE
  5
6BF
330
6B7
100
AcDbEntity
  8
FORMAT
100
AcDbLine
 10
2506.8514959387
 20
774.2701466354
 30
0.0
 11
2506.8514959387
 21
777.7701466269
 31
0.0
  0
LINE
  5
6C0
330
6B7
100
AcDbEntity
  8
FORMAT
100
AcDbLine
 10
2506.8514959387
 20
777.7701466269
 30
0.0
 11
2506.8514959386
 21
822.2201466269
 31
0.0
  0
MTEXT
  5
6C1
330
6B7
100
AcDbEntity
  8
FORMAT
100
AcDbMText
 10
2475.2693346847
 20
662.5956856884
 30
0.0
 40
24.5
 41
0.0
 71
     1
 72
     1
  1
2,5
  7
SLDTEXTSTYLE0
 11
-2.362715408667301E-12
 21
1.0
 31
0.0
 73
     1
 44
1.0
  0
ENDBLK
  5
6B9
330
6B7
100
AcDbEntity
  8
0
100
AcDbBlockEnd
  0
BLOCK
  5
6C4
330
6C3
100
AcDbEntity
  8
0
100
AcDbBlockBegin
  2
_D_33
 70
     0
 10
0.0
 20
0.0
 30
0.0
  3
_D_33
  1

  0
SOLID
  5
6C6
330
6C3
100
AcDbEntity
  8
FORMAT
100
AcDbTrace
 10
2560.2335081817
 20
777.7701466264
 30
0.0
 11
2556.6775081817
 21
754.6561466264
 31
0.0
 12
2563.7895081817
 22
754.6561466264
 32
0.0
 13
2563.7895081817
 23
754.6561466264
 33
0.0
  0
SOLID
  5
6C7
330
6C3
100
AcDbEntity
  8
FORMAT
100
AcDbTrace
 10
2560.2335081817
 20
795.2701466262
 30
0.0
 11
2563.7895081817
 21
818.3841466262
 31
0.0
 12
2556.6775081817
 22
818.3841466262
 32
0.0
 13
2556.6775081817
 23
818.3841466262
 33
0.0
  0
LINE
  5
6C8
330
6C3
100
AcDbEntity
  8
FORMAT
100
AcDbLine
 10
2365.7141540938
 20
777.7701466264
 30
0.0
 11
2567.2335081817
 21
777.7701466264
 31
0.0
  0
LINE
  5
6C9
330
6C3
100
AcDbEntity
  8
FORMAT
100
AcDbLine
 10
2423.1141540938
 20
795.2701466262
 30
0.0
 11
2567.2335081817
 21
795.2701466262
 31
0.0
  0
LINE
  5
6CA
330
6C3
100
AcDbEntity
  8
FORMAT
100
AcDbLine
 10
2560.2335081817
 20
777.7701466264
 30
0.0
 11
2560.2335081817
 21
653.2380470314
 31
0.0
  0
LINE
  5
6CB
330
6C3
100
AcDbEntity
  8
FORMAT
100
AcDbLine
 10
2560.2335081817
 20
777.7701466264
 30
0.0
 11
2560.2335081817
 21
795.2701466262
 31
0.0
  0
LINE
  5
6CC
330
6C3
100
AcDbEntity
  8
FORMAT
100
AcDbLine
 10
2560.2335081817
 20
795.2701466262
 30
0.0
 11
2560.2335081817
 21
839.7201466262
 31
0.0
  0
MTEXT
  5
6CD
330
6C3
100
AcDbEntity
  8
FORMAT
100
AcDbMText
 10
2528.6513469275
 20
653.2380470314
 30
0.0
 40
24.5
 41
0.0
 71
     1
 72
     1
  1
12,5
  7
SLDTEXTSTYLE0
 11
7.733275485386826E-14
 21
1.0
 31
0.0
 73
     1
 44
1.0
  0
ENDBLK
  5
6C5
330
6C3
100
AcDbEntity
  8
0
100
AcDbBlockEnd
  0
BLOCK
  5
6D0
330
6CF
100
AcDbEntity
  8
0
100
AcDbBlockBegin
  2
_D_34
 70
     0
 10
0.0
 20
0.0
 30
0.0
  3
_D_34
  1

  0
SOLID
  5
6D2
330
6CF
100
AcDbEntity
  8
FORMAT
100
AcDbTrace
 10
2005.4378736167
 20
787.5701466256
 30
0.0
 11
2001.8818736168
 21
764.4561466256
 31
0.0
 12
2008.9938736168
 22
764.4561466256
 32
0.0
 13
2008.9938736168
 23
764.4561466256
 33
0.0
  0
SOLID
  5
6D3
330
6CF
100
AcDbEntity
  8
FORMAT
100
AcDbTrace
 10
2005.4378736167
 20
795.2701466255
 30
0.0
 11
2008.9938736166
 21
818.3841466255
 31
0.0
 12
2001.8818736166
 22
818.3841466255
 32
0.0
 13
2001.8818736166
 23
818.3841466255
 33
0.0
  0
LINE
  5
6D4
330
6CF
100
AcDbEntity
  8
FORMAT
100
AcDbLine
 10
2238.7668670013
 20
787.5701466262
 30
0.0
 11
1998.4378736167
 21
787.5701466255
 31
0.0
  0
LINE
  5
6D5
330
6CF
100
AcDbEntity
  8
FORMAT
100
AcDbLine
 10
2234.1141540938
 20
795.2701466262
 30
0.0
 11
1998.4378736167
 21
795.2701466255
 31
0.0
  0
LINE
  5
6D6
330
6CF
100
AcDbEntity
  8
FORMAT
100
AcDbLine
 10
2005.4378736167
 20
787.5701466256
 30
0.0
 11
2005.4378736169
 21
719.2335101561
 31
0.0
  0
LINE
  5
6D7
330
6CF
100
AcDbEntity
  8
FORMAT
100
AcDbLine
 10
2005.4378736167
 20
787.5701466256
 30
0.0
 11
2005.4378736167
 21
795.2701466255
 31
0.0
  0
LINE
  5
6D8
330
6CF
100
AcDbEntity
  8
FORMAT
100
AcDbLine
 10
2005.4378736167
 20
795.2701466255
 30
0.0
 11
2005.4378736166
 21
839.7201466255
 31
0.0
  0
MTEXT
  5
6D9
330
6CF
100
AcDbEntity
  8
FORMAT
100
AcDbMText
 10
1973.8557123627
 20
719.233510156
 30
0.0
 40
24.5
 41
0.0
 71
     1
 72
     1
  1
5,5
  7
SLDTEXTSTYLE0
 11
-2.794814209851412E-12
 21
1.0
 31
0.0
 73
     1
 44
1.0
  0
ENDBLK
  5
6D1
330
6CF
100
AcDbEntity
  8
0
100
AcDbBlockEnd
  0
BLOCK
  5
6DD
330
6DC
100
AcDbEntity
  8
0
100
AcDbBlockBegin
  2
_D_35
 70
     0
 10
0.0
 20
0.0
 30
0.0
  3
_D_35
  1

  0
INSERT
  5
6DF
330
6DC
100
AcDbEntity
  8
FORMAT
100
AcDbBlockReference
  2
_Dot
 10
2110.6879708634
 20
793.1701466262
 30
998.4869334911
 41
7.112
 42
7.112
 50
90.0
  0
SOLID
  5
6E0
330
6DC
100
AcDbEntity
  8
FORMAT
100
AcDbTrace
 10
2110.6879708634
 20
795.2701466262
 30
0.0
 11
2114.2439708634
 21
818.3841466262
 31
0.0
 12
2107.1319708634
 22
818.3841466262
 32
0.0
 13
2107.1319708634
 23
818.3841466262
 33
0.0
  0
LINE
  5
6E1
330
6DC
100
AcDbEntity
  8
FORMAT
100
AcDbLine
 10
2192.1141540911
 20
793.1701466262
 30
0.0
 11
2103.6879708634
 21
793.1701466262
 31
0.0
  0
LINE
  5
6E2
330
6DC
100
AcDbEntity
  8
FORMAT
100
AcDbLine
 10
2234.1141540938
 20
795.2701466262
 30
0.0
 11
2103.6879708634
 21
795.2701466262
 31
0.0
  0
LINE
  5
6E3
330
6DC
100
AcDbEntity
  8
FORMAT
100
AcDbLine
 10
2110.6879708634
 20
793.1701466262
 30
0.0
 11
2110.6879708634
 21
748.7201466262
 31
0.0
  0
LINE
  5
6E4
330
6DC
100
AcDbEntity
  8
FORMAT
100
AcDbLine
 10
2110.6879708634
 20
793.1701466262
 30
0.0
 11
2110.6879708634
 21
795.2701466262
 31
0.0
  0
LINE
  5
6E5
330
6DC
100
AcDbEntity
  8
FORMAT
100
AcDbLine
 10
2110.6879708634
 20
795.2701466262
 30
0.0
 11
2110.6879708634
 21
875.3074434648
 31
0.0
  0
MTEXT
  5
6E6
330
6DC
100
AcDbEntity
  8
FORMAT
100
AcDbMText
 10
2079.1058096091
 20
828.5192501793
 30
0.0
 40
24.5
 41
0.0
 71
     1
 72
     1
  1
1,5
  7
SLDTEXTSTYLE0
 11
6.123233995736766E-17
 21
1.0
 31
0.0
 73
     1
 44
1.0
  0
ENDBLK
  5
6DE
330
6DC
100
AcDbEntity
  8
0
100
AcDbBlockEnd
  0
BLOCK
  5
6E9
330
6E8
100
AcDbEntity
  8
0
100
AcDbBlockBegin
  2
_D_36
 70
     0
 10
0.0
 20
0.0
 30
0.0
  3
_D_36
  1

  0
INSERT
  5
6EB
330
6E8
100
AcDbEntity
  8
FORMAT
100
AcDbBlockReference
  2
_Dot
 10
2110.6879708634
 20
793.1701466262
 30
998.4869334911
 41
7.112
 42
7.112
 50
270.0
  0
SOLID
  5
6EC
330
6E8
100
AcDbEntity
  8
FORMAT
100
AcDbTrace
 10
2110.6879708634
 20
774.2701466349
 30
0.0
 11
2107.1319708634
 21
751.1561466349
 31
0.0
 12
2114.2439708634
 22
751.1561466349
 32
0.0
 13
2114.2439708634
 23
751.1561466349
 33
0.0
  0
LINE
  5
6ED
330
6E8
100
AcDbEntity
  8
FORMAT
100
AcDbLine
 10
2192.1141540911
 20
793.1701466262
 30
0.0
 11
2103.6879708634
 21
793.1701466262
 31
0.0
  0
LINE
  5
6EE
330
6E8
100
AcDbEntity
  8
FORMAT
100
AcDbLine
 10
2234.8141540877
 20
774.2701466349
 30
0.0
 11
2103.6879708634
 21
774.2701466349
 31
0.0
  0
LINE
  5
6EF
330
6E8
100
AcDbEntity
  8
FORMAT
100
AcDbLine
 10
2110.6879708634
 20
793.1701466262
 30
0.0
 11
2110.6879708634
 21
837.6201466262
 31
0.0
  0
LINE
  5
6F0
330
6E8
100
AcDbEntity
  8
FORMAT
100
AcDbLine
 10
2110.6879708634
 20
793.1701466262
 30
0.0
 11
2110.6879708634
 21
774.2701466349
 31
0.0
  0
LINE
  5
6F1
330
6E8
100
AcDbEntity
  8
FORMAT
100
AcDbLine
 10
2110.6879708634
 20
774.2701466349
 30
0.0
 11
2110.6879708634
 21
670.7360712332
 31
0.0
  0
MTEXT
  5
6F2
330
6E8
100
AcDbEntity
  8
FORMAT
100
AcDbMText
 10
2079.1058096091
 20
670.7360712332
 30
0.0
 40
24.5
 41
0.0
 71
     1
 72
     1
  1
13,5
  7
SLDTEXTSTYLE0
 11
-7.044195017643634E-15
 21
1.0
 31
0.0
 73
     1
 44
1.0
  0
ENDBLK
  5
6EA
330
6E8
100
AcDbEntity
  8
0
100
AcDbBlockEnd
  0
BLOCK
  5
70F
330
70E
100
AcDbEntity
  8
0
100
AcDbBlockBegin
  2
_D_37
 70
     0
 10
0.0
 20
0.0
 30
0.0
  3
_D_37
  1

  0
SOLID
  5
711
330
70E
100
AcDbEntity
  8
FORMAT
100
AcDbTrace
 10
1796.814495715
 20
144.0863147424
 30
0.0
 11
1773.700495715
 21
147.6423147424
 31
0.0
 12
1773.700495715
 22
140.5303147424
 32
0.0
 13
1773.700495715
 23
140.5303147424
 33
0.0
  0
SOLID
  5
712
330
70E
100
AcDbEntity
  8
FORMAT
100
AcDbTrace
 10
1824.814495715
 20
144.0863147424
 30
0.0
 11
1847.928495715
 21
140.5303147424
 31
0.0
 12
1847.928495715
 22
147.6423147424
 32
0.0
 13
1847.928495715
 23
147.6423147424
 33
0.0
  0
LINE
  5
713
330
70E
100
AcDbEntity
  8
FORMAT
100
AcDbLine
 10
1796.814495715
 20
206.1701648892
 30
0.0
 11
1796.814495715
 21
137.0863147424
 31
0.0
  0
LINE
  5
714
330
70E
100
AcDbEntity
  8
FORMAT
100
AcDbLine
 10
1824.814495715
 20
220.1701648892
 30
0.0
 11
1824.814495715
 21
137.0863147424
 31
0.0
  0
LINE
  5
715
330
70E
100
AcDbEntity
  8
FORMAT
100
AcDbLine
 10
1796.814495715
 20
144.0863147424
 30
0.0
 11
1752.364495715
 21
144.0863147424
 31
0.0
  0
LINE
  5
716
330
70E
100
AcDbEntity
  8
FORMAT
100
AcDbLine
 10
1796.814495715
 20
144.0863147424
 30
0.0
 11
1824.814495715
 21
144.0863147424
 31
0.0
  0
LINE
  5
717
330
70E
100
AcDbEntity
  8
FORMAT
100
AcDbLine
 10
1824.814495715
 20
144.0863147424
 30
0.0
 11
1897.8347089519
 21
144.0863147424
 31
0.0
  0
MTEXT
  5
718
330
70E
100
AcDbEntity
  8
FORMAT
100
AcDbMText
 10
1860.4041543235
 20
175.6684759966
 30
0.0
 40
24.5
 41
0.0
 71
     1
 72
     1
  1
20
  7
SLDTEXTSTYLE0
 73
     1
 44
1.0
  0
ENDBLK
  5
710
330
70E
100
AcDbEntity
  8
0
100
AcDbBlockEnd
  0
BLOCK
  5
71B
330
71A
100
AcDbEntity
  8
0
100
AcDbBlockBegin
  2
_D_38
 70
     0
 10
0.0
 20
0.0
 30
0.0
  3
_D_38
  1

  0
SOLID
  5
71D
330
71A
100
AcDbEntity
  8
FORMAT
100
AcDbTrace
 10
1718.0995123494
 20
211.3501648892
 30
0.0
 11
1714.5435123494
 21
188.2361648892
 31
0.0
 12
1721.6555123494
 22
188.2361648892
 32
0.0
 13
1721.6555123494
 23
188.2361648892
 33
0.0
  0
SOLID
  5
71E
330
71A
100
AcDbEntity
  8
FORMAT
100
AcDbTrace
 10
1718.0995123494
 20
225.3501648892
 30
0.0
 11
1721.6555123494
 21
248.4641648892
 31
0.0
 12
1714.5435123494
 22
248.4641648892
 32
0.0
 13
1714.5435123494
 23
248.4641648892
 33
0.0
  0
LINE
  5
71F
330
71A
100
AcDbEntity
  8
FORMAT
100
AcDbLine
 10
1753.531571659
 20
211.3501648892
 30
0.0
 11
1711.0995123494
 21
211.3501648892
 31
0.0
  0
LINE
  5
720
330
71A
100
AcDbEntity
  8
FORMAT
100
AcDbLine
 10
1777.634495715
 20
225.3501648892
 30
0.0
 11
1711.0995123494
 21
225.3501648892
 31
0.0
  0
LINE
  5
721
330
71A
100
AcDbEntity
  8
FORMAT
100
AcDbLine
 10
1718.0995123494
 20
211.3501648892
 30
0.0
 11
1718.0995123494
 21
145.709023967
 31
0.0
  0
LINE
  5
722
330
71A
100
AcDbEntity
  8
FORMAT
100
AcDbLine
 10
1718.0995123494
 20
211.3501648892
 30
0.0
 11
1718.0995123494
 21
225.3501648892
 31
0.0
  0
LINE
  5
723
330
71A
100
AcDbEntity
  8
FORMAT
100
AcDbLine
 10
1718.0995123494
 20
225.3501648892
 30
0.0
 11
1718.0995123494
 21
269.8001648892
 31
0.0
  0
MTEXT
  5
724
330
71A
100
AcDbEntity
  8
FORMAT
100
AcDbMText
 10
1686.5173510952
 20
145.709023967
 30
0.0
 40
24.5
 41
0.0
 71
     1
 72
     1
  1
10
  7
SLDTEXTSTYLE0
 11
6.123233995736766E-17
 21
1.0
 31
0.0
 73
     1
 44
1.0
  0
ENDBLK
  5
71C
330
71A
100
AcDbEntity
  8
0
100
AcDbBlockEnd
  0
BLOCK
  5
727
330
726
100
AcDbEntity
  8
0
100
AcDbBlockBegin
  2
_D_39
 70
     0
 10
0.0
 20
0.0
 30
0.0
  3
_D_39
  1

  0
SOLID
  5
729
330
726
100
AcDbEntity
  8
FORMAT
100
AcDbTrace
 10
1677.2316714743
 20
225.3501648892
 30
0.0
 11
1673.6756714743
 21
202.2361648892
 31
0.0
 12
1680.7876714743
 22
202.2361648892
 32
0.0
 13
1680.7876714743
 23
202.2361648892
 33
0.0
  0
SOLID
  5
72A
330
726
100
AcDbEntity
  8
FORMAT
100
AcDbTrace
 10
1677.2316714743
 20
253.3501648892
 30
0.0
 11
1680.7876714743
 21
276.4641648892
 31
0.0
 12
1673.6756714743
 22
276.4641648892
 32
0.0
 13
1673.6756714743
 23
276.4641648892
 33
0.0
  0
LINE
  5
72B
330
726
100
AcDbEntity
  8
FORMAT
100
AcDbLine
 10
1777.634495715
 20
225.3501648892
 30
0.0
 11
1670.2316714743
 21
225.3501648892
 31
0.0
  0
LINE
  5
72C
330
726
100
AcDbEntity
  8
FORMAT
100
AcDbLine
 10
1777.634495715
 20
253.3501648892
 30
0.0
 11
1670.2316714743
 21
253.3501648892
 31
0.0
  0
LINE
  5
72D
330
726
100
AcDbEntity
  8
FORMAT
100
AcDbLine
 10
1677.2316714743
 20
225.3501648892
 30
0.0
 11
1677.2316714743
 21
145.709023967
 31
0.0
  0
LINE
  5
72E
330
726
100
AcDbEntity
  8
FORMAT
100
AcDbLine
 10
1677.2316714743
 20
225.3501648892
 30
0.0
 11
1677.2316714743
 21
253.3501648892
 31
0.0
  0
LINE
  5
72F
330
726
100
AcDbEntity
  8
FORMAT
100
AcDbLine
 10
1677.2316714743
 20
253.3501648892
 30
0.0
 11
1677.2316714743
 21
297.8001648892
 31
0.0
  0
MTEXT
  5
730
330
726
100
AcDbEntity
  8
FORMAT
100
AcDbMText
 10
1645.6495102201
 20
145.709023967
 30
0.0
 40
24.5
 41
0.0
 71
     1
 72
     1
  1
20
  7
SLDTEXTSTYLE0
 11
6.123233995736766E-17
 21
1.0
 31
0.0
 73
     1
 44
1.0
  0
ENDBLK
  5
728
330
726
100
AcDbEntity
  8
0
100
AcDbBlockEnd
  0
BLOCK
  5
733
330
732
100
AcDbEntity
  8
0
100
AcDbBlockBegin
  2
_D_40
 70
     0
 10
0.0
 20
0.0
 30
0.0
  3
_D_40
  1

  0
SOLID
  5
735
330
732
100
AcDbEntity
  8
FORMAT
100
AcDbTrace
 10
1951.4107541528
 20
225.3501648892
 30
0.0
 11
1947.8547541528
 21
202.2361648892
 31
0.0
 12
1954.9667541528
 22
202.2361648892
 32
0.0
 13
1954.9667541528
 23
202.2361648892
 33
0.0
  0
SOLID
  5
736
330
732
100
AcDbEntity
  8
FORMAT
100
AcDbTrace
 10
1951.4107541528
 20
239.3501648892
 30
0.0
 11
1954.9667541528
 21
262.4641648892
 31
0.0
 12
1947.8547541528
 22
262.4641648892
 32
0.0
 13
1947.8547541528
 23
262.4641648892
 33
0.0
  0
LINE
  5
737
330
732
100
AcDbEntity
  8
FORMAT
100
AcDbLine
 10
1815.994495715
 20
225.3501648892
 30
0.0
 11
1958.4107541528
 21
225.3501648892
 31
0.0
  0
LINE
  5
738
330
732
100
AcDbEntity
  8
FORMAT
100
AcDbLine
 10
1843.994495715
 20
239.3501648892
 30
0.0
 11
1958.4107541528
 21
239.3501648892
 31
0.0
  0
LINE
  5
739
330
732
100
AcDbEntity
  8
FORMAT
100
AcDbLine
 10
1951.4107541528
 20
225.3501648892
 30
0.0
 11
1951.4107541528
 21
142.8589866861
 31
0.0
  0
LINE
  5
73A
330
732
100
AcDbEntity
  8
FORMAT
100
AcDbLine
 10
1951.4107541528
 20
225.3501648892
 30
0.0
 11
1951.4107541528
 21
239.3501648892
 31
0.0
  0
LINE
  5
73B
330
732
100
AcDbEntity
  8
FORMAT
100
AcDbLine
 10
1951.4107541528
 20
239.3501648892
 30
0.0
 11
1951.4107541528
 21
283.8001648892
 31
0.0
  0
MTEXT
  5
73C
330
732
100
AcDbEntity
  8
FORMAT
100
AcDbMText
 10
1919.8285928986
 20
142.8589866861
 30
0.0
 40
24.5
 41
0.0
 71
     1
 72
     1
  1
10
  7
SLDTEXTSTYLE0
 11
6.123233995736766E-17
 21
1.0
 31
0.0
 73
     1
 44
1.0
  0
ENDBLK
  5
734
330
732
100
AcDbEntity
  8
0
100
AcDbBlockEnd
  0
BLOCK
  5
73F
330
73E
100
AcDbEntity
  8
0
100
AcDbBlockBegin
  2
SW_CENTERMARKSYMBOL_42
 70
     0
 10
0.0
 20
0.0
 30
0.0
  3
SW_CENTERMARKSYMBOL_42
  1

  0
LINE
  5
741
330
73E
100
AcDbEntity
  8
FORMAT
 62
     0
100
AcDbLine
 10
0.0
 20
0.0
 30
0.0
 11
0.0
 21
3.4999966621
 31
0.0
  0
LINE
  5
742
330
73E
100
AcDbEntity
  8
FORMAT
 62
     0
100
AcDbLine
 10
0.0
 20
0.0
 30
0.0
 11
-3.4999966621
 21
0.0
 31
0.0
  0
LINE
  5
743
330
73E
100
AcDbEntity
  8
FORMAT
 62
     0
100
AcDbLine
 10
0.0
 20
0.0
 30
0.0
 11
0.0
 21
-3.5000018775
 31
0.0
  0
LINE
  5
744
330
73E
100
AcDbEntity
  8
FORMAT
 62
     0
100
AcDbLine
 10
0.0
 20
0.0
 30
0.0
 11
3.5000175238
 21
0.0
 31
0.0
  0
LINE
  5
745
330
73E
100
AcDbEntity
  8
FORMAT
 62
     0
100
AcDbLine
 10
0.0
 20
6.9999933243
 30
0.0
 11
0.0
 21
12.1799975634
 31
0.0
  0
LINE
  5
746
330
73E
100
AcDbEntity
  8
FORMAT
 62
     0
100
AcDbLine
 10
-6.9999933243
 20
0.0
 30
0.0
 11
-12.1799975634
 21
0.0
 31
0.0
  0
LINE
  5
747
330
73E
100
AcDbEntity
  8
FORMAT
 62
     0
100
AcDbLine
 10
0.0
 20
-7.0000037551
 30
0.0
 11
0.0
 21
-12.1800027788
 31
0.0
  0
LINE
  5
748
330
73E
100
AcDbEntity
  8
FORMAT
 62
     0
100
AcDbLine
 10
7.0000141859
 20
0.0
 30
0.0
 11
12.180018425
 21
0.0
 31
0.0
  0
ENDBLK
  5
740
330
73E
100
AcDbEntity
  8
0
100
AcDbBlockEnd
  0
BLOCK
  5
74B
330
74A
100
AcDbEntity
  8
0
100
AcDbBlockBegin
  2
SW_CENTERMARKSYMBOL_43
 70
     0
 10
0.0
 20
0.0
 30
0.0
  3
SW_CENTERMARKSYMBOL_43
  1

  0
LINE
  5
74D
330
74A
100
AcDbEntity
  8
FORMAT
 62
     0
100
AcDbLine
 10
0.0
 20
0.0
 30
0.0
 11
0.0
 21
3.4999966621
 31
0.0
  0
LINE
  5
74E
330
74A
100
AcDbEntity
  8
FORMAT
 62
     0
100
AcDbLine
 10
0.0
 20
0.0
 30
0.0
 11
-3.4999966621
 21
0.0
 31
0.0
  0
LINE
  5
74F
330
74A
100
AcDbEntity
  8
FORMAT
 62
     0
100
AcDbLine
 10
0.0
 20
0.0
 30
0.0
 11
0.0
 21
-3.4999966621
 31
0.0
  0
LINE
  5
750
330
74A
100
AcDbEntity
  8
FORMAT
 62
     0
100
AcDbLine
 10
0.0
 20
0.0
 30
0.0
 11
3.4999966621
 21
0.0
 31
0.0
  0
LINE
  5
751
330
74A
100
AcDbEntity
  8
FORMAT
 62
     0
100
AcDbLine
 10
0.0
 20
7.0000037551
 30
0.0
 11
0.0
 21
12.1799975634
 31
0.0
  0
LINE
  5
752
330
74A
100
AcDbEntity
  8
FORMAT
 62
     0
100
AcDbLine
 10
-7.0000141859
 20
0.0
 30
0.0
 11
-12.1799975634
 21
0.0
 31
0.0
  0
LINE
  5
753
330
74A
100
AcDbEntity
  8
FORMAT
 62
     0
100
AcDbLine
 10
0.0
 20
-7.0000037551
 30
0.0
 11
0.0
 21
-12.1799975634
 31
0.0
  0
LINE
  5
754
330
74A
100
AcDbEntity
  8
FORMAT
 62
     0
100
AcDbLine
 10
6.9999933243
 20
0.0
 30
0.0
 11
12.1799975634
 21
0.0
 31
0.0
  0
ENDBLK
  5
74C
330
74A
100
AcDbEntity
  8
0
100
AcDbBlockEnd
  0
BLOCK
  5
757
330
756
100
AcDbEntity
  8
0
100
AcDbBlockBegin
  2
SW_CENTERMARKSYMBOL_44
 70
     0
 10
0.0
 20
0.0
 30
0.0
  3
SW_CENTERMARKSYMBOL_44
  1

  0
LINE
  5
759
330
756
100
AcDbEntity
  8
FORMAT
 62
     0
100
AcDbLine
 10
0.0
 20
0.0
 30
0.0
 11
0.0
 21
3.4999966621
 31
0.0
  0
LINE
  5
75A
330
756
100
AcDbEntity
  8
FORMAT
 62
     0
100
AcDbLine
 10
0.0
 20
0.0
 30
0.0
 11
-3.4999966621
 21
0.0
 31
0.0
  0
LINE
  5
75B
330
756
100
AcDbEntity
  8
FORMAT
 62
     0
100
AcDbLine
 10
0.0
 20
0.0
 30
0.0
 11
0.0
 21
-3.4999966621
 31
0.0
  0
LINE
  5
75C
330
756
100
AcDbEntity
  8
FORMAT
 62
     0
100
AcDbLine
 10
0.0
 20
0.0
 30
0.0
 11
3.5000175238
 21
0.0
 31
0.0
  0
LINE
  5
75D
330
756
100
AcDbEntity
  8
FORMAT
 62
     0
100
AcDbLine
 10
0.0
 20
7.0000037551
 30
0.0
 11
0.0
 21
12.1799975634
 31
0.0
  0
LINE
  5
75E
330
756
100
AcDbEntity
  8
FORMAT
 62
     0
100
AcDbLine
 10
-6.9999933243
 20
0.0
 30
0.0
 11
-12.1799975634
 21
0.0
 31
0.0
  0
LINE
  5
75F
330
756
100
AcDbEntity
  8
FORMAT
 62
     0
100
AcDbLine
 10
0.0
 20
-6.9999933243
 30
0.0
 11
0.0
 21
-12.1799975634
 31
0.0
  0
LINE
  5
760
330
756
100
AcDbEntity
  8
FORMAT
 62
     0
100
AcDbLine
 10
7.0000141859
 20
0.0
 30
0.0
 11
12.180018425
 21
0.0
 31
0.0
  0
ENDBLK
  5
758
330
756
100
AcDbEntity
  8
0
100
AcDbBlockEnd
  0
BLOCK
  5
763
330
762
100
AcDbEntity
  8
0
100
AcDbBlockBegin
  2
SW_CENTERMARKSYMBOL_45
 70
     0
 10
0.0
 20
0.0
 30
0.0
  3
SW_CENTERMARKSYMBOL_45
  1

  0
LINE
  5
765
330
762
100
AcDbEntity
  8
FORMAT
 62
     0
100
AcDbLine
 10
0.0
 20
0.0
 30
0.0
 11
0.0
 21
3.500007093
 31
0.0
  0
LINE
  5
766
330
762
100
AcDbEntity
  8
FORMAT
 62
     0
100
AcDbLine
 10
0.0
 20
0.0
 30
0.0
 11
-3.4999966621
 21
0.0
 31
0.0
  0
LINE
  5
767
330
762
100
AcDbEntity
  8
FORMAT
 62
     0
100
AcDbLine
 10
0.0
 20
0.0
 30
0.0
 11
0.0
 21
-3.4999966621
 31
0.0
  0
LINE
  5
768
330
762
100
AcDbEntity
  8
FORMAT
 62
     0
100
AcDbLine
 10
0.0
 20
0.0
 30
0.0
 11
3.4999966621
 21
0.0
 31
0.0
  0
LINE
  5
769
330
762
100
AcDbEntity
  8
FORMAT
 62
     0
100
AcDbLine
 10
0.0
 20
7.0000037551
 30
0.0
 11
0.0
 21
12.1800079942
 31
0.0
  0
LINE
  5
76A
330
762
100
AcDbEntity
  8
FORMAT
 62
     0
100
AcDbLine
 10
-7.0000141859
 20
0.0
 30
0.0
 11
-12.1799975634
 21
0.0
 31
0.0
  0
LINE
  5
76B
330
762
100
AcDbEntity
  8
FORMAT
 62
     0
100
AcDbLine
 10
0.0
 20
-6.9999933243
 30
0.0
 11
0.0
 21
-12.1799975634
 31
0.0
  0
LINE
  5
76C
330
762
100
AcDbEntity
  8
FORMAT
 62
     0
100
AcDbLine
 10
6.9999933243
 20
0.0
 30
0.0
 11
12.1799975634
 21
0.0
 31
0.0
  0
ENDBLK
  5
764
330
762
100
AcDbEntity
  8
0
100
AcDbBlockEnd
  0
BLOCK
  5
76F
330
76E
100
AcDbEntity
  8
0
100
AcDbBlockBegin
  2
SW_CENTERMARKSYMBOL_46
 70
     0
 10
0.0
 20
0.0
 30
0.0
  3
SW_CENTERMARKSYMBOL_46
  1

  0
LINE
  5
771
330
76E
100
AcDbEntity
  8
FORMAT
 62
     0
100
AcDbLine
 10
0.0
 20
0.0
 30
0.0
 11
0.0
 21
3.4999966621
 31
0.0
  0
LINE
  5
772
330
76E
100
AcDbEntity
  8
FORMAT
 62
     0
100
AcDbLine
 10
0.0
 20
0.0
 30
0.0
 11
-3.4999966621
 21
0.0
 31
0.0
  0
LINE
  5
773
330
76E
100
AcDbEntity
  8
FORMAT
 62
     0
100
AcDbLine
 10
0.0
 20
0.0
 30
0.0
 11
0.0
 21
-3.500007093
 31
0.0
  0
LINE
  5
774
330
76E
100
AcDbEntity
  8
FORMAT
 62
     0
100
AcDbLine
 10
0.0
 20
0.0
 30
0.0
 11
3.5000175238
 21
0.0
 31
0.0
  0
LINE
  5
775
330
76E
100
AcDbEntity
  8
FORMAT
 62
     0
100
AcDbLine
 10
0.0
 20
6.9999933243
 30
0.0
 11
0.0
 21
12.1799975634
 31
0.0
  0
LINE
  5
776
330
76E
100
AcDbEntity
  8
FORMAT
 62
     0
100
AcDbLine
 10
-6.9999933243
 20
0.0
 30
0.0
 11
-12.1799975634
 21
0.0
 31
0.0
  0
LINE
  5
777
330
76E
100
AcDbEntity
  8
FORMAT
 62
     0
100
AcDbLine
 10
0.0
 20
-7.0000037551
 30
0.0
 11
0.0
 21
-12.1800079942
 31
0.0
  0
LINE
  5
778
330
76E
100
AcDbEntity
  8
FORMAT
 62
     0
100
AcDbLine
 10
7.0000141859
 20
0.0
 30
0.0
 11
12.180018425
 21
0.0
 31
0.0
  0
ENDBLK
  5
770
330
76E
100
AcDbEntity
  8
0
100
AcDbBlockEnd
  0
BLOCK
  5
77B
330
77A
100
AcDbEntity
  8
0
100
AcDbBlockBegin
  2
SW_CENTERMARKSYMBOL_47
 70
     0
 10
0.0
 20
0.0
 30
0.0
  3
SW_CENTERMARKSYMBOL_47
  1

  0
LINE
  5
77D
330
77A
100
AcDbEntity
  8
FORMAT
 62
     0
100
AcDbLine
 10
0.0
 20
0.0
 30
0.0
 11
0.0
 21
3.4999966621
 31
0.0
  0
LINE
  5
77E
330
77A
100
AcDbEntity
  8
FORMAT
 62
     0
100
AcDbLine
 10
0.0
 20
0.0
 30
0.0
 11
-3.4999966621
 21
0.0
 31
0.0
  0
LINE
  5
77F
330
77A
100
AcDbEntity
  8
FORMAT
 62
     0
100
AcDbLine
 10
0.0
 20
0.0
 30
0.0
 11
0.0
 21
-3.4999966621
 31
0.0
  0
LINE
  5
780
330
77A
100
AcDbEntity
  8
FORMAT
 62
     0
100
AcDbLine
 10
0.0
 20
0.0
 30
0.0
 11
3.4999966621
 21
0.0
 31
0.0
  0
LINE
  5
781
330
77A
100
AcDbEntity
  8
FORMAT
 62
     0
100
AcDbLine
 10
0.0
 20
7.0000037551
 30
0.0
 11
0.0
 21
12.1799975634
 31
0.0
  0
LINE
  5
782
330
77A
100
AcDbEntity
  8
FORMAT
 62
     0
100
AcDbLine
 10
-7.0000141859
 20
0.0
 30
0.0
 11
-12.1799975634
 21
0.0
 31
0.0
  0
LINE
  5
783
330
77A
100
AcDbEntity
  8
FORMAT
 62
     0
100
AcDbLine
 10
0.0
 20
-7.0000037551
 30
0.0
 11
0.0
 21
-12.1799975634
 31
0.0
  0
LINE
  5
784
330
77A
100
AcDbEntity
  8
FORMAT
 62
     0
100
AcDbLine
 10
6.9999933243
 20
0.0
 30
0.0
 11
12.1799975634
 21
0.0
 31
0.0
  0
ENDBLK
  5
77C
330
77A
100
AcDbEntity
  8
0
100
AcDbBlockEnd
  0
BLOCK
  5
787
330
786
100
AcDbEntity
  8
0
100
AcDbBlockBegin
  2
SW_CENTERMARKSYMBOL_48
 70
     0
 10
0.0
 20
0.0
 30
0.0
  3
SW_CENTERMARKSYMBOL_48
  1

  0
LINE
  5
789
330
786
100
AcDbEntity
  8
FORMAT
 62
     0
100
AcDbLine
 10
0.0
 20
0.0
 30
0.0
 11
0.0
 21
3.4999966621
 31
0.0
  0
LINE
  5
78A
330
786
100
AcDbEntity
  8
FORMAT
 62
     0
100
AcDbLine
 10
0.0
 20
0.0
 30
0.0
 11
-3.4999966621
 21
0.0
 31
0.0
  0
LINE
  5
78B
330
786
100
AcDbEntity
  8
FORMAT
 62
     0
100
AcDbLine
 10
0.0
 20
0.0
 30
0.0
 11
0.0
 21
-3.4999966621
 31
0.0
  0
LINE
  5
78C
330
786
100
AcDbEntity
  8
FORMAT
 62
     0
100
AcDbLine
 10
0.0
 20
0.0
 30
0.0
 11
3.5000175238
 21
0.0
 31
0.0
  0
LINE
  5
78D
330
786
100
AcDbEntity
  8
FORMAT
 62
     0
100
AcDbLine
 10
0.0
 20
6.9999933243
 30
0.0
 11
0.0
 21
12.1799975634
 31
0.0
  0
LINE
  5
78E
330
786
100
AcDbEntity
  8
FORMAT
 62
     0
100
AcDbLine
 10
-6.9999933243
 20
0.0
 30
0.0
 11
-12.1799975634
 21
0.0
 31
0.0
  0
LINE
  5
78F
330
786
100
AcDbEntity
  8
FORMAT
 62
     0
100
AcDbLine
 10
0.0
 20
-6.9999933243
 30
0.0
 11
0.0
 21
-12.1799975634
 31
0.0
  0
LINE
  5
790
330
786
100
AcDbEntity
  8
FORMAT
 62
     0
100
AcDbLine
 10
7.0000141859
 20
0.0
 30
0.0
 11
12.180018425
 21
0.0
 31
0.0
  0
ENDBLK
  5
788
330
786
100
AcDbEntity
  8
0
100
AcDbBlockEnd
  0
BLOCK
  5
793
330
792
100
AcDbEntity
  8
0
100
AcDbBlockBegin
  2
SW_CENTERMARKSYMBOL_49
 70
     0
 10
0.0
 20
0.0
 30
0.0
  3
SW_CENTERMARKSYMBOL_49
  1

  0
LINE
  5
795
330
792
100
AcDbEntity
  8
FORMAT
 62
     0
100
AcDbLine
 10
0.0
 20
0.0
 30
0.0
 11
0.0
 21
3.4999966621
 31
0.0
  0
LINE
  5
796
330
792
100
AcDbEntity
  8
FORMAT
 62
     0
100
AcDbLine
 10
0.0
 20
0.0
 30
0.0
 11
-3.4999966621
 21
0.0
 31
0.0
  0
LINE
  5
797
330
792
100
AcDbEntity
  8
FORMAT
 62
     0
100
AcDbLine
 10
0.0
 20
0.0
 30
0.0
 11
0.0
 21
-3.4999966621
 31
0.0
  0
LINE
  5
798
330
792
100
AcDbEntity
  8
FORMAT
 62
     0
100
AcDbLine
 10
0.0
 20
0.0
 30
0.0
 11
3.4999966621
 21
0.0
 31
0.0
  0
LINE
  5
799
330
792
100
AcDbEntity
  8
FORMAT
 62
     0
100
AcDbLine
 10
0.0
 20
6.9999933243
 30
0.0
 11
0.0
 21
12.1799975634
 31
0.0
  0
LINE
  5
79A
330
792
100
AcDbEntity
  8
FORMAT
 62
     0
100
AcDbLine
 10
-7.0000141859
 20
0.0
 30
0.0
 11
-12.1799975634
 21
0.0
 31
0.0
  0
LINE
  5
79B
330
792
100
AcDbEntity
  8
FORMAT
 62
     0
100
AcDbLine
 10
0.0
 20
-7.0000141859
 30
0.0
 11
0.0
 21
-12.1799975634
 31
0.0
  0
LINE
  5
79C
330
792
100
AcDbEntity
  8
FORMAT
 62
     0
100
AcDbLine
 10
6.9999933243
 20
0.0
 30
0.0
 11
12.1799975634
 21
0.0
 31
0.0
  0
ENDBLK
  5
794
330
792
100
AcDbEntity
  8
0
100
AcDbBlockEnd
  0
ENDSEC
  0
SECTION
  2
ENTITIES
  0
LINE
  5
CA
330
1F
100
AcDbEntity
  8
FORMAT
  6
Continuous
 62
     7
370
    18
100
AcDbLine
 10
2648.7467156628
 20
249.0548071362
 30
0.0
 11
2121.8704816337
 21
249.0548071362
 31
0.0
  0
LINE
  5
CB
330
1F
100
AcDbEntity
  8
FORMAT
  6
Continuous
 62
     7
370
    18
100
AcDbLine
 10
2648.7467156628
 20
341.1944719343
 30
0.0
 11
2869.6070185003
 21
341.1944719343
 31
0.0
  0
LINE
  5
CC
330
1F
100
AcDbEntity
  8
0
  6
Continuous
 62
     7
370
    18
100
AcDbLine
 10
2552.9704263625
 20
249.0548071362
 30
0.0
 11
2552.9704263625
 21
181.3583509723
 31
0.0
  0
LINE
  5
CD
330
1F
100
AcDbEntity
  8
FORMAT
100
AcDbLine
 10
2869.6070185003
 20
2009.0
 30
0.0
 11
69.6070185003
 21
2009.0
 31
0.0
  0
LINE
  5
CE
330
1F
100
AcDbEntity
  8
FORMAT
100
AcDbLine
 10
69.6070185003
 20
2009.0
 30
0.0
 11
69.6070185003
 21
70.0
 31
0.0
  0
LINE
  5
CF
330
1F
100
AcDbEntity
  8
BEMASSUNG
  6
Continuous
 62
     7
370
    18
100
AcDbLine
 10
2648.7467156628
 20
283.9466531596
 30
0.0
 11
2869.6070185003
 21
283.9466531596
 31
0.0
  0
LINE
  5
D0
330
1F
100
AcDbEntity
  8
FORMAT
100
AcDbLine
 10
69.6070185003
 20
70.0
 30
0.0
 11
2869.6070185003
 21
70.0
 31
0.0
  0
LINE
  5
D1
330
1F
100
AcDbEntity
  8
FORMAT
100
AcDbLine
 10
2869.6070185003
 20
70.0
 30
0.0
 11
2869.6070185003
 21
2009.0
 31
0.0
  0
LINE
  5
D2
330
1F
100
AcDbEntity
  8
0
  6
Continuous
 62
     7
370
    18
100
AcDbLine
 10
2121.8704816337
 20
368.7467824209
 30
0.0
 11
2121.8704816337
 21
70.0000160588
 31
0.0
  0
LINE
  5
D3
330
1F
100
AcDbEntity
  8
0
  6
Continuous
 62
     7
370
    18
100
AcDbLine
 10
2766.39523512
 20
70.0
 30
0.0
 11
2766.39523512
 21
135.4292810523
 31
0.0
  0
LINE
  5
D4
330
1F
100
AcDbEntity
  8
0
  6
Continuous
 62
     7
370
    18
100
AcDbLine
 10
2121.8704816337
 20
181.3583509723
 30
0.0
 11
2869.6070185003
 21
181.3583509723
 31
0.0
  0
LINE
  5
D5
330
1F
100
AcDbEntity
  8
0
  6
Continuous
 62
     7
370
    18
100
AcDbLine
 10
2648.7467156628
 20
135.4292810523
 30
0.0
 11
2869.6070185003
 21
135.4292810523
 31
0.0
  0
LINE
  5
D6
330
1F
100
AcDbEntity
  8
0
  6
Continuous
 62
     7
370
    18
100
AcDbLine
 10
2121.8704816337
 20
368.7467824209
 30
0.0
 11
2869.7006917056
 21
368.7467824209
 31
0.0
  0
LINE
  5
D7
330
1F
100
AcDbEntity
  8
0
  6
Continuous
 62
     7
370
    18
100
AcDbLine
 10
2648.7467156628
 20
70.0
 30
0.0
 11
2648.7467156628
 21
368.7467824209
 31
0.0
  0
INSERT
  5
D8
330
1F
100
AcDbEntity
  8
0
  6
Continuous
 62
     7
100
AcDbBlockReference
  2
Block2_3_1
 10
509.1807851128
 20
-261.5944962483
 30
0.0
  0
INSERT
  5
D9
330
1F
100
AcDbEntity
  8
0
  6
Continuous
 62
     7
100
AcDbBlockReference
  2
Block1_3_1
 10
2700.6135347481
 20
189.6696797211
 30
0.0
  0
INSERT
  5
DA
330
1F
100
AcDbEntity
  8
FORMAT
100
AcDbBlockReference
  2
rechtlicher_Hinweis_Katalogzeichnungen_1
 10
86.2294908427
 20
31.5549972483
 30
0.0
 41
0.5
 42
0.5
 43
0.5
  0
INSERT
  5
E1
330
1F
100
AcDbEntity
  8
FORMAT
100
AcDbBlockReference
  2
SW_NOTE_0_4
 10
89.8139872164
 20
365.2600119024
 30
0.0
  0
MTEXT
  5
E2
330
1F
100
AcDbEntity
  8
FORMAT
100
AcDbMText
 10
2135.1554825866
 20
598.1788377362
 30
0.0
 40
18.5208333333
 41
0.0
 71
     1
 72
     1
  1
*Abstand Oberkante Hebel zu Unterkante Türrahmen
  7
SLDTEXTSTYLE0
 73
     1
 44
1.0
  0
MTEXT
  5
E3
330
1F
100
AcDbEntity
  8
FORMAT
100
AcDbMText
 10
2256.1598038642
 20
1901.5211845299
 30
0.0
 40
18.5208333333
 41
0.0
 71
     1
 72
     1
  1
***
  7
SLDTEXTSTYLE0
 73
     1
 44
1.0
  0
MTEXT
  5
E4
330
1F
100
AcDbEntity
  8
FORMAT
100
AcDbMText
 10
2187.2076895384
 20
1251.4460743589
 30
0.0
 40
18.5208333333
 41
0.0
 71
     1
 72
     1
  1
*** Sturztiefe
  7
SLDTEXTSTYLE0
 73
     1
 44
1.0
  0
INSERT
  5
EB
330
1F
100
AcDbEntity
  8
FORMAT
100
AcDbBlockReference
  2
SW_NOTE_0_5
 10
2122.4677000819
 20
443.243240466
 30
0.0
  0
MTEXT
  5
EC
330
1F
100
AcDbEntity
  8
0
  6
Continuous
 62
     7
370
     0
100
AcDbMText
 10
2655.2495495755
 20
165.0094332157
 30
0.0
 40
14.0
 41
0.0
 71
     1
 72
     1
  1
Maßstab:
  7
SLDTEXTSTYLE0
 73
     1
 44
1.0
  0
MTEXT
  5
ED
330
1F
100
AcDbEntity
  8
0
  6
Continuous
 62
     7
370
     0
100
AcDbMText
 10
2785.9502817651
 20
125.2286542559
 30
0.0
 40
14.0
 41
0.0
 71
     1
 72
     1
  1
Format
  7
SLDTEXTSTYLE0
 73
     1
 44
1.0
  0
MTEXT
  5
EE
330
1F
100
AcDbEntity
  8
0
  6
Continuous
 62
     7
370
     0
100
AcDbMText
 10
2135.8123898948
 20
356.9818853041
 30
0.0
 40
14.0
 41
0.0
 71
     1
 72
     1
  1
Benennung:
  7
SLDTEXTSTYLE0
 73
     1
 44
1.0
  0
MTEXT
  5
EF
330
1F
100
AcDbEntity
  8
0
  6
Continuous
 62
     7
370
     0
100
AcDbMText
 10
2664.5005395913
 20
125.2286542559
 30
0.0
 40
14.0
 41
0.0
 71
     1
 72
     1
  1
Blatt / von
  7
SLDTEXTSTYLE0
 73
     1
 44
1.0
  0
MTEXT
  5
F0
330
1F
100
AcDbEntity
  8
0
  6
Continuous
 62
     7
370
     0
100
AcDbMText
 10
2706.4725907482
 20
100.6974422258
 30
0.0
 40
17.5
 41
0.0
 71
     2
 72
     1
  1
/
  7
SLDTEXTSTYLE0
 73
     1
 44
1.0
  0
MTEXT
  5
F2
330
1F
100
AcDbEntity
  8
0
  6
Continuous
 62
     7
370
     0
100
AcDbMText
 10
2134.2541581219
 20
214.7882486886
 30
0.0
 40
22.225
 41
0.0
 71
     1
 72
     1
  1
D052-49353
  7
SLDTEXTSTYLE3
 73
     1
 44
1.0
  0
MTEXT
  5
F3
330
1F
100
AcDbEntity
  8
0
  6
Continuous
 62
     7
370
     0
100
AcDbMText
 10
2752.495267605
 20
165.9085614452
 30
0.0
 40
14.8166666667
 41
0.0
 71
     1
 72
     1
  1
1:7
  7
SLDTEXTSTYLE0
 73
     1
 44
1.0
  0
MTEXT
  5
F4
330
1F
100
AcDbEntity
  8
0
  6
Continuous
 62
     7
370
     0
100
AcDbMText
 10
2803.7489693293
 20
99.2074950551
 30
0.0
 40
14.8166666667
 41
0.0
 71
     1
 72
     1
  1
A3
  7
SLDTEXTSTYLE0
 73
     1
 44
1.0
  0
MTEXT
  5
F5
330
1F
100
AcDbEntity
  8
0
  6
Continuous
 62
     7
370
     0
100
AcDbMText
 10
2680.0334055091
 20
99.9642475618
 30
0.0
 40
14.8166666667
 41
0.0
 71
     1
 72
     1
  1
1
  7
SLDTEXTSTYLE0
 73
     1
 44
1.0
  0
MTEXT
  5
F6
330
1F
100
AcDbEntity
  8
0
  6
Continuous
 62
     7
370
     0
100
AcDbMText
 10
2722.5410575592
 20
99.9642475618
 30
0.0
 40
14.8166666667
 41
0.0
 71
     1
 72
     1
  1
1
  7
SLDTEXTSTYLE0
 73
     1
 44
1.0
  0
MTEXT
  5
F7
330
1F
100
AcDbEntity
  8
FORMAT
100
AcDbMText
 10
2137.971220638
 20
240.9301481691
 30
0.0
 40
14.0
 41
0.0
 71
     1
 72
     1
  1
Zeichnungsnummer:
  7
SLDTEXTSTYLE0
 73
     1
 44
1.0
  0
MTEXT
  5
F8
330
1F
100
AcDbEntity
  8
FORMAT
100
AcDbMText
 10
2666.6233339517
 20
361.2067203863
 30
0.0
 40
12.6
 41
0.0
 71
     1
 72
     1
  1
KATALOGZEICHNUNG
  7
SLDTEXTSTYLE3
 73
     1
 44
1.0
  0
MTEXT
  5
F9
330
1F
100
AcDbEntity
  8
FORMAT
100
AcDbMText
 10
2573.4610565193
 20
241.0417881835
 30
0.0
 40
14.0
 41
0.0
 71
     1
 72
     1
  1
Index:
  7
SLDTEXTSTYLE0
 73
     1
 44
1.0
  0
MTEXT
  5
FA
330
1F
100
AcDbEntity
  8
BEMASSUNG
 62
     7
100
AcDbMText
 10
2654.3752871088
 20
335.5547520888
 30
0.0
 40
14.0
 41
0.0
 71
     1
 72
     1
  1
Ausführung:
  7
SLDTEXTSTYLE0
 73
     1
 44
1.0
  0
MTEXT
  5
FB
330
1F
100
AcDbEntity
  8
FORMAT
100
AcDbMText
 10
2592.6394653786
 20
211.4361979484
 30
0.0
 40
17.5
 41
0.0
 71
     1
 72
     1
  1
a
  7
SLDTEXTSTYLE3
 73
     1
 44
1.0
  0
MTEXT
  5
FC
330
1F
100
AcDbEntity
  8
FORMAT
100
AcDbMText
 10
2134.4508235056
 20
277.1473496808
 30
0.0
 40
17.5
 41
0.0
 71
     1
 72
     1
  1
Bandgegenseite DIN Rechts
  7
SLDTEXTSTYLE3
 73
     1
 44
1.0
  0
MTEXT
  5
FD
330
1F
100
AcDbEntity
  8
FORMAT
100
AcDbMText
 10
2134.4508235056
 20
333.2914097385
 30
0.0
 40
24.5
 41
0.0
 71
     1
 72
     1
  1
ETS 64-R (GSD - GB 18 - AV 0)
  7
SLDTEXTSTYLE3
 73
     1
 44
1.0
  0
LINE
  5
FE
330
1F
100
AcDbEntity
  8
0
  6
Continuous
 62
     7
370
    25
100
AcDbLine
 10
1188.4800871113
 20
1620.3501293706
 30
0.0
 11
1188.4800871113
 21
1618.3501293748
 31
0.0
  0
LINE
  5
FF
330
1F
100
AcDbEntity
  8
0
  6
Continuous
 62
     7
370
    25
100
AcDbLine
 10
1202.4800871113
 20
1618.3501293748
 30
0.0
 11
1202.4800871113
 21
1620.3501293706
 31
0.0
  0
LINE
  5
100
330
1F
100
AcDbEntity
  8
0
  6
Continuous
 62
     7
370
    25
100
AcDbLine
 10
1200.4800871113
 20
1620.3501293706
 30
0.0
 11
1200.4800871113
 21
1620.8501293705
 31
0.0
  0
LINE
  5
101
330
1F
100
AcDbEntity
  8
0
  6
Continuous
 62
     7
370
    25
100
AcDbLine
 10
1190.4800871113
 20
1620.8501293705
 30
0.0
 11
1190.4800871113
 21
1620.3501293706
 31
0.0
  0
ARC
  5
102
330
1F
100
AcDbEntity
  8
0
  6
Continuous
 62
     7
370
    25
100
AcDbCircle
 10
817.5262545773
 20
1630.8501293707
 30
0.0
 40
3.0
100
AcDbArc
 50
179.9999999999
 51
270.0
  0
LINE
  5
103
330
1F
100
AcDbEntity
  8
0
  6
Continuous
 62
     7
370
    25
100
AcDbLine
 10
784.5262545774
 20
1633.3501293705
 30
0.0
 11
784.5262545774
 21
1621.8501293707
 31
0.0
  0
LINE
  5
104
330
1F
100
AcDbEntity
  8
0
  6
Continuous
 62
     7
370
    25
100
AcDbLine
 10
814.5262545773
 20
1630.8501293707
 30
0.0
 11
814.5262545773
 21
1633.3501293705
 31
0.0
  0
LINE
  5
105
330
1F
100
AcDbEntity
  8
0
  6
Continuous
 62
     7
370
    25
100
AcDbLine
 10
784.5262545774
 20
1621.8501293707
 30
0.0
 11
785.5262545774
 21
1620.8501293707
 31
0.0
  0
LINE
  5
106
330
1F
100
AcDbEntity
  8
0
  6
Continuous
 62
     7
370
    25
100
AcDbLine
 10
1206.4800871113
 20
1626.8501293705
 30
0.0
 11
1205.4800871113
 21
1627.8501293705
 31
0.0
  0
LINE
  5
107
330
1F
100
AcDbEntity
  8
0
  6
Continuous
 62
     7
370
    25
100
AcDbLine
 10
1205.4800871113
 20
1620.8501293705
 30
0.0
 11
1206.4800871113
 21
1621.8501293705
 31
0.0
  0
LINE
  5
108
330
1F
100
AcDbEntity
  8
0
  6
Continuous
 62
     7
370
    25
100
AcDbLine
 10
1206.4800871113
 20
1621.8501293705
 30
0.0
 11
1206.4800871113
 21
1626.8501293705
 31
0.0
  0
LINE
  5
109
330
1F
100
AcDbEntity
  8
0
  6
Continuous
 62
     7
370
    25
100
AcDbLine
 10
776.5262545773
 20
1729.3501293705
 30
0.0
 11
776.5262545773
 21
1728.3501293705
 31
0.0
  0
LINE
  5
10A
330
1F
100
AcDbEntity
  8
0
  6
Continuous
 62
     7
370
    25
100
AcDbLine
 10
776.5262545773
 20
1729.3501293705
 30
0.0
 11
822.5262545773
 21
1729.3501293705
 31
0.0
  0
LINE
  5
10B
330
1F
100
AcDbEntity
  8
0
  6
Continuous
 62
     7
370
    25
100
AcDbLine
 10
822.5262545773
 20
1729.3501293705
 30
0.0
 11
822.5262545773
 21
1728.3501293705
 31
0.0
  0
LINE
  5
10C
330
1F
100
AcDbEntity
  8
0
  6
Continuous
 62
     7
370
    25
100
AcDbLine
 10
819.2999745106
 20
1633.3501293705
 30
0.0
 11
819.2999745106
 21
1632.3501293705
 31
0.0
  0
LINE
  5
10D
330
1F
100
AcDbEntity
  8
0
  6
Continuous
 62
     7
370
    25
100
AcDbLine
 10
822.5262545773
 20
1632.3501293705
 30
0.0
 11
822.5262545773
 21
1633.3501293705
 31
0.0
  0
LINE
  5
10E
330
1F
100
AcDbEntity
  8
0
  6
Continuous
 62
     7
370
    25
100
AcDbLine
 10
822.5262545773
 20
1632.3501293705
 30
0.0
 11
819.2999745106
 21
1632.3501293705
 31
0.0
  0
LINE
  5
10F
330
1F
100
AcDbEntity
  8
0
  6
Continuous
 62
     7
370
    25
100
AcDbLine
 10
776.5262545773
 20
1633.3501293705
 30
0.0
 11
776.5262545773
 21
1632.3501293705
 31
0.0
  0
LINE
  5
110
330
1F
100
AcDbEntity
  8
0
  6
Continuous
 62
     7
370
    25
100
AcDbLine
 10
779.752534644
 20
1632.3501293705
 30
0.0
 11
779.752534644
 21
1633.3501293705
 31
0.0
  0
LINE
  5
111
330
1F
100
AcDbEntity
  8
0
  6
Continuous
 62
     7
370
    25
100
AcDbLine
 10
779.752534644
 20
1632.3501293705
 30
0.0
 11
776.5262545773
 21
1632.3501293705
 31
0.0
  0
LINE
  5
112
330
1F
100
AcDbEntity
  8
0
  6
Continuous
 62
     7
370
    25
100
AcDbLine
 10
819.2999745106
 20
1632.3501293705
 30
0.0
 11
814.5262545773
 21
1632.3501293705
 31
0.0
  0
LINE
  5
113
330
1F
100
AcDbEntity
  8
0
  6
Continuous
 62
     7
370
    25
100
AcDbLine
 10
784.5262545774
 20
1632.3501293705
 30
0.0
 11
779.752534644
 21
1632.3501293705
 31
0.0
  0
LINE
  5
114
330
1F
100
AcDbEntity
  8
0
  6
Continuous
 62
     7
370
    25
100
AcDbLine
 10
1199.5262545773
 20
1638.3501293705
 30
0.0
 11
1201.5262545773
 21
1638.3501293705
 31
0.0
  0
LINE
  5
115
330
1F
100
AcDbEntity
  8
0
  6
Continuous
 62
     7
370
    25
100
AcDbLine
 10
1199.5262545773
 20
1723.3501293705
 30
0.0
 11
1201.5262545773
 21
1723.3501293705
 31
0.0
  0
LINE
  5
116
330
1F
100
AcDbEntity
  8
0
  6
Continuous
 62
     7
370
    25
100
AcDbLine
 10
1199.5262545773
 20
1638.3501293705
 30
0.0
 11
1199.5262545773
 21
1723.3501293705
 31
0.0
  0
LINE
  5
117
330
1F
100
AcDbEntity
  8
0
  6
Continuous
 62
     7
370
    25
100
AcDbLine
 10
1201.5262545773
 20
1638.3501293705
 30
0.0
 11
1201.5262545773
 21
1723.3501293705
 31
0.0
  0
LINE
  5
118
330
1F
100
AcDbEntity
  8
0
  6
Continuous
 62
     7
370
    25
100
AcDbLine
 10
1199.5262545773
 20
1728.3501293705
 30
0.0
 11
1201.5262545773
 21
1728.3501293705
 31
0.0
  0
LINE
  5
119
330
1F
100
AcDbEntity
  8
0
  6
Continuous
 62
     7
370
    25
100
AcDbLine
 10
1199.5262545773
 20
1723.3501293705
 30
0.0
 11
1199.5262545773
 21
1728.3501293705
 31
0.0
  0
LINE
  5
11A
330
1F
100
AcDbEntity
  8
0
  6
Continuous
 62
     7
370
    25
100
AcDbLine
 10
1201.5262545773
 20
1723.3501293705
 30
0.0
 11
1201.5262545773
 21
1728.3501293705
 31
0.0
  0
LINE
  5
11B
330
1F
100
AcDbEntity
  8
0
  6
Continuous
 62
     7
370
    25
100
AcDbLine
 10
1199.5262545773
 20
1633.3501293705
 30
0.0
 11
1201.5262545773
 21
1633.3501293705
 31
0.0
  0
LINE
  5
11C
330
1F
100
AcDbEntity
  8
0
  6
Continuous
 62
     7
370
    25
100
AcDbLine
 10
1199.5262545773
 20
1633.3501293705
 30
0.0
 11
1199.5262545773
 21
1638.3501293705
 31
0.0
  0
LINE
  5
11D
330
1F
100
AcDbEntity
  8
0
  6
Continuous
 62
     7
370
    25
100
AcDbLine
 10
1201.5262545773
 20
1633.3501293705
 30
0.0
 11
1201.5262545773
 21
1638.3501293705
 31
0.0
  0
LINE
  5
11E
330
1F
100
AcDbEntity
  8
0
  6
Continuous
 62
     7
370
    25
100
AcDbLine
 10
1206.0262545773
 20
1723.3501293705
 30
0.0
 11
1206.0262545773
 21
1638.3501293658
 31
0.0
  0
LINE
  5
11F
330
1F
100
AcDbEntity
  8
0
  6
Continuous
 62
     7
370
    25
100
AcDbLine
 10
1201.5262545773
 20
1638.3501293705
 30
0.0
 11
1206.0262545773
 21
1638.3501293705
 31
0.0
  0
LINE
  5
120
330
1F
100
AcDbEntity
  8
0
  6
Continuous
 62
     7
370
    25
100
AcDbLine
 10
1206.0262545773
 20
1723.3501293705
 30
0.0
 11
1201.5262545773
 21
1723.3501293705
 31
0.0
  0
LINE
  5
121
330
1F
100
AcDbEntity
  8
0
  6
Continuous
 62
     7
370
    25
100
AcDbLine
 10
1209.0262545773
 20
1723.3501293705
 30
0.0
 11
1206.0262545773
 21
1723.3501293705
 31
0.0
  0
LINE
  5
122
330
1F
100
AcDbEntity
  8
0
  6
Continuous
 62
     7
370
    25
100
AcDbLine
 10
1209.0262545773
 20
1723.3501293705
 30
0.0
 11
1209.0262545773
 21
1638.3501293705
 31
0.0
  0
LINE
  5
123
330
1F
100
AcDbEntity
  8
0
  6
Continuous
 62
     7
370
    25
100
AcDbLine
 10
1206.0262545773
 20
1638.3501293705
 30
0.0
 11
1209.0262545773
 21
1638.3501293705
 31
0.0
  0
LINE
  5
124
330
1F
100
AcDbEntity
  8
0
  6
Continuous
 62
     7
370
    25
100
AcDbLine
 10
1206.0262545773
 20
1638.3501293611
 30
0.0
 11
1206.0262545773
 21
1635.3501293705
 31
0.0
  0
LINE
  5
125
330
1F
100
AcDbEntity
  8
0
  6
Continuous
 62
     7
370
    25
100
AcDbLine
 10
1206.0262545773
 20
1635.3501293705
 30
0.0
 11
1201.5262545773
 21
1635.3501293705
 31
0.0
  0
LINE
  5
126
330
1F
100
AcDbEntity
  8
0
  6
Continuous
 62
     7
370
    25
100
AcDbLine
 10
1201.5262545773
 20
1726.3501293705
 30
0.0
 11
1206.0262545773
 21
1726.3501293705
 31
0.0
  0
LINE
  5
127
330
1F
100
AcDbEntity
  8
0
  6
Continuous
 62
     7
370
    25
100
AcDbLine
 10
1206.0262545773
 20
1726.3501293705
 30
0.0
 11
1206.0262545773
 21
1723.3501293705
 31
0.0
  0
ARC
  5
128
330
1F
100
AcDbEntity
  8
0
  6
Continuous
 62
     7
370
    25
100
AcDbCircle
 10
1206.0262545773
 20
1723.3501293705
 30
0.0
 40
3.000000000000227
100
AcDbArc
 50
0.0
 51
90.0
  0
ARC
  5
129
330
1F
100
AcDbEntity
  8
0
  6
Continuous
 62
     7
370
    25
100
AcDbCircle
 10
1206.0262545773
 20
1638.3501293705
 30
0.0
 40
3.0
100
AcDbArc
 50
270.0
 51
0.0000000001
  0
LINE
  5
12A
330
1F
100
AcDbEntity
  8
0
  6
Continuous
 62
     7
370
    25
100
AcDbLine
 10
527.5262545773
 20
1723.3501293705
 30
0.0
 11
527.5262545773
 21
1638.3501293705
 31
0.0
  0
LINE
  5
12B
330
1F
100
AcDbEntity
  8
0
  6
Continuous
 62
     7
370
    25
100
AcDbLine
 10
529.5262545773
 20
1723.3501293705
 30
0.0
 11
527.5262545773
 21
1723.3501293705
 31
0.0
  0
LINE
  5
12C
330
1F
100
AcDbEntity
  8
0
  6
Continuous
 62
     7
370
    25
100
AcDbLine
 10
529.5262545773
 20
1638.3501293705
 30
0.0
 11
527.5262545773
 21
1638.3501293705
 31
0.0
  0
LINE
  5
12D
330
1F
100
AcDbEntity
  8
0
  6
Continuous
 62
     7
370
    25
100
AcDbLine
 10
529.5262545773
 20
1723.3501293705
 30
0.0
 11
529.5262545773
 21
1638.3501293705
 31
0.0
  0
LINE
  5
12E
330
1F
100
AcDbEntity
  8
0
  6
Continuous
 62
     7
370
    25
100
AcDbLine
 10
527.5262545773
 20
1728.3501293705
 30
0.0
 11
527.5262545773
 21
1723.3501293705
 31
0.0
  0
LINE
  5
12F
330
1F
100
AcDbEntity
  8
0
  6
Continuous
 62
     7
370
    25
100
AcDbLine
 10
529.5262545773
 20
1728.3501293705
 30
0.0
 11
527.5262545773
 21
1728.3501293705
 31
0.0
  0
LINE
  5
130
330
1F
100
AcDbEntity
  8
0
  6
Continuous
 62
     7
370
    25
100
AcDbLine
 10
529.5262545773
 20
1728.3501293705
 30
0.0
 11
529.5262545773
 21
1723.3501293705
 31
0.0
  0
LINE
  5
131
330
1F
100
AcDbEntity
  8
0
  6
Continuous
 62
     7
370
    25
100
AcDbLine
 10
529.5262545773
 20
1633.3501293705
 30
0.0
 11
527.5262545773
 21
1633.3501293705
 31
0.0
  0
LINE
  5
132
330
1F
100
AcDbEntity
  8
0
  6
Continuous
 62
     7
370
    25
100
AcDbLine
 10
527.5262545773
 20
1638.3501293705
 30
0.0
 11
527.5262545773
 21
1633.3501293705
 31
0.0
  0
LINE
  5
133
330
1F
100
AcDbEntity
  8
0
  6
Continuous
 62
     7
370
    25
100
AcDbLine
 10
529.5262545773
 20
1638.3501293705
 30
0.0
 11
529.5262545773
 21
1633.3501293705
 31
0.0
  0
LINE
  5
134
330
1F
100
AcDbEntity
  8
0
  6
Continuous
 62
     7
370
    25
100
AcDbLine
 10
527.5262545773
 20
1723.3501293705
 30
0.0
 11
523.0262545773
 21
1723.3501293705
 31
0.0
  0
LINE
  5
135
330
1F
100
AcDbEntity
  8
0
  6
Continuous
 62
     7
370
    25
100
AcDbLine
 10
523.0262545773
 20
1723.3501293799
 30
0.0
 11
523.0262545773
 21
1726.3501293705
 31
0.0
  0
LINE
  5
136
330
1F
100
AcDbEntity
  8
0
  6
Continuous
 62
     7
370
    25
100
AcDbLine
 10
523.0262545773
 20
1726.3501293705
 30
0.0
 11
527.5262545773
 21
1726.3501293705
 31
0.0
  0
LINE
  5
137
330
1F
100
AcDbEntity
  8
0
  6
Continuous
 62
     7
370
    25
100
AcDbLine
 10
523.0262545773
 20
1638.3501293705
 30
0.0
 11
523.0262545773
 21
1723.3501293752
 31
0.0
  0
LINE
  5
138
330
1F
100
AcDbEntity
  8
0
  6
Continuous
 62
     7
370
    25
100
AcDbLine
 10
523.0262545773
 20
1638.3501293705
 30
0.0
 11
527.5262545773
 21
1638.3501293705
 31
0.0
  0
LINE
  5
139
330
1F
100
AcDbEntity
  8
0
  6
Continuous
 62
     7
370
    25
100
AcDbLine
 10
520.0262545773
 20
1638.3501293705
 30
0.0
 11
523.0262545773
 21
1638.3501293705
 31
0.0
  0
LINE
  5
13A
330
1F
100
AcDbEntity
  8
0
  6
Continuous
 62
     7
370
    25
100
AcDbLine
 10
520.0262545773
 20
1638.3501293705
 30
0.0
 11
520.0262545773
 21
1723.3501293705
 31
0.0
  0
LINE
  5
13B
330
1F
100
AcDbEntity
  8
0
  6
Continuous
 62
     7
370
    25
100
AcDbLine
 10
523.0262545773
 20
1723.3501293705
 30
0.0
 11
520.0262545773
 21
1723.3501293705
 31
0.0
  0
LINE
  5
13C
330
1F
100
AcDbEntity
  8
0
  6
Continuous
 62
     7
370
    25
100
AcDbLine
 10
527.5262545773
 20
1635.3501293705
 30
0.0
 11
523.0262545773
 21
1635.3501293705
 31
0.0
  0
LINE
  5
13D
330
1F
100
AcDbEntity
  8
0
  6
Continuous
 62
     7
370
    25
100
AcDbLine
 10
523.0262545773
 20
1635.3501293705
 30
0.0
 11
523.0262545773
 21
1638.3501293705
 31
0.0
  0
ARC
  5
13E
330
1F
100
AcDbEntity
  8
0
  6
Continuous
 62
     7
370
    25
100
AcDbCircle
 10
523.0262545773
 20
1638.3501293705
 30
0.0
 40
3.000000000000227
100
AcDbArc
 50
180.0
 51
270.0
  0
ARC
  5
13F
330
1F
100
AcDbEntity
  8
0
  6
Continuous
 62
     7
370
    25
100
AcDbCircle
 10
523.0262545773
 20
1723.3501293705
 30
0.0
 40
3.0
100
AcDbArc
 50
90.0
 51
179.9999999999
  0
LINE
  5
140
330
1F
100
AcDbEntity
  8
0
  6
Continuous
 62
     7
370
    25
100
AcDbLine
 10
529.5262545773
 20
1728.3501293705
 30
0.0
 11
1199.5262545773
 21
1728.3501293705
 31
0.0
  0
LINE
  5
141
330
1F
100
AcDbEntity
  8
0
  6
Continuous
 62
     7
370
    25
100
AcDbLine
 10
529.5262545773
 20
1723.3501293705
 30
0.0
 11
1199.5262545773
 21
1723.3501293705
 31
0.0
  0
LINE
  5
142
330
1F
100
AcDbEntity
  8
0
  6
Continuous
 62
     7
370
    25
100
AcDbLine
 10
529.5262545773
 20
1638.3501293705
 30
0.0
 11
1199.5262545773
 21
1638.3501293705
 31
0.0
  0
LINE
  5
143
330
1F
100
AcDbEntity
  8
0
  6
Continuous
 62
     7
370
    25
100
AcDbLine
 10
529.5262545773
 20
1633.3501293705
 30
0.0
 11
1199.5262545773
 21
1633.3501293705
 31
0.0
  0
LINE
  5
144
330
1F
100
AcDbEntity
  8
0
  6
Continuous
 62
     7
370
    25
100
AcDbLine
 10
1202.4800871113
 20
1620.3501293706
 30
0.0
 11
1188.4800871113
 21
1620.3501293706
 31
0.0
  0
LWPOLYLINE
  5
145
330
1F
100
AcDbEntity
  8
0
  6
Continuous
 62
     7
370
    25
100
AcDbPolyline
 90
       16
 70
   128
 43
0.0
 10
812.7117701783
 20
1627.8501293707
 10
810.9180047915
 20
1627.9863871717
 10
809.0790152154
 20
1628.3457455905
 10
807.1908590463
 20
1628.8714437161
 10
805.8905866333
 20
1629.2957615165
 10
804.4298047177
 20
1629.812396825
 10
804.0935865673
 20
1629.9354217345
 10
803.7507372938
 20
1630.0620654082
 10
803.4011109357
 20
1630.1921560152
 10
803.0445342499
 20
1630.3254972918
 10
802.0187051876
 20
1630.7130308761
 10
801.7538886936
 20
1630.813188562
 10
801.6834607367
 20
1630.8395663683
 10
801.6637508654
 20
1630.8468248209
 10
801.6577728202
 20
1630.8489713359
 10
801.6543795775
 20
1630.8501293707
  0
LINE
  5
146
330
1F
100
AcDbEntity
  8
0
  6
Continuous
 62
     7
370
    25
100
AcDbLine
 10
812.8536451783
 20
1626.8501293707
 30
0.0
 11
812.7117701783
 21
1627.8501293707
 31
0.0
  0
LWPOLYLINE
  5
147
330
1F
100
AcDbEntity
  8
0
  6
Continuous
 62
     7
370
    25
100
AcDbPolyline
 90
       16
 70
   128
 43
0.0
 10
812.8536451783
 20
1626.8501293707
 10
810.8754241995
 20
1627.0293974668
 10
808.9087747062
 20
1627.5082667601
 10
806.9668375666
 20
1628.2118894085
 10
806.1300486573
 20
1628.5725591015
 10
805.2306687072
 20
1628.9907578014
 10
804.2686977165
 20
1629.4664855082
 10
802.9561795912
 20
1630.1506186481
 10
802.7182354379
 20
1630.2772952013
 10
802.5010709565
 20
1630.3936759431
 10
802.304686147
 20
1630.4997608736
 10
801.8308901529
 20
1630.7562476449
 10
801.7054741879
 20
1630.8235141385
 10
801.6706367133
 20
1630.8419031623
 10
801.6601856031
 20
1630.8472866184
 10
801.6543795775
 20
1630.8501293707
  0
LINE
  5
148
330
1F
100
AcDbEntity
  8
0
  6
Continuous
 62
     7
370
    25
100
AcDbLine
 10
801.6543795775
 20
1621.8501293707
 30
0.0
 11
801.6543795775
 21
1630.8501293707
 31
0.0
  0
LINE
  5
149
330
1F
100
AcDbEntity
  8
0
  6
Continuous
 62
     7
370
    25
100
AcDbLine
 10
801.6543795775
 20
1621.8501293707
 30
0.0
 11
784.5262545774
 21
1621.8501293707
 31
0.0
  0
LINE
  5
14A
330
1F
100
AcDbEntity
  8
0
  6
Continuous
 62
     7
370
    25
100
AcDbLine
 10
801.5125045774
 20
1620.8501293707
 30
0.0
 11
801.6543795775
 21
1621.8501293707
 31
0.0
  0
LINE
  5
14B
330
1F
100
AcDbEntity
  8
0
  6
Continuous
 62
     7
370
    25
100
AcDbLine
 10
801.5125045774
 20
1620.8501293707
 30
0.0
 11
785.5262545774
 21
1620.8501293707
 31
0.0
  0
LINE
  5
14C
330
1F
100
AcDbEntity
  8
0
  6
Continuous
 62
     7
370
    25
100
AcDbLine
 10
1009.9966584468
 20
1621.8501293706
 30
0.0
 11
1009.9966584468
 21
1626.8501293706
 31
0.0
  0
LINE
  5
14D
330
1F
100
AcDbEntity
  8
0
  6
Continuous
 62
     7
370
    25
100
AcDbLine
 10
1009.9966584468
 20
1621.8501293706
 30
0.0
 11
801.6543795775
 21
1621.8501293707
 31
0.0
  0
LINE
  5
14E
330
1F
100
AcDbEntity
  8
0
  6
Continuous
 62
     7
370
    25
100
AcDbLine
 10
1009.9966584468
 20
1626.8501293706
 30
0.0
 11
812.8536451783
 21
1626.8501293707
 31
0.0
  0
LINE
  5
14F
330
1F
100
AcDbEntity
  8
0
  6
Continuous
 62
     7
370
    25
100
AcDbLine
 10
1009.9966584468
 20
1621.8501293706
 30
0.0
 11
1009.8547834468
 21
1620.8501293706
 31
0.0
  0
LINE
  5
150
330
1F
100
AcDbEntity
  8
0
  6
Continuous
 62
     7
370
    25
100
AcDbLine
 10
1009.8547834468
 20
1620.8501293706
 30
0.0
 11
801.5125045774
 21
1620.8501293707
 31
0.0
  0
LINE
  5
151
330
1F
100
AcDbEntity
  8
0
  6
Continuous
 62
     7
370
    25
100
AcDbLine
 10
812.7117701783
 20
1627.8501293707
 30
0.0
 11
1009.8547834468
 21
1627.8501293706
 31
0.0
  0
LINE
  5
152
330
1F
100
AcDbEntity
  8
0
  6
Continuous
 62
     7
370
    25
100
AcDbLine
 10
1009.9966584468
 20
1626.8501293706
 30
0.0
 11
1009.8547834468
 21
1627.8501293706
 31
0.0
  0
LINE
  5
153
330
1F
100
AcDbEntity
  8
0
  6
Continuous
 62
     7
370
    25
100
AcDbLine
 10
1010.8789151405
 20
1620.8501293706
 30
0.0
 11
1011.0416907873
 21
1621.8501293706
 31
0.0
  0
LINE
  5
154
330
1F
100
AcDbEntity
  8
0
  6
Continuous
 62
     7
370
    25
100
AcDbLine
 10
1009.9966584468
 20
1621.8501293706
 30
0.0
 11
1011.0416907873
 21
1621.8501293706
 31
0.0
  0
LINE
  5
155
330
1F
100
AcDbEntity
  8
0
  6
Continuous
 62
     7
370
    25
100
AcDbLine
 10
1010.8789151405
 20
1620.8501293706
 30
0.0
 11
1009.8547834468
 21
1620.8501293706
 31
0.0
  0
LINE
  5
156
330
1F
100
AcDbEntity
  8
0
  6
Continuous
 62
     7
370
    25
100
AcDbLine
 10
1011.0416907873
 20
1626.8501293706
 30
0.0
 11
1009.9966584468
 21
1626.8501293706
 31
0.0
  0
LINE
  5
157
330
1F
100
AcDbEntity
  8
0
  6
Continuous
 62
     7
370
    25
100
AcDbLine
 10
1011.0416907873
 20
1626.8501293706
 30
0.0
 11
1011.0416907873
 21
1621.8501293706
 31
0.0
  0
LINE
  5
158
330
1F
100
AcDbEntity
  8
0
  6
Continuous
 62
     7
370
    25
100
AcDbLine
 10
1010.8789151405
 20
1627.8501293706
 30
0.0
 11
1011.0416907873
 21
1626.8501293706
 31
0.0
  0
LINE
  5
159
330
1F
100
AcDbEntity
  8
0
  6
Continuous
 62
     7
370
    25
100
AcDbLine
 10
1009.8547834468
 20
1627.8501293706
 30
0.0
 11
1010.8789151405
 21
1627.8501293706
 31
0.0
  0
LINE
  5
15A
330
1F
100
AcDbEntity
  8
0
  6
Continuous
 62
     7
370
    25
100
AcDbLine
 10
1197.1078435795
 20
1620.8501293705
 30
0.0
 11
1197.2706192264
 21
1621.8501293705
 31
0.0
  0
LINE
  5
15B
330
1F
100
AcDbEntity
  8
0
  6
Continuous
 62
     7
370
    25
100
AcDbLine
 10
1197.2706192264
 20
1621.8501293705
 30
0.0
 11
1011.0416907873
 21
1621.8501293706
 31
0.0
  0
LINE
  5
15C
330
1F
100
AcDbEntity
  8
0
  6
Continuous
 62
     7
370
    25
100
AcDbLine
 10
1197.1078435795
 20
1620.8501293705
 30
0.0
 11
1010.8789151405
 21
1620.8501293706
 31
0.0
  0
LINE
  5
15D
330
1F
100
AcDbEntity
  8
0
  6
Continuous
 62
     7
370
    25
100
AcDbLine
 10
1197.2706192264
 20
1626.8501293705
 30
0.0
 11
1197.1078435795
 21
1627.8501293705
 31
0.0
  0
LINE
  5
15E
330
1F
100
AcDbEntity
  8
0
  6
Continuous
 62
     7
370
    25
100
AcDbLine
 10
1197.2706192264
 20
1626.8501293705
 30
0.0
 11
1011.0416907873
 21
1626.8501293706
 31
0.0
  0
LINE
  5
15F
330
1F
100
AcDbEntity
  8
0
  6
Continuous
 62
     7
370
    25
100
AcDbLine
 10
1010.8789151405
 20
1627.8501293706
 30
0.0
 11
1197.1078435795
 21
1627.8501293705
 31
0.0
  0
LINE
  5
160
330
1F
100
AcDbEntity
  8
0
  6
Continuous
 62
     7
370
    25
100
AcDbLine
 10
1197.2706192264
 20
1621.8501293705
 30
0.0
 11
1197.2706192264
 21
1626.8501293705
 31
0.0
  0
LINE
  5
161
330
1F
100
AcDbEntity
  8
0
  6
Continuous
 62
     7
370
    25
100
AcDbLine
 10
1206.4800871113
 20
1626.8501293705
 30
0.0
 11
1197.2706192264
 21
1626.8501293705
 31
0.0
  0
LINE
  5
162
330
1F
100
AcDbEntity
  8
0
  6
Continuous
 62
     7
370
    25
100
AcDbLine
 10
1197.1078435795
 20
1627.8501293705
 30
0.0
 11
1205.4800871113
 21
1627.8501293705
 31
0.0
  0
LINE
  5
163
330
1F
100
AcDbEntity
  8
0
  6
Continuous
 62
     7
370
    25
100
AcDbLine
 10
1206.4800871113
 20
1621.8501293705
 30
0.0
 11
1197.2706192264
 21
1621.8501293705
 31
0.0
  0
LINE
  5
164
330
1F
100
AcDbEntity
  8
0
  6
Continuous
 62
     7
370
    25
100
AcDbLine
 10
1205.4800871113
 20
1620.8501293705
 30
0.0
 11
1197.1078435795
 21
1620.8501293705
 31
0.0
  0
LINE
  5
165
330
1F
100
AcDbEntity
  8
0
  6
Continuous
 62
     7
370
    25
100
AcDbLine
 10
1251.5262545589
 20
1617.8501293767
 30
0.0
 11
1251.5262545589
 21
1601.8501293767
 31
0.0
  0
LINE
  5
166
330
1F
100
AcDbEntity
  8
0
  6
Continuous
 62
     7
370
    25
100
AcDbLine
 10
1251.0262545589
 20
1601.8501293767
 30
0.0
 11
1251.5262545589
 21
1601.8501293767
 31
0.0
  0
LINE
  5
167
330
1F
100
AcDbEntity
  8
0
  6
Continuous
 62
     7
370
    25
100
AcDbLine
 10
1251.0262545589
 20
1617.8501293767
 30
0.0
 11
1251.0262545589
 21
1601.8501293767
 31
0.0
  0
LINE
  5
168
330
1F
100
AcDbEntity
  8
0
  6
Continuous
 62
     7
370
    25
100
AcDbLine
 10
1251.5262545589
 20
1617.8501293767
 30
0.0
 11
1251.0262545589
 21
1617.8501293767
 31
0.0
  0
LINE
  5
169
330
1F
100
AcDbEntity
  8
0
  6
Continuous
 62
     7
370
    25
100
AcDbLine
 10
1233.5262545594
 20
1601.8501293767
 30
0.0
 11
1251.0262545589
 21
1601.8501293767
 31
0.0
  0
LINE
  5
16A
330
1F
100
AcDbEntity
  8
0
  6
Continuous
 62
     7
370
    25
100
AcDbLine
 10
1233.5262545595
 20
1617.8501293767
 30
0.0
 11
1233.5262545594
 21
1601.8501293767
 31
0.0
  0
LINE
  5
16B
330
1F
100
AcDbEntity
  8
0
  6
Continuous
 62
     7
370
    25
100
AcDbLine
 10
1251.0262545589
 20
1617.8501293767
 30
0.0
 11
1233.5262545595
 21
1617.8501293767
 31
0.0
  0
LINE
  5
16C
330
1F
100
AcDbEntity
  8
0
  6
Continuous
 62
     7
370
    25
100
AcDbLine
 10
1233.0262545592
 20
1601.8501293767
 30
0.0
 11
1233.5262545594
 21
1601.8501293767
 31
0.0
  0
LINE
  5
16D
330
1F
100
AcDbEntity
  8
0
  6
Continuous
 62
     7
370
    25
100
AcDbLine
 10
1233.0262545595
 20
1617.8501293767
 30
0.0
 11
1233.0262545592
 21
1601.8501293767
 31
0.0
  0
LINE
  5
16E
330
1F
100
AcDbEntity
  8
0
  6
Continuous
 62
     7
370
    25
100
AcDbLine
 10
1233.5262545595
 20
1617.8501293767
 30
0.0
 11
1233.0262545595
 21
1617.8501293767
 31
0.0
  0
LINE
  5
16F
330
1F
100
AcDbEntity
  8
0
  6
Continuous
 62
     7
370
    25
100
AcDbLine
 10
1233.5262545595
 20
1618.3501293767
 30
0.0
 11
1233.5262545595
 21
1617.8501293767
 31
0.0
  0
LINE
  5
170
330
1F
100
AcDbEntity
  8
0
  6
Continuous
 62
     7
370
    25
100
AcDbLine
 10
1233.5262545595
 20
1618.3501293767
 30
0.0
 11
1251.0262545589
 21
1618.3501293767
 31
0.0
  0
LINE
  5
171
330
1F
100
AcDbEntity
  8
0
  6
Continuous
 62
     7
370
    25
100
AcDbLine
 10
1251.0262545589
 20
1618.3501293767
 30
0.0
 11
1251.0262545589
 21
1617.8501293767
 31
0.0
  0
ARC
  5
172
330
1F
100
AcDbEntity
  8
0
  6
Continuous
 62
     7
370
    25
100
AcDbCircle
 10
1251.0262545589
 20
1617.8501293767
 30
0.0
 40
0.5
100
AcDbArc
 50
0.0000000002
 51
90.0
  0
ARC
  5
173
330
1F
100
AcDbEntity
  8
0
  6
Continuous
 62
     7
370
    25
100
AcDbCircle
 10
1233.5262545595
 20
1617.8501293767
 30
0.0
 40
0.5000000000002274
100
AcDbArc
 50
90.0
 51
179.9999999989
  0
LINE
  5
174
330
1F
100
AcDbEntity
  8
0
  6
Continuous
 62
     7
370
    25
100
AcDbLine
 10
1251.0262545589
 20
1601.3501293767
 30
0.0
 11
1233.5262545592
 21
1601.3501293767
 31
0.0
  0
LINE
  5
175
330
1F
100
AcDbEntity
  8
0
  6
Continuous
 62
     7
370
    25
100
AcDbLine
 10
1233.5262545594
 20
1601.8501293767
 30
0.0
 11
1233.5262545592
 21
1601.3501293767
 31
0.0
  0
LINE
  5
176
330
1F
100
AcDbEntity
  8
0
  6
Continuous
 62
     7
370
    25
100
AcDbLine
 10
1251.0262545589
 20
1601.8501293767
 30
0.0
 11
1251.0262545589
 21
1601.3501293767
 31
0.0
  0
ARC
  5
177
330
1F
100
AcDbEntity
  8
0
  6
Continuous
 62
     7
370
    25
100
AcDbCircle
 10
1251.0262545589
 20
1601.8501293767
 30
0.0
 40
0.5
100
AcDbArc
 50
270.0
 51
0.0
  0
ARC
  5
178
330
1F
100
AcDbEntity
  8
0
  6
Continuous
 62
     7
370
    25
100
AcDbCircle
 10
1233.5262545592
 20
1601.8501293767
 30
0.0
 40
0.5
100
AcDbArc
 50
179.9999999989
 51
270.0
  0
LINE
  5
179
330
1F
100
AcDbEntity
  8
0
  6
Continuous
 62
     7
370
    25
100
AcDbLine
 10
617.0262545583
 20
1617.8501293767
 30
0.0
 11
616.5262545583
 21
1617.8501293767
 31
0.0
  0
LINE
  5
17A
330
1F
100
AcDbEntity
  8
0
  6
Continuous
 62
     7
370
    25
100
AcDbLine
 10
617.0262545586
 20
1601.8501293767
 30
0.0
 11
617.0262545583
 21
1617.8501293767
 31
0.0
  0
LINE
  5
17B
330
1F
100
AcDbEntity
  8
0
  6
Continuous
 62
     7
370
    25
100
AcDbLine
 10
616.5262545586
 20
1601.8501293767
 30
0.0
 11
617.0262545586
 21
1601.8501293767
 31
0.0
  0
LINE
  5
17C
330
1F
100
AcDbEntity
  8
0
  6
Continuous
 62
     7
370
    25
100
AcDbLine
 10
616.5262545586
 20
1601.8501293767
 30
0.0
 11
616.5262545583
 21
1617.8501293767
 31
0.0
  0
LINE
  5
17D
330
1F
100
AcDbEntity
  8
0
  6
Continuous
 62
     7
370
    25
100
AcDbLine
 10
599.0262545589
 20
1601.8501293767
 30
0.0
 11
599.0262545589
 21
1617.8501293767
 31
0.0
  0
LINE
  5
17E
330
1F
100
AcDbEntity
  8
0
  6
Continuous
 62
     7
370
    25
100
AcDbLine
 10
616.5262545583
 20
1617.8501293767
 30
0.0
 11
599.0262545589
 21
1617.8501293767
 31
0.0
  0
LINE
  5
17F
330
1F
100
AcDbEntity
  8
0
  6
Continuous
 62
     7
370
    25
100
AcDbLine
 10
599.0262545589
 20
1601.8501293767
 30
0.0
 11
616.5262545586
 21
1601.8501293767
 31
0.0
  0
ARC
  5
180
330
1F
100
AcDbEntity
  8
0
  6
Continuous
 62
     7
370
    25
100
AcDbCircle
 10
616.5262545583
 20
1617.8501293767
 30
0.0
 40
0.5000000000002274
100
AcDbArc
 50
0.000000003
 51
90.0
  0
LINE
  5
181
330
1F
100
AcDbEntity
  8
0
  6
Continuous
 62
     7
370
    25
100
AcDbLine
 10
616.5262545583
 20
1617.8501293767
 30
0.0
 11
616.5262545583
 21
1618.3501293767
 31
0.0
  0
LINE
  5
182
330
1F
100
AcDbEntity
  8
0
  6
Continuous
 62
     7
370
    25
100
AcDbLine
 10
599.0262545589
 20
1617.8501293767
 30
0.0
 11
599.026254559
 21
1618.3501293767
 31
0.0
  0
LINE
  5
183
330
1F
100
AcDbEntity
  8
0
  6
Continuous
 62
     7
370
    25
100
AcDbLine
 10
599.026254559
 20
1618.3501293767
 30
0.0
 11
616.5262545583
 21
1618.3501293767
 31
0.0
  0
LINE
  5
184
330
1F
100
AcDbEntity
  8
0
  6
Continuous
 62
     7
370
    25
100
AcDbLine
 10
599.0262545589
 20
1617.8501293767
 30
0.0
 11
598.5262545589
 21
1617.8501293767
 31
0.0
  0
ARC
  5
185
330
1F
100
AcDbEntity
  8
0
  6
Continuous
 62
     7
370
    25
100
AcDbCircle
 10
599.0262545589
 20
1617.8501293767
 30
0.0
 40
0.5000000000002274
100
AcDbArc
 50
89.9999999939
 51
180.0
  0
LINE
  5
186
330
1F
100
AcDbEntity
  8
0
  6
Continuous
 62
     7
370
    25
100
AcDbLine
 10
598.5262545589
 20
1601.8501293767
 30
0.0
 11
599.0262545589
 21
1601.8501293767
 31
0.0
  0
LINE
  5
187
330
1F
100
AcDbEntity
  8
0
  6
Continuous
 62
     7
370
    25
100
AcDbLine
 10
598.5262545589
 20
1601.8501293767
 30
0.0
 11
598.5262545589
 21
1617.8501293767
 31
0.0
  0
LINE
  5
188
330
1F
100
AcDbEntity
  8
0
  6
Continuous
 62
     7
370
    25
100
AcDbLine
 10
599.0262545589
 20
1601.8501293767
 30
0.0
 11
599.0262545589
 21
1601.3501293767
 31
0.0
  0
LINE
  5
189
330
1F
100
AcDbEntity
  8
0
  6
Continuous
 62
     7
370
    25
100
AcDbLine
 10
616.5262545586
 20
1601.3501293767
 30
0.0
 11
616.5262545586
 21
1601.8501293767
 31
0.0
  0
LINE
  5
18A
330
1F
100
AcDbEntity
  8
0
  6
Continuous
 62
     7
370
    25
100
AcDbLine
 10
616.5262545586
 20
1601.3501293767
 30
0.0
 11
599.0262545589
 21
1601.3501293767
 31
0.0
  0
ARC
  5
18B
330
1F
100
AcDbEntity
  8
0
  6
Continuous
 62
     7
370
    25
100
AcDbCircle
 10
599.0262545589
 20
1601.8501293767
 30
0.0
 40
0.5000000000001137
100
AcDbArc
 50
180.0
 51
270.0
  0
ARC
  5
18C
330
1F
100
AcDbEntity
  8
0
  6
Continuous
 62
     7
370
    25
100
AcDbCircle
 10
616.5262545586
 20
1601.8501293767
 30
0.0
 40
0.5000000000004547
100
AcDbArc
 50
270.0
 51
0.0000000011
  0
LINE
  5
18D
330
1F
100
AcDbEntity
  8
0
  6
Continuous
 62
     7
370
    25
100
AcDbLine
 10
616.5262545583
 20
1618.3501293747
 30
0.0
 11
1233.5262545595
 21
1618.3501293748
 31
0.0
  0
LINE
  5
18E
330
1F
100
AcDbEntity
  8
0
  6
Continuous
 62
     7
370
    25
100
AcDbLine
 10
1233.5262545592
 20
1601.3501293767
 30
0.0
 11
616.5262545586
 21
1601.3501293767
 31
0.0
  0
LINE
  5
18F
330
1F
100
AcDbEntity
  8
0
  6
Continuous
 62
     7
370
    25
100
AcDbLine
 10
1494.5262545767
 20
1626.8501293705
 30
0.0
 11
1206.4800871113
 21
1626.8501293705
 31
0.0
  0
LINE
  5
190
330
1F
100
AcDbEntity
  8
0
  6
Continuous
 62
     7
370
    25
100
AcDbLine
 10
784.5262545774
 20
1626.8501293705
 30
0.0
 11
544.5262545767
 21
1626.8501293705
 31
0.0
  0
LINE
  5
191
330
1F
100
AcDbEntity
  8
0
  6
Continuous
 62
     7
370
    25
100
AcDbLine
 10
1494.5262545767
 20
1331.8501293705
 30
0.0
 11
1494.5262545767
 21
1626.8501293705
 31
0.0
  0
LINE
  5
192
330
1F
100
AcDbEntity
  8
0
  6
Continuous
 62
     7
370
    25
100
AcDbLine
 10
544.5262545767
 20
1331.8501293705
 30
0.0
 11
1494.5262545767
 21
1331.8501293705
 31
0.0
  0
LINE
  5
193
330
1F
100
AcDbEntity
  8
0
  6
Continuous
 62
     7
370
    25
100
AcDbLine
 10
544.5262545767
 20
1626.8501293705
 30
0.0
 11
544.5262545767
 21
1331.8501293705
 31
0.0
  0
LINE
  5
194
330
1F
100
AcDbEntity
  8
0
  6
Continuous
 62
     7
370
    25
100
AcDbLine
 10
1499.5262545767
 20
1331.8501293705
 30
0.0
 11
1494.5262545767
 21
1331.8501293705
 31
0.0
  0
LINE
  5
195
330
1F
100
AcDbEntity
  8
0
  6
Continuous
 62
     7
370
    25
100
AcDbLine
 10
544.5262545767
 20
1331.8501293705
 30
0.0
 11
539.5262545767
 21
1331.8501293705
 31
0.0
  0
LINE
  5
196
330
1F
100
AcDbEntity
  8
0
  6
Continuous
 62
     7
370
    25
100
AcDbLine
 10
1619.5262545767
 20
1331.8501293705
 30
0.0
 11
1619.5262545767
 21
1831.8501293705
 31
0.0
  0
LINE
  5
197
330
1F
100
AcDbEntity
  8
0
  6
Continuous
 62
     7
370
    25
100
AcDbLine
 10
1499.5262545767
 20
1331.8501293705
 30
0.0
 11
1499.5262545767
 21
1631.8501293705
 31
0.0
  0
LINE
  5
198
330
1F
100
AcDbEntity
  8
0
  6
Continuous
 62
     7
370
    25
100
AcDbLine
 10
1499.5262545767
 20
1631.8501293705
 30
0.0
 11
814.5262545773
 21
1631.8501293705
 31
0.0
  0
LINE
  5
199
330
1F
100
AcDbEntity
  8
0
  6
Continuous
 62
     7
370
    25
100
AcDbLine
 10
784.5262545774
 20
1631.8501293705
 30
0.0
 11
539.5262545767
 21
1631.8501293705
 31
0.0
  0
LINE
  5
19A
330
1F
100
AcDbEntity
  8
0
  6
Continuous
 62
     7
370
    25
100
AcDbLine
 10
539.5262545767
 20
1631.8501293705
 30
0.0
 11
539.5262545767
 21
1331.8501293705
 31
0.0
  0
LINE
  5
19B
330
1F
100
AcDbEntity
  8
0
  6
Continuous
 62
     7
370
    25
100
AcDbLine
 10
419.5262545767
 20
1331.8501293705
 30
0.0
 11
539.5262545767
 21
1331.8501293705
 31
0.0
  0
LINE
  5
19C
330
1F
100
AcDbEntity
  8
0
  6
Continuous
 62
     7
370
    25
100
AcDbLine
 10
1619.5262545767
 20
1831.8501293705
 30
0.0
 11
419.5262545767
 21
1831.8501293705
 31
0.0
  0
LINE
  5
19D
330
1F
100
AcDbEntity
  8
0
  6
Continuous
 62
     7
370
    25
100
AcDbLine
 10
1499.5262545767
 20
1331.8501293705
 30
0.0
 11
1619.5262545767
 21
1331.8501293705
 31
0.0
  0
LINE
  5
19E
330
1F
100
AcDbEntity
  8
0
  6
Continuous
 62
     7
370
    25
100
AcDbLine
 10
419.5262545767
 20
1831.8501293705
 30
0.0
 11
419.5262545767
 21
1331.8501293705
 31
0.0
  0
LINE
  5
19F
330
1F
100
AcDbEntity
  8
0
  6
Continuous
 62
     7
370
    25
100
AcDbLine
 10
801.6543795775
 20
1630.8501293707
 30
0.0
 11
814.5262545773
 21
1630.8501293707
 31
0.0
  0
LINE
  5
1A0
330
1F
100
AcDbEntity
  8
0
  6
Continuous
 62
     7
370
    25
100
AcDbLine
 10
1233.0262545595
 20
1617.8501293748
 30
0.0
 11
617.0262545583
 21
1617.8501293747
 31
0.0
  0
LINE
  5
1A1
330
1F
100
AcDbEntity
  8
0
  6
Continuous
 62
     7
370
    25
100
AcDbLine
 10
1233.0262545592
 20
1601.8501293767
 30
0.0
 11
617.0262545586
 21
1601.8501293767
 31
0.0
  0
DIMENSION
  5
1A2
330
1F
100
AcDbEntity
  8
FORMAT
100
AcDbDimension
  2
_D
 10
598.5262545589
 20
1463.3772145142
 30
0.0
 11
559.0262545678
 21
1463.3772145142
 31
0.0
 70
   160
  1
<>
 71
     2
 42
-1.0
  3
SLDDIMSTYLE0
100
AcDbAlignedDimension
 13
519.5262545767
 23
1496.8501293705
 33
0.0
 14
598.5262545589
 24
1601.8501293767
 34
0.0
100
AcDbRotatedDimension
  0
DIMENSION
  5
1AC
330
1F
100
AcDbEntity
  8
FORMAT
100
AcDbDimension
  2
_D_1
 10
1251.5262545589
 20
1463.3772145143
 30
0.0
 11
925.0262545589
 21
1463.3772145142
 31
0.0
 70
   160
  1
<>
 71
     2
 42
-1.0
  3
SLDDIMSTYLE0
100
AcDbAlignedDimension
 13
598.5262545589
 23
1601.8501293767
 33
0.0
 14
1251.5262545589
 24
1601.8501293767
 34
0.0
 50
0.0
100
AcDbRotatedDimension
  0
DIMENSION
  5
1B6
330
1F
100
AcDbEntity
  8
FORMAT
100
AcDbDimension
  2
_D_2
 10
799.5262545773
 20
1419.9997773474
 30
0.0
 11
659.526254577
 21
1419.9997773474
 31
0.0
 70
   160
  1
<>
 71
     2
 42
-1.0
  3
SLDDIMSTYLE0
100
AcDbAlignedDimension
 13
519.5262545767
 23
1412.366723928
 33
0.0
 14
799.5262545773
 24
1612.3501293707
 34
0.0
100
AcDbRotatedDimension
  0
DIMENSION
  5
1BF
330
1F
100
AcDbEntity
  8
FORMAT
100
AcDbDimension
  2
_D_3
 10
477.3425582037
 20
1728.3501293705
 30
0.0
 11
477.3425582037
 21
1680.8501293705
 31
0.0
 70
   160
  1
<>
 71
     2
 42
-1.0
  3
SLDDIMSTYLE0
100
AcDbAlignedDimension
 13
529.5262545773
 23
1633.3501293705
 33
0.0
 14
529.5262545773
 24
1728.3501293705
 34
0.0
 50
90.0
100
AcDbRotatedDimension
  0
DIMENSION
  5
1C9
330
1F
100
AcDbEntity
  8
FORMAT
100
AcDbDimension
  2
_D_4
 10
1209.0262545773
 20
1776.4514001941
 30
0.0
 11
864.5262545773
 21
1776.4514001941
 31
0.0
 70
   160
  1
<>
 71
     2
 42
-1.0
  3
SLDDIMSTYLE0
100
AcDbAlignedDimension
 13
520.0262545773
 23
1723.3501293705
 33
0.0
 14
1209.0262545773
 24
1723.3501293705
 34
0.0
 50
0.0
100
AcDbRotatedDimension
  0
DIMENSION
  5
1D3
330
1F
100
AcDbEntity
  8
FORMAT
100
AcDbDimension
  2
_D_5
 10
1295.1336438535
 20
1618.3501293767
 30
0.0
 11
1295.1336438535
 21
1555.4776957639
 31
0.0
 70
   160
  1
<>
 71
     2
 42
-1.0
  3
SLDDIMSTYLE1
100
AcDbAlignedDimension
 13
1251.0262545589
 23
1601.3501293767
 33
0.0
 14
1251.0262545589
 24
1618.3501293767
 34
0.0
 50
90.0
100
AcDbRotatedDimension
  0
LINE
  5
1E0
330
1F
100
AcDbEntity
  8
0
  6
CENTER
 62
     7
370
    18
100
AcDbLine
 10
645.9361845639
 20
1891.8501293705
 30
0.0
 11
645.9361845639
 21
1271.8501293705
 31
0.0
  0
LINE
  5
1E1
330
1F
100
AcDbEntity
  8
0
  6
Continuous
 62
     7
370
    18
100
AcDbLine
 10
557.0361845639
 20
1877.8501293705
 30
0.0
 11
645.9361845639
 21
1877.8501293705
 31
0.0
  0
SOLID
  5
1E2
330
1F
100
AcDbEntity
  8
0
  6
Continuous
 62
     7
370
    18
100
AcDbTrace
 10
645.9361845639
 20
1877.8501293705
 30
0.0
 11
601.4861845639
 21
1884.9621293705
 31
0.0
 12
601.4861845639
 22
1870.7381293705
 32
0.0
 13
601.4861845639
 23
1870.7381293705
 33
0.0
  0
LINE
  5
1E3
330
1F
100
AcDbEntity
  8
0
  6
Continuous
 62
     7
370
    18
100
AcDbLine
 10
557.0361845639
 20
1285.8501293705
 30
0.0
 11
645.9361845639
 21
1285.8501293705
 31
0.0
  0
SOLID
  5
1E4
330
1F
100
AcDbEntity
  8
0
  6
Continuous
 62
     7
370
    18
100
AcDbTrace
 10
645.9361845639
 20
1285.8501293705
 30
0.0
 11
601.4861845639
 21
1292.9621293705
 31
0.0
 12
601.4861845639
 22
1278.7381293705
 32
0.0
 13
601.4861845639
 23
1278.7381293705
 33
0.0
  0
MTEXT
  5
1E5
330
1F
100
AcDbEntity
  8
0
  6
Continuous
 62
     7
100
AcDbMText
 10
557.0361845639
 20
1931.5166983133
 30
0.0
 40
35.0
 41
0.0
 71
     1
 72
     1
  1
A
  7
SLDTEXTSTYLE0
 73
     1
 44
1.0
  0
MTEXT
  5
1E6
330
1F
100
AcDbEntity
  8
0
  6
Continuous
 62
     7
100
AcDbMText
 10
557.0361845639
 20
1267.9791619126
 30
0.0
 40
35.0
 41
0.0
 71
     1
 72
     1
  1
A
  7
SLDTEXTSTYLE0
 73
     1
 44
1.0
  0
LINE
  5
1E7
330
1F
100
AcDbEntity
  8
FORMAT
  6
CENTERX2
370
    18
100
AcDbLine
 10
519.5262545767
 20
1496.8501293705
 30
0.0
 11
519.5262545767
 21
1412.366723928
 31
0.0
  0
LINE
  5
1E8
330
1F
100
AcDbEntity
  8
FORMAT
  6
CENTERX2
370
    18
100
AcDbLine
 10
799.5262545773
 20
1612.3501293707
 30
0.0
 11
799.5262545773
 21
1655.6501293707
 31
0.0
  0
CIRCLE
  5
1E9
330
1F
100
AcDbEntity
  8
0
  6
Continuous
 62
     7
370
    25
100
AcDbCircle
 10
1079.5262545767
 20
810.2896142385
 30
0.0
 40
6.200000000000045
  0
CIRCLE
  5
1EA
330
1F
100
AcDbEntity
  8
0
  6
Continuous
 62
     7
370
    25
100
AcDbCircle
 10
1079.5262545767
 20
810.2896142385
 30
0.0
 40
3.5
  0
CIRCLE
  5
1EB
330
1F
100
AcDbEntity
  8
0
  6
Continuous
 62
     7
370
    25
100
AcDbCircle
 10
1079.5262545767
 20
830.2896142385
 30
0.0
 40
6.200000000000045
  0
CIRCLE
  5
1EC
330
1F
100
AcDbEntity
  8
0
  6
Continuous
 62
     7
370
    25
100
AcDbCircle
 10
1079.5262545767
 20
830.2896142385
 30
0.0
 40
3.5
  0
CIRCLE
  5
1ED
330
1F
100
AcDbEntity
  8
0
  6
Continuous
 62
     7
370
    25
100
AcDbCircle
 10
629.5262545767
 20
810.2896142385
 30
0.0
 40
6.200000000000045
  0
CIRCLE
  5
1EE
330
1F
100
AcDbEntity
  8
0
  6
Continuous
 62
     7
370
    25
100
AcDbCircle
 10
629.5262545767
 20
810.2896142385
 30
0.0
 40
3.5
  0
CIRCLE
  5
1EF
330
1F
100
AcDbEntity
  8
0
  6
Continuous
 62
     7
370
    25
100
AcDbCircle
 10
1079.5262545767
 20
790.2896142385
 30
0.0
 40
6.200000000000045
  0
CIRCLE
  5
1F0
330
1F
100
AcDbEntity
  8
0
  6
Continuous
 62
     7
370
    25
100
AcDbCircle
 10
1079.5262545767
 20
790.2896142385
 30
0.0
 40
3.5
  0
CIRCLE
  5
1F1
330
1F
100
AcDbEntity
  8
0
  6
Continuous
 62
     7
370
    25
100
AcDbCircle
 10
649.5262545767
 20
840.2896142385
 30
0.0
 40
6.200000000000045
  0
CIRCLE
  5
1F2
330
1F
100
AcDbEntity
  8
0
  6
Continuous
 62
     7
370
    25
100
AcDbCircle
 10
649.5262545767
 20
840.2896142385
 30
0.0
 40
3.499999999999886
  0
CIRCLE
  5
1F3
330
1F
100
AcDbEntity
  8
0
  6
Continuous
 62
     7
370
    25
100
AcDbCircle
 10
1079.5262545767
 20
770.2896142385
 30
0.0
 40
6.199999999999932
  0
CIRCLE
  5
1F4
330
1F
100
AcDbEntity
  8
0
  6
Continuous
 62
     7
370
    25
100
AcDbCircle
 10
1079.5262545767
 20
770.2896142385
 30
0.0
 40
3.5
  0
CIRCLE
  5
1F5
330
1F
100
AcDbEntity
  8
0
  6
Continuous
 62
     7
370
    25
100
AcDbCircle
 10
649.5262545767
 20
820.2896142385
 30
0.0
 40
6.200000000000045
  0
CIRCLE
  5
1F6
330
1F
100
AcDbEntity
  8
0
  6
Continuous
 62
     7
370
    25
100
AcDbCircle
 10
649.5262545767
 20
820.2896142385
 30
0.0
 40
3.5
  0
CIRCLE
  5
1F7
330
1F
100
AcDbEntity
  8
0
  6
Continuous
 62
     7
370
    25
100
AcDbCircle
 10
1099.5262545767
 20
780.2896142385
 30
0.0
 40
6.200000000000045
  0
CIRCLE
  5
1F8
330
1F
100
AcDbEntity
  8
0
  6
Continuous
 62
     7
370
    25
100
AcDbCircle
 10
1099.5262545767
 20
780.2896142385
 30
0.0
 40
3.5
  0
CIRCLE
  5
1F9
330
1F
100
AcDbEntity
  8
0
  6
Continuous
 62
     7
370
    25
100
AcDbCircle
 10
1099.5262545767
 20
800.2896142385
 30
0.0
 40
6.200000000000045
  0
CIRCLE
  5
1FA
330
1F
100
AcDbEntity
  8
0
  6
Continuous
 62
     7
370
    25
100
AcDbCircle
 10
1099.5262545767
 20
800.2896142385
 30
0.0
 40
3.5
  0
CIRCLE
  5
1FB
330
1F
100
AcDbEntity
  8
0
  6
Continuous
 62
     7
370
    25
100
AcDbCircle
 10
1099.5262545767
 20
820.2896142385
 30
0.0
 40
6.200000000000045
  0
CIRCLE
  5
1FC
330
1F
100
AcDbEntity
  8
0
  6
Continuous
 62
     7
370
    25
100
AcDbCircle
 10
1099.5262545767
 20
820.2896142385
 30
0.0
 40
3.5
  0
CIRCLE
  5
1FD
330
1F
100
AcDbEntity
  8
0
  6
Continuous
 62
     7
370
    25
100
AcDbCircle
 10
1099.5262545767
 20
840.2896142385
 30
0.0
 40
6.200000000000045
  0
CIRCLE
  5
1FE
330
1F
100
AcDbEntity
  8
0
  6
Continuous
 62
     7
370
    25
100
AcDbCircle
 10
1099.5262545767
 20
840.2896142385
 30
0.0
 40
3.499999999999886
  0
CIRCLE
  5
1FF
330
1F
100
AcDbEntity
  8
0
  6
Continuous
 62
     7
370
    25
100
AcDbCircle
 10
854.5262545767
 20
770.2896142385
 30
0.0
 40
6.199999999999932
  0
CIRCLE
  5
200
330
1F
100
AcDbEntity
  8
0
  6
Continuous
 62
     7
370
    25
100
AcDbCircle
 10
854.5262545767
 20
770.2896142385
 30
0.0
 40
3.5
  0
CIRCLE
  5
201
330
1F
100
AcDbEntity
  8
0
  6
Continuous
 62
     7
370
    25
100
AcDbCircle
 10
629.5262545767
 20
830.2896142385
 30
0.0
 40
6.200000000000045
  0
CIRCLE
  5
202
330
1F
100
AcDbEntity
  8
0
  6
Continuous
 62
     7
370
    25
100
AcDbCircle
 10
629.5262545767
 20
830.2896142385
 30
0.0
 40
3.5
  0
CIRCLE
  5
203
330
1F
100
AcDbEntity
  8
0
  6
Continuous
 62
     7
370
    25
100
AcDbCircle
 10
854.5262545767
 20
830.2896142385
 30
0.0
 40
6.200000000000045
  0
CIRCLE
  5
204
330
1F
100
AcDbEntity
  8
0
  6
Continuous
 62
     7
370
    25
100
AcDbCircle
 10
854.5262545767
 20
830.2896142385
 30
0.0
 40
3.5
  0
CIRCLE
  5
205
330
1F
100
AcDbEntity
  8
0
  6
Continuous
 62
     7
370
    25
100
AcDbCircle
 10
649.5262545767
 20
800.2896142385
 30
0.0
 40
6.200000000000045
  0
CIRCLE
  5
206
330
1F
100
AcDbEntity
  8
0
  6
Continuous
 62
     7
370
    25
100
AcDbCircle
 10
649.5262545767
 20
780.2896142385
 30
0.0
 40
6.200000000000045
  0
CIRCLE
  5
207
330
1F
100
AcDbEntity
  8
0
  6
Continuous
 62
     7
370
    25
100
AcDbCircle
 10
629.5262545767
 20
770.2896142385
 30
0.0
 40
6.199999999999932
  0
CIRCLE
  5
208
330
1F
100
AcDbEntity
  8
0
  6
Continuous
 62
     7
370
    25
100
AcDbCircle
 10
629.5262545767
 20
790.2896142385
 30
0.0
 40
6.200000000000045
  0
CIRCLE
  5
209
330
1F
100
AcDbEntity
  8
0
  6
Continuous
 62
     7
370
    25
100
AcDbCircle
 10
874.5262545767
 20
840.2896142385
 30
0.0
 40
6.200000000000045
  0
CIRCLE
  5
20A
330
1F
100
AcDbEntity
  8
0
  6
Continuous
 62
     7
370
    25
100
AcDbCircle
 10
874.5262545767
 20
820.2896142385
 30
0.0
 40
6.200000000000045
  0
CIRCLE
  5
20B
330
1F
100
AcDbEntity
  8
0
  6
Continuous
 62
     7
370
    25
100
AcDbCircle
 10
874.5262545767
 20
800.2896142385
 30
0.0
 40
6.200000000000045
  0
CIRCLE
  5
20C
330
1F
100
AcDbEntity
  8
0
  6
Continuous
 62
     7
370
    25
100
AcDbCircle
 10
874.5262545767
 20
780.2896142385
 30
0.0
 40
6.200000000000045
  0
CIRCLE
  5
20D
330
1F
100
AcDbEntity
  8
0
  6
Continuous
 62
     7
370
    25
100
AcDbCircle
 10
854.5262545767
 20
790.2896142385
 30
0.0
 40
6.200000000000045
  0
CIRCLE
  5
20E
330
1F
100
AcDbEntity
  8
0
  6
Continuous
 62
     7
370
    25
100
AcDbCircle
 10
854.5262545767
 20
810.2896142385
 30
0.0
 40
6.200000000000045
  0
CIRCLE
  5
20F
330
1F
100
AcDbEntity
  8
0
  6
Continuous
 62
     7
370
    25
100
AcDbCircle
 10
1169.5262545767
 20
767.2896142385
 30
0.0
 40
2.499999999999886
  0
CIRCLE
  5
210
330
1F
100
AcDbEntity
  8
0
  6
Continuous
 62
     7
370
    25
100
AcDbCircle
 10
943.5262545767
 20
843.2896142385
 30
0.0
 40
2.5
  0
LINE
  5
211
330
1F
100
AcDbEntity
  8
0
  6
Continuous
 62
     7
370
    25
100
AcDbLine
 10
1177.5262545767
 20
829.2896142385
 30
0.0
 11
1199.5262545767
 21
829.2896142385
 31
0.0
  0
ARC
  5
212
330
1F
100
AcDbEntity
  8
0
  6
Continuous
 62
     7
370
    25
100
AcDbCircle
 10
1177.5262545767
 20
823.2896142385
 30
0.0
 40
6.0
100
AcDbArc
 50
90.0
 51
180.0
  0
LINE
  5
213
330
1F
100
AcDbEntity
  8
0
  6
Continuous
 62
     7
370
    25
100
AcDbLine
 10
1171.5262545767
 20
787.2896142385
 30
0.0
 11
1171.5262545767
 21
823.2896142385
 31
0.0
  0
ARC
  5
214
330
1F
100
AcDbEntity
  8
0
  6
Continuous
 62
     7
370
    25
100
AcDbCircle
 10
1177.5262545767
 20
787.2896142385
 30
0.0
 40
6.000000000000114
100
AcDbArc
 50
180.0
 51
270.0
  0
LINE
  5
215
330
1F
100
AcDbEntity
  8
0
  6
Continuous
 62
     7
370
    25
100
AcDbLine
 10
1199.5262545767
 20
781.2896142385
 30
0.0
 11
1177.5262545767
 21
781.2896142385
 31
0.0
  0
LINE
  5
216
330
1F
100
AcDbEntity
  8
0
  6
Continuous
 62
     7
370
    25
100
AcDbLine
 10
1199.5262545767
 20
760.2896142385
 30
0.0
 11
1199.5262545767
 21
781.2896142385
 31
0.0
  0
LINE
  5
217
330
1F
100
AcDbEntity
  8
0
  6
Continuous
 62
     7
370
    25
100
AcDbLine
 10
529.5262545767
 20
760.2896142385
 30
0.0
 11
1199.5262545767
 21
760.2896142385
 31
0.0
  0
CIRCLE
  5
218
330
1F
100
AcDbEntity
  8
0
  6
Continuous
 62
     7
370
    25
100
AcDbCircle
 10
785.5262545767
 20
767.2896142385
 30
0.0
 40
2.499999999999886
  0
LINE
  5
219
330
1F
100
AcDbEntity
  8
0
  6
Continuous
 62
     7
370
    25
100
AcDbLine
 10
551.5262545767
 20
781.2896142385
 30
0.0
 11
529.5262545767
 21
781.2896142385
 31
0.0
  0
ARC
  5
21A
330
1F
100
AcDbEntity
  8
0
  6
Continuous
 62
     7
370
    25
100
AcDbCircle
 10
551.5262545767
 20
787.2896142385
 30
0.0
 40
6.0
100
AcDbArc
 50
270.0
 51
0.0
  0
LINE
  5
21B
330
1F
100
AcDbEntity
  8
0
  6
Continuous
 62
     7
370
    25
100
AcDbLine
 10
557.5262545767
 20
823.2896142385
 30
0.0
 11
557.5262545767
 21
787.2896142385
 31
0.0
  0
LINE
  5
21C
330
1F
100
AcDbEntity
  8
0
  6
Continuous
 62
     7
370
    25
100
AcDbLine
 10
529.5262545767
 20
829.2896142385
 30
0.0
 11
551.5262545767
 21
829.2896142385
 31
0.0
  0
LINE
  5
21D
330
1F
100
AcDbEntity
  8
0
  6
Continuous
 62
     7
370
    25
100
AcDbLine
 10
529.5262545767
 20
850.2896142385
 30
0.0
 11
529.5262545767
 21
829.2896142385
 31
0.0
  0
LINE
  5
21E
330
1F
100
AcDbEntity
  8
0
  6
Continuous
 62
     7
370
    25
100
AcDbLine
 10
1199.5262545767
 20
829.2896142385
 30
0.0
 11
1199.5262545767
 21
850.2896142385
 31
0.0
  0
LINE
  5
21F
330
1F
100
AcDbEntity
  8
0
  6
Continuous
 62
     7
370
    25
100
AcDbLine
 10
529.5262545767
 20
781.2896142385
 30
0.0
 11
529.5262545767
 21
760.2896142385
 31
0.0
  0
CIRCLE
  5
220
330
1F
100
AcDbEntity
  8
0
  6
Continuous
 62
     7
370
    25
100
AcDbCircle
 10
559.5262545767
 20
843.2896142385
 30
0.0
 40
2.5
  0
CIRCLE
  5
221
330
1F
100
AcDbEntity
  8
0
  6
Continuous
 62
     7
370
    25
100
AcDbCircle
 10
736.5262545767
 20
843.2896142385
 30
0.0
 40
2.5
  0
CIRCLE
  5
222
330
1F
100
AcDbEntity
  8
0
  6
Continuous
 62
     7
370
    25
100
AcDbCircle
 10
785.5262545767
 20
843.2896142385
 30
0.0
 40
2.5
  0
CIRCLE
  5
223
330
1F
100
AcDbEntity
  8
0
  6
Continuous
 62
     7
370
    25
100
AcDbCircle
 10
992.5262545767
 20
843.2896142385
 30
0.0
 40
2.5
  0
CIRCLE
  5
224
330
1F
100
AcDbEntity
  8
0
  6
Continuous
 62
     7
370
    25
100
AcDbCircle
 10
1169.5262545767
 20
843.2896142385
 30
0.0
 40
2.5
  0
CIRCLE
  5
225
330
1F
100
AcDbEntity
  8
0
  6
Continuous
 62
     7
370
    25
100
AcDbCircle
 10
992.5262545767
 20
767.2896142385
 30
0.0
 40
2.499999999999886
  0
CIRCLE
  5
226
330
1F
100
AcDbEntity
  8
0
  6
Continuous
 62
     7
370
    25
100
AcDbCircle
 10
943.5262545767
 20
767.2896142385
 30
0.0
 40
2.499999999999886
  0
CIRCLE
  5
227
330
1F
100
AcDbEntity
  8
0
  6
Continuous
 62
     7
370
    25
100
AcDbCircle
 10
736.5262545767
 20
767.2896142385
 30
0.0
 40
2.499999999999886
  0
CIRCLE
  5
228
330
1F
100
AcDbEntity
  8
0
  6
Continuous
 62
     7
370
    25
100
AcDbCircle
 10
559.5262545767
 20
767.2896142385
 30
0.0
 40
2.499999999999886
  0
ARC
  5
229
330
1F
100
AcDbEntity
  8
0
  6
Continuous
 62
     7
370
    25
100
AcDbCircle
 10
551.5262545767
 20
823.2896142385
 30
0.0
 40
6.0
100
AcDbArc
 50
0.0
 51
90.0
  0
LINE
  5
22A
330
1F
100
AcDbEntity
  8
0
  6
Continuous
 62
     7
370
    25
100
AcDbLine
 10
1199.5262545767
 20
850.2896142385
 30
0.0
 11
529.5262545767
 21
850.2896142385
 31
0.0
  0
CIRCLE
  5
22B
330
1F
100
AcDbEntity
  8
0
  6
Continuous
 62
     7
370
    25
100
AcDbCircle
 10
874.5262545767
 20
840.2896142385
 30
0.0
 40
3.499999999999886
  0
CIRCLE
  5
22C
330
1F
100
AcDbEntity
  8
0
  6
Continuous
 62
     7
370
    25
100
AcDbCircle
 10
874.5262545767
 20
800.2896142385
 30
0.0
 40
3.5
  0
CIRCLE
  5
22D
330
1F
100
AcDbEntity
  8
0
  6
Continuous
 62
     7
370
    25
100
AcDbCircle
 10
649.5262545767
 20
780.2896142385
 30
0.0
 40
3.5
  0
CIRCLE
  5
22E
330
1F
100
AcDbEntity
  8
0
  6
Continuous
 62
     7
370
    25
100
AcDbCircle
 10
874.5262545767
 20
820.2896142385
 30
0.0
 40
3.5
  0
CIRCLE
  5
22F
330
1F
100
AcDbEntity
  8
0
  6
Continuous
 62
     7
370
    25
100
AcDbCircle
 10
854.5262545767
 20
790.2896142385
 30
0.0
 40
3.5
  0
CIRCLE
  5
230
330
1F
100
AcDbEntity
  8
0
  6
Continuous
 62
     7
370
    25
100
AcDbCircle
 10
854.5262545767
 20
810.2896142385
 30
0.0
 40
3.5
  0
CIRCLE
  5
231
330
1F
100
AcDbEntity
  8
0
  6
Continuous
 62
     7
370
    25
100
AcDbCircle
 10
629.5262545767
 20
770.2896142385
 30
0.0
 40
3.5
  0
CIRCLE
  5
232
330
1F
100
AcDbEntity
  8
0
  6
Continuous
 62
     7
370
    25
100
AcDbCircle
 10
649.5262545767
 20
800.2896142385
 30
0.0
 40
3.5
  0
CIRCLE
  5
233
330
1F
100
AcDbEntity
  8
0
  6
Continuous
 62
     7
370
    25
100
AcDbCircle
 10
874.5262545767
 20
780.2896142385
 30
0.0
 40
3.5
  0
CIRCLE
  5
234
330
1F
100
AcDbEntity
  8
0
  6
Continuous
 62
     7
370
    25
100
AcDbCircle
 10
629.5262545767
 20
790.2896142385
 30
0.0
 40
3.5
  0
CIRCLE
  5
235
330
1F
100
AcDbEntity
  8
0
  6
Continuous
 62
     7
370
    25
100
AcDbCircle
 10
608.5262545767
 20
734.0396142362
 30
0.0
 40
2.500000000000114
  0
LINE
  5
236
330
1F
100
AcDbEntity
  8
0
  6
Continuous
 62
     7
370
    25
100
AcDbLine
 10
1494.5262545767
 20
751.2896142362
 30
0.0
 11
544.5262545767
 21
751.2896142362
 31
0.0
  0
LINE
  5
237
330
1F
100
AcDbEntity
  8
0
  6
Continuous
 62
     7
370
    25
100
AcDbLine
 10
1494.5262545767
 20
456.2896142362
 30
0.0
 11
1494.5262545767
 21
751.2896142362
 31
0.0
  0
LINE
  5
238
330
1F
100
AcDbEntity
  8
0
  6
Continuous
 62
     7
370
    25
100
AcDbLine
 10
544.5262545767
 20
456.2896142362
 30
0.0
 11
1494.5262545767
 21
456.2896142362
 31
0.0
  0
LINE
  5
239
330
1F
100
AcDbEntity
  8
0
  6
Continuous
 62
     7
370
    25
100
AcDbLine
 10
544.5262545767
 20
751.2896142362
 30
0.0
 11
544.5262545767
 21
456.2896142362
 31
0.0
  0
CIRCLE
  5
23A
330
1F
100
AcDbEntity
  8
0
  6
Continuous
 62
     7
370
    25
100
AcDbCircle
 10
1241.5262545767
 20
734.0396142362
 30
0.0
 40
2.499999999999773
  0
LINE
  5
23B
330
1F
100
AcDbEntity
  8
0
  6
Continuous
 62
     7
370
    25
100
AcDbLine
 10
1499.5262545767
 20
456.2896142362
 30
0.0
 11
1494.5262545767
 21
456.2896142362
 31
0.0
  0
LINE
  5
23C
330
1F
100
AcDbEntity
  8
0
  6
Continuous
 62
     7
370
    25
100
AcDbLine
 10
544.5262545767
 20
456.2896142362
 30
0.0
 11
539.5262545767
 21
456.2896142362
 31
0.0
  0
LINE
  5
23D
330
1F
100
AcDbEntity
  8
0
  6
Continuous
 62
     7
370
    25
100
AcDbLine
 10
419.5262545767
 20
956.2896142362
 30
0.0
 11
419.5262545767
 21
456.2896142362
 31
0.0
  0
LINE
  5
23E
330
1F
100
AcDbEntity
  8
0
  6
Continuous
 62
     7
370
    25
100
AcDbLine
 10
1499.5262545767
 20
456.2896142362
 30
0.0
 11
1619.5262545767
 21
456.2896142362
 31
0.0
  0
LINE
  5
23F
330
1F
100
AcDbEntity
  8
0
  6
Continuous
 62
     7
370
    25
100
AcDbLine
 10
1499.5262545767
 20
456.2896142362
 30
0.0
 11
1499.5262545767
 21
756.2896142362
 31
0.0
  0
LINE
  5
240
330
1F
100
AcDbEntity
  8
0
  6
Continuous
 62
     7
370
    25
100
AcDbLine
 10
1499.5262545767
 20
756.2896142362
 30
0.0
 11
539.5262545767
 21
756.2896142362
 31
0.0
  0
LINE
  5
241
330
1F
100
AcDbEntity
  8
0
  6
Continuous
 62
     7
370
    25
100
AcDbLine
 10
539.5262545767
 20
756.2896142362
 30
0.0
 11
539.5262545767
 21
456.2896142362
 31
0.0
  0
LINE
  5
242
330
1F
100
AcDbEntity
  8
0
  6
Continuous
 62
     7
370
    25
100
AcDbLine
 10
419.5262545767
 20
456.2896142362
 30
0.0
 11
539.5262545767
 21
456.2896142362
 31
0.0
  0
CIRCLE
  5
243
330
1F
100
AcDbEntity
  8
0
  6
Continuous
 62
     7
370
    25
100
AcDbCircle
 10
543.5262545767
 20
818.2896142362
 30
0.0
 40
10.0
  0
CIRCLE
  5
244
330
1F
100
AcDbEntity
  8
0
  6
Continuous
 62
     7
370
    25
100
AcDbCircle
 10
1185.5262545767
 20
794.2896142362
 30
0.0
 40
10.0
  0
CIRCLE
  5
245
330
1F
100
AcDbEntity
  8
0
  6
Continuous
 62
     7
370
    25
100
AcDbCircle
 10
1185.5262545767
 20
818.2896142362
 30
0.0
 40
10.0
  0
CIRCLE
  5
246
330
1F
100
AcDbEntity
  8
0
  6
Continuous
 62
     7
370
    25
100
AcDbCircle
 10
543.5262545767
 20
794.2896142362
 30
0.0
 40
10.0
  0
LINE
  5
247
330
1F
100
AcDbEntity
  8
0
  6
Continuous
 62
     7
370
    25
100
AcDbLine
 10
1619.5262545767
 20
956.2896142362
 30
0.0
 11
419.5262545767
 21
956.2896142362
 31
0.0
  0
LINE
  5
248
330
1F
100
AcDbEntity
  8
0
  6
Continuous
 62
     7
370
    25
100
AcDbLine
 10
1619.5262545767
 20
456.2896142362
 30
0.0
 11
1619.5262545767
 21
956.2896142362
 31
0.0
  0
DIMENSION
  5
249
330
1F
100
AcDbEntity
  8
FORMAT
100
AcDbDimension
  2
_D_6
 10
529.5262545767
 20
981.0049314965
 30
0.0
 11
460.3323136016
 21
981.0049314965
 31
0.0
 70
   160
  1
<>
 71
     2
 42
-1.0
  3
SLDDIMSTYLE1
100
AcDbAlignedDimension
 13
519.5262545767
 23
621.2896142362
 33
0.0
 14
529.5262545767
 24
781.2896142385
 34
0.0
100
AcDbRotatedDimension
  0
DIMENSION
  5
255
330
1F
100
AcDbEntity
  8
FORMAT
100
AcDbDimension
  2
_D_7
 10
543.5262545767
 20
1026.2896142362
 30
0.0
 11
460.3323136016
 21
1026.2896142362
 31
0.0
 70
   160
  1
<>
 71
     2
 42
-1.0
  3
SLDDIMSTYLE1
100
AcDbAlignedDimension
 13
519.5262545767
 23
621.2896142362
 33
0.0
 14
543.5262545767
 24
806.7896142362
 34
0.0
100
AcDbRotatedDimension
  0
DIMENSION
  5
261
330
1F
100
AcDbEntity
  8
FORMAT
100
AcDbDimension
  2
_D_8
 10
629.5262545767
 20
1068.2896142362
 30
0.0
 11
574.5262545767
 21
1068.2896142362
 31
0.0
 70
   160
  1
<>
 71
     2
 42
-1.0
  3
SLDDIMSTYLE0
100
AcDbAlignedDimension
 13
519.5262545767
 23
621.2896142362
 33
0.0
 14
629.5262545767
 24
838.9896142385
 34
0.0
100
AcDbRotatedDimension
  0
DIMENSION
  5
26B
330
1F
100
AcDbEntity
  8
FORMAT
100
AcDbDimension
  2
_D_9
 10
854.5262545767
 20
1068.2896142362
 30
0.0
 11
742.0262545767
 21
1068.2896142362
 31
0.0
 70
   160
  1
<>
 71
     2
 42
-1.0
  3
SLDDIMSTYLE0
100
AcDbAlignedDimension
 13
629.5262545767
 23
838.9896142385
 33
0.0
 14
854.5262545767
 24
838.9896142385
 34
0.0
100
AcDbRotatedDimension
  0
DIMENSION
  5
275
330
1F
100
AcDbEntity
  8
FORMAT
100
AcDbDimension
  2
_D_10
 10
1079.5262545767
 20
1068.2896142362
 30
0.0
 11
967.0262545767
 21
1068.2896142362
 31
0.0
 70
   160
  1
<>
 71
     2
 42
-1.0
  3
SLDDIMSTYLE0
100
AcDbAlignedDimension
 13
854.5262545767
 23
838.9896142385
 33
0.0
 14
1079.5262545767
 24
838.9896142385
 34
0.0
100
AcDbRotatedDimension
  0
DIMENSION
  5
27F
330
1F
100
AcDbEntity
  8
FORMAT
100
AcDbDimension
  2
_D_11
 10
1185.5262545767
 20
1120.2457038055
 30
0.0
 11
852.5262545767
 21
1120.2457038055
 31
0.0
 70
   160
  1
<>
 71
     2
 42
-1.0
  3
SLDDIMSTYLE0
100
AcDbAlignedDimension
 13
519.5262545767
 23
621.2896142362
 33
0.0
 14
1185.5262545767
 24
830.7896142362
 34
0.0
100
AcDbRotatedDimension
  0
DIMENSION
  5
289
330
1F
100
AcDbEntity
  8
FORMAT
100
AcDbDimension
  2
_D_12
 10
1199.5262545767
 20
1165.0766392524
 30
0.0
 11
859.5262545767
 21
1165.0766392524
 31
0.0
 70
   160
  1
<>
 71
     2
 42
-1.0
  3
SLDDIMSTYLE0
100
AcDbAlignedDimension
 13
519.5262545767
 23
621.2896142362
 33
0.0
 14
1199.5262545767
 24
850.2896142385
 34
0.0
100
AcDbRotatedDimension
  0
DIMENSION
  5
293
330
1F
100
AcDbEntity
  8
FORMAT
100
AcDbDimension
  2
_D_13
 10
608.5262545767
 20
578.2102780426
 30
0.0
 11
564.0262545767
 21
578.2102780426
 31
0.0
 70
   160
  1
<>
 71
     2
 42
-1.0
  3
SLDDIMSTYLE0
100
AcDbAlignedDimension
 13
519.5262545767
 23
621.2896142362
 33
0.0
 14
608.5262545767
 24
729.0396142362
 34
0.0
100
AcDbRotatedDimension
  0
DIMENSION
  5
29C
330
1F
100
AcDbEntity
  8
FORMAT
100
AcDbDimension
  2
_D_14
 10
1241.5262545767
 20
578.2102780426
 30
0.0
 11
925.0262545767
 21
578.2102780426
 31
0.0
 70
   160
  1
<>
 71
     2
 42
-1.0
  3
SLDDIMSTYLE0
100
AcDbAlignedDimension
 13
608.5262545767
 23
729.0396142362
 33
0.0
 14
1241.5262545767
 24
729.0396142362
 34
0.0
100
AcDbRotatedDimension
  0
DIMENSION
  5
2A6
330
1F
100
AcDbEntity
  8
FORMAT
100
AcDbDimension
  2
_D_15
 10
1286.4790859725
 20
756.2896142362
 30
0.0
 11
1286.4790859725
 21
681.808616052
 31
0.0
 70
   160
  1
<>
 71
     2
 42
-1.0
  3
SLDDIMSTYLE2
100
AcDbAlignedDimension
 13
1246.5262545767
 23
734.0396142362
 33
0.0
 14
1499.5262545767
 24
756.2896142362
 34
0.0
 50
90.0
100
AcDbRotatedDimension
  0
DIMENSION
  5
2B2
330
1F
100
AcDbEntity
  8
FORMAT
100
AcDbDimension
  2
_D_16
 10
1245.4589751399
 20
850.2896142385
 30
0.0
 11
1245.4589751399
 21
805.2896142385
 31
0.0
 70
   160
  1
<>
 71
     2
 42
-1.0
  3
SLDDIMSTYLE0
100
AcDbAlignedDimension
 13
1199.5262545767
 23
760.2896142385
 33
0.0
 14
1199.5262545767
 24
850.2896142385
 34
0.0
 50
90.0
100
AcDbRotatedDimension
  0
DIMENSION
  5
2BC
330
1F
100
AcDbEntity
  8
FORMAT
100
AcDbDimension
  2
_D_17
 10
403.7084883516
 20
760.2896142385
 30
0.0
 11
403.7084883516
 21
716.6663379796
 31
0.0
 70
   160
  1
<>
 71
     2
 42
-1.0
  3
SLDDIMSTYLE1
100
AcDbAlignedDimension
 13
539.5262545767
 23
756.2896142362
 33
0.0
 14
529.5262545767
 24
760.2896142385
 34
0.0
 50
90.0
100
AcDbRotatedDimension
  0
DIMENSION
  5
2C8
330
1F
100
AcDbEntity
  8
FORMAT
100
AcDbDimension
  2
_D_18
 10
820.0771502369
 20
770.2896142385
 30
0.0
 11
820.0771502369
 21
707.18185821
 31
0.0
 70
   160
  1
<>
 71
     2
 42
-1.0
  3
SLDDIMSTYLE1
100
AcDbAlignedDimension
 13
539.5262545767
 23
756.2896142362
 33
0.0
 14
845.8262545767
 24
770.2896142385
 34
0.0
 50
90.0
100
AcDbRotatedDimension
  0
DIMENSION
  5
2D3
330
1F
100
AcDbEntity
  8
FORMAT
100
AcDbDimension
  2
_D_19
 10
356.2860895036
 20
794.2896142362
 30
0.0
 11
356.2860895036
 21
716.6663379796
 31
0.0
 70
   160
  1
<>
 71
     2
 42
-1.0
  3
SLDDIMSTYLE1
100
AcDbAlignedDimension
 13
529.5262545767
 23
760.2896142385
 33
0.0
 14
531.0262545767
 24
794.2896142362
 34
0.0
 50
90.0
100
AcDbRotatedDimension
  0
DIMENSION
  5
2E0
330
1F
100
AcDbEntity
  8
FORMAT
100
AcDbDimension
  2
_D_20
 10
314.1653904154
 20
818.2896142362
 30
0.0
 11
314.1653904154
 21
716.6663379796
 31
0.0
 70
   160
  1
<>
 71
     2
 42
-1.0
  3
SLDDIMSTYLE1
100
AcDbAlignedDimension
 13
531.0262545767
 23
794.2896142362
 33
0.0
 14
531.0262545767
 24
818.2896142362
 34
0.0
 50
90.0
100
AcDbRotatedDimension
  0
MTEXT
  5
2EE
330
1F
100
AcDbEntity
  8
FORMAT
100
AcDbMText
 10
1363.3564314226
 20
870.8539567868
 30
0.0
 40
18.5208333333
 41
0.0
 71
     1
 72
     1
  1
Unterkante Türrahmen
  7
SLDTEXTSTYLE0
 73
     1
 44
1.0
  0
LEADER
  5
2F0
330
1F
100
AcDbEntity
  8
FORMAT
100
AcDbLeader
  3
SLDDIMSTYLE3
 76
     3
 10
1315.4044444891
 20
756.2896142362
 30
0.0
 10
1314.8417026793
 20
861.4952314871
 30
0.0
 10
1359.2917026793
 20
861.4952314871
 30
0.0
  0
MTEXT
  5
2F1
330
1F
100
AcDbEntity
  8
FORMAT
100
AcDbMText
 10
1393.2167964068
 20
1004.6850964629
 30
0.0
 40
18.5208333333
 41
0.0
 71
     1
 72
     1
  1
ø20 (optional)
  7
SLDTEXTSTYLE0
 73
     1
 44
1.0
  0
LEADER
  5
2F2
330
1F
100
AcDbEntity
  8
FORMAT
100
AcDbLeader
  3
SLDDIMSTYLE3
 76
     3
 10
1195.2055824892
 20
820.8017072205
 30
0.0
 10
1345.0923509075
 20
995.2030966557
 30
0.0
 10
1389.5423509075
 20
995.2030966557
 30
0.0
  0
INSERT
  5
2F8
102
{ACAD_REACTORS
330
2F9
102
}
330
1F
100
AcDbEntity
  8
FORMAT
100
AcDbBlockReference
  2
SW_NOTE_0_6
 10
395.9322662007
 20
973.3189368239
 30
0.0
  0
LEADER
  5
2F9
330
1F
100
AcDbEntity
  8
FORMAT
100
AcDbLeader
  3
SLDDIMSTYLE3
 73
     2
 76
     3
 10
536.4746271113
 20
825.3800690939
 30
0.0
 10
440.3822662007
 20
973.3189368239
 30
0.0
 10
395.9322662007
 20
973.3189368239
 30
0.0
340
2F8
  0
INSERT
  5
305
330
1F
100
AcDbEntity
  8
FORMAT
100
AcDbBlockReference
  2
SW_CENTERMARKSYMBOL_0
 10
608.5262545767
 20
734.0396142362
 30
0.0
  0
INSERT
  5
311
330
1F
100
AcDbEntity
  8
FORMAT
100
AcDbBlockReference
  2
SW_CENTERMARKSYMBOL_1
 10
1241.5262545767
 20
734.0396142362
 30
0.0
  0
INSERT
  5
31D
330
1F
100
AcDbEntity
  8
FORMAT
100
AcDbBlockReference
  2
SW_CENTERMARKSYMBOL_2
 10
543.5262545767
 20
794.2896142362
 30
0.0
  0
INSERT
  5
329
330
1F
100
AcDbEntity
  8
FORMAT
100
AcDbBlockReference
  2
SW_CENTERMARKSYMBOL_3
 10
543.5262545767
 20
818.2896142362
 30
0.0
  0
INSERT
  5
335
330
1F
100
AcDbEntity
  8
FORMAT
100
AcDbBlockReference
  2
SW_CENTERMARKSYMBOL_4
 10
559.5262545767
 20
767.2896142385
 30
0.0
  0
INSERT
  5
341
330
1F
100
AcDbEntity
  8
FORMAT
100
AcDbBlockReference
  2
SW_CENTERMARKSYMBOL_5
 10
559.5262545767
 20
843.2896142385
 30
0.0
  0
INSERT
  5
34D
330
1F
100
AcDbEntity
  8
FORMAT
100
AcDbBlockReference
  2
SW_CENTERMARKSYMBOL_6
 10
629.5262545767
 20
770.2896142385
 30
0.0
  0
INSERT
  5
359
330
1F
100
AcDbEntity
  8
FORMAT
100
AcDbBlockReference
  2
SW_CENTERMARKSYMBOL_7
 10
649.5262545767
 20
780.2896142385
 30
0.0
  0
INSERT
  5
365
330
1F
100
AcDbEntity
  8
FORMAT
100
AcDbBlockReference
  2
SW_CENTERMARKSYMBOL_8
 10
629.5262545767
 20
790.2896142385
 30
0.0
  0
INSERT
  5
371
330
1F
100
AcDbEntity
  8
FORMAT
100
AcDbBlockReference
  2
SW_CENTERMARKSYMBOL_9
 10
649.5262545767
 20
800.2896142385
 30
0.0
  0
INSERT
  5
37D
330
1F
100
AcDbEntity
  8
FORMAT
100
AcDbBlockReference
  2
SW_CENTERMARKSYMBOL_10
 10
629.5262545767
 20
810.2896142385
 30
0.0
  0
INSERT
  5
389
330
1F
100
AcDbEntity
  8
FORMAT
100
AcDbBlockReference
  2
SW_CENTERMARKSYMBOL_11
 10
649.5262545767
 20
820.2896142385
 30
0.0
  0
INSERT
  5
395
330
1F
100
AcDbEntity
  8
FORMAT
100
AcDbBlockReference
  2
SW_CENTERMARKSYMBOL_12
 10
629.5262545767
 20
830.2896142385
 30
0.0
  0
INSERT
  5
3A1
330
1F
100
AcDbEntity
  8
FORMAT
100
AcDbBlockReference
  2
SW_CENTERMARKSYMBOL_13
 10
649.5262545767
 20
840.2896142385
 30
0.0
  0
INSERT
  5
3AD
330
1F
100
AcDbEntity
  8
FORMAT
100
AcDbBlockReference
  2
SW_CENTERMARKSYMBOL_14
 10
736.5262545767
 20
767.2896142385
 30
0.0
  0
INSERT
  5
3B9
330
1F
100
AcDbEntity
  8
FORMAT
100
AcDbBlockReference
  2
SW_CENTERMARKSYMBOL_15
 10
736.5262545767
 20
843.2896142385
 30
0.0
  0
INSERT
  5
3C5
330
1F
100
AcDbEntity
  8
FORMAT
100
AcDbBlockReference
  2
SW_CENTERMARKSYMBOL_16
 10
785.5262545767
 20
843.2896142385
 30
0.0
  0
INSERT
  5
3D1
330
1F
100
AcDbEntity
  8
FORMAT
100
AcDbBlockReference
  2
SW_CENTERMARKSYMBOL_17
 10
785.5262545767
 20
767.2896142385
 30
0.0
  0
INSERT
  5
3DD
330
1F
100
AcDbEntity
  8
FORMAT
100
AcDbBlockReference
  2
SW_CENTERMARKSYMBOL_18
 10
854.5262545767
 20
770.2896142385
 30
0.0
  0
INSERT
  5
3E9
330
1F
100
AcDbEntity
  8
FORMAT
100
AcDbBlockReference
  2
SW_CENTERMARKSYMBOL_19
 10
854.5262545767
 20
790.2896142385
 30
0.0
  0
INSERT
  5
3F5
330
1F
100
AcDbEntity
  8
FORMAT
100
AcDbBlockReference
  2
SW_CENTERMARKSYMBOL_20
 10
854.5262545767
 20
810.2896142385
 30
0.0
  0
INSERT
  5
401
330
1F
100
AcDbEntity
  8
FORMAT
100
AcDbBlockReference
  2
SW_CENTERMARKSYMBOL_21
 10
854.5262545767
 20
830.2896142385
 30
0.0
  0
INSERT
  5
40D
330
1F
100
AcDbEntity
  8
FORMAT
100
AcDbBlockReference
  2
SW_CENTERMARKSYMBOL_22
 10
874.5262545767
 20
840.2896142385
 30
0.0
  0
INSERT
  5
419
330
1F
100
AcDbEntity
  8
FORMAT
100
AcDbBlockReference
  2
SW_CENTERMARKSYMBOL_23
 10
874.5262545767
 20
820.2896142385
 30
0.0
  0
INSERT
  5
425
330
1F
100
AcDbEntity
  8
FORMAT
100
AcDbBlockReference
  2
SW_CENTERMARKSYMBOL_24
 10
874.5262545767
 20
800.2896142385
 30
0.0
  0
INSERT
  5
431
330
1F
100
AcDbEntity
  8
FORMAT
100
AcDbBlockReference
  2
SW_CENTERMARKSYMBOL_25
 10
874.5262545767
 20
780.2896142385
 30
0.0
  0
INSERT
  5
43D
330
1F
100
AcDbEntity
  8
FORMAT
100
AcDbBlockReference
  2
SW_CENTERMARKSYMBOL_26
 10
992.5262545767
 20
843.2896142385
 30
0.0
  0
INSERT
  5
449
330
1F
100
AcDbEntity
  8
FORMAT
100
AcDbBlockReference
  2
SW_CENTERMARKSYMBOL_27
 10
943.5262545767
 20
843.2896142385
 30
0.0
  0
INSERT
  5
455
330
1F
100
AcDbEntity
  8
FORMAT
100
AcDbBlockReference
  2
SW_CENTERMARKSYMBOL_28
 10
943.5262545767
 20
767.2896142385
 30
0.0
  0
INSERT
  5
461
330
1F
100
AcDbEntity
  8
FORMAT
100
AcDbBlockReference
  2
SW_CENTERMARKSYMBOL_29
 10
992.5262545767
 20
767.2896142385
 30
0.0
  0
INSERT
  5
46D
330
1F
100
AcDbEntity
  8
FORMAT
100
AcDbBlockReference
  2
SW_CENTERMARKSYMBOL_30
 10
1079.5262545767
 20
770.2896142385
 30
0.0
  0
INSERT
  5
479
330
1F
100
AcDbEntity
  8
FORMAT
100
AcDbBlockReference
  2
SW_CENTERMARKSYMBOL_31
 10
1079.5262545767
 20
790.2896142385
 30
0.0
  0
INSERT
  5
485
330
1F
100
AcDbEntity
  8
FORMAT
100
AcDbBlockReference
  2
SW_CENTERMARKSYMBOL_32
 10
1079.5262545767
 20
810.2896142385
 30
0.0
  0
INSERT
  5
491
330
1F
100
AcDbEntity
  8
FORMAT
100
AcDbBlockReference
  2
SW_CENTERMARKSYMBOL_33
 10
1079.5262545767
 20
830.2896142385
 30
0.0
  0
INSERT
  5
49D
330
1F
100
AcDbEntity
  8
FORMAT
100
AcDbBlockReference
  2
SW_CENTERMARKSYMBOL_34
 10
1099.5262545767
 20
840.2896142385
 30
0.0
  0
INSERT
  5
4A9
330
1F
100
AcDbEntity
  8
FORMAT
100
AcDbBlockReference
  2
SW_CENTERMARKSYMBOL_35
 10
1099.5262545767
 20
820.2896142385
 30
0.0
  0
INSERT
  5
4B5
330
1F
100
AcDbEntity
  8
FORMAT
100
AcDbBlockReference
  2
SW_CENTERMARKSYMBOL_36
 10
1099.5262545767
 20
800.2896142385
 30
0.0
  0
INSERT
  5
4C1
330
1F
100
AcDbEntity
  8
FORMAT
100
AcDbBlockReference
  2
SW_CENTERMARKSYMBOL_37
 10
1099.5262545767
 20
780.2896142385
 30
0.0
  0
INSERT
  5
4CD
330
1F
100
AcDbEntity
  8
FORMAT
100
AcDbBlockReference
  2
SW_CENTERMARKSYMBOL_38
 10
1169.5262545767
 20
767.2896142385
 30
0.0
  0
INSERT
  5
4D9
330
1F
100
AcDbEntity
  8
FORMAT
100
AcDbBlockReference
  2
SW_CENTERMARKSYMBOL_39
 10
1169.5262545767
 20
843.2896142385
 30
0.0
  0
INSERT
  5
4E5
330
1F
100
AcDbEntity
  8
FORMAT
100
AcDbBlockReference
  2
SW_CENTERMARKSYMBOL_40
 10
1185.5262545767
 20
818.2896142362
 30
0.0
  0
INSERT
  5
4F1
330
1F
100
AcDbEntity
  8
FORMAT
100
AcDbBlockReference
  2
SW_CENTERMARKSYMBOL_41
 10
1185.5262545767
 20
794.2896142362
 30
0.0
  0
CIRCLE
  5
4F2
330
1F
100
AcDbEntity
  8
0
  6
Continuous
 62
     7
370
    18
100
AcDbCircle
 10
864.3620422699
 20
804.8717947466
 30
0.0
 40
57.14707116684019
  0
MTEXT
  5
4F3
330
1F
100
AcDbEntity
  8
0
  6
Continuous
 62
     7
370
    18
100
AcDbMText
 10
937.53216604
 20
827.369787952
 30
0.0
 40
35.0
 41
0.0
 71
     1
 72
     1
  1
C
  7
SLDTEXTSTYLE0
 73
     1
 44
1.0
  0
LINE
  5
4F4
330
1F
100
AcDbEntity
  8
FORMAT
  6
CENTERX2
370
    18
100
AcDbLine
 10
519.5262545767
 20
621.2896142362
 30
0.0
 11
519.5262545767
 21
529.2969894673
 31
0.0
  0
LINE
  5
4F5
330
1F
100
AcDbEntity
  8
0
  6
Continuous
 62
     7
370
    25
100
AcDbLine
 10
2362.1757954605
 20
1728.3501293705
 30
0.0
 11
2362.1757954605
 21
1729.3501293705
 31
0.0
  0
LINE
  5
4F6
330
1F
100
AcDbEntity
  8
0
  6
Continuous
 62
     7
370
    25
100
AcDbLine
 10
2275.4257954573
 20
1620.3501293706
 30
0.0
 11
2275.4257954573
 21
1618.3501293767
 31
0.0
  0
LINE
  5
4F7
330
1F
100
AcDbEntity
  8
0
  6
Continuous
 62
     7
370
    25
100
AcDbLine
 10
2289.4257954573
 20
1618.3501293767
 30
0.0
 11
2289.4257954573
 21
1620.3501293706
 31
0.0
  0
LINE
  5
4F8
330
1F
100
AcDbEntity
  8
0
  6
Continuous
 62
     7
370
    25
100
AcDbLine
 10
2287.4257954573
 20
1620.3501293706
 30
0.0
 11
2287.4257954573
 21
1620.8501293706
 31
0.0
  0
LINE
  5
4F9
330
1F
100
AcDbEntity
  8
0
  6
Continuous
 62
     7
370
    25
100
AcDbLine
 10
2277.4257954573
 20
1620.8501293706
 30
0.0
 11
2277.4257954573
 21
1620.3501293706
 31
0.0
  0
LINE
  5
4FA
330
1F
100
AcDbEntity
  8
0
  6
Continuous
 62
     7
370
    25
100
AcDbLine
 10
2324.1757954607
 20
1632.3501293705
 30
0.0
 11
2324.1757954607
 21
1630.8501293707
 31
0.0
  0
LINE
  5
4FB
330
1F
100
AcDbEntity
  8
0
  6
Continuous
 62
     7
370
    25
100
AcDbLine
 10
2354.1757954606
 20
1621.8501293707
 30
0.0
 11
2354.1757954606
 21
1633.3501293705
 31
0.0
  0
LINE
  5
4FC
330
1F
100
AcDbEntity
  8
0
  6
Continuous
 62
     7
370
    25
100
AcDbLine
 10
2353.1757954606
 20
1620.8501293707
 30
0.0
 11
2354.1757954606
 21
1621.8501293707
 31
0.0
  0
LWPOLYLINE
  5
4FD
330
1F
100
AcDbEntity
  8
0
  6
Continuous
 62
     7
370
    25
100
AcDbPolyline
 90
        3
 70
   128
 43
0.0
 10
2323.954722222
 20
1629.5953642629
 10
2323.837346106
 20
1629.0964043444
 10
2323.6717312835
 20
1628.5275937295
  0
ARC
  5
4FE
330
1F
100
AcDbEntity
  8
0
  6
Continuous
 62
     7
370
    25
100
AcDbCircle
 10
2321.1757954607
 20
1630.8501293707
 30
0.0
 40
3.0
100
AcDbArc
 50
344.6044386811
 51
0.0000000003
  0
LINE
  5
4FF
330
1F
100
AcDbEntity
  8
0
  6
Continuous
 62
     7
370
    25
100
AcDbLine
 10
2271.4257954576
 20
1621.8501293705
 30
0.0
 11
2272.4257954576
 21
1620.8501293705
 31
0.0
  0
LINE
  5
500
330
1F
100
AcDbEntity
  8
0
  6
Continuous
 62
     7
370
    25
100
AcDbLine
 10
2272.4257954576
 20
1627.8501293705
 30
0.0
 11
2271.4257954576
 21
1626.8501293705
 31
0.0
  0
LINE
  5
501
330
1F
100
AcDbEntity
  8
0
  6
Continuous
 62
     7
370
    25
100
AcDbLine
 10
2271.4257954576
 20
1626.8501293705
 30
0.0
 11
2271.4257954576
 21
1621.8501293705
 31
0.0
  0
LINE
  5
502
330
1F
100
AcDbEntity
  8
0
  6
Continuous
 62
     7
370
    25
100
AcDbLine
 10
2199.1757954586
 20
1331.8501293705
 30
0.0
 11
2199.1757954586
 21
1651.8501293705
 31
0.0
  0
LINE
  5
503
330
1F
100
AcDbEntity
  8
0
  6
Continuous
 62
     7
370
    25
100
AcDbLine
 10
2199.1757954586
 20
1651.8501293705
 30
0.0
 11
2239.1757954586
 21
1651.8501293705
 31
0.0
  0
LINE
  5
504
330
1F
100
AcDbEntity
  8
0
  6
Continuous
 62
     7
370
    25
100
AcDbLine
 10
2239.1757954586
 20
1626.8501293705
 30
0.0
 11
2239.1757954586
 21
1651.8501293705
 31
0.0
  0
LINE
  5
505
330
1F
100
AcDbEntity
  8
0
  6
Continuous
 62
     7
370
    25
100
AcDbLine
 10
2239.1757954586
 20
1626.8501293705
 30
0.0
 11
2269.1757954586
 21
1626.8501293705
 31
0.0
  0
LINE
  5
506
330
1F
100
AcDbEntity
  8
0
  6
Continuous
 62
     7
370
    25
100
AcDbLine
 10
2269.1757954586
 20
1626.8501293705
 30
0.0
 11
2269.1757954586
 21
1617.8501293748
 31
0.0
  0
LINE
  5
507
330
1F
100
AcDbEntity
  8
0
  6
Continuous
 62
     7
370
    25
100
AcDbLine
 10
2269.1757954586
 20
1601.8501293767
 30
0.0
 11
2269.1757954586
 21
1331.8501293705
 31
0.0
  0
LINE
  5
508
330
1F
100
AcDbEntity
  8
0
  6
Continuous
 62
     7
370
    25
100
AcDbLine
 10
2269.1757954586
 20
1331.8501293705
 30
0.0
 11
2199.1757954586
 21
1331.8501293705
 31
0.0
  0
LINE
  5
509
330
1F
100
AcDbEntity
  8
0
  6
Continuous
 62
     7
370
    25
100
AcDbLine
 10
2269.1757954586
 20
1831.8501293705
 30
0.0
 11
2269.1757954586
 21
1728.3501293705
 31
0.0
  0
LINE
  5
50A
330
1F
100
AcDbEntity
  8
0
  6
Continuous
 62
     7
370
    25
100
AcDbLine
 10
2269.1757954586
 20
1633.3501293705
 30
0.0
 11
2269.1757954586
 21
1631.8501293705
 31
0.0
  0
LINE
  5
50B
330
1F
100
AcDbEntity
  8
0
  6
Continuous
 62
     7
370
    25
100
AcDbLine
 10
2269.1757954586
 20
1631.8501293705
 30
0.0
 11
2239.1757954586
 21
1631.8501293705
 31
0.0
  0
LINE
  5
50C
330
1F
100
AcDbEntity
  8
0
  6
Continuous
 62
     7
370
    25
100
AcDbLine
 10
2239.1757954586
 20
1631.8501293705
 30
0.0
 11
2239.1757954586
 21
1656.8501293705
 31
0.0
  0
LINE
  5
50D
330
1F
100
AcDbEntity
  8
0
  6
Continuous
 62
     7
370
    25
100
AcDbLine
 10
2239.1757954586
 20
1656.8501293705
 30
0.0
 11
2199.1757954586
 21
1656.8501293705
 31
0.0
  0
LINE
  5
50E
330
1F
100
AcDbEntity
  8
0
  6
Continuous
 62
     7
370
    25
100
AcDbLine
 10
2199.1757954586
 20
1831.8501293705
 30
0.0
 11
2269.1757954586
 21
1831.8501293705
 31
0.0
  0
LINE
  5
50F
330
1F
100
AcDbEntity
  8
0
  6
Continuous
 62
     7
370
    25
100
AcDbLine
 10
2199.1757954586
 20
1831.8501293705
 30
0.0
 11
2199.1757954586
 21
1656.8501293705
 31
0.0
  0
LINE
  5
510
330
1F
100
AcDbEntity
  8
0
  6
Continuous
 62
     7
370
    25
100
AcDbLine
 10
2269.1757954586
 20
1626.8501293705
 30
0.0
 11
2269.1757954586
 21
1631.8501293705
 31
0.0
  0
LINE
  5
511
330
1F
100
AcDbEntity
  8
0
  6
Continuous
 62
     7
370
    25
100
AcDbLine
 10
2199.1757954586
 20
1656.8501293705
 30
0.0
 11
2199.1757954586
 21
1651.8501293705
 31
0.0
  0
LINE
  5
512
330
1F
100
AcDbEntity
  8
0
  6
Continuous
 62
     7
370
    25
100
AcDbLine
 10
2339.1757954605
 20
1729.3501293705
 30
0.0
 11
2339.1757954605
 21
1728.3501293705
 31
0.0
  0
LINE
  5
513
330
1F
100
AcDbEntity
  8
0
  6
Continuous
 62
     7
370
    25
100
AcDbLine
 10
2280.1757954605
 20
1728.3501293705
 30
0.0
 11
2280.1757954605
 21
1729.3501293705
 31
0.0
  0
LINE
  5
514
330
1F
100
AcDbEntity
  8
0
  6
Continuous
 62
     7
370
    25
100
AcDbLine
 10
2280.1757954605
 20
1729.3501293705
 30
0.0
 11
2339.1757954605
 21
1729.3501293705
 31
0.0
  0
LINE
  5
515
330
1F
100
AcDbEntity
  8
0
  6
Continuous
 62
     7
370
    25
100
AcDbLine
 10
2339.1757954605
 20
1729.3501293705
 30
0.0
 11
2362.1757954605
 21
1729.3501293705
 31
0.0
  0
LINE
  5
516
330
1F
100
AcDbEntity
  8
0
  6
Continuous
 62
     7
370
    25
100
AcDbLine
 10
2336.1757954605
 20
1633.3501293705
 30
0.0
 11
2336.1757954605
 21
1632.3501293705
 31
0.0
  0
LINE
  5
517
330
1F
100
AcDbEntity
  8
0
  6
Continuous
 62
     7
370
    25
100
AcDbLine
 10
2336.1757954605
 20
1632.3501293705
 30
0.0
 11
2280.1757954605
 21
1632.3501293705
 31
0.0
  0
LINE
  5
518
330
1F
100
AcDbEntity
  8
0
  6
Continuous
 62
     7
370
    25
100
AcDbLine
 10
2280.1757954605
 20
1632.3501293705
 30
0.0
 11
2280.1757954605
 21
1633.3501293705
 31
0.0
  0
LINE
  5
519
330
1F
100
AcDbEntity
  8
0
  6
Continuous
 62
     7
370
    25
100
AcDbLine
 10
2279.1757954605
 20
1723.2001293705
 30
0.0
 11
2269.1757954605
 21
1723.2001293705
 31
0.0
  0
LINE
  5
51A
330
1F
100
AcDbEntity
  8
0
  6
Continuous
 62
     7
370
    25
100
AcDbLine
 10
2269.1757954605
 20
1723.2001293705
 30
0.0
 11
2269.1757954605
 21
1726.2001293705
 31
0.0
  0
LINE
  5
51B
330
1F
100
AcDbEntity
  8
0
  6
Continuous
 62
     7
370
    25
100
AcDbLine
 10
2279.1757954605
 20
1726.2001293705
 30
0.0
 11
2269.1757954605
 21
1726.2001293705
 31
0.0
  0
LINE
  5
51C
330
1F
100
AcDbEntity
  8
0
  6
Continuous
 62
     7
370
    25
100
AcDbLine
 10
2279.1757954605
 20
1638.5001293705
 30
0.0
 11
2279.1757954605
 21
1723.2001293705
 31
0.0
  0
LINE
  5
51D
330
1F
100
AcDbEntity
  8
0
  6
Continuous
 62
     7
370
    25
100
AcDbLine
 10
2269.1757954605
 20
1638.5001293705
 30
0.0
 11
2279.1757954605
 21
1638.5001293705
 31
0.0
  0
LINE
  5
51E
330
1F
100
AcDbEntity
  8
0
  6
Continuous
 62
     7
370
    25
100
AcDbLine
 10
2269.1757954605
 20
1723.2001293705
 30
0.0
 11
2269.1757954605
 21
1638.5001293705
 31
0.0
  0
LINE
  5
51F
330
1F
100
AcDbEntity
  8
0
  6
Continuous
 62
     7
370
    25
100
AcDbLine
 10
2269.1757954605
 20
1635.5001293705
 30
0.0
 11
2279.1757954605
 21
1635.5001293705
 31
0.0
  0
LINE
  5
520
330
1F
100
AcDbEntity
  8
0
  6
Continuous
 62
     7
370
    25
100
AcDbLine
 10
2269.1757954605
 20
1635.5001293705
 30
0.0
 11
2269.1757954605
 21
1638.5001293705
 31
0.0
  0
LINE
  5
521
330
1F
100
AcDbEntity
  8
0
  6
Continuous
 62
     7
370
    25
100
AcDbLine
 10
2269.1757954605
 20
1728.3501293705
 30
0.0
 11
2279.1757954605
 21
1728.3501293705
 31
0.0
  0
LINE
  5
522
330
1F
100
AcDbEntity
  8
0
  6
Continuous
 62
     7
370
    25
100
AcDbLine
 10
2279.1757954605
 20
1728.3501293705
 30
0.0
 11
2279.1757954605
 21
1726.3501293705
 31
0.0
  0
LINE
  5
523
330
1F
100
AcDbEntity
  8
0
  6
Continuous
 62
     7
370
    25
100
AcDbLine
 10
2269.1757954605
 20
1726.2001293705
 30
0.0
 11
2269.1757954605
 21
1728.3501293705
 31
0.0
  0
LINE
  5
524
330
1F
100
AcDbEntity
  8
0
  6
Continuous
 62
     7
370
    25
100
AcDbLine
 10
2269.1757954605
 20
1633.3501293705
 30
0.0
 11
2279.1757954605
 21
1633.3501293705
 31
0.0
  0
LINE
  5
525
330
1F
100
AcDbEntity
  8
0
  6
Continuous
 62
     7
370
    25
100
AcDbLine
 10
2279.1757954605
 20
1635.3501293705
 30
0.0
 11
2279.1757954605
 21
1633.3501293705
 31
0.0
  0
LINE
  5
526
330
1F
100
AcDbEntity
  8
0
  6
Continuous
 62
     7
370
    25
100
AcDbLine
 10
2269.1757954605
 20
1633.3501293705
 30
0.0
 11
2269.1757954605
 21
1635.5001293705
 31
0.0
  0
LINE
  5
527
330
1F
100
AcDbEntity
  8
0
  6
Continuous
 62
     7
370
    25
100
AcDbLine
 10
2394.1757954605
 20
1726.3501293705
 30
0.0
 11
2287.6757954605
 21
1726.3501293705
 31
0.0
  0
LINE
  5
528
330
1F
100
AcDbEntity
  8
0
  6
Continuous
 62
     7
370
    25
100
AcDbLine
 10
2394.1757954605
 20
1723.3501293705
 30
0.0
 11
2394.1757954605
 21
1726.3501293705
 31
0.0
  0
LINE
  5
529
330
1F
100
AcDbEntity
  8
0
  6
Continuous
 62
     7
370
    25
100
AcDbLine
 10
2394.1757954605
 20
1723.3501293705
 30
0.0
 11
2279.1757954605
 21
1723.3501293705
 31
0.0
  0
LINE
  5
52A
330
1F
100
AcDbEntity
  8
0
  6
Continuous
 62
     7
370
    25
100
AcDbLine
 10
2279.1757954605
 20
1723.3501293705
 30
0.0
 11
2279.1757954605
 21
1726.3501293705
 31
0.0
  0
LINE
  5
52B
330
1F
100
AcDbEntity
  8
0
  6
Continuous
 62
     7
370
    25
100
AcDbLine
 10
2282.6757954605
 20
1726.3501293705
 30
0.0
 11
2279.1757954605
 21
1726.3501293705
 31
0.0
  0
ARC
  5
52C
330
1F
100
AcDbEntity
  8
0
  6
Continuous
 62
     7
370
    25
100
AcDbCircle
 10
2285.1757954605
 20
1727.6834627038
 30
0.0
 40
2.83333333333402
100
AcDbArc
 50
208.0724869359
 51
331.9275130641
  0
LINE
  5
52D
330
1F
100
AcDbEntity
  8
0
  6
Continuous
 62
     7
370
    25
100
AcDbLine
 10
2394.1757954605
 20
1638.3501293705
 30
0.0
 11
2394.1757954605
 21
1723.3501293705
 31
0.0
  0
LINE
  5
52E
330
1F
100
AcDbEntity
  8
0
  6
Continuous
 62
     7
370
    25
100
AcDbLine
 10
2279.1757954605
 20
1638.3501293705
 30
0.0
 11
2394.1757954605
 21
1638.3501293705
 31
0.0
  0
LINE
  5
52F
330
1F
100
AcDbEntity
  8
0
  6
Continuous
 62
     7
370
    25
100
AcDbLine
 10
2279.1757954605
 20
1723.3501293705
 30
0.0
 11
2279.1757954605
 21
1638.3501293705
 31
0.0
  0
LINE
  5
530
330
1F
100
AcDbEntity
  8
0
  6
Continuous
 62
     7
370
    25
100
AcDbLine
 10
2291.1757954605
 20
1710.3501293705
 30
0.0
 11
2291.1757954605
 21
1651.3501293705
 31
0.0
  0
ARC
  5
531
330
1F
100
AcDbEntity
  8
0
  6
Continuous
 62
     7
370
    25
100
AcDbCircle
 10
2294.1757954605
 20
1651.3501293705
 30
0.0
 40
3.0
100
AcDbArc
 50
180.0
 51
270.0
  0
LINE
  5
532
330
1F
100
AcDbEntity
  8
0
  6
Continuous
 62
     7
370
    25
100
AcDbLine
 10
2294.1757954605
 20
1648.3501293705
 30
0.0
 11
2380.1757954605
 21
1648.3501293705
 31
0.0
  0
ARC
  5
533
330
1F
100
AcDbEntity
  8
0
  6
Continuous
 62
     7
370
    25
100
AcDbCircle
 10
2380.1757954605
 20
1651.3501293705
 30
0.0
 40
3.000000000000227
100
AcDbArc
 50
270.0
 51
0.0
  0
LINE
  5
534
330
1F
100
AcDbEntity
  8
0
  6
Continuous
 62
     7
370
    25
100
AcDbLine
 10
2383.1757954605
 20
1651.3501293705
 30
0.0
 11
2383.1757954605
 21
1710.3501293705
 31
0.0
  0
ARC
  5
535
330
1F
100
AcDbEntity
  8
0
  6
Continuous
 62
     7
370
    25
100
AcDbCircle
 10
2380.1757954605
 20
1710.3501293705
 30
0.0
 40
3.0
100
AcDbArc
 50
360.0
 51
90.0
  0
LINE
  5
536
330
1F
100
AcDbEntity
  8
0
  6
Continuous
 62
     7
370
    25
100
AcDbLine
 10
2380.1757954605
 20
1713.3501293705
 30
0.0
 11
2294.1757954605
 21
1713.3501293705
 31
0.0
  0
ARC
  5
537
330
1F
100
AcDbEntity
  8
0
  6
Continuous
 62
     7
370
    25
100
AcDbCircle
 10
2294.1757954605
 20
1710.3501293705
 30
0.0
 40
3.000000000000455
100
AcDbArc
 50
90.0
 51
180.0
  0
LINE
  5
538
330
1F
100
AcDbEntity
  8
0
  6
Continuous
 62
     7
370
    25
100
AcDbLine
 10
2279.1757954605
 20
1635.3501293705
 30
0.0
 11
2282.6757954605
 21
1635.3501293705
 31
0.0
  0
LINE
  5
539
330
1F
100
AcDbEntity
  8
0
  6
Continuous
 62
     7
370
    25
100
AcDbLine
 10
2279.1757954605
 20
1635.3501293705
 30
0.0
 11
2279.1757954605
 21
1638.3501293705
 31
0.0
  0
LINE
  5
53A
330
1F
100
AcDbEntity
  8
0
  6
Continuous
 62
     7
370
    25
100
AcDbLine
 10
2394.1757954605
 20
1635.3501293705
 30
0.0
 11
2394.1757954605
 21
1638.3501293705
 31
0.0
  0
LINE
  5
53B
330
1F
100
AcDbEntity
  8
0
  6
Continuous
 62
     7
370
    25
100
AcDbLine
 10
2287.6757954605
 20
1635.3501293705
 30
0.0
 11
2394.1757954605
 21
1635.3501293705
 31
0.0
  0
ARC
  5
53C
330
1F
100
AcDbEntity
  8
0
  6
Continuous
 62
     7
370
    25
100
AcDbCircle
 10
2285.1757954605
 20
1634.0167960372
 30
0.0
 40
2.833333333333806
100
AcDbArc
 50
28.0724869359
 51
151.9275130641
  0
LINE
  5
53D
330
1F
100
AcDbEntity
  8
0
  6
Continuous
 62
     7
370
    25
100
AcDbLine
 10
2397.1757954605
 20
1638.3501293705
 30
0.0
 11
2397.1757954605
 21
1723.3501293752
 31
0.0
  0
LINE
  5
53E
330
1F
100
AcDbEntity
  8
0
  6
Continuous
 62
     7
370
    25
100
AcDbLine
 10
2394.1757954605
 20
1638.3501293705
 30
0.0
 11
2397.1757954605
 21
1638.3501293705
 31
0.0
  0
LINE
  5
53F
330
1F
100
AcDbEntity
  8
0
  6
Continuous
 62
     7
370
    25
100
AcDbLine
 10
2397.1757954605
 20
1723.3501293705
 30
0.0
 11
2394.1757954605
 21
1723.3501293705
 31
0.0
  0
ARC
  5
540
330
1F
100
AcDbEntity
  8
0
  6
Continuous
 62
     7
370
    25
100
AcDbCircle
 10
2394.1757954605
 20
1638.3501293705
 30
0.0
 40
3.000000000000455
100
AcDbArc
 50
269.9999996402
 51
0.0
  0
ARC
  5
541
330
1F
100
AcDbEntity
  8
0
  6
Continuous
 62
     7
370
    25
100
AcDbCircle
 10
2394.1757954605
 20
1723.3501293705
 30
0.0
 40
3.0
100
AcDbArc
 50
0.0000001799
 51
90.0
  0
LINE
  5
542
330
1F
100
AcDbEntity
  8
0
  6
Continuous
 62
     7
370
    25
100
AcDbLine
 10
2279.1757954605
 20
1728.3501293705
 30
0.0
 11
2394.1757954605
 21
1728.3501293705
 31
0.0
  0
ARC
  5
543
330
1F
100
AcDbEntity
  8
0
  6
Continuous
 62
     7
370
    25
100
AcDbCircle
 10
2394.1757954605
 20
1723.3501293705
 30
0.0
 40
5.000000000000227
100
AcDbArc
 50
360.0
 51
90.0
  0
LINE
  5
544
330
1F
100
AcDbEntity
  8
0
  6
Continuous
 62
     7
370
    25
100
AcDbLine
 10
2399.1757954605
 20
1723.3501293705
 30
0.0
 11
2399.1757954605
 21
1638.3501293705
 31
0.0
  0
ARC
  5
545
330
1F
100
AcDbEntity
  8
0
  6
Continuous
 62
     7
370
    25
100
AcDbCircle
 10
2394.1757954605
 20
1638.3501293705
 30
0.0
 40
5.0
100
AcDbArc
 50
270.0
 51
360.0
  0
LINE
  5
546
330
1F
100
AcDbEntity
  8
0
  6
Continuous
 62
     7
370
    25
100
AcDbLine
 10
2394.1757954605
 20
1633.3501293705
 30
0.0
 11
2279.1757954605
 21
1633.3501293705
 31
0.0
  0
LINE
  5
547
330
1F
100
AcDbEntity
  8
0
  6
Continuous
 62
     7
370
    25
100
AcDbLine
 10
2275.4297185774
 20
1620.3501293706
 30
0.0
 11
2275.4257954573
 21
1620.3501293706
 31
0.0
  0
LINE
  5
548
330
1F
100
AcDbEntity
  8
0
  6
Continuous
 62
     7
370
    25
100
AcDbLine
 10
2289.4257954573
 20
1620.3501293706
 30
0.0
 11
2275.4297185774
 21
1620.3501293706
 31
0.0
  0
LINE
  5
549
330
1F
100
AcDbEntity
  8
0
  6
Continuous
 62
     7
370
    25
100
AcDbLine
 10
2354.1757954606
 20
1621.8501293707
 30
0.0
 11
2324.3275267406
 21
1621.8501293707
 31
0.0
  0
LINE
  5
54A
330
1F
100
AcDbEntity
  8
0
  6
Continuous
 62
     7
370
    25
100
AcDbLine
 10
2324.3275267406
 20
1621.8501293707
 30
0.0
 11
2324.3275267406
 21
1630.8501293707
 31
0.0
  0
LINE
  5
54B
330
1F
100
AcDbEntity
  8
0
  6
Continuous
 62
     7
370
    25
100
AcDbLine
 10
2353.1757954606
 20
1620.8501293707
 30
0.0
 11
2325.3174113219
 21
1620.8501293707
 31
0.0
  0
LINE
  5
54C
330
1F
100
AcDbEntity
  8
0
  6
Continuous
 62
     7
370
    25
100
AcDbLine
 10
2325.3174113219
 20
1620.8501293707
 30
0.0
 11
2324.3275267406
 21
1621.8501293707
 31
0.0
  0
ARC
  5
54D
330
1F
100
AcDbEntity
  8
0
  6
Continuous
 62
     7
370
    25
100
AcDbCircle
 10
2331.8111449913
 20
1627.9558709365
 30
0.0
 40
8.023794240027573
100
AcDbArc
 50
158.8562276294
 51
168.7969895737
  0
LWPOLYLINE
  5
54E
330
1F
100
AcDbEntity
  8
0
  6
Continuous
 62
     7
370
    25
100
AcDbPolyline
 90
       11
 70
   128
 43
0.0
 10
2324.3275267406
 20
1630.8501293707
 10
2324.3274984931
 20
1630.8500333089
 10
2324.3272804983
 20
1630.8492408382
 10
2324.3266789166
 20
1630.8470075451
 10
2324.324409735
 20
1630.838506677
 10
2324.3156072987
 20
1630.8053678137
 10
2324.058004618
 20
1629.8451707942
 10
2323.8067457029
 20
1628.9632746841
 10
2323.5661194564
 20
1628.2118830979
 10
2323.1571875367
 20
1627.2534812988
 10
2322.7223943472
 20
1626.8501293707
  0
LINE
  5
54F
330
1F
100
AcDbEntity
  8
0
  6
Continuous
 62
     7
370
    25
100
AcDbLine
 10
2322.7223943472
 20
1626.8501293707
 30
0.0
 11
2323.1159228103
 21
1627.2476792169
 31
0.0
  0
LINE
  5
550
330
1F
100
AcDbEntity
  8
0
  6
Continuous
 62
     7
370
    25
100
AcDbLine
 10
2324.3275267406
 20
1621.8501293707
 30
0.0
 11
2294.4669133181
 21
1621.8501293706
 31
0.0
  0
LINE
  5
551
330
1F
100
AcDbEntity
  8
0
  6
Continuous
 62
     7
370
    25
100
AcDbLine
 10
2294.4669133181
 20
1626.8501293706
 30
0.0
 11
2294.4669133181
 21
1621.8501293706
 31
0.0
  0
LINE
  5
552
330
1F
100
AcDbEntity
  8
0
  6
Continuous
 62
     7
370
    25
100
AcDbLine
 10
2322.7223943472
 20
1626.8501293707
 30
0.0
 11
2294.4669133181
 21
1626.8501293706
 31
0.0
  0
LINE
  5
553
330
1F
100
AcDbEntity
  8
0
  6
Continuous
 62
     7
370
    25
100
AcDbLine
 10
2295.4567978994
 20
1620.8501293706
 30
0.0
 11
2294.4669133181
 21
1621.8501293706
 31
0.0
  0
LINE
  5
554
330
1F
100
AcDbEntity
  8
0
  6
Continuous
 62
     7
370
    25
100
AcDbLine
 10
2325.3174113219
 20
1620.8501293707
 30
0.0
 11
2295.4567978994
 21
1620.8501293706
 31
0.0
  0
LINE
  5
555
330
1F
100
AcDbEntity
  8
0
  6
Continuous
 62
     7
370
    25
100
AcDbLine
 10
2295.4567978994
 20
1627.8501293706
 30
0.0
 11
2294.4669133181
 21
1626.8501293706
 31
0.0
  0
LINE
  5
556
330
1F
100
AcDbEntity
  8
0
  6
Continuous
 62
     7
370
    25
100
AcDbLine
 10
2295.4567978994
 20
1627.8501293706
 30
0.0
 11
2323.4117659835
 21
1627.8501293707
 31
0.0
  0
LINE
  5
557
330
1F
100
AcDbEntity
  8
0
  6
Continuous
 62
     7
370
    25
100
AcDbLine
 10
2294.3279742121
 20
1621.8501293706
 30
0.0
 11
2294.4669133181
 21
1621.8501293706
 31
0.0
  0
LINE
  5
558
330
1F
100
AcDbEntity
  8
0
  6
Continuous
 62
     7
370
    25
100
AcDbLine
 10
2294.3279742121
 20
1621.8501293706
 30
0.0
 11
2294.3279742121
 21
1626.8501293706
 31
0.0
  0
LINE
  5
559
330
1F
100
AcDbEntity
  8
0
  6
Continuous
 62
     7
370
    25
100
AcDbLine
 10
2294.4669133181
 20
1626.8501293706
 30
0.0
 11
2294.3279742121
 21
1626.8501293706
 31
0.0
  0
LINE
  5
55A
330
1F
100
AcDbEntity
  8
0
  6
Continuous
 62
     7
370
    25
100
AcDbLine
 10
2295.3206375755
 20
1620.8501293706
 30
0.0
 11
2294.3279742121
 21
1621.8501293706
 31
0.0
  0
LINE
  5
55B
330
1F
100
AcDbEntity
  8
0
  6
Continuous
 62
     7
370
    25
100
AcDbLine
 10
2295.4567978994
 20
1620.8501293706
 30
0.0
 11
2295.3206375755
 21
1620.8501293706
 31
0.0
  0
LINE
  5
55C
330
1F
100
AcDbEntity
  8
0
  6
Continuous
 62
     7
370
    25
100
AcDbLine
 10
2294.3279742121
 20
1626.8501293706
 30
0.0
 11
2295.3206375755
 21
1627.8501293706
 31
0.0
  0
LINE
  5
55D
330
1F
100
AcDbEntity
  8
0
  6
Continuous
 62
     7
370
    25
100
AcDbLine
 10
2295.3206375755
 20
1627.8501293706
 30
0.0
 11
2295.4567978994
 21
1627.8501293706
 31
0.0
  0
LINE
  5
55E
330
1F
100
AcDbEntity
  8
0
  6
Continuous
 62
     7
370
    25
100
AcDbLine
 10
2272.499161823
 20
1620.8501293705
 30
0.0
 11
2271.5064984596
 21
1621.8501293705
 31
0.0
  0
LINE
  5
55F
330
1F
100
AcDbEntity
  8
0
  6
Continuous
 62
     7
370
    25
100
AcDbLine
 10
2294.3279742121
 20
1621.8501293706
 30
0.0
 11
2271.5064984596
 21
1621.8501293705
 31
0.0
  0
LINE
  5
560
330
1F
100
AcDbEntity
  8
0
  6
Continuous
 62
     7
370
    25
100
AcDbLine
 10
2295.3206375755
 20
1620.8501293706
 30
0.0
 11
2272.499161823
 21
1620.8501293705
 31
0.0
  0
LINE
  5
561
330
1F
100
AcDbEntity
  8
0
  6
Continuous
 62
     7
370
    25
100
AcDbLine
 10
2271.5064984596
 20
1626.8501293705
 30
0.0
 11
2272.499161823
 21
1627.8501293705
 31
0.0
  0
LINE
  5
562
330
1F
100
AcDbEntity
  8
0
  6
Continuous
 62
     7
370
    25
100
AcDbLine
 10
2294.3279742121
 20
1626.8501293706
 30
0.0
 11
2271.5064984596
 21
1626.8501293705
 31
0.0
  0
LINE
  5
563
330
1F
100
AcDbEntity
  8
0
  6
Continuous
 62
     7
370
    25
100
AcDbLine
 10
2272.499161823
 20
1627.8501293705
 30
0.0
 11
2295.3206375755
 21
1627.8501293706
 31
0.0
  0
LINE
  5
564
330
1F
100
AcDbEntity
  8
0
  6
Continuous
 62
     7
370
    25
100
AcDbLine
 10
2271.5064984596
 20
1621.8501293705
 30
0.0
 11
2271.5064984596
 21
1626.8501293705
 31
0.0
  0
LINE
  5
565
330
1F
100
AcDbEntity
  8
0
  6
Continuous
 62
     7
370
    25
100
AcDbLine
 10
2271.5064984596
 20
1621.8501293705
 30
0.0
 11
2271.4257954576
 21
1621.8501293705
 31
0.0
  0
LINE
  5
566
330
1F
100
AcDbEntity
  8
0
  6
Continuous
 62
     7
370
    25
100
AcDbLine
 10
2272.499161823
 20
1620.8501293705
 30
0.0
 11
2272.4257954576
 21
1620.8501293705
 31
0.0
  0
LINE
  5
567
330
1F
100
AcDbEntity
  8
0
  6
Continuous
 62
     7
370
    25
100
AcDbLine
 10
2271.5064984596
 20
1626.8501293705
 30
0.0
 11
2271.4257954576
 21
1626.8501293705
 31
0.0
  0
LINE
  5
568
330
1F
100
AcDbEntity
  8
0
  6
Continuous
 62
     7
370
    25
100
AcDbLine
 10
2272.4257954576
 20
1627.8501293705
 30
0.0
 11
2272.499161823
 21
1627.8501293705
 31
0.0
  0
LINE
  5
569
330
1F
100
AcDbEntity
  8
0
  6
Continuous
 62
     7
370
    25
100
AcDbLine
 10
2269.6757954562
 20
1601.8501293767
 30
0.0
 11
2269.6757954562
 21
1601.3501293767
 31
0.0
  0
LINE
  5
56A
330
1F
100
AcDbEntity
  8
0
  6
Continuous
 62
     7
370
    25
100
AcDbLine
 10
2269.6757954562
 20
1601.8501293767
 30
0.0
 11
2296.6757954562
 21
1601.8501293767
 31
0.0
  0
LINE
  5
56B
330
1F
100
AcDbEntity
  8
0
  6
Continuous
 62
     7
370
    25
100
AcDbLine
 10
2296.6757954562
 20
1601.3501293767
 30
0.0
 11
2296.6757954562
 21
1601.8501293767
 31
0.0
  0
LINE
  5
56C
330
1F
100
AcDbEntity
  8
0
  6
Continuous
 62
     7
370
    25
100
AcDbLine
 10
2269.6757954562
 20
1601.3501293767
 30
0.0
 11
2296.6757954562
 21
1601.3501293767
 31
0.0
  0
LINE
  5
56D
330
1F
100
AcDbEntity
  8
0
  6
Continuous
 62
     7
370
    25
100
AcDbLine
 10
2269.6757954562
 20
1617.8501293767
 30
0.0
 11
2269.1757954562
 21
1617.8501293767
 31
0.0
  0
ARC
  5
56E
330
1F
100
AcDbEntity
  8
0
  6
Continuous
 62
     7
370
    25
100
AcDbCircle
 10
2269.6757954562
 20
1617.8501293767
 30
0.0
 40
0.5
100
AcDbArc
 50
89.9999999999
 51
180.0
  0
LINE
  5
56F
330
1F
100
AcDbEntity
  8
0
  6
Continuous
 62
     7
370
    25
100
AcDbLine
 10
2269.6757954562
 20
1618.3501293767
 30
0.0
 11
2269.6757954562
 21
1617.8501293767
 31
0.0
  0
LINE
  5
570
330
1F
100
AcDbEntity
  8
0
  6
Continuous
 62
     7
370
    25
100
AcDbLine
 10
2269.6757954562
 20
1617.8501293767
 30
0.0
 11
2269.6757954562
 21
1601.8501293767
 31
0.0
  0
LINE
  5
571
330
1F
100
AcDbEntity
  8
0
  6
Continuous
 62
     7
370
    25
100
AcDbLine
 10
2296.6757954562
 20
1617.8501293767
 30
0.0
 11
2269.6757954562
 21
1617.8501293767
 31
0.0
  0
LINE
  5
572
330
1F
100
AcDbEntity
  8
0
  6
Continuous
 62
     7
370
    25
100
AcDbLine
 10
2296.6757954562
 20
1601.8501293767
 30
0.0
 11
2296.6757954562
 21
1617.8501293767
 31
0.0
  0
LINE
  5
573
330
1F
100
AcDbEntity
  8
0
  6
Continuous
 62
     7
370
    25
100
AcDbLine
 10
2269.1757954562
 20
1601.8501293767
 30
0.0
 11
2269.6757954562
 21
1601.8501293767
 31
0.0
  0
ARC
  5
574
330
1F
100
AcDbEntity
  8
0
  6
Continuous
 62
     7
370
    25
100
AcDbCircle
 10
2269.6757954562
 20
1601.8501293767
 30
0.0
 40
0.5000000000002274
100
AcDbArc
 50
180.0
 51
270.0
  0
LINE
  5
575
330
1F
100
AcDbEntity
  8
0
  6
Continuous
 62
     7
370
    25
100
AcDbLine
 10
2296.6757954562
 20
1617.8501293767
 30
0.0
 11
2296.6757954562
 21
1618.3501293767
 31
0.0
  0
LINE
  5
576
330
1F
100
AcDbEntity
  8
0
  6
Continuous
 62
     7
370
    25
100
AcDbLine
 10
2296.6757954562
 20
1618.3501293767
 30
0.0
 11
2269.6757954562
 21
1618.3501293767
 31
0.0
  0
LINE
  5
577
330
1F
100
AcDbEntity
  8
0
  6
Continuous
 62
     7
370
    25
100
AcDbLine
 10
2269.1757954562
 20
1617.8501293767
 30
0.0
 11
2269.1757954562
 21
1601.8501293767
 31
0.0
  0
LINE
  5
578
330
1F
100
AcDbEntity
  8
0
  6
Continuous
 62
     7
370
    25
100
AcDbLine
 10
2297.1757954562
 20
1617.8501293767
 30
0.0
 11
2296.6757954562
 21
1617.8501293767
 31
0.0
  0
LINE
  5
579
330
1F
100
AcDbEntity
  8
0
  6
Continuous
 62
     7
370
    25
100
AcDbLine
 10
2297.1757954562
 20
1601.8501293767
 30
0.0
 11
2297.1757954562
 21
1617.8501293767
 31
0.0
  0
LINE
  5
57A
330
1F
100
AcDbEntity
  8
0
  6
Continuous
 62
     7
370
    25
100
AcDbLine
 10
2296.6757954562
 20
1601.8501293767
 30
0.0
 11
2297.1757954562
 21
1601.8501293767
 31
0.0
  0
ARC
  5
57B
330
1F
100
AcDbEntity
  8
0
  6
Continuous
 62
     7
370
    25
100
AcDbCircle
 10
2296.6757954562
 20
1601.8501293767
 30
0.0
 40
0.5000000000009095
100
AcDbArc
 50
270.0
 51
0.0
  0
ARC
  5
57C
330
1F
100
AcDbEntity
  8
0
  6
Continuous
 62
     7
370
    25
100
AcDbCircle
 10
2296.6757954562
 20
1617.8501293767
 30
0.0
 40
0.5000000000002274
100
AcDbArc
 50
0.0
 51
90.0
  0
LINE
  5
57D
330
1F
100
AcDbEntity
  8
0
  6
Continuous
 62
     7
370
    25
100
AcDbLine
 10
2324.1757954607
 20
1630.8501293707
 30
0.0
 11
2324.3275267406
 21
1630.8501293707
 31
0.0
  0
LINE
  5
57E
330
1F
100
AcDbEntity
  8
FORMAT
370
    25
100
AcDbLine
 10
2269.1757954586
 20
1738.3501293705
 30
0.0
 11
2540.2375524274
 21
1738.3501293705
 31
0.0
  0
LINE
  5
57F
330
1F
100
AcDbEntity
  8
FORMAT
370
    25
100
AcDbLine
 10
2299.1757954586
 20
1839.6723895555
 30
0.0
 11
2299.1757954586
 21
1907.1919993024
 31
0.0
  0
LINE
  5
580
330
1F
100
AcDbEntity
  8
FORMAT
370
    25
100
AcDbLine
 10
2239.1757954586
 20
1839.6723895555
 30
0.0
 11
2239.1757954586
 21
1907.1919993024
 31
0.0
  0
DIMENSION
  5
581
330
1F
100
AcDbEntity
  8
FORMAT
100
AcDbDimension
  2
_D_21
 10
2299.1757954586
 20
1868.1494147155
 30
0.0
 11
2373.5442149208
 21
1868.1494147155
 31
0.0
 70
   160
  1
max. +<>
 71
     2
 42
-1.0
  3
SLDDIMSTYLE4
100
AcDbAlignedDimension
 13
2269.1757954586
 23
1831.8501293705
 33
0.0
 14
2299.1757954586
 24
1839.6723895555
 34
0.0
 50
0.0
100
AcDbRotatedDimension
  0
DIMENSION
  5
593
330
1F
100
AcDbEntity
  8
FORMAT
100
AcDbDimension
  2
_D_22
 10
2239.1757954586
 20
1868.1494147155
 30
0.0
 11
2163.5104944566
 21
1868.1494147155
 31
0.0
 70
   160
  1
max. -<>
 71
     2
 42
-1.0
  3
SLDDIMSTYLE4
100
AcDbAlignedDimension
 13
2269.1757954586
 23
1831.8501293705
 33
0.0
 14
2239.1757954586
 24
1839.6723895555
 34
0.0
 50
0.0
100
AcDbRotatedDimension
  0
DIMENSION
  5
59F
330
1F
100
AcDbEntity
  8
FORMAT
100
AcDbDimension
  2
_D_23
 10
2577.9245526093
 20
1728.3501293705
 30
0.0
 11
2577.9245526093
 21
1841.3278309112
 31
0.0
 70
   160
  1
min. <>**
 71
     2
 42
-1.0
  3
SLDDIMSTYLE5
100
AcDbAlignedDimension
 13
2540.2375524274
 23
1738.3501293705
 33
0.0
 14
2394.1757954605
 24
1728.3501293705
 34
0.0
 50
90.0
100
AcDbRotatedDimension
  0
DIMENSION
  5
5AE
330
1F
100
AcDbEntity
  8
FORMAT
100
AcDbDimension
  2
_D_24
 10
2097.2277878137
 20
1729.3501293705
 30
0.0
 11
2097.2277878137
 21
1680.6001293705
 31
0.0
 70
   160
  1
<>
 71
     2
 42
-1.0
  3
SLDDIMSTYLE0
100
AcDbAlignedDimension
 13
2239.1757954586
 23
1631.8501293705
 33
0.0
 14
2280.1757954605
 24
1729.3501293705
 34
0.0
 50
90.0
100
AcDbRotatedDimension
  0
DIMENSION
  5
5B8
330
1F
100
AcDbEntity
  8
FORMAT
100
AcDbDimension
  2
_D_25
 10
2399.1757954605
 20
1436.0688336393
 30
0.0
 11
2334.1757954605
 21
1436.0688336393
 31
0.0
 70
   160
  1
<>
 71
     2
 42
-1.0
  3
SLDDIMSTYLE0
100
AcDbAlignedDimension
 13
2269.1757954605
 23
1638.5001293705
 33
0.0
 14
2399.1757954605
 24
1638.3501293705
 34
0.0
 50
0.0
100
AcDbRotatedDimension
  0
DIMENSION
  5
5C2
330
1F
100
AcDbEntity
  8
FORMAT
100
AcDbDimension
  2
_D_26
 10
2297.1757954562
 20
1511.2139643759
 30
0.0
 11
2355.5039161804
 21
1511.2139643759
 31
0.0
 70
   160
  1
<>
 71
     2
 42
-1.0
  3
SLDDIMSTYLE1
100
AcDbAlignedDimension
 13
2269.1757954586
 23
1626.8501293705
 33
0.0
 14
2297.1757954562
 24
1601.8501293767
 34
0.0
100
AcDbRotatedDimension
  0
DIMENSION
  5
5CD
330
1F
100
AcDbEntity
  8
FORMAT
100
AcDbDimension
  2
_D_27
 10
2499.0364669094
 20
1728.3501293705
 30
0.0
 11
2499.0364669094
 21
1664.8501293736
 31
0.0
 70
   160
  1
<>
 71
     2
 42
-1.0
  3
SLDDIMSTYLE0
100
AcDbAlignedDimension
 13
2296.6757954562
 23
1601.3501293767
 33
0.0
 14
2394.1757954605
 24
1728.3501293705
 34
0.0
 50
90.0
100
AcDbRotatedDimension
  0
MTEXT
  5
5D7
330
1F
100
AcDbEntity
  8
FORMAT
100
AcDbMText
 10
2320.0936737658
 20
1967.5763159678
 30
0.0
 40
35.0
 41
0.0
 71
     2
 72
     1
  1
A-A
  7
SLDTEXTSTYLE0
 73
     1
 44
1.0
  0
INSERT
  5
5DD
330
1F
100
AcDbEntity
  8
FORMAT
100
AcDbBlockReference
  2
SW_NOTE_0_7
 10
2199.0597526311
 20
1291.4809645357
 30
0.0
  0
CIRCLE
  5
5DE
330
1F
100
AcDbEntity
  8
0
  6
Continuous
 62
     7
370
    18
100
AcDbCircle
 10
2274.7206459468
 20
1675.8501293728
 30
0.0
 40
138.2687664072046
  0
MTEXT
  5
5DF
330
1F
100
AcDbEntity
  8
0
  6
Continuous
 62
     7
370
    18
100
AcDbMText
 10
2125.9261769024
 20
1821.9294523227
 30
0.0
 40
35.0
 41
0.0
 71
     1
 72
     1
  1
B
  7
SLDTEXTSTYLE0
 73
     1
 44
1.0
  0
LINE
  5
5E0
330
1F
100
AcDbEntity
  8
0
  6
Continuous
 62
     7
370
    25
100
AcDbLine
 10
2371.314155511
 20
928.2701554715
 30
0.0
 11
2371.314155511
 21
929.6701374471
 31
0.0
  0
LINE
  5
5E1
330
1F
100
AcDbEntity
  8
0
  6
Continuous
 62
     7
370
    25
100
AcDbLine
 10
2249.8641545097
 20
777.0701463341
 30
0.0
 11
2249.8641545097
 21
774.2701458752
 31
0.0
  0
LINE
  5
5E2
330
1F
100
AcDbEntity
  8
0
  6
Continuous
 62
     7
370
    25
100
AcDbLine
 10
2269.4641538108
 20
774.2701458752
 30
0.0
 11
2269.4641538108
 21
777.0701463341
 31
0.0
  0
LINE
  5
5E3
330
1F
100
AcDbEntity
  8
0
  6
Continuous
 62
     7
370
    25
100
AcDbLine
 10
2266.6641546557
 20
777.0701463341
 30
0.0
 11
2266.6641546557
 21
777.7701477527
 31
0.0
  0
LINE
  5
5E4
330
1F
100
AcDbEntity
  8
0
  6
Continuous
 62
     7
370
    25
100
AcDbLine
 10
2252.6641549686
 20
777.7701477527
 30
0.0
 11
2252.6641549686
 21
777.0701463341
 31
0.0
  0
LINE
  5
5E5
330
1F
100
AcDbEntity
  8
0
  6
Continuous
 62
     7
370
    25
100
AcDbLine
 10
2318.114154614
 20
793.8701490879
 30
0.0
 11
2318.114154614
 21
791.7701448321
 31
0.0
  0
LINE
  5
5E6
330
1F
100
AcDbEntity
  8
0
  6
Continuous
 62
     7
370
    25
100
AcDbLine
 10
2360.1141536752
 20
779.1701453745
 30
0.0
 11
2360.1141536752
 21
795.2701467097
 31
0.0
  0
LINE
  5
5E7
330
1F
100
AcDbEntity
  8
0
  6
Continuous
 62
     7
370
    25
100
AcDbLine
 10
2358.7141560534
 20
777.7701477527
 30
0.0
 11
2360.1141536752
 21
779.1701453745
 31
0.0
  0
LWPOLYLINE
  5
5E8
330
1F
100
AcDbEntity
  8
0
  6
Continuous
 62
     7
370
    25
100
AcDbPolyline
 90
        3
 70
   128
 43
0.0
 10
2317.8046515355
 20
790.0134759962
 10
2317.6403245101
 20
789.314929676
 10
2317.408463187
 20
788.5185944855
  0
ARC
  5
5E9
330
1F
100
AcDbEntity
  8
0
  6
Continuous
 62
     7
370
    25
100
AcDbCircle
 10
2313.9141682196
 20
791.7701398413
 30
0.0
 40
4.199986394398602
100
AcDbArc
 50
344.604449707
 51
0.0000680843
  0
LINE
  5
5EA
330
1F
100
AcDbEntity
  8
0
  6
Continuous
 62
     7
370
    25
100
AcDbLine
 10
2244.2641535918
 20
779.1701453745
 30
0.0
 11
2245.6641538212
 21
777.7701477527
 31
0.0
  0
LINE
  5
5EB
330
1F
100
AcDbEntity
  8
0
  6
Continuous
 62
     7
370
    25
100
AcDbLine
 10
2245.6641538212
 20
787.5701467514
 30
0.0
 11
2244.2641535918
 21
786.1701491296
 31
0.0
  0
LINE
  5
5EC
330
1F
100
AcDbEntity
  8
0
  6
Continuous
 62
     7
370
    25
100
AcDbLine
 10
2244.2641535918
 20
786.1701491296
 30
0.0
 11
2244.2641535918
 21
779.1701453745
 31
0.0
  0
ARC
  5
5ED
330
1F
100
AcDbEntity
  8
0
  6
Continuous
 62
     7
370
    18
100
AcDbCircle
 10
2248.8769269504
 20
854.7701637597
 30
0.0
 40
193.5762569927888
100
AcDbArc
 50
92.2982847841
 51
123.1178097937
  0
ARC
  5
5EE
330
1F
100
AcDbEntity
  8
0
  6
Continuous
 62
     7
370
    18
100
AcDbCircle
 10
2248.876947171
 20
854.7701537059
 30
0.0
 40
193.5762805799083
100
AcDbArc
 50
236.8821876147
 51
267.7017095062
  0
LINE
  5
5EF
330
1F
100
AcDbEntity
  8
0
  6
Continuous
 62
     7
370
    25
100
AcDbLine
 10
2143.1141520063
 20
692.6405525773
 30
0.0
 11
2143.1141520063
 21
821.1701470434
 31
0.0
  0
LINE
  5
5F0
330
1F
100
AcDbEntity
  8
0
  6
Continuous
 62
     7
370
    25
100
AcDbLine
 10
2143.1141520063
 20
821.1701470434
 30
0.0
 11
2199.11415597
 21
821.1701470434
 31
0.0
  0
LINE
  5
5F1
330
1F
100
AcDbEntity
  8
0
  6
Continuous
 62
     7
370
    25
100
AcDbLine
 10
2199.11415597
 20
786.1701491296
 30
0.0
 11
2199.11415597
 21
821.1701470434
 31
0.0
  0
LINE
  5
5F2
330
1F
100
AcDbEntity
  8
0
  6
Continuous
 62
     7
370
    25
100
AcDbLine
 10
2199.11415597
 20
786.1701491296
 30
0.0
 11
2241.1141550312
 21
786.1701491296
 31
0.0
  0
LINE
  5
5F3
330
1F
100
AcDbEntity
  8
0
  6
Continuous
 62
     7
370
    25
100
AcDbLine
 10
2241.1141550312
 20
786.1701491296
 30
0.0
 11
2241.1141550312
 21
773.5701444566
 31
0.0
  0
LINE
  5
5F4
330
1F
100
AcDbEntity
  8
0
  6
Continuous
 62
     7
370
    25
100
AcDbLine
 10
2241.1141550312
 20
751.1701460004
 30
0.0
 11
2241.1141550312
 21
661.3495874226
 31
0.0
  0
LINE
  5
5F5
330
1F
100
AcDbEntity
  8
0
  6
Continuous
 62
     7
370
    25
100
AcDbLine
 10
2241.1141550312
 20
1048.1907072484
 30
0.0
 11
2241.1141550312
 21
928.2701554715
 31
0.0
  0
LINE
  5
5F6
330
1F
100
AcDbEntity
  8
0
  6
Continuous
 62
     7
370
    25
100
AcDbLine
 10
2241.1141550312
 20
795.2701467097
 30
0.0
 11
2241.1141550312
 21
793.1701476693
 31
0.0
  0
LINE
  5
5F7
330
1F
100
AcDbEntity
  8
0
  6
Continuous
 62
     7
370
    25
100
AcDbLine
 10
2241.1141550312
 20
793.1701476693
 30
0.0
 11
2199.11415597
 21
793.1701476693
 31
0.0
  0
LINE
  5
5F8
330
1F
100
AcDbEntity
  8
0
  6
Continuous
 62
     7
370
    25
100
AcDbLine
 10
2199.11415597
 20
793.1701476693
 30
0.0
 11
2199.11415597
 21
828.1701507985
 31
0.0
  0
LINE
  5
5F9
330
1F
100
AcDbEntity
  8
0
  6
Continuous
 62
     7
370
    25
100
AcDbLine
 10
2199.11415597
 20
828.1701507985
 30
0.0
 11
2143.1141520063
 21
828.1701507985
 31
0.0
  0
LINE
  5
5FA
330
1F
100
AcDbEntity
  8
0
  6
Continuous
 62
     7
370
    25
100
AcDbLine
 10
2143.1141520063
 20
1016.8997499168
 30
0.0
 11
2143.1141520063
 21
828.1701507985
 31
0.0
  0
LINE
  5
5FB
330
1F
100
AcDbEntity
  8
0
  6
Continuous
 62
     7
370
    25
100
AcDbLine
 10
2241.1141550312
 20
786.1701491296
 30
0.0
 11
2241.1141550312
 21
793.1701476693
 31
0.0
  0
LINE
  5
5FC
330
1F
100
AcDbEntity
  8
0
  6
Continuous
 62
     7
370
    25
100
AcDbLine
 10
2143.1141520063
 20
828.1701507985
 30
0.0
 11
2143.1141520063
 21
821.1701470434
 31
0.0
  0
LINE
  5
5FD
330
1F
100
AcDbEntity
  8
0
  6
Continuous
 62
     7
370
    25
100
AcDbLine
 10
2339.1141528407
 20
929.6701374471
 30
0.0
 11
2339.1141528407
 21
928.2701554715
 31
0.0
  0
LINE
  5
5FE
330
1F
100
AcDbEntity
  8
0
  6
Continuous
 62
     7
370
    25
100
AcDbLine
 10
2256.5141549478
 20
928.2701554715
 30
0.0
 11
2256.5141549478
 21
929.6701374471
 31
0.0
  0
LINE
  5
5FF
330
1F
100
AcDbEntity
  8
0
  6
Continuous
 62
     7
370
    25
100
AcDbLine
 10
2256.5141549478
 20
929.6701374471
 30
0.0
 11
2339.1141528407
 21
929.6701374471
 31
0.0
  0
LINE
  5
600
330
1F
100
AcDbEntity
  8
0
  6
Continuous
 62
     7
370
    25
100
AcDbLine
 10
2339.1141528407
 20
929.6701374471
 30
0.0
 11
2371.314155511
 21
929.6701374471
 31
0.0
  0
LINE
  5
601
330
1F
100
AcDbEntity
  8
0
  6
Continuous
 62
     7
370
    25
100
AcDbLine
 10
2334.91415476
 20
795.2701467097
 30
0.0
 11
2334.91415476
 21
793.8701490879
 31
0.0
  0
LINE
  5
602
330
1F
100
AcDbEntity
  8
0
  6
Continuous
 62
     7
370
    25
100
AcDbLine
 10
2334.91415476
 20
793.8701490879
 30
0.0
 11
2256.5141549478
 21
793.8701490879
 31
0.0
  0
LINE
  5
603
330
1F
100
AcDbEntity
  8
0
  6
Continuous
 62
     7
370
    25
100
AcDbLine
 10
2256.5141549478
 20
793.8701490879
 30
0.0
 11
2256.5141549478
 21
795.2701467097
 31
0.0
  0
LINE
  5
604
330
1F
100
AcDbEntity
  8
0
  6
Continuous
 62
     7
370
    25
100
AcDbLine
 10
2255.1141547183
 20
921.0601481616
 30
0.0
 11
2241.1141550312
 21
921.0601481616
 31
0.0
  0
LINE
  5
605
330
1F
100
AcDbEntity
  8
0
  6
Continuous
 62
     7
370
    25
100
AcDbLine
 10
2241.1141550312
 20
921.0601481616
 30
0.0
 11
2241.1141550312
 21
925.2601566732
 31
0.0
  0
LINE
  5
606
330
1F
100
AcDbEntity
  8
0
  6
Continuous
 62
     7
370
    25
100
AcDbLine
 10
2255.1141547183
 20
925.2601566732
 30
0.0
 11
2241.1141550312
 21
925.2601566732
 31
0.0
  0
LINE
  5
607
330
1F
100
AcDbEntity
  8
0
  6
Continuous
 62
     7
370
    25
100
AcDbLine
 10
2255.1141547183
 20
802.4801488042
 30
0.0
 11
2255.1141547183
 21
921.0601481616
 31
0.0
  0
LINE
  5
608
330
1F
100
AcDbEntity
  8
0
  6
Continuous
 62
     7
370
    25
100
AcDbLine
 10
2241.1141550312
 20
802.4801488042
 30
0.0
 11
2255.1141547183
 21
802.4801488042
 31
0.0
  0
LINE
  5
609
330
1F
100
AcDbEntity
  8
0
  6
Continuous
 62
     7
370
    25
100
AcDbLine
 10
2241.1141550312
 20
921.0601481616
 30
0.0
 11
2241.1141550312
 21
802.4801488042
 31
0.0
  0
LINE
  5
60A
330
1F
100
AcDbEntity
  8
0
  6
Continuous
 62
     7
370
    25
100
AcDbLine
 10
2241.1141550312
 20
798.280145508
 30
0.0
 11
2255.1141547183
 21
798.280145508
 31
0.0
  0
LINE
  5
60B
330
1F
100
AcDbEntity
  8
0
  6
Continuous
 62
     7
370
    25
100
AcDbLine
 10
2241.1141550312
 20
798.280145508
 30
0.0
 11
2241.1141550312
 21
802.4801488042
 31
0.0
  0
LINE
  5
60C
330
1F
100
AcDbEntity
  8
0
  6
Continuous
 62
     7
370
    25
100
AcDbLine
 10
2241.1141550312
 20
928.2701554715
 30
0.0
 11
2255.1141547183
 21
928.2701554715
 31
0.0
  0
LINE
  5
60D
330
1F
100
AcDbEntity
  8
0
  6
Continuous
 62
     7
370
    25
100
AcDbLine
 10
2255.1141547183
 20
928.2701554715
 30
0.0
 11
2255.1141547183
 21
925.4701497972
 31
0.0
  0
LINE
  5
60E
330
1F
100
AcDbEntity
  8
0
  6
Continuous
 62
     7
370
    25
100
AcDbLine
 10
2241.1141550312
 20
925.2601566732
 30
0.0
 11
2241.1141550312
 21
928.2701554715
 31
0.0
  0
LINE
  5
60F
330
1F
100
AcDbEntity
  8
0
  6
Continuous
 62
     7
370
    25
100
AcDbLine
 10
2241.1141550312
 20
795.2701467097
 30
0.0
 11
2255.1141547183
 21
795.2701467097
 31
0.0
  0
LINE
  5
610
330
1F
100
AcDbEntity
  8
0
  6
Continuous
 62
     7
370
    25
100
AcDbLine
 10
2255.1141547183
 20
798.0701471686
 30
0.0
 11
2255.1141547183
 21
795.2701467097
 31
0.0
  0
LINE
  5
611
330
1F
100
AcDbEntity
  8
0
  6
Continuous
 62
     7
370
    25
100
AcDbLine
 10
2241.1141550312
 20
795.2701467097
 30
0.0
 11
2241.1141550312
 21
798.280145508
 31
0.0
  0
LINE
  5
612
330
1F
100
AcDbEntity
  8
0
  6
Continuous
 62
     7
370
    25
100
AcDbLine
 10
2416.1141524235
 20
925.4701497972
 30
0.0
 11
2267.0141540611
 21
925.4701497972
 31
0.0
  0
LINE
  5
613
330
1F
100
AcDbEntity
  8
0
  6
Continuous
 62
     7
370
    25
100
AcDbLine
 10
2416.1141524235
 20
921.2701412856
 30
0.0
 11
2416.1141524235
 21
925.4701497972
 31
0.0
  0
LINE
  5
614
330
1F
100
AcDbEntity
  8
0
  6
Continuous
 62
     7
370
    25
100
AcDbLine
 10
2416.1141524235
 20
921.2701412856
 30
0.0
 11
2255.1141547183
 21
921.2701412856
 31
0.0
  0
LINE
  5
615
330
1F
100
AcDbEntity
  8
0
  6
Continuous
 62
     7
370
    25
100
AcDbLine
 10
2255.1141547183
 20
921.2701412856
 30
0.0
 11
2255.1141547183
 21
925.4701497972
 31
0.0
  0
LINE
  5
616
330
1F
100
AcDbEntity
  8
0
  6
Continuous
 62
     7
370
    25
100
AcDbLine
 10
2260.0141542176
 20
925.4701497972
 30
0.0
 11
2255.1141547183
 21
925.4701497972
 31
0.0
  0
ARC
  5
617
330
1F
100
AcDbEntity
  8
0
  6
Continuous
 62
     7
370
    25
100
AcDbCircle
 10
2263.5141541394
 20
927.3368133262
 30
0.0
 40
3.966665121098449
100
AcDbArc
 50
208.0724474783
 51
331.9275525217
  0
LINE
  5
618
330
1F
100
AcDbEntity
  8
0
  6
Continuous
 62
     7
370
    25
100
AcDbLine
 10
2416.1141524235
 20
802.2701452493
 30
0.0
 11
2416.1141524235
 21
921.2701412856
 31
0.0
  0
LINE
  5
619
330
1F
100
AcDbEntity
  8
0
  6
Continuous
 62
     7
370
    25
100
AcDbLine
 10
2255.1141547183
 20
802.2701452493
 30
0.0
 11
2416.1141524235
 21
802.2701452493
 31
0.0
  0
LINE
  5
61A
330
1F
100
AcDbEntity
  8
0
  6
Continuous
 62
     7
370
    25
100
AcDbLine
 10
2255.1141547183
 20
921.2701412856
 30
0.0
 11
2255.1141547183
 21
802.2701452493
 31
0.0
  0
LINE
  5
61B
330
1F
100
AcDbEntity
  8
0
  6
Continuous
 62
     7
370
    25
100
AcDbLine
 10
2271.9141535605
 20
903.0701461255
 30
0.0
 11
2271.9141535605
 21
820.4701456248
 31
0.0
  0
ARC
  5
61C
330
1F
100
AcDbEntity
  8
0
  6
Continuous
 62
     7
370
    25
100
AcDbCircle
 10
2276.114147564
 20
820.4701415477
 30
0.0
 40
4.199994003586813
100
AcDbArc
 50
179.9999443801
 51
270.0000911939
  0
LINE
  5
61D
330
1F
100
AcDbEntity
  8
0
  6
Continuous
 62
     7
370
    25
100
AcDbLine
 10
2276.1141542489
 20
816.2701475441
 30
0.0
 11
2396.5141544262
 21
816.2701475441
 31
0.0
  0
ARC
  5
61E
330
1F
100
AcDbEntity
  8
0
  6
Continuous
 62
     7
370
    25
100
AcDbCircle
 10
2396.5141662937
 20
820.4701337574
 30
0.0
 40
4.199986213286079
100
AcDbArc
 50
269.9998381053
 51
0.0001618947
  0
LINE
  5
61F
330
1F
100
AcDbEntity
  8
0
  6
Continuous
 62
     7
370
    25
100
AcDbLine
 10
2400.7141525069
 20
820.4701456248
 30
0.0
 11
2400.7141525069
 21
903.0701461255
 31
0.0
  0
ARC
  5
620
330
1F
100
AcDbEntity
  8
0
  6
Continuous
 62
     7
370
    25
100
AcDbCircle
 10
2396.5141306806
 20
903.0701328108
 30
0.0
 40
4.200021826339439
100
AcDbArc
 50
0.0001816366
 51
89.9996760679
  0
LINE
  5
621
330
1F
100
AcDbEntity
  8
0
  6
Continuous
 62
     7
370
    25
100
AcDbLine
 10
2396.5141544262
 20
907.2701546371
 30
0.0
 11
2276.1141542489
 21
907.2701546371
 31
0.0
  0
ARC
  5
622
330
1F
100
AcDbEntity
  8
0
  6
Continuous
 62
     7
370
    25
100
AcDbCircle
 10
2276.1141831772
 20
903.0701250203
 30
0.0
 40
4.200029616822397
100
AcDbArc
 50
90.0003946333
 51
179.9997120883
  0
LINE
  5
623
330
1F
100
AcDbEntity
  8
0
  6
Continuous
 62
     7
370
    25
100
AcDbLine
 10
2255.1141547183
 20
798.0701471686
 30
0.0
 11
2260.0141542176
 21
798.0701471686
 31
0.0
  0
LINE
  5
624
330
1F
100
AcDbEntity
  8
0
  6
Continuous
 62
     7
370
    25
100
AcDbLine
 10
2255.1141547183
 20
798.0701471686
 30
0.0
 11
2255.1141547183
 21
802.2701452493
 31
0.0
  0
LINE
  5
625
330
1F
100
AcDbEntity
  8
0
  6
Continuous
 62
     7
370
    25
100
AcDbLine
 10
2416.1141524235
 20
798.0701471686
 30
0.0
 11
2416.1141524235
 21
802.2701452493
 31
0.0
  0
LINE
  5
626
330
1F
100
AcDbEntity
  8
0
  6
Continuous
 62
     7
370
    25
100
AcDbLine
 10
2267.0141540611
 20
798.0701471686
 30
0.0
 11
2416.1141524235
 21
798.0701471686
 31
0.0
  0
ARC
  5
627
330
1F
100
AcDbEntity
  8
0
  6
Continuous
 62
     7
370
    25
100
AcDbCircle
 10
2263.5141541394
 20
796.2034816719
 30
0.0
 40
3.966666047076606
100
AcDbArc
 50
28.0724725567
 51
151.9275274433
  0
LINE
  5
628
330
1F
100
AcDbEntity
  8
0
  6
Continuous
 62
     7
370
    25
100
AcDbLine
 10
2420.3141505042
 20
802.2701452493
 30
0.0
 11
2420.3141505042
 21
921.2701412856
 31
0.0
  0
LINE
  5
629
330
1F
100
AcDbEntity
  8
0
  6
Continuous
 62
     7
370
    25
100
AcDbLine
 10
2416.1141524235
 20
802.2701452493
 30
0.0
 11
2420.3141505042
 21
802.2701452493
 31
0.0
  0
LINE
  5
62A
330
1F
100
AcDbEntity
  8
0
  6
Continuous
 62
     7
370
    25
100
AcDbLine
 10
2420.3141505042
 20
921.2701412856
 30
0.0
 11
2416.1141524235
 21
921.2701412856
 31
0.0
  0
ARC
  5
62B
330
1F
100
AcDbEntity
  8
0
  6
Continuous
 62
     7
370
    25
100
AcDbCircle
 10
2416.1141553877
 20
802.2701422851
 30
0.0
 40
4.19999511648407
100
AcDbArc
 50
269.9999595621
 51
0.0000404379
  0
ARC
  5
62C
330
1F
100
AcDbEntity
  8
0
  6
Continuous
 62
     7
370
    25
100
AcDbCircle
 10
2416.1141642909
 20
921.2701635838
 30
0.0
 40
4.199986213358497
100
AcDbArc
 50
359.9996958102
 51
90.0001618943
  0
LINE
  5
62D
330
1F
100
AcDbEntity
  8
0
  6
Continuous
 62
     7
370
    25
100
AcDbLine
 10
2255.1141547183
 20
928.2701554715
 30
0.0
 11
2416.1141524235
 21
928.2701554715
 31
0.0
  0
ARC
  5
62E
330
1F
100
AcDbEntity
  8
0
  6
Continuous
 62
     7
370
    25
100
AcDbCircle
 10
2416.1141316725
 20
921.2701309654
 30
0.0
 40
7.00002450614358
100
AcDbArc
 50
0.0000844718
 51
89.999830151
  0
LINE
  5
62F
330
1F
100
AcDbEntity
  8
0
  6
Continuous
 62
     7
370
    25
100
AcDbLine
 10
2423.1141561786
 20
921.2701412856
 30
0.0
 11
2423.1141561786
 21
802.2701452493
 31
0.0
  0
ARC
  5
630
330
1F
100
AcDbEntity
  8
0
  6
Continuous
 62
     7
370
    25
100
AcDbCircle
 10
2416.1141405757
 20
802.2701623125
 30
0.0
 40
7.000015602872644
100
AcDbArc
 50
270.000096975
 51
359.9998603363
  0
LINE
  5
631
330
1F
100
AcDbEntity
  8
0
  6
Continuous
 62
     7
370
    25
100
AcDbLine
 10
2416.1141524235
 20
795.2701467097
 30
0.0
 11
2255.1141547183
 21
795.2701467097
 31
0.0
  0
LINE
  5
632
330
1F
100
AcDbEntity
  8
0
  6
Continuous
 62
     7
370
    25
100
AcDbLine
 10
2249.8696463326
 20
777.0701463341
 30
0.0
 11
2249.8641545097
 21
777.0701463341
 31
0.0
  0
LINE
  5
633
330
1F
100
AcDbEntity
  8
0
  6
Continuous
 62
     7
370
    25
100
AcDbLine
 10
2269.4641538108
 20
777.0701463341
 30
0.0
 11
2249.8696463326
 21
777.0701463341
 31
0.0
  0
LINE
  5
634
330
1F
100
AcDbEntity
  8
0
  6
Continuous
 62
     7
370
    25
100
AcDbLine
 10
2360.1141536752
 20
779.1701453745
 30
0.0
 11
2318.3265781174
 21
779.1701453745
 31
0.0
  0
LINE
  5
635
330
1F
100
AcDbEntity
  8
0
  6
Continuous
 62
     7
370
    25
100
AcDbLine
 10
2318.3265781174
 20
779.1701453745
 30
0.0
 11
2318.3265781174
 21
791.7701448321
 31
0.0
  0
LINE
  5
636
330
1F
100
AcDbEntity
  8
0
  6
Continuous
 62
     7
370
    25
100
AcDbLine
 10
2358.7141560534
 20
777.7701477527
 30
0.0
 11
2319.7124159107
 21
777.7701477527
 31
0.0
  0
LINE
  5
637
330
1F
100
AcDbEntity
  8
0
  6
Continuous
 62
     7
370
    25
100
AcDbLine
 10
2319.7124159107
 20
777.7701477527
 30
0.0
 11
2318.3265781174
 21
779.1701453745
 31
0.0
  0
ARC
  5
638
330
1F
100
AcDbEntity
  8
0
  6
Continuous
 62
     7
370
    25
100
AcDbCircle
 10
2328.7700262042
 20
787.7279266083
 30
0.0
 40
11.19844346822627
100
AcDbArc
 50
158.8406813883
 51
168.8124793529
  0
LWPOLYLINE
  5
639
330
1F
100
AcDbEntity
  8
0
  6
Continuous
 62
     7
370
    25
100
AcDbPolyline
 90
       11
 70
   128
 43
0.0
 10
2318.3265781174
 20
791.7701448321
 10
2318.3265390018
 20
791.7700144469
 10
2318.3262339005
 20
791.7689035654
 10
2318.3253916124
 20
791.7657743215
 10
2318.3222128222
 20
791.7538727641
 10
2318.3098914245
 20
791.707481724
 10
2317.9492460707
 20
790.3632055044
 10
2317.5974851618
 20
789.1285519123
 10
2317.260606415
 20
788.0766044378
 10
2316.6881034294
 20
786.7348368287
 10
2316.0793924848
 20
786.1701491296
  0
LINE
  5
63A
330
1F
100
AcDbEntity
  8
0
  6
Continuous
 62
     7
370
    25
100
AcDbLine
 10
2316.0793924848
 20
786.1701491296
 30
0.0
 11
2316.6303323725
 21
786.7267164409
 31
0.0
  0
LINE
  5
63B
330
1F
100
AcDbEntity
  8
0
  6
Continuous
 62
     7
370
    25
100
AcDbLine
 10
2318.3265781174
 20
779.1701453745
 30
0.0
 11
2276.5217193546
 21
779.1701453745
 31
0.0
  0
LINE
  5
63C
330
1F
100
AcDbEntity
  8
0
  6
Continuous
 62
     7
370
    25
100
AcDbLine
 10
2276.5217193546
 20
786.1701491296
 30
0.0
 11
2276.5217193546
 21
779.1701453745
 31
0.0
  0
LINE
  5
63D
330
1F
100
AcDbEntity
  8
0
  6
Continuous
 62
     7
370
    25
100
AcDbLine
 10
2316.0793924848
 20
786.1701491296
 30
0.0
 11
2276.5217193546
 21
786.1701491296
 31
0.0
  0
LINE
  5
63E
330
1F
100
AcDbEntity
  8
0
  6
Continuous
 62
     7
370
    25
100
AcDbLine
 10
2277.9075574739
 20
777.7701477527
 30
0.0
 11
2276.5217193546
 21
779.1701453745
 31
0.0
  0
LINE
  5
63F
330
1F
100
AcDbEntity
  8
0
  6
Continuous
 62
     7
370
    25
100
AcDbLine
 10
2319.7124159107
 20
777.7701477527
 30
0.0
 11
2277.9075574739
 21
777.7701477527
 31
0.0
  0
LINE
  5
640
330
1F
100
AcDbEntity
  8
0
  6
Continuous
 62
     7
370
    25
100
AcDbLine
 10
2277.9075574739
 20
787.5701467514
 30
0.0
 11
2276.5217193546
 21
786.1701491296
 31
0.0
  0
LINE
  5
641
330
1F
100
AcDbEntity
  8
0
  6
Continuous
 62
     7
370
    25
100
AcDbLine
 10
2277.9075574739
 20
787.5701467514
 30
0.0
 11
2317.0445138732
 21
787.5701467514
 31
0.0
  0
LINE
  5
642
330
1F
100
AcDbEntity
  8
0
  6
Continuous
 62
     7
370
    25
100
AcDbLine
 10
2276.327204253
 20
779.1701453745
 30
0.0
 11
2276.5217193546
 21
779.1701453745
 31
0.0
  0
LINE
  5
643
330
1F
100
AcDbEntity
  8
0
  6
Continuous
 62
     7
370
    25
100
AcDbLine
 10
2276.327204253
 20
779.1701453745
 30
0.0
 11
2276.327204253
 21
786.1701491296
 31
0.0
  0
LINE
  5
644
330
1F
100
AcDbEntity
  8
0
  6
Continuous
 62
     7
370
    25
100
AcDbLine
 10
2276.5217193546
 20
786.1701491296
 30
0.0
 11
2276.327204253
 21
786.1701491296
 31
0.0
  0
LINE
  5
645
330
1F
100
AcDbEntity
  8
0
  6
Continuous
 62
     7
370
    25
100
AcDbLine
 10
2277.7169330655
 20
777.7701477527
 30
0.0
 11
2276.327204253
 21
779.1701453745
 31
0.0
  0
LINE
  5
646
330
1F
100
AcDbEntity
  8
0
  6
Continuous
 62
     7
370
    25
100
AcDbLine
 10
2277.9075574739
 20
777.7701477527
 30
0.0
 11
2277.7169330655
 21
777.7701477527
 31
0.0
  0
LINE
  5
647
330
1F
100
AcDbEntity
  8
0
  6
Continuous
 62
     7
370
    25
100
AcDbLine
 10
2276.327204253
 20
786.1701491296
 30
0.0
 11
2277.7169330655
 21
787.5701467514
 31
0.0
  0
LINE
  5
648
330
1F
100
AcDbEntity
  8
0
  6
Continuous
 62
     7
370
    25
100
AcDbLine
 10
2277.7169330655
 20
787.5701467514
 30
0.0
 11
2277.9075574739
 21
787.5701467514
 31
0.0
  0
LINE
  5
649
330
1F
100
AcDbEntity
  8
0
  6
Continuous
 62
     7
370
    25
100
AcDbLine
 10
2245.7668660352
 20
777.7701477527
 30
0.0
 11
2244.3771375487
 21
779.1701453745
 31
0.0
  0
LINE
  5
64A
330
1F
100
AcDbEntity
  8
0
  6
Continuous
 62
     7
370
    25
100
AcDbLine
 10
2276.327204253
 20
779.1701453745
 30
0.0
 11
2244.3771375487
 21
779.1701453745
 31
0.0
  0
LINE
  5
64B
330
1F
100
AcDbEntity
  8
0
  6
Continuous
 62
     7
370
    25
100
AcDbLine
 10
2277.7169330655
 20
777.7701477527
 30
0.0
 11
2245.7668660352
 21
777.7701477527
 31
0.0
  0
LINE
  5
64C
330
1F
100
AcDbEntity
  8
0
  6
Continuous
 62
     7
370
    25
100
AcDbLine
 10
2244.3771375487
 20
786.1701491296
 30
0.0
 11
2245.7668660352
 21
787.5701467514
 31
0.0
  0
LINE
  5
64D
330
1F
100
AcDbEntity
  8
0
  6
Continuous
 62
     7
370
    25
100
AcDbLine
 10
2276.327204253
 20
786.1701491296
 30
0.0
 11
2244.3771375487
 21
786.1701491296
 31
0.0
  0
LINE
  5
64E
330
1F
100
AcDbEntity
  8
0
  6
Continuous
 62
     7
370
    25
100
AcDbLine
 10
2245.7668660352
 20
787.5701467514
 30
0.0
 11
2277.7169330655
 21
787.5701467514
 31
0.0
  0
LINE
  5
64F
330
1F
100
AcDbEntity
  8
0
  6
Continuous
 62
     7
370
    25
100
AcDbLine
 10
2244.3771375487
 20
779.1701453745
 30
0.0
 11
2244.3771375487
 21
786.1701491296
 31
0.0
  0
LINE
  5
650
330
1F
100
AcDbEntity
  8
0
  6
Continuous
 62
     7
370
    25
100
AcDbLine
 10
2244.3771375487
 20
779.1701453745
 30
0.0
 11
2244.2641535918
 21
779.1701453745
 31
0.0
  0
LINE
  5
651
330
1F
100
AcDbEntity
  8
0
  6
Continuous
 62
     7
370
    25
100
AcDbLine
 10
2245.7668660352
 20
777.7701477527
 30
0.0
 11
2245.6641538212
 21
777.7701477527
 31
0.0
  0
LINE
  5
652
330
1F
100
AcDbEntity
  8
0
  6
Continuous
 62
     7
370
    25
100
AcDbLine
 10
2244.3771375487
 20
786.1701491296
 30
0.0
 11
2244.2641535918
 21
786.1701491296
 31
0.0
  0
LINE
  5
653
330
1F
100
AcDbEntity
  8
0
  6
Continuous
 62
     7
370
    25
100
AcDbLine
 10
2245.6641538212
 20
787.5701467514
 30
0.0
 11
2245.7668660352
 21
787.5701467514
 31
0.0
  0
LINE
  5
654
330
1F
100
AcDbEntity
  8
0
  6
Continuous
 62
     7
370
    25
100
AcDbLine
 10
2241.8141538421
 20
751.1701460004
 30
0.0
 11
2241.8141538421
 21
750.4701471895
 31
0.0
  0
LINE
  5
655
330
1F
100
AcDbEntity
  8
0
  6
Continuous
 62
     7
370
    25
100
AcDbLine
 10
2241.8141538421
 20
751.1701460004
 30
0.0
 11
2279.6141541707
 21
751.1701460004
 31
0.0
  0
LINE
  5
656
330
1F
100
AcDbEntity
  8
0
  6
Continuous
 62
     7
370
    25
100
AcDbLine
 10
2279.6141541707
 20
750.4701471895
 30
0.0
 11
2279.6141541707
 21
751.1701460004
 31
0.0
  0
LINE
  5
657
330
1F
100
AcDbEntity
  8
0
  6
Continuous
 62
     7
370
    25
100
AcDbLine
 10
2241.8141538421
 20
750.4701471895
 30
0.0
 11
2279.6141541707
 21
750.4701471895
 31
0.0
  0
LINE
  5
658
330
1F
100
AcDbEntity
  8
0
  6
Continuous
 62
     7
370
    25
100
AcDbLine
 10
2241.8141538421
 20
773.5701444566
 30
0.0
 11
2241.1141550312
 21
773.5701444566
 31
0.0
  0
ARC
  5
659
330
1F
100
AcDbEntity
  8
0
  6
Continuous
 62
     7
370
    25
100
AcDbCircle
 10
2241.8141512495
 20
773.5701496568
 30
0.0
 40
0.6999962183642658
100
AcDbArc
 50
89.9997877964
 51
180.000425647
  0
LINE
  5
65A
330
1F
100
AcDbEntity
  8
0
  6
Continuous
 62
     7
370
    25
100
AcDbLine
 10
2241.8141538421
 20
774.2701458752
 30
0.0
 11
2241.8141538421
 21
773.5701444566
 31
0.0
  0
LINE
  5
65B
330
1F
100
AcDbEntity
  8
0
  6
Continuous
 62
     7
370
    25
100
AcDbLine
 10
2241.8141538421
 20
773.5701444566
 30
0.0
 11
2241.8141538421
 21
751.1701460004
 31
0.0
  0
LINE
  5
65C
330
1F
100
AcDbEntity
  8
0
  6
Continuous
 62
     7
370
    25
100
AcDbLine
 10
2279.6141541707
 20
773.5701444566
 30
0.0
 11
2241.8141538421
 21
773.5701444566
 31
0.0
  0
LINE
  5
65D
330
1F
100
AcDbEntity
  8
0
  6
Continuous
 62
     7
370
    25
100
AcDbLine
 10
2279.6141541707
 20
751.1701460004
 30
0.0
 11
2279.6141541707
 21
773.5701444566
 31
0.0
  0
LINE
  5
65E
330
1F
100
AcDbEntity
  8
0
  6
Continuous
 62
     7
370
    25
100
AcDbLine
 10
2241.1141550312
 20
751.1701460004
 30
0.0
 11
2241.8141538421
 21
751.1701460004
 31
0.0
  0
ARC
  5
65F
330
1F
100
AcDbEntity
  8
0
  6
Continuous
 62
     7
370
    25
100
AcDbCircle
 10
2241.8141557012
 20
751.1701478594
 30
0.0
 40
0.7000006699650743
100
AcDbArc
 50
180.0001521672
 51
269.9998478328
  0
LINE
  5
660
330
1F
100
AcDbEntity
  8
0
  6
Continuous
 62
     7
370
    25
100
AcDbLine
 10
2279.6141541707
 20
773.5701444566
 30
0.0
 11
2279.6141541707
 21
774.2701458752
 31
0.0
  0
LINE
  5
661
330
1F
100
AcDbEntity
  8
0
  6
Continuous
 62
     7
370
    25
100
AcDbLine
 10
2279.6141541707
 20
774.2701458752
 30
0.0
 11
2241.8141538421
 21
774.2701458752
 31
0.0
  0
LINE
  5
662
330
1F
100
AcDbEntity
  8
0
  6
Continuous
 62
     7
370
    25
100
AcDbLine
 10
2241.1141550312
 20
773.5701444566
 30
0.0
 11
2241.1141550312
 21
751.1701460004
 31
0.0
  0
LINE
  5
663
330
1F
100
AcDbEntity
  8
0
  6
Continuous
 62
     7
370
    25
100
AcDbLine
 10
2280.3141539594
 20
773.5701444566
 30
0.0
 11
2279.6141541707
 21
773.5701444566
 31
0.0
  0
LINE
  5
664
330
1F
100
AcDbEntity
  8
0
  6
Continuous
 62
     7
370
    25
100
AcDbLine
 10
2280.3141539594
 20
751.1701460004
 30
0.0
 11
2280.3141539594
 21
773.5701444566
 31
0.0
  0
LINE
  5
665
330
1F
100
AcDbEntity
  8
0
  6
Continuous
 62
     7
370
    25
100
AcDbLine
 10
2279.6141541707
 20
751.1701460004
 30
0.0
 11
2280.3141539594
 21
751.1701460004
 31
0.0
  0
ARC
  5
666
330
1F
100
AcDbEntity
  8
0
  6
Continuous
 62
     7
370
    25
100
AcDbCircle
 10
2279.6141538459
 20
751.170147303
 30
0.0
 40
0.7000001135054007
100
AcDbArc
 50
270.0000265793
 51
359.9998933793
  0
ARC
  5
667
330
1F
100
AcDbEntity
  8
0
  6
Continuous
 62
     7
370
    25
100
AcDbCircle
 10
2279.6141582975
 20
773.5701502133
 30
0.0
 40
0.6999956619320316
100
AcDbArc
 50
359.9995288072
 51
90.0003377908
  0
LINE
  5
668
330
1F
100
AcDbEntity
  8
0
  6
Continuous
 62
     7
370
    25
100
AcDbLine
 10
2318.114154614
 20
791.7701448321
 30
0.0
 11
2318.3265781174
 21
791.7701448321
 31
0.0
  0
LINE
  5
669
330
1F
100
AcDbEntity
  8
FORMAT
  6
HIDDEN
370
    25
100
AcDbLine
 10
2255.1141540938
 20
821.8701466262
 30
0.0
 11
2259.3141540938
 21
821.8701466262
 31
0.0
  0
LINE
  5
66A
330
1F
100
AcDbEntity
  8
FORMAT
  6
HIDDEN
370
    25
100
AcDbLine
 10
2259.3141540938
 20
831.6701466262
 30
0.0
 11
2255.1141540938
 21
831.6701466262
 31
0.0
  0
LINE
  5
66B
330
1F
100
AcDbEntity
  8
FORMAT
  6
HIDDEN
370
    25
100
AcDbLine
 10
2255.1141540938
 20
833.7701466262
 30
0.0
 11
2259.3141540938
 21
833.7701466262
 31
0.0
  0
LINE
  5
66C
330
1F
100
AcDbEntity
  8
FORMAT
  6
HIDDEN
370
    25
100
AcDbLine
 10
2259.3141540938
 20
847.7701466262
 30
0.0
 11
2255.1141540938
 21
847.7701466262
 31
0.0
  0
LINE
  5
66D
330
1F
100
AcDbEntity
  8
FORMAT
  6
HIDDEN
370
    25
100
AcDbLine
 10
2255.1141540938
 20
849.8701466262
 30
0.0
 11
2259.3141540938
 21
849.8701466262
 31
0.0
  0
LINE
  5
66E
330
1F
100
AcDbEntity
  8
FORMAT
  6
HIDDEN
370
    25
100
AcDbLine
 10
2259.3141540938
 20
859.6701466262
 30
0.0
 11
2255.1141540938
 21
859.6701466262
 31
0.0
  0
LINE
  5
66F
330
1F
100
AcDbEntity
  8
FORMAT
  6
HIDDEN
370
    25
100
AcDbLine
 10
2255.1141540938
 20
863.8701466262
 30
0.0
 11
2259.3141540938
 21
863.8701466262
 31
0.0
  0
LINE
  5
670
330
1F
100
AcDbEntity
  8
FORMAT
  6
HIDDEN
370
    25
100
AcDbLine
 10
2259.3141540938
 20
873.6701466262
 30
0.0
 11
2255.1141540938
 21
873.6701466262
 31
0.0
  0
LINE
  5
671
330
1F
100
AcDbEntity
  8
FORMAT
  6
HIDDEN
370
    25
100
AcDbLine
 10
2255.1141540938
 20
875.8025328449
 30
0.0
 11
2259.3141540938
 21
875.7701466262
 31
0.0
  0
LINE
  5
672
330
1F
100
AcDbEntity
  8
FORMAT
  6
HIDDEN
370
    25
100
AcDbLine
 10
2259.3141540938
 20
889.7701466262
 30
0.0
 11
2255.1141540938
 21
889.7701466262
 31
0.0
  0
LINE
  5
673
330
1F
100
AcDbEntity
  8
FORMAT
  6
HIDDEN
370
    25
100
AcDbLine
 10
2255.1141540938
 20
891.8701466262
 30
0.0
 11
2259.3141540938
 21
891.8701466262
 31
0.0
  0
LINE
  5
674
330
1F
100
AcDbEntity
  8
FORMAT
  6
HIDDEN
370
    25
100
AcDbLine
 10
2259.3141540938
 20
901.6701466262
 30
0.0
 11
2255.1141540938
 21
901.6701466262
 31
0.0
  0
LINE
  5
675
330
1F
100
AcDbEntity
  8
FORMAT
  6
CENTERX2
370
    25
100
AcDbLine
 10
2250.0981742963
 20
910.7701466294
 30
0.0
 11
2274.161220004
 21
910.7701466294
 31
0.0
  0
LINE
  5
676
330
1F
100
AcDbEntity
  8
FORMAT
  6
CENTERX2
370
    25
100
AcDbLine
 10
2250.0981742963
 20
910.7701466294
 30
0.0
 11
2250.0981742963
 21
810.6394464746
 31
0.0
  0
LINE
  5
677
330
1F
100
AcDbEntity
  8
FORMAT
  6
CENTERX2
370
    25
100
AcDbLine
 10
2250.0981742963
 20
810.6394464746
 30
0.0
 11
2274.161220004
 21
810.6394464746
 31
0.0
  0
LINE
  5
678
330
1F
100
AcDbEntity
  8
FORMAT
  6
CENTERX2
370
    25
100
AcDbLine
 10
2274.161220004
 20
910.7701466294
 30
0.0
 11
2274.161220004
 21
810.6394464746
 31
0.0
  0
ARC
  5
679
330
1F
100
AcDbEntity
  8
FORMAT
  6
HIDDEN
370
    25
100
AcDbCircle
 10
2259.3141540938
 20
826.7701466262
 30
0.0
 40
4.900000000000205
100
AcDbArc
 50
270.0
 51
90.0
  0
ARC
  5
67A
330
1F
100
AcDbEntity
  8
FORMAT
  6
HIDDEN
370
    25
100
AcDbCircle
 10
2259.3141540938
 20
840.7701466262
 30
0.0
 40
7.0
100
AcDbArc
 50
270.0
 51
90.0
  0
ARC
  5
67B
330
1F
100
AcDbEntity
  8
FORMAT
  6
HIDDEN
370
    25
100
AcDbCircle
 10
2259.3141540938
 20
854.7701466262
 30
0.0
 40
4.900000000000318
100
AcDbArc
 50
270.0
 51
90.0
  0
ARC
  5
67C
330
1F
100
AcDbEntity
  8
FORMAT
  6
HIDDEN
370
    25
100
AcDbCircle
 10
2259.3141540938
 20
868.7701466262
 30
0.0
 40
4.900000000000091
100
AcDbArc
 50
270.0
 51
90.0
  0
ARC
  5
67D
330
1F
100
AcDbEntity
  8
FORMAT
  6
HIDDEN
370
    25
100
AcDbCircle
 10
2259.3681311251
 20
882.7701466262
 30
0.0
 40
7.000208105471819
100
AcDbArc
 50
269.5582007444
 51
90.4417992556
  0
ARC
  5
67E
330
1F
100
AcDbEntity
  8
FORMAT
  6
HIDDEN
370
    25
100
AcDbCircle
 10
2259.3141540938
 20
896.7701466262
 30
0.0
 40
4.900000000000432
100
AcDbArc
 50
270.0
 51
90.0
  0
DIMENSION
  5
67F
330
1F
100
AcDbEntity
  8
FORMAT
100
AcDbDimension
  2
_D_28
 10
2255.1141540938
 20
964.4107208092
 30
0.0
 11
2297.2905294383
 21
964.4107208092
 31
0.0
 70
   160
  1
<>
 71
     2
 42
-1.0
  3
SLDDIMSTYLE6
100
AcDbAlignedDimension
 13
2241.1141540938
 23
921.0601466262
 33
0.0
 14
2255.1141540938
 24
921.0601466262
 34
0.0
 50
0.0
100
AcDbRotatedDimension
  0
DIMENSION
  5
68C
330
1F
100
AcDbEntity
  8
FORMAT
100
AcDbDimension
  2
_D_29
 10
2280.3141540877
 20
627.4426321011
 30
0.0
 11
2344.7653134718
 21
627.4426321011
 31
0.0
 70
   160
  1
(<>)
 71
     2
 42
-1.0
  3
SLDDIMSTYLE6
100
AcDbAlignedDimension
 13
2241.1141540911
 23
661.3495874226
 33
0.0
 14
2280.3141540877
 24
751.1701466349
 34
0.0
100
AcDbRotatedDimension
  0
DIMENSION
  5
69A
330
1F
100
AcDbEntity
  8
FORMAT
100
AcDbDimension
  2
_D_30
 10
2452.3515357958
 20
774.2701466349
 30
0.0
 11
2452.3515357958
 21
685.9897823312
 31
0.0
 70
   160
  1
(<>)
 71
     2
 42
-1.0
  3
SLDDIMSTYLE6
100
AcDbAlignedDimension
 13
2279.6141540877
 23
750.4701466349
 33
0.0
 14
2279.6141540877
 24
774.2701466349
 34
0.0
 50
90.0
100
AcDbRotatedDimension
  0
DIMENSION
  5
6A8
330
1F
100
AcDbEntity
  8
FORMAT
100
AcDbDimension
  2
_D_31
 10
2055.1873348572
 20
793.1701466262
 30
0.0
 11
2055.1873348572
 21
729.9833821841
 31
0.0
 70
   160
  1
<>*
 71
     2
 42
-1.0
  3
SLDDIMSTYLE7
100
AcDbAlignedDimension
 13
2245.7668670013
 23
787.5701466262
 33
0.0
 14
2199.1141540911
 24
793.1701466262
 34
0.0
 50
90.0
100
AcDbRotatedDimension
  0
DIMENSION
  5
6B6
330
1F
100
AcDbEntity
  8
FORMAT
100
AcDbDimension
  2
_D_32
 10
2506.8514959387
 20
777.7701466269
 30
0.0
 11
2506.8514959389
 21
685.9897823312
 31
0.0
 70
   160
  1
<>
 71
     2
 42
-1.0
  3
SLDDIMSTYLE6
100
AcDbAlignedDimension
 13
2279.6141540877
 23
774.2701466349
 33
0.0
 14
2319.7124162998
 24
777.7701466264
 34
0.0
 50
90.0
100
AcDbRotatedDimension
  0
DIMENSION
  5
6C2
330
1F
100
AcDbEntity
  8
FORMAT
100
AcDbDimension
  2
_D_33
 10
2560.2335081817
 20
795.2701466262
 30
0.0
 11
2560.2335081817
 21
685.9897823312
 31
0.0
 70
   160
  1
<>
 71
     2
 42
-1.0
  3
SLDDIMSTYLE6
100
AcDbAlignedDimension
 13
2358.7141540938
 23
777.7701466264
 33
0.0
 14
2416.1141540938
 24
795.2701466262
 34
0.0
 50
90.0
100
AcDbRotatedDimension
  0
DIMENSION
  5
6CE
330
1F
100
AcDbEntity
  8
FORMAT
100
AcDbDimension
  2
_D_34
 10
2005.4378736167
 20
795.2701466255
 30
0.0
 11
2005.4378736168
 21
742.6276067989
 31
0.0
 70
   160
  1
<>
 71
     2
 42
-1.0
  3
SLDDIMSTYLE6
100
AcDbAlignedDimension
 13
2245.7668670013
 23
787.5701466262
 33
0.0
 14
2241.1141540938
 24
795.2701466262
 34
0.0
 50
90.0
100
AcDbRotatedDimension
  0
DIMENSION
  5
6DA
330
1F
100
AcDbEntity
  8
FORMAT
100
AcDbDimension
  2
_D_35
 10
2110.6879708634
 20
795.2701466262
 30
0.0
 11
2110.6879708634
 21
851.913346822
 31
0.0
 70
   160
  1
<>
 71
     2
 42
-1.0
  3
SLDDIMSTYLE8
100
AcDbAlignedDimension
 13
2199.1141540911
 23
793.1701466262
 33
0.0
 14
2241.1141540938
 24
795.2701466262
 34
0.0
 50
90.0
100
AcDbRotatedDimension
  0
DIMENSION
  5
6E7
330
1F
100
AcDbEntity
  8
FORMAT
100
AcDbDimension
  2
_D_36
 10
2110.6879708634
 20
774.2701466349
 30
0.0
 11
2110.6879708634
 21
703.487806533
 31
0.0
 70
   160
  1
<>
 71
     2
 42
-1.0
  3
SLDDIMSTYLE8
100
AcDbAlignedDimension
 13
2199.1141540911
 23
793.1701466262
 33
0.0
 14
2241.8141540877
 24
774.2701466349
 34
0.0
 50
90.0
100
AcDbRotatedDimension
  0
MTEXT
  5
6F3
330
1F
100
AcDbEntity
  8
FORMAT
100
AcDbMText
 10
2162.8137775861
 20
1104.1275195184
 30
0.0
 40
35.0
 41
0.0
 71
     2
 72
     1
  1
B (1 : 5)
  7
SLDTEXTSTYLE0
 73
     1
 44
1.0
  0
MTEXT
  5
6F4
330
1F
100
AcDbEntity
  8
FORMAT
100
AcDbMText
 10
1978.7492186644
 20
634.0378281165
 30
0.0
 40
18.5208333333
 41
0.0
 71
     1
 72
     1
  1
GB 18
  7
SLDTEXTSTYLE0
 73
     1
 44
1.0
  0
LEADER
  5
6F5
330
1F
100
AcDbEntity
  8
FORMAT
100
AcDbLeader
  3
SLDDIMSTYLE3
 76
     3
 10
2249.8641540892
 20
775.8318421528
 30
0.0
 10
2096.612498328
 20
625.5401753073
 30
0.0
 10
2052.162498328
 20
625.5401753073
 30
0.0
  0
MTEXT
  5
6F6
330
1F
100
AcDbEntity
  8
FORMAT
100
AcDbMText
 10
1695.8699830623
 20
940.1972401775
 30
0.0
 40
18.5208333333
 41
0.0
 71
     1
 72
     1
  1
aufliegende Kabelzuführung (optional)
  7
SLDTEXTSTYLE0
 73
     1
 44
1.0
  0
LEADER
  5
6F7
330
1F
100
AcDbEntity
  8
FORMAT
100
AcDbLeader
  3
SLDDIMSTYLE3
 76
     3
 10
2250.0981742963
 20
881.7628197098
 30
0.0
 10
2160.5604638257
 20
931.0717224119
 30
0.0
 10
2116.1104638257
 20
931.0717224119
 30
0.0
  0
CIRCLE
  5
6F8
330
1F
100
AcDbEntity
  8
0
  6
Continuous
 62
     7
370
    18
100
AcDbCircle
 10
1810.5845938244
 20
273.7616631537
 30
0.0
 40
80.00589767684147
  0
CIRCLE
  5
6F9
330
1F
100
AcDbEntity
  8
0
  6
Continuous
 62
     7
370
    25
100
AcDbCircle
 10
1796.8145063371
 20
225.3501642244
 30
0.0
 40
8.680002242790342
  0
CIRCLE
  5
6FA
330
1F
100
AcDbEntity
  8
0
  6
Continuous
 62
     7
370
    25
100
AcDbCircle
 10
1796.8144976025
 20
225.350162563
 30
0.0
 40
4.899996826456783
  0
CIRCLE
  5
6FB
330
1F
100
AcDbEntity
  8
0
  6
Continuous
 62
     7
370
    25
100
AcDbCircle
 10
1796.8145115268
 20
309.3501636754
 30
0.0
 40
8.680004774725763
  0
CIRCLE
  5
6FC
330
1F
100
AcDbEntity
  8
0
  6
Continuous
 62
     7
370
    25
100
AcDbCircle
 10
1796.8144986947
 20
309.3501627193
 30
0.0
 40
4.899999104732257
  0
CIRCLE
  5
6FD
330
1F
100
AcDbEntity
  8
0
  6
Continuous
 62
     7
370
    25
100
AcDbCircle
 10
1824.8144953062
 20
323.3501580977
 30
0.0
 40
8.679999710858326
  0
CIRCLE
  5
6FE
330
1F
100
AcDbEntity
  8
0
  6
Continuous
 62
     7
370
    25
100
AcDbCircle
 10
1824.8144989239
 20
295.3501630472
 30
0.0
 40
8.679999710861038
  0
CIRCLE
  5
6FF
330
1F
100
AcDbEntity
  8
0
  6
Continuous
 62
     7
370
    25
100
AcDbCircle
 10
1824.8145020679
 20
267.3501628982
 30
0.0
 40
8.680004774720032
  0
CIRCLE
  5
700
330
1F
100
AcDbEntity
  8
0
  6
Continuous
 62
     7
370
    25
100
AcDbCircle
 10
1824.8144989239
 20
239.3501642989
 30
0.0
 40
8.679999710861038
  0
CIRCLE
  5
701
330
1F
100
AcDbEntity
  8
0
  6
Continuous
 62
     7
370
    25
100
AcDbCircle
 10
1796.8145011474
 20
253.35016227
 30
0.0
 40
8.679999710858409
  0
CIRCLE
  5
702
330
1F
100
AcDbEntity
  8
0
  6
Continuous
 62
     7
370
    25
100
AcDbCircle
 10
1796.8145047652
 20
281.3501659679
 30
0.0
 40
8.679999710860983
  0
LINE
  5
703
330
1F
100
AcDbEntity
  8
0
  6
Continuous
 62
     7
370
    25
100
AcDbLine
 10
1760.531571659
 20
211.3501668469
 30
0.0
 11
1860.6376262034
 21
211.3501668469
 31
0.0
  0
LINE
  5
704
330
1F
100
AcDbEntity
  8
0
  6
Continuous
 62
     7
370
    25
100
AcDbLine
 10
1859.1428072775
 20
337.3501562075
 30
0.0
 11
1762.0263905848
 21
337.3501562075
 31
0.0
  0
CIRCLE
  5
705
330
1F
100
AcDbEntity
  8
0
  6
Continuous
 62
     7
370
    25
100
AcDbCircle
 10
1824.8144968696
 20
323.3501584509
 30
0.0
 40
4.899999134002813
  0
CIRCLE
  5
706
330
1F
100
AcDbEntity
  8
0
  6
Continuous
 62
     7
370
    25
100
AcDbCircle
 10
1824.8144990541
 20
267.3501637702
 30
0.0
 40
4.900003690546455
  0
CIRCLE
  5
707
330
1F
100
AcDbEntity
  8
0
  6
Continuous
 62
     7
370
    25
100
AcDbCircle
 10
1824.8144968696
 20
295.3501642921
 30
0.0
 40
4.899999134002866
  0
CIRCLE
  5
708
330
1F
100
AcDbEntity
  8
0
  6
Continuous
 62
     7
370
    25
100
AcDbCircle
 10
1796.8145022391
 20
253.3501624163
 30
0.0
 40
4.899998785122277
  0
CIRCLE
  5
709
330
1F
100
AcDbEntity
  8
0
  6
Continuous
 62
     7
370
    25
100
AcDbCircle
 10
1796.8144965102
 20
281.3501644929
 30
0.0
 40
4.899994548181962
  0
CIRCLE
  5
70A
330
1F
100
AcDbEntity
  8
0
  6
Continuous
 62
     7
370
    25
100
AcDbCircle
 10
1824.8144968696
 20
239.3501655438
 30
0.0
 40
4.899999134002893
  0
LINE
  5
70B
330
1F
100
AcDbEntity
  8
0
  6
Continuous
 62
     7
370
    25
100
AcDbLine
 10
1838.3998216714
 20
198.7501673893
 30
0.0
 11
1782.769376191
 21
198.7501673893
 31
0.0
  0
LINE
  5
70C
330
1F
100
AcDbEntity
  8
0
  6
Continuous
 62
     7
370
    25
100
AcDbLine
 10
1852.7141304339
 20
205.750165929
 30
0.0
 11
1768.4550674285
 21
205.750165929
 31
0.0
  0
DIMENSION
  5
70D
330
1F
100
AcDbEntity
  8
FORMAT
100
AcDbDimension
  2
_D_37
 10
1824.814495715
 20
144.0863147424
 30
0.0
 11
1879.1194316377
 21
144.0863147424
 31
0.0
 70
   160
  1
<>
 71
     2
 42
-1.0
  3
SLDDIMSTYLE6
100
AcDbAlignedDimension
 13
1796.814495715
 23
213.1701648892
 33
0.0
 14
1824.814495715
 24
227.1701648892
 34
0.0
100
AcDbRotatedDimension
  0
DIMENSION
  5
719
330
1F
100
AcDbEntity
  8
FORMAT
100
AcDbDimension
  2
_D_38
 10
1718.0995123494
 20
225.3501648892
 30
0.0
 11
1718.0995123494
 21
164.4243012812
 31
0.0
 70
   160
  1
<>
 71
     2
 42
-1.0
  3
SLDDIMSTYLE6
100
AcDbAlignedDimension
 13
1760.531571659
 23
211.3501648892
 33
0.0
 14
1784.634495715
 24
225.3501648892
 34
0.0
 50
90.0
100
AcDbRotatedDimension
  0
DIMENSION
  5
725
330
1F
100
AcDbEntity
  8
FORMAT
100
AcDbDimension
  2
_D_39
 10
1677.2316714743
 20
253.3501648892
 30
0.0
 11
1677.2316714743
 21
164.4243012812
 31
0.0
 70
   160
  1
<>
 71
     2
 42
-1.0
  3
SLDDIMSTYLE6
100
AcDbAlignedDimension
 13
1784.634495715
 23
225.3501648892
 33
0.0
 14
1784.634495715
 24
253.3501648892
 34
0.0
 50
90.0
100
AcDbRotatedDimension
  0
DIMENSION
  5
731
330
1F
100
AcDbEntity
  8
FORMAT
100
AcDbDimension
  2
_D_40
 10
1951.4107541528
 20
239.3501648892
 30
0.0
 11
1951.4107541528
 21
161.5742640003
 31
0.0
 70
   160
  1
<>
 71
     2
 42
-1.0
  3
SLDDIMSTYLE6
100
AcDbAlignedDimension
 13
1808.994495715
 23
225.3501648892
 33
0.0
 14
1836.994495715
 24
239.3501648892
 34
0.0
 50
90.0
100
AcDbRotatedDimension
  0
MTEXT
  5
73D
330
1F
100
AcDbEntity
  8
FORMAT
100
AcDbMText
 10
1806.2680980319
 20
486.3577865818
 30
0.0
 40
35.0
 41
0.0
 71
     2
 72
     1
  1
C (1 : 5)
  7
SLDTEXTSTYLE0
 73
     1
 44
1.0
  0
INSERT
  5
749
330
1F
100
AcDbEntity
  8
FORMAT
100
AcDbBlockReference
  2
SW_CENTERMARKSYMBOL_42
 10
1796.8144865359
 20
225.3501691417
 30
0.0
  0
INSERT
  5
755
330
1F
100
AcDbEntity
  8
FORMAT
100
AcDbBlockReference
  2
SW_CENTERMARKSYMBOL_43
 10
1824.8145015563
 20
239.3501662211
 30
0.0
  0
INSERT
  5
761
330
1F
100
AcDbEntity
  8
FORMAT
100
AcDbBlockReference
  2
SW_CENTERMARKSYMBOL_44
 10
1796.8144865359
 20
253.3501633005
 30
0.0
  0
INSERT
  5
76D
330
1F
100
AcDbEntity
  8
FORMAT
100
AcDbBlockReference
  2
SW_CENTERMARKSYMBOL_45
 10
1824.8145015563
 20
267.3501603798
 30
0.0
  0
INSERT
  5
779
330
1F
100
AcDbEntity
  8
FORMAT
100
AcDbBlockReference
  2
SW_CENTERMARKSYMBOL_46
 10
1796.8144865359
 20
281.35016789
 30
0.0
  0
INSERT
  5
785
330
1F
100
AcDbEntity
  8
FORMAT
100
AcDbBlockReference
  2
SW_CENTERMARKSYMBOL_47
 10
1824.8145015563
 20
295.3501649694
 30
0.0
  0
INSERT
  5
791
330
1F
100
AcDbEntity
  8
FORMAT
100
AcDbBlockReference
  2
SW_CENTERMARKSYMBOL_48
 10
1796.8144865359
 20
309.3501620488
 30
0.0
  0
INSERT
  5
79D
330
1F
100
AcDbEntity
  8
FORMAT
100
AcDbBlockReference
  2
SW_CENTERMARKSYMBOL_49
 10
1824.8145015563
 20
323.3501695589
 30
0.0
  0
ENDSEC
  0
SECTION
  2
OBJECTS
  0
DICTIONARY
  5
C
330
0
100
AcDbDictionary
281
     1
  3
ACAD_GROUP
350
D
  3
ACAD_LAYOUT
350
1A
  3
ACAD_MLINESTYLE
350
17
  3
ACAD_PLOTSETTINGS
350
19
  3
ACAD_PLOTSTYLENAME
350
E
  3
ACAD_SCALELIST
350
47
  3
DWGPROPS
350
79E
  0
DICTIONARY
  5
D
102
{ACAD_REACTORS
330
C
102
}
330
C
100
AcDbDictionary
281
     1
  0
DICTIONARY
  5
1A
102
{ACAD_REACTORS
330
C
102
}
330
C
100
AcDbDictionary
281
     1
  3
Layout1
350
1E
  3
Layout2
350
26
  3
Model
350
22
  0
DICTIONARY
  5
17
102
{ACAD_REACTORS
330
C
102
}
330
C
100
AcDbDictionary
281
     1
  3
Standard
350
18
  0
DICTIONARY
  5
19
102
{ACAD_REACTORS
330
C
102
}
330
C
100
AcDbDictionary
281
     1
  0
ACDBDICTIONARYWDFLT
  5
E
102
{ACAD_REACTORS
330
C
102
}
330
C
100
AcDbDictionary
281
     1
  3
Normal
350
F
100
AcDbDictionaryWithDefault
340
F
  0
DICTIONARY
  5
47
102
{ACAD_REACTORS
330
C
102
}
330
C
100
AcDbDictionary
281
     1
  3
A0
350
48
  3
A1
350
49
  3
A2
350
4A
  3
A3
350
4B
  3
A4
350
4C
  3
A5
350
4D
  3
A6
350
4E
  3
A7
350
4F
  3
A8
350
50
  3
A9
350
51
  3
B0
350
52
  3
B1
350
53
  3
B2
350
54
  3
B3
350
55
  3
B4
350
56
  3
B5
350
57
  3
B6
350
58
  3
B7
350
59
  3
B8
350
5A
  3
B9
350
5B
  3
C0
350
5C
  3
C1
350
5D
  3
C2
350
5E
  3
C3
350
5F
  3
C4
350
60
  3
C5
350
61
  3
C6
350
62
  3
C7
350
63
  3
C8
350
64
  3
C9
350
65
  3
D0
350
66
  3
D1
350
67
  3
D2
350
68
  0
XRECORD
  5
79E
102
{ACAD_REACTORS
330
C
102
}
330
C
100
AcDbXrecord
280
     1
  1
DWGPROPS COOKIE
  2

  3

  4

  6

  7

  8
l.eckardt
  9

300
=
301
=
302
=
303
=
304
=
305
=
306
=
307
=
308
=
309
=
 40
0.0
 41
2460005.322948692
 42
2460005.322953935
  1

 90
        0
  0
LAYOUT
  5
1E
102
{ACAD_REACTORS
330
1A
102
}
330
1A
100
AcDbPlotSettings
  1

  2
none_device
  4

  6

 40
0.0
 41
0.0
 42
0.0
 43
0.0
 44
0.0
 45
0.0
 46
0.0
 47
0.0
 48
0.0
 49
0.0
140
0.0
141
0.0
142
1.0
143
1.0
 70
   688
 72
     1
 73
     0
 74
     5
  7

 75
    16
147
1.0
148
0.0
149
0.0
100
AcDbLayout
  1
Layout1
 70
     1
 71
     1
 10
0.0
 20
0.0
 11
420.0
 21
297.0
 12
0.0
 22
0.0
 32
0.0
 14
1.0000000000E+20
 24
1.0000000000E+20
 34
1.0000000000E+20
 15
-1.0000000000E+20
 25
-1.0000000000E+20
 35
-1.0000000000E+20
146
0.0
 13
0.0
 23
0.0
 33
0.0
 16
1.0
 26
0.0
 36
0.0
 17
0.0
 27
1.0
 37
0.0
 76
     0
330
1B
  0
LAYOUT
  5
26
102
{ACAD_REACTORS
330
1A
102
}
330
1A
100
AcDbPlotSettings
  1

  2
none_device
  4

  6

 40
0.0
 41
0.0
 42
0.0
 43
0.0
 44
0.0
 45
0.0
 46
0.0
 47
0.0
 48
0.0
 49
0.0
140
0.0
141
0.0
142
1.0
143
1.0
 70
   688
 72
     1
 73
     0
 74
     5
  7

 75
    16
147
1.0
148
0.0
149
0.0
100
AcDbLayout
  1
Layout2
 70
     1
 71
     2
 10
0.0
 20
0.0
 11
0.0
 21
0.0
 12
0.0
 22
0.0
 32
0.0
 14
0.0
 24
0.0
 34
0.0
 15
0.0
 25
0.0
 35
0.0
146
0.0
 13
0.0
 23
0.0
 33
0.0
 16
1.0
 26
0.0
 36
0.0
 17
0.0
 27
1.0
 37
0.0
 76
     0
330
23
  0
LAYOUT
  5
22
102
{ACAD_REACTORS
330
1A
102
}
330
1A
100
AcDbPlotSettings
  1

  2
none_device
  4
Letter_(8.50_x_11.00_Inches)
  6

 40
6.35
 41
6.35
 42
6.35000508
 43
6.35000508
 44
215.9
 45
279.4
 46
0.0
 47
0.0
 48
0.0
 49
0.0
140
0.0
141
0.0
142
1.0
143
1.0
 70
  1712
 72
     1
 73
     0
 74
     0
  7

 75
     0
147
1.0
148
0.0
149
0.0
100
AcDbLayout
  1
Model
 70
     1
 71
     0
 10
0.0
 20
0.0
 11
2940.0
 21
2079.0
 12
0.0
 22
0.0
 32
0.0
 14
0.0
 24
0.0
 34
0.0
 15
2940.0
 25
2079.0
 35
0.0
146
0.0
 13
0.0
 23
0.0
 33
0.0
 16
1.0
 26
0.0
 36
0.0
 17
0.0
 27
1.0
 37
0.0
 76
     0
330
1F
331
29
  0
MLINESTYLE
  5
18
102
{ACAD_REACTORS
330
17
102
}
330
17
100
AcDbMlineStyle
  2
Standard
 70
     0
  3

 62
   256
 51
90.0
 52
90.0
 71
     2
 49
0.5
 62
   256
  6
BYLAYER
 49
-0.5
 62
   256
  6
BYLAYER
  0
ACDBPLACEHOLDER
  5
F
102
{ACAD_REACTORS
330
E
102
}
330
E
  0
SCALE
  5
48
102
{ACAD_REACTORS
330
47
102
}
330
47
100
AcDbScale
 70
     0
300
1:1
140
1.0
141
1.0
290
     1
  0
SCALE
  5
49
102
{ACAD_REACTORS
330
47
102
}
330
47
100
AcDbScale
 70
     0
300
1:2
140
1.0
141
2.0
290
     0
  0
SCALE
  5
4A
102
{ACAD_REACTORS
330
47
102
}
330
47
100
AcDbScale
 70
     0
300
1:4
140
1.0
141
4.0
290
     0
  0
SCALE
  5
4B
102
{ACAD_REACTORS
330
47
102
}
330
47
100
AcDbScale
 70
     0
300
1:5
140
1.0
141
5.0
290
     0
  0
SCALE
  5
4C
102
{ACAD_REACTORS
330
47
102
}
330
47
100
AcDbScale
 70
     0
300
1:8
140
1.0
141
8.0
290
     0
  0
SCALE
  5
4D
102
{ACAD_REACTORS
330
47
102
}
330
47
100
AcDbScale
 70
     0
300
1:10
140
1.0
141
10.0
290
     0
  0
SCALE
  5
4E
102
{ACAD_REACTORS
330
47
102
}
330
47
100
AcDbScale
 70
     0
300
1:16
140
1.0
141
16.0
290
     0
  0
SCALE
  5
4F
102
{ACAD_REACTORS
330
47
102
}
330
47
100
AcDbScale
 70
     0
300
1:20
140
1.0
141
20.0
290
     0
  0
SCALE
  5
50
102
{ACAD_REACTORS
330
47
102
}
330
47
100
AcDbScale
 70
     0
300
1:30
140
1.0
141
30.0
290
     0
  0
SCALE
  5
51
102
{ACAD_REACTORS
330
47
102
}
330
47
100
AcDbScale
 70
     0
300
1:40
140
1.0
141
40.0
290
     0
  0
SCALE
  5
52
102
{ACAD_REACTORS
330
47
102
}
330
47
100
AcDbScale
 70
     0
300
1:50
140
1.0
141
50.0
290
     0
  0
SCALE
  5
53
102
{ACAD_REACTORS
330
47
102
}
330
47
100
AcDbScale
 70
     0
300
1:100
140
1.0
141
100.0
290
     0
  0
SCALE
  5
54
102
{ACAD_REACTORS
330
47
102
}
330
47
100
AcDbScale
 70
     0
300
2:1
140
2.0
141
1.0
290
     0
  0
SCALE
  5
55
102
{ACAD_REACTORS
330
47
102
}
330
47
100
AcDbScale
 70
     0
300
4:1
140
4.0
141
1.0
290
     0
  0
SCALE
  5
56
102
{ACAD_REACTORS
330
47
102
}
330
47
100
AcDbScale
 70
     0
300
8:1
140
8.0
141
1.0
290
     0
  0
SCALE
  5
57
102
{ACAD_REACTORS
330
47
102
}
330
47
100
AcDbScale
 70
     0
300
10:1
140
10.0
141
1.0
290
     0
  0
SCALE
  5
58
102
{ACAD_REACTORS
330
47
102
}
330
47
100
AcDbScale
 70
     0
300
100:1
140
100.0
141
1.0
290
     0
  0
SCALE
  5
59
102
{ACAD_REACTORS
330
47
102
}
330
47
100
AcDbScale
 70
     0
300
1/128" = 1'-0"
140
0.0078125
141
12.0
290
     0
  0
SCALE
  5
5A
102
{ACAD_REACTORS
330
47
102
}
330
47
100
AcDbScale
 70
     0
300
1/64" = 1'-0"
140
0.015625
141
12.0
290
     0
  0
SCALE
  5
5B
102
{ACAD_REACTORS
330
47
102
}
330
47
100
AcDbScale
 70
     0
300
1/32" = 1'-0"
140
0.03125
141
12.0
290
     0
  0
SCALE
  5
5C
102
{ACAD_REACTORS
330
47
102
}
330
47
100
AcDbScale
 70
     0
300
1/16" = 1'-0"
140
0.0625
141
12.0
290
     0
  0
SCALE
  5
5D
102
{ACAD_REACTORS
330
47
102
}
330
47
100
AcDbScale
 70
     0
300
3/32" = 1'-0"
140
0.09375
141
12.0
290
     0
  0
SCALE
  5
5E
102
{ACAD_REACTORS
330
47
102
}
330
47
100
AcDbScale
 70
     0
300
1/8" = 1'-0"
140
0.125
141
12.0
290
     0
  0
SCALE
  5
5F
102
{ACAD_REACTORS
330
47
102
}
330
47
100
AcDbScale
 70
     0
300
3/16" = 1'-0"
140
0.1875
141
12.0
290
     0
  0
SCALE
  5
60
102
{ACAD_REACTORS
330
47
102
}
330
47
100
AcDbScale
 70
     0
300
1/4" = 1'-0"
140
0.25
141
12.0
290
     0
  0
SCALE
  5
61
102
{ACAD_REACTORS
330
47
102
}
330
47
100
AcDbScale
 70
     0
300
3/8" = 1'-0"
140
0.375
141
12.0
290
     0
  0
SCALE
  5
62
102
{ACAD_REACTORS
330
47
102
}
330
47
100
AcDbScale
 70
     0
300
1/2" = 1'-0"
140
0.5
141
12.0
290
     0
  0
SCALE
  5
63
102
{ACAD_REACTORS
330
47
102
}
330
47
100
AcDbScale
 70
     0
300
3/4" = 1'-0"
140
0.75
141
12.0
290
     0
  0
SCALE
  5
64
102
{ACAD_REACTORS
330
47
102
}
330
47
100
AcDbScale
 70
     0
300
1" = 1'-0"
140
1.0
141
12.0
290
     0
  0
SCALE
  5
65
102
{ACAD_REACTORS
330
47
102
}
330
47
100
AcDbScale
 70
     0
300
1-1/2" = 1'-0"
140
1.5
141
12.0
290
     0
  0
SCALE
  5
66
102
{ACAD_REACTORS
330
47
102
}
330
47
100
AcDbScale
 70
     0
300
3" = 1'-0"
140
3.0
141
12.0
290
     0
  0
SCALE
  5
67
102
{ACAD_REACTORS
330
47
102
}
330
47
100
AcDbScale
 70
     0
300
6" = 1'-0"
140
6.0
141
12.0
290
     0
  0
SCALE
  5
68
102
{ACAD_REACTORS
330
47
102
}
330
47
100
AcDbScale
 70
     0
300
1'-0" = 1'-0"
140
12.0
141
12.0
290
     0
  0
ENDSEC
  0
EOF
