  0
SECTION
  2
HEADER
  9
$ACADVER
  1
AC1015
  9
$ACADMAINTVER
 70
     6
  9
$DWGCODEPAGE
  3
ANSI_1252
  9
$INSBASE
 10
0.0
 20
0.0
 30
0.0
  9
$EXTMIN
 10
0.0
 20
0.0
 30
0.0
  9
$EXTMAX
 10
2940.0
 20
2079.0
 30
0.0
  9
$LIMMIN
 10
0.0
 20
0.0
  9
$LIMMAX
 10
2940.0
 20
2079.0
  9
$ORTHOMODE
 70
     0
  9
$REGENMODE
 70
     1
  9
$FILLMODE
 70
     1
  9
$QTEXTMODE
 70
     0
  9
$MIRRTEXT
 70
     1
  9
$LTSCALE
 40
7.0
  9
$ATTMODE
 70
     1
  9
$TEXTSIZE
 40
24.5
  9
$TRACEWID
 40
1.0
  9
$TEXTSTYLE
  7
STANDARD
  9
$CLAYER
  8
0
  9
$CELTYPE
  6
ByLayer
  9
$CECOLOR
 62
   256
  9
$CELTSCALE
 40
1.0
  9
$DISPSILH
 70
     0
  9
$DIMSCALE
 40
1.0
  9
$DIMASZ
 40
23.114
  9
$DIMEXO
 40
7.0
  9
$DIMDLI
 40
3.75
  9
$DIMRND
 40
0.0
  9
$DIMDLE
 40
0.0
  9
$DIMEXE
 40
7.0
  9
$DIMTP
 40
0.0
  9
$DIMTM
 40
0.0
  9
$DIMTXT
 40
24.5
  9
$DIMCEN
 40
2.5
  9
$DIMTSZ
 40
0.0
  9
$DIMTOL
 70
     0
  9
$DIMLIM
 70
     0
  9
$DIMTIH
 70
     1
  9
$DIMTOH
 70
     1
  9
$DIMSE1
 70
     0
  9
$DIMSE2
 70
     0
  9
$DIMTAD
 70
     1
  9
$DIMZIN
 70
     0
  9
$DIMBLK
  1

  9
$DIMASO
 70
     1
  9
$DIMSHO
 70
     1
  9
$DIMPOST
  1

  9
$DIMAPOST
  1

  9
$DIMALT
 70
     0
  9
$DIMALTD
 70
     3
  9
$DIMALTF
 40
0.0393700787
  9
$DIMLFAC
 40
1.0
  9
$DIMTOFL
 70
     1
  9
$DIMTVP
 40
0.0
  9
$DIMTIX
 70
     0
  9
$DIMSOXD
 70
     0
  9
$DIMSAH
 70
     0
  9
$DIMBLK1
  1

  9
$DIMBLK2
  1

  9
$DIMSTYLE
  2
ISO-25
  9
$DIMCLRD
 70
     0
  9
$DIMCLRE
 70
     0
  9
$DIMCLRT
 70
     0
  9
$DIMTFAC
 40
1.0
  9
$DIMGAP
 40
21.0
  9
$DIMJUST
 70
     0
  9
$DIMSD1
 70
     0
  9
$DIMSD2
 70
     0
  9
$DIMTOLJ
 70
     0
  9
$DIMTZIN
 70
     0
  9
$DIMALTZ
 70
     0
  9
$DIMALTTZ
 70
     0
  9
$DIMUPT
 70
     0
  9
$DIMDEC
 70
     2
  9
$DIMTDEC
 70
     2
  9
$DIMALTU
 70
     2
  9
$DIMALTTD
 70
     3
  9
$DIMTXSTY
  7
STANDARD
  9
$DIMAUNIT
 70
     0
  9
$DIMADEC
 70
     2
  9
$DIMALTRND
 40
0.0
  9
$DIMAZIN
 70
     0
  9
$DIMDSEP
 70
    44
  9
$DIMATFIT
 70
     3
  9
$DIMFRAC
 70
     0
  9
$DIMLDRBLK
  1

  9
$DIMLUNIT
 70
     2
  9
$DIMLWD
 70
    -2
  9
$DIMLWE
 70
    -2
  9
$DIMTMOVE
 70
     0
  9
$LUNITS
 70
     2
  9
$LUPREC
 70
     2
  9
$SKETCHINC
 40
1.0
  9
$FILLETRAD
 40
10.0
  9
$AUNITS
 70
     0
  9
$AUPREC
 70
     2
  9
$MENU
  1
.
  9
$ELEVATION
 40
0.0
  9
$PELEVATION
 40
0.0
  9
$THICKNESS
 40
0.0
  9
$LIMCHECK
 70
     0
  9
$CHAMFERA
 40
0.0
  9
$CHAMFERB
 40
0.0
  9
$CHAMFERC
 40
0.0
  9
$CHAMFERD
 40
0.0
  9
$SKPOLY
 70
     0
  9
$TDCREATE
 40
2460005.333481099
  9
$TDUCREATE
 40
2460005.291814433
  9
$TDUPDATE
 40
2460005.333486019
  9
$TDUUPDATE
 40
2460005.291819352
  9
$TDINDWG
 40
0.0000000116
  9
$TDUSRTIMER
 40
0.0000000116
  9
$USRTIMER
 70
     1
  9
$ANGBASE
 50
0.0
  9
$ANGDIR
 70
     0
  9
$PDMODE
 70
     0
  9
$PDSIZE
 40
-1.0
  9
$PLINEWID
 40
0.0
  9
$SPLFRAME
 70
     0
  9
$SPLINETYPE
 70
     6
  9
$SPLINESEGS
 70
     8
  9
$HANDSEED
  5
7D5
  9
$SURFTAB1
 70
     6
  9
$SURFTAB2
 70
     6
  9
$SURFTYPE
 70
     6
  9
$SURFU
 70
     6
  9
$SURFV
 70
     6
  9
$UCSBASE
  2

  9
$UCSNAME
  2

  9
$UCSORG
 10
0.0
 20
0.0
 30
0.0
  9
$UCSXDIR
 10
1.0
 20
0.0
 30
0.0
  9
$UCSYDIR
 10
0.0
 20
1.0
 30
0.0
  9
$UCSORTHOREF
  2

  9
$UCSORTHOVIEW
 70
     0
  9
$UCSORGTOP
 10
0.0
 20
0.0
 30
0.0
  9
$UCSORGBOTTOM
 10
0.0
 20
0.0
 30
0.0
  9
$UCSORGLEFT
 10
0.0
 20
0.0
 30
0.0
  9
$UCSORGRIGHT
 10
0.0
 20
0.0
 30
0.0
  9
$UCSORGFRONT
 10
0.0
 20
0.0
 30
0.0
  9
$UCSORGBACK
 10
0.0
 20
0.0
 30
0.0
  9
$PUCSBASE
  2

  9
$PUCSNAME
  2

  9
$PUCSORG
 10
0.0
 20
0.0
 30
0.0
  9
$PUCSXDIR
 10
1.0
 20
0.0
 30
0.0
  9
$PUCSYDIR
 10
0.0
 20
1.0
 30
0.0
  9
$PUCSORTHOREF
  2

  9
$PUCSORTHOVIEW
 70
     0
  9
$PUCSORGTOP
 10
0.0
 20
0.0
 30
0.0
  9
$PUCSORGBOTTOM
 10
0.0
 20
0.0
 30
0.0
  9
$PUCSORGLEFT
 10
0.0
 20
0.0
 30
0.0
  9
$PUCSORGRIGHT
 10
0.0
 20
0.0
 30
0.0
  9
$PUCSORGFRONT
 10
0.0
 20
0.0
 30
0.0
  9
$PUCSORGBACK
 10
0.0
 20
0.0
 30
0.0
  9
$USERI1
 70
     0
  9
$USERI2
 70
     0
  9
$USERI3
 70
     0
  9
$USERI4
 70
     0
  9
$USERI5
 70
     0
  9
$USERR1
 40
0.0
  9
$USERR2
 40
0.0
  9
$USERR3
 40
0.0
  9
$USERR4
 40
0.0
  9
$USERR5
 40
0.0
  9
$WORLDVIEW
 70
     1
  9
$SHADEDGE
 70
     3
  9
$SHADEDIF
 70
    70
  9
$TILEMODE
 70
     1
  9
$MAXACTVP
 70
    64
  9
$PINSBASE
 10
0.0
 20
0.0
 30
0.0
  9
$PLIMCHECK
 70
     0
  9
$PEXTMIN
 10
1.0000000000E+20
 20
1.0000000000E+20
 30
1.0000000000E+20
  9
$PEXTMAX
 10
-1.0000000000E+20
 20
-1.0000000000E+20
 30
-1.0000000000E+20
  9
$PLIMMIN
 10
0.0
 20
0.0
  9
$PLIMMAX
 10
420.0
 20
297.0
  9
$UNITMODE
 70
     0
  9
$VISRETAIN
 70
     1
  9
$PLINEGEN
 70
     0
  9
$PSLTSCALE
 70
     1
  9
$TREEDEPTH
 70
  3020
  9
$CMLSTYLE
  2
Standard
  9
$CMLJUST
 70
     0
  9
$CMLSCALE
 40
20.0
  9
$PROXYGRAPHICS
 70
     1
  9
$MEASUREMENT
 70
     1
  9
$CELWEIGHT
370
    -1
  9
$ENDCAPS
280
     0
  9
$JOINSTYLE
280
     0
  9
$LWDISPLAY
290
     1
  9
$INSUNITS
 70
     4
  9
$HYPERLINKBASE
  1

  9
$STYLESHEET
  1

  9
$XEDIT
290
     1
  9
$CEPSNTYPE
380
     0
  9
$PSTYLEMODE
290
     1
  9
$FINGERPRINTGUID
  2
{fb462b43-6f35-4be4-ac1f-220df064521a}
  9
$VERSIONGUID
  2
{FAEB1C32-E019-11D5-929B-00C0DF256EC4}
  9
$EXTNAMES
290
     1
  9
$PSVPSCALE
 40
0.0
  9
$OLESTARTUP
290
     0
  0
ENDSEC
  0
SECTION
  2
CLASSES
  0
CLASS
  1
ACDBDICTIONARYWDFLT
  2
AcDbDictionaryWithDefault
  3
ObjectDBX Classes
 90
        0
280
     0
281
     0
  0
CLASS
  1
VISUALSTYLE
  2
AcDbVisualStyle
  3
ObjectDBX Classes
 90
     4095
280
     0
281
     0
  0
CLASS
  1
MATERIAL
  2
AcDbMaterial
  3
ObjectDBX Classes
 90
     1153
280
     0
281
     0
  0
CLASS
  1
SCALE
  2
AcDbScale
  3
ObjectDBX Classes
 90
     1153
280
     0
281
     0
  0
CLASS
  1
TABLESTYLE
  2
AcDbTableStyle
  3
ObjectDBX Classes
 90
     4095
280
     0
281
     0
  0
CLASS
  1
MLEADERSTYLE
  2
AcDbMLeaderStyle
  3
ACDB_MLEADERSTYLE_CLASS
 90
     4095
280
     0
281
     0
  0
CLASS
  1
SUN
  2
AcDbSun
  3
SCENEOE
 90
     1153
280
     0
281
     0
  0
CLASS
  1
ACDBPLACEHOLDER
  2
AcDbPlaceHolder
  3
ObjectDBX Classes
 90
        0
280
     0
281
     0
  0
CLASS
  1
LAYOUT
  2
AcDbLayout
  3
ObjectDBX Classes
 90
        0
280
     0
281
     0
  0
ENDSEC
  0
SECTION
  2
TABLES
  0
TABLE
  2
VPORT
  5
8
330
0
100
AcDbSymbolTable
 70
     1
  0
VPORT
  5
29
330
8
100
AcDbSymbolTableRecord
100
AcDbViewportTableRecord
  2
*Active
 70
     0
 10
0.0
 20
0.0
 11
1.0
 21
1.0
 12
1470.0
 22
1039.5
 13
0.0
 23
0.0
 14
10.0
 24
10.0
 15
10.0
 25
10.0
 16
0.0
 26
0.0
 36
1.0
 17
0.0
 27
0.0
 37
0.0
 40
2079.0
 41
1.4141414141
 42
50.0
 43
0.0
 44
0.0
 50
0.0
 51
0.0
 71
     0
 72
  2000
 73
     1
 74
     3
 75
     0
 76
     0
 77
     0
 78
     0
281
     0
 65
     1
110
0.0
120
0.0
130
0.0
111
1.0
121
0.0
131
0.0
112
0.0
122
1.0
132
0.0
 79
     0
146
0.0
  0
ENDTAB
  0
TABLE
  2
LTYPE
  5
5
330
0
100
AcDbSymbolTable
 70
     6
  0
LTYPE
  5
14
330
5
100
AcDbSymbolTableRecord
100
AcDbLinetypeTableRecord
  2
ByBlock
 70
     0
  3

 72
    65
 73
     0
 40
0.0
  0
LTYPE
  5
15
330
5
100
AcDbSymbolTableRecord
100
AcDbLinetypeTableRecord
  2
ByLayer
 70
     0
  3

 72
    65
 73
     0
 40
0.0
  0
LTYPE
  5
16
330
5
100
AcDbSymbolTableRecord
100
AcDbLinetypeTableRecord
  2
Continuous
 70
     0
  3
Solid line
 72
    65
 73
     0
 40
0.0
  0
LTYPE
  5
6E
330
5
100
AcDbSymbolTableRecord
100
AcDbLinetypeTableRecord
  2
HIDDEN
 70
     0
  3
Hidden __ __ __ __ __ __ __ __ __ __ __ __ __ __
 72
    65
 73
     2
 40
1.905
 49
1.27
 74
     0
 49
-0.635
 74
     0
  0
LTYPE
  5
6F
330
5
100
AcDbSymbolTableRecord
100
AcDbLinetypeTableRecord
  2
PHANTOM
 70
     0
  3
Phantom ______  __  __  ______  __  __  ______
 72
    65
 73
     6
 40
12.7
 49
6.35
 74
     0
 49
-1.27
 74
     0
 49
1.27
 74
     0
 49
-1.27
 74
     0
 49
1.27
 74
     0
 49
-1.27
 74
     0
  0
LTYPE
  5
70
330
5
100
AcDbSymbolTableRecord
100
AcDbLinetypeTableRecord
  2
CENTER
 70
     0
  3
Center ____ _ ____ _ ____ _ ____ _ ____ _ ____
 72
    65
 73
     4
 40
10.16
 49
6.35
 74
     0
 49
-1.27
 74
     0
 49
1.27
 74
     0
 49
-1.27
 74
     0
  0
LTYPE
  5
71
330
5
100
AcDbSymbolTableRecord
100
AcDbLinetypeTableRecord
  2
CENTERX2
 70
     0
  3
Center (2x) ________  __  ________  __  _____
 72
    65
 73
     4
 40
20.32
 49
12.7
 74
     0
 49
-2.54
 74
     0
 49
2.54
 74
     0
 49
-2.54
 74
     0
  0
LTYPE
  5
72
330
5
100
AcDbSymbolTableRecord
100
AcDbLinetypeTableRecord
  2
DOT2
 70
     0
  3
Dot (.5x) ........................................
 72
    65
 73
     2
 40
0.635
 49
0.0
 74
     0
 49
-0.635
 74
     0
  0
ENDTAB
  0
TABLE
  2
LAYER
  5
2
330
0
100
AcDbSymbolTable
 70
     8
  0
LAYER
  5
10
330
2
100
AcDbSymbolTableRecord
100
AcDbLayerTableRecord
  2
0
 70
     0
 62
     7
  6
Continuous
370
    -3
390
F
  0
LAYER
  5
73
330
2
100
AcDbSymbolTableRecord
100
AcDbLayerTableRecord
  2
FORMAT
 70
     0
 62
     7
  6
Continuous
370
    -3
390
F
  0
LAYER
  5
74
330
2
100
AcDbSymbolTableRecord
100
AcDbLayerTableRecord
  2
VORLAGE
 70
     0
 62
     7
  6
Continuous
370
    -3
390
F
  0
LAYER
  5
75
330
2
100
AcDbSymbolTableRecord
100
AcDbLayerTableRecord
  2
1
 70
     0
 62
   179
  6
Continuous
370
    -3
390
F
  0
LAYER
  5
76
330
2
100
AcDbSymbolTableRecord
100
AcDbLayerTableRecord
  2
LAYER0
 70
     0
 62
     7
  6
Continuous
370
    -3
390
F
  0
LAYER
  5
77
330
2
100
AcDbSymbolTableRecord
100
AcDbLayerTableRecord
  2
BEMASSUNG
 70
     0
 62
     1
  6
Continuous
370
    -3
390
F
  0
LAYER
  5
78
330
2
100
AcDbSymbolTableRecord
100
AcDbLayerTableRecord
  2
ÄNDERUNG
 70
     0
 62
     1
  6
Continuous
370
    -3
390
F
  0
LAYER
  5
79
330
2
100
AcDbSymbolTableRecord
100
AcDbLayerTableRecord
  2
KENNZEICHNUNG
 70
     0
 62
     7
  6
Continuous
370
    -3
390
F
  0
ENDTAB
  0
TABLE
  2
STYLE
  5
3
330
0
100
AcDbSymbolTable
 70
     5
  0
STYLE
  5
11
330
3
100
AcDbSymbolTableRecord
100
AcDbTextStyleTableRecord
  2
STANDARD
 70
     0
 40
0.0
 41
1.0
 50
0.0
 71
     0
 42
24.5
  3
ARIAL.TTF
  4

1001
ACAD
1000
ARIAL
1071
       34
  0
STYLE
  5
8B
330
3
100
AcDbSymbolTableRecord
100
AcDbTextStyleTableRecord
  2
SLDTEXTSTYLE0
 70
     0
 40
0.0
 41
0.948
 50
0.0
 71
     0
 42
24.5
  3
ARIAL.TTF
  4

1001
ACAD
1000
Arial
1071
      290
  0
STYLE
  5
B2
330
3
100
AcDbSymbolTableRecord
100
AcDbTextStyleTableRecord
  2
SLDTEXTSTYLE1
 70
     0
 40
0.0
 41
1.0
 50
0.0
 71
     0
 42
24.5
  3
ARIALUNI.TTF
  4

1001
ACAD
1000
Arial Unicode MS
1071
 33554722
  0
STYLE
  5
B8
330
3
100
AcDbSymbolTableRecord
100
AcDbTextStyleTableRecord
  2
SLDTEXTSTYLE2
 70
     0
 40
0.0
 41
0.87
 50
0.0
 71
     0
 42
24.5
  3
ARIALN.TTF
  4

1001
ACAD
1000
Arial Narrow
1071
      290
  0
STYLE
  5
F1
330
3
100
AcDbSymbolTableRecord
100
AcDbTextStyleTableRecord
  2
SLDTEXTSTYLE3
 70
     0
 40
0.0
 41
0.948
 50
0.0
 71
     0
 42
24.5
  3
ARIALBD.TTF
  4

1001
ACAD
1000
Arial
1071
 33554722
  0
ENDTAB
  0
TABLE
  2
VIEW
  5
6
330
0
100
AcDbSymbolTable
 70
     0
  0
ENDTAB
  0
TABLE
  2
UCS
  5
7
330
0
100
AcDbSymbolTable
 70
     0
  0
ENDTAB
  0
TABLE
  2
APPID
  5
9
330
0
100
AcDbSymbolTable
 70
     1
  0
APPID
  5
12
330
9
100
AcDbSymbolTableRecord
100
AcDbRegAppTableRecord
  2
ACAD
 70
     0
  0
ENDTAB
  0
TABLE
  2
DIMSTYLE
  5
A
330
0
100
AcDbSymbolTable
 70
    11
100
AcDbDimStyleTable
  0
DIMSTYLE
105
27
330
A
100
AcDbSymbolTableRecord
100
AcDbDimStyleTableRecord
  2
ISO-25
 70
     0
 41
2.5
 42
0.625
 43
3.75
 44
1.25
 73
     0
 74
     0
 77
     1
 78
     8
140
2.5
141
2.5
143
0.0393700787
147
0.625
171
     3
172
     1
178
     0
271
     2
272
     2
274
     3
278
    44
283
     0
284
     8
340
11
  0
DIMSTYLE
105
1C1
102
{ACAD_REACTORS
330
1C0
330
1CB
330
1E2
330
1EC
330
1F5
330
2C8
330
2D2
330
2DC
330
480
330
489
330
49F
330
4F7
330
501
330
50B
330
515
330
51F
102
}
330
A
100
AcDbSymbolTableRecord
100
AcDbDimStyleTableRecord
  2
SLDDIMSTYLE0
 70
     0
 41
23.114
 44
0.0
 45
0.000000001
 73
     0
 74
     0
 77
     1
 78
    12
 79
     3
140
24.5
147
6.125
173
     1
178
     0
271
     2
272
     2
276
     2
284
    12
340
8B
  0
DIMSTYLE
105
1D6
102
{ACAD_REACTORS
330
1D5
330
2BD
330
4A9
330
4B4
330
4C0
330
4CD
330
4DB
330
4E7
102
}
330
A
100
AcDbSymbolTableRecord
100
AcDbDimStyleTableRecord
  2
SLDDIMSTYLE1
 70
     0
 41
23.114
 44
0.0
 45
0.000000001
 73
     0
 74
     0
 77
     1
 78
    12
 79
     3
140
24.5
147
6.125
172
     1
173
     1
178
     0
271
     2
272
     2
276
     2
284
    12
289
     0
340
8B
  0
DIMSTYLE
105
293
102
{ACAD_REACTORS
330
292
330
2A3
102
}
330
A
100
AcDbSymbolTableRecord
100
AcDbDimStyleTableRecord
  2
SLDDIMSTYLE2
 70
     0
 41
7.112
 44
0.0
 45
0.000000001
 73
     0
 74
     0
 77
     1
 78
    12
 79
     3
140
17.9782307943
147
4.4945576986
173
     1
178
     0
271
     2
272
     2
276
     2
284
    12
340
8B
341
294
343
294
  0
DIMSTYLE
105
2AF
102
{ACAD_REACTORS
330
2AE
102
}
330
A
100
AcDbSymbolTableRecord
100
AcDbDimStyleTableRecord
  2
SLDDIMSTYLE3
 70
     0
 41
23.114
 44
0.0
 45
0.000000001
 73
     0
 74
     0
 77
     1
 78
    12
 79
     3
140
17.9782307943
147
4.4945576986
172
     1
173
     1
178
     0
271
     2
272
     2
276
     2
284
    12
289
     0
340
8B
  0
DIMSTYLE
105
38E
102
{ACAD_REACTORS
330
38D
330
39C
330
3BA
330
3C8
330
3D4
330
742
330
74E
330
75A
330
766
102
}
330
A
100
AcDbSymbolTableRecord
100
AcDbDimStyleTableRecord
  2
SLDDIMSTYLE4
 70
     0
 41
23.114
 44
0.0
 45
0.000000001
 73
     0
 74
     0
 77
     1
 78
    12
 79
     3
140
24.5
144
0.7142857143
147
6.125
172
     1
173
     1
178
     0
271
     2
272
     2
276
     2
284
    12
289
     0
340
8B
  0
DIMSTYLE
105
3AB
102
{ACAD_REACTORS
330
3AA
102
}
330
A
100
AcDbSymbolTableRecord
100
AcDbDimStyleTableRecord
  2
SLDDIMSTYLE5
 70
     0
 41
23.114
 44
0.0
 45
0.000000001
 73
     0
 74
     0
 77
     1
 78
    12
 79
     3
140
24.5
144
0.7142857143
147
6.125
172
     1
173
     1
178
     0
271
     2
272
     2
276
     2
284
    12
289
     0
340
F1
  0
DIMSTYLE
105
3E1
102
{ACAD_REACTORS
330
3E0
330
3EE
102
}
330
A
100
AcDbSymbolTableRecord
100
AcDbDimStyleTableRecord
  2
SLDDIMSTYLE6
 70
     0
 41
7.112
 44
0.0
 45
0.000000001
 73
     0
 74
     0
 77
     1
 78
    12
 79
     3
140
24.5
144
0.7142857143
147
6.125
172
     1
173
     1
178
     0
271
     2
272
     2
276
     2
284
    12
289
     0
340
8B
341
294
343
294
  0
DIMSTYLE
105
3FD
330
A
100
AcDbSymbolTableRecord
100
AcDbDimStyleTableRecord
  2
SLDDIMSTYLE7
 70
     0
 41
7.112
 44
0.0
 45
0.000000001
146
7.112
147
0.0
173
     1
178
     0
271
     0
272
     0
276
     2
340
11
341
294
343
294
344
294
  0
DIMSTYLE
105
400
330
A
100
AcDbSymbolTableRecord
100
AcDbDimStyleTableRecord
  2
SLDDIMSTYLE8
 70
     0
 41
23.114
 44
0.0
 45
0.000000001
146
23.114
147
0.0
173
     1
178
     0
271
     0
272
     0
276
     2
340
11
  0
DIMSTYLE
105
494
102
{ACAD_REACTORS
330
493
102
}
330
A
100
AcDbSymbolTableRecord
100
AcDbDimStyleTableRecord
  2
SLDDIMSTYLE9
 70
     0
 41
23.114
 44
0.0
 45
0.000000001
 73
     0
 74
     0
 77
     1
 78
    12
 79
     3
140
24.5
147
6.125
172
     1
173
     1
178
     0
271
     0
272
     2
276
     2
284
    12
289
     0
340
8B
  0
ENDTAB
  0
TABLE
  2
BLOCK_RECORD
  5
1
330
0
100
AcDbSymbolTable
 70
   103
  0
BLOCK_RECORD
  5
1F
330
1
100
AcDbSymbolTableRecord
100
AcDbBlockTableRecord
  2
*Model_Space
340
22
  0
BLOCK_RECORD
  5
1B
330
1
100
AcDbSymbolTableRecord
100
AcDbBlockTableRecord
  2
*Paper_Space
340
1E
  0
BLOCK_RECORD
  5
23
330
1
100
AcDbSymbolTableRecord
100
AcDbBlockTableRecord
  2
*Paper_Space0
340
26
  0
BLOCK_RECORD
  5
7A
330
1
100
AcDbSymbolTableRecord
100
AcDbBlockTableRecord
  2
Block1_3_1
340
0
102
{BLKREFS
331
D8
102
}
  0
BLOCK_RECORD
  5
88
330
1
100
AcDbSymbolTableRecord
100
AcDbBlockTableRecord
  2
SW_NOTE_0
340
0
102
{BLKREFS
331
8E
102
}
  0
BLOCK_RECORD
  5
8F
330
1
100
AcDbSymbolTableRecord
100
AcDbBlockTableRecord
  2
Block2_3_1
340
0
102
{BLKREFS
331
D9
102
}
  0
BLOCK_RECORD
  5
AF
330
1
100
AcDbSymbolTableRecord
100
AcDbBlockTableRecord
  2
SW_NOTE_0_1
340
0
102
{BLKREFS
331
B4
102
}
  0
BLOCK_RECORD
  5
B5
330
1
100
AcDbSymbolTableRecord
100
AcDbBlockTableRecord
  2
SW_NOTE_0_2
340
0
102
{BLKREFS
331
BC
102
}
  0
BLOCK_RECORD
  5
BD
330
1
100
AcDbSymbolTableRecord
100
AcDbBlockTableRecord
  2
rechtlicher_Hinweis_Katalogzeichnungen_1
340
0
102
{BLKREFS
331
DA
102
}
  0
BLOCK_RECORD
  5
C0
330
1
100
AcDbSymbolTableRecord
100
AcDbBlockTableRecord
  2
SW_NOTE_0_3
340
0
102
{BLKREFS
331
C9
102
}
  0
BLOCK_RECORD
  5
DC
330
1
100
AcDbSymbolTableRecord
100
AcDbBlockTableRecord
  2
SW_NOTE_0_4
340
0
102
{BLKREFS
331
E2
102
}
  0
BLOCK_RECORD
  5
E5
330
1
100
AcDbSymbolTableRecord
100
AcDbBlockTableRecord
  2
SW_NOTE_0_5
340
0
102
{BLKREFS
331
EB
102
}
  0
BLOCK_RECORD
  5
1C2
330
1
100
AcDbSymbolTableRecord
100
AcDbBlockTableRecord
  2
_D
340
0
  0
BLOCK_RECORD
  5
1CC
330
1
100
AcDbSymbolTableRecord
100
AcDbBlockTableRecord
  2
_D_1
340
0
  0
BLOCK_RECORD
  5
1D7
330
1
100
AcDbSymbolTableRecord
100
AcDbBlockTableRecord
  2
_D_2
340
0
  0
BLOCK_RECORD
  5
1E3
330
1
100
AcDbSymbolTableRecord
100
AcDbBlockTableRecord
  2
_D_3
340
0
  0
BLOCK_RECORD
  5
1ED
330
1
100
AcDbSymbolTableRecord
100
AcDbBlockTableRecord
  2
_D_4
340
0
  0
BLOCK_RECORD
  5
1F6
330
1
100
AcDbSymbolTableRecord
100
AcDbBlockTableRecord
  2
_D_5
340
0
  0
BLOCK_RECORD
  5
294
330
1
100
AcDbSymbolTableRecord
100
AcDbBlockTableRecord
  2
_Dot
340
0
102
{BLKREFS
331
29C
331
2A7
331
3E5
331
3F2
102
}
  0
BLOCK_RECORD
  5
299
330
1
100
AcDbSymbolTableRecord
100
AcDbBlockTableRecord
  2
_D_6
340
0
  0
BLOCK_RECORD
  5
2A4
330
1
100
AcDbSymbolTableRecord
100
AcDbBlockTableRecord
  2
_D_7
340
0
  0
BLOCK_RECORD
  5
2B0
330
1
100
AcDbSymbolTableRecord
100
AcDbBlockTableRecord
  2
_D_8
340
0
  0
BLOCK_RECORD
  5
2BE
330
1
100
AcDbSymbolTableRecord
100
AcDbBlockTableRecord
  2
_D_9
340
0
  0
BLOCK_RECORD
  5
2C9
330
1
100
AcDbSymbolTableRecord
100
AcDbBlockTableRecord
  2
_D_10
340
0
  0
BLOCK_RECORD
  5
2D3
330
1
100
AcDbSymbolTableRecord
100
AcDbBlockTableRecord
  2
_D_11
340
0
  0
BLOCK_RECORD
  5
2DD
330
1
100
AcDbSymbolTableRecord
100
AcDbBlockTableRecord
  2
_D_12
340
0
  0
BLOCK_RECORD
  5
2E7
330
1
100
AcDbSymbolTableRecord
100
AcDbBlockTableRecord
  2
SW_NOTE_0_6
340
0
102
{BLKREFS
331
2EC
102
}
  0
BLOCK_RECORD
  5
38F
330
1
100
AcDbSymbolTableRecord
100
AcDbBlockTableRecord
  2
_D_13
340
0
  0
BLOCK_RECORD
  5
39D
330
1
100
AcDbSymbolTableRecord
100
AcDbBlockTableRecord
  2
_D_14
340
0
  0
BLOCK_RECORD
  5
3AC
330
1
100
AcDbSymbolTableRecord
100
AcDbBlockTableRecord
  2
_D_15
340
0
  0
BLOCK_RECORD
  5
3BB
330
1
100
AcDbSymbolTableRecord
100
AcDbBlockTableRecord
  2
_D_16
340
0
  0
BLOCK_RECORD
  5
3C9
330
1
100
AcDbSymbolTableRecord
100
AcDbBlockTableRecord
  2
_D_17
340
0
  0
BLOCK_RECORD
  5
3D5
330
1
100
AcDbSymbolTableRecord
100
AcDbBlockTableRecord
  2
_D_18
340
0
  0
BLOCK_RECORD
  5
3E2
330
1
100
AcDbSymbolTableRecord
100
AcDbBlockTableRecord
  2
_D_19
340
0
  0
BLOCK_RECORD
  5
3EF
330
1
100
AcDbSymbolTableRecord
100
AcDbBlockTableRecord
  2
_D_20
340
0
  0
BLOCK_RECORD
  5
481
330
1
100
AcDbSymbolTableRecord
100
AcDbBlockTableRecord
  2
_D_21
340
0
  0
BLOCK_RECORD
  5
48A
330
1
100
AcDbSymbolTableRecord
100
AcDbBlockTableRecord
  2
_D_22
340
0
  0
BLOCK_RECORD
  5
495
330
1
100
AcDbSymbolTableRecord
100
AcDbBlockTableRecord
  2
_D_23
340
0
  0
BLOCK_RECORD
  5
4A0
330
1
100
AcDbSymbolTableRecord
100
AcDbBlockTableRecord
  2
_D_24
340
0
  0
BLOCK_RECORD
  5
4AA
330
1
100
AcDbSymbolTableRecord
100
AcDbBlockTableRecord
  2
_D_25
340
0
  0
BLOCK_RECORD
  5
4B5
330
1
100
AcDbSymbolTableRecord
100
AcDbBlockTableRecord
  2
_D_26
340
0
  0
BLOCK_RECORD
  5
4C1
330
1
100
AcDbSymbolTableRecord
100
AcDbBlockTableRecord
  2
_D_27
340
0
  0
BLOCK_RECORD
  5
4CE
330
1
100
AcDbSymbolTableRecord
100
AcDbBlockTableRecord
  2
_D_28
340
0
  0
BLOCK_RECORD
  5
4DC
330
1
100
AcDbSymbolTableRecord
100
AcDbBlockTableRecord
  2
_D_29
340
0
  0
BLOCK_RECORD
  5
4E8
330
1
100
AcDbSymbolTableRecord
100
AcDbBlockTableRecord
  2
_D_30
340
0
  0
BLOCK_RECORD
  5
4F8
330
1
100
AcDbSymbolTableRecord
100
AcDbBlockTableRecord
  2
_D_31
340
0
  0
BLOCK_RECORD
  5
502
330
1
100
AcDbSymbolTableRecord
100
AcDbBlockTableRecord
  2
_D_32
340
0
  0
BLOCK_RECORD
  5
50C
330
1
100
AcDbSymbolTableRecord
100
AcDbBlockTableRecord
  2
_D_33
340
0
  0
BLOCK_RECORD
  5
516
330
1
100
AcDbSymbolTableRecord
100
AcDbBlockTableRecord
  2
_D_34
340
0
  0
BLOCK_RECORD
  5
520
330
1
100
AcDbSymbolTableRecord
100
AcDbBlockTableRecord
  2
_D_35
340
0
  0
BLOCK_RECORD
  5
52D
330
1
100
AcDbSymbolTableRecord
100
AcDbBlockTableRecord
  2
SW_NOTE_0_7
340
0
102
{BLKREFS
331
532
102
}
  0
BLOCK_RECORD
  5
534
330
1
100
AcDbSymbolTableRecord
100
AcDbBlockTableRecord
  2
SW_CENTERMARKSYMBOL_0
340
0
102
{BLKREFS
331
53F
102
}
  0
BLOCK_RECORD
  5
540
330
1
100
AcDbSymbolTableRecord
100
AcDbBlockTableRecord
  2
SW_CENTERMARKSYMBOL_1
340
0
102
{BLKREFS
331
54B
102
}
  0
BLOCK_RECORD
  5
54C
330
1
100
AcDbSymbolTableRecord
100
AcDbBlockTableRecord
  2
SW_CENTERMARKSYMBOL_2
340
0
102
{BLKREFS
331
557
102
}
  0
BLOCK_RECORD
  5
558
330
1
100
AcDbSymbolTableRecord
100
AcDbBlockTableRecord
  2
SW_CENTERMARKSYMBOL_3
340
0
102
{BLKREFS
331
563
102
}
  0
BLOCK_RECORD
  5
564
330
1
100
AcDbSymbolTableRecord
100
AcDbBlockTableRecord
  2
SW_CENTERMARKSYMBOL_4
340
0
102
{BLKREFS
331
56F
102
}
  0
BLOCK_RECORD
  5
570
330
1
100
AcDbSymbolTableRecord
100
AcDbBlockTableRecord
  2
SW_CENTERMARKSYMBOL_5
340
0
102
{BLKREFS
331
57B
102
}
  0
BLOCK_RECORD
  5
57C
330
1
100
AcDbSymbolTableRecord
100
AcDbBlockTableRecord
  2
SW_CENTERMARKSYMBOL_6
340
0
102
{BLKREFS
331
587
102
}
  0
BLOCK_RECORD
  5
588
330
1
100
AcDbSymbolTableRecord
100
AcDbBlockTableRecord
  2
SW_CENTERMARKSYMBOL_7
340
0
102
{BLKREFS
331
593
102
}
  0
BLOCK_RECORD
  5
594
330
1
100
AcDbSymbolTableRecord
100
AcDbBlockTableRecord
  2
SW_CENTERMARKSYMBOL_8
340
0
102
{BLKREFS
331
59F
102
}
  0
BLOCK_RECORD
  5
5A0
330
1
100
AcDbSymbolTableRecord
100
AcDbBlockTableRecord
  2
SW_CENTERMARKSYMBOL_9
340
0
102
{BLKREFS
331
5AB
102
}
  0
BLOCK_RECORD
  5
5AC
330
1
100
AcDbSymbolTableRecord
100
AcDbBlockTableRecord
  2
SW_CENTERMARKSYMBOL_10
340
0
102
{BLKREFS
331
5B7
102
}
  0
BLOCK_RECORD
  5
5B8
330
1
100
AcDbSymbolTableRecord
100
AcDbBlockTableRecord
  2
SW_CENTERMARKSYMBOL_11
340
0
102
{BLKREFS
331
5C3
102
}
  0
BLOCK_RECORD
  5
5C4
330
1
100
AcDbSymbolTableRecord
100
AcDbBlockTableRecord
  2
SW_CENTERMARKSYMBOL_12
340
0
102
{BLKREFS
331
5CF
102
}
  0
BLOCK_RECORD
  5
5D0
330
1
100
AcDbSymbolTableRecord
100
AcDbBlockTableRecord
  2
SW_CENTERMARKSYMBOL_13
340
0
102
{BLKREFS
331
5DB
102
}
  0
BLOCK_RECORD
  5
5DC
330
1
100
AcDbSymbolTableRecord
100
AcDbBlockTableRecord
  2
SW_CENTERMARKSYMBOL_14
340
0
102
{BLKREFS
331
5E7
102
}
  0
BLOCK_RECORD
  5
5E8
330
1
100
AcDbSymbolTableRecord
100
AcDbBlockTableRecord
  2
SW_CENTERMARKSYMBOL_15
340
0
102
{BLKREFS
331
5F3
102
}
  0
BLOCK_RECORD
  5
5F4
330
1
100
AcDbSymbolTableRecord
100
AcDbBlockTableRecord
  2
SW_CENTERMARKSYMBOL_16
340
0
102
{BLKREFS
331
5FF
102
}
  0
BLOCK_RECORD
  5
600
330
1
100
AcDbSymbolTableRecord
100
AcDbBlockTableRecord
  2
SW_CENTERMARKSYMBOL_17
340
0
102
{BLKREFS
331
60B
102
}
  0
BLOCK_RECORD
  5
60C
330
1
100
AcDbSymbolTableRecord
100
AcDbBlockTableRecord
  2
SW_CENTERMARKSYMBOL_18
340
0
102
{BLKREFS
331
617
102
}
  0
BLOCK_RECORD
  5
618
330
1
100
AcDbSymbolTableRecord
100
AcDbBlockTableRecord
  2
SW_CENTERMARKSYMBOL_19
340
0
102
{BLKREFS
331
623
102
}
  0
BLOCK_RECORD
  5
624
330
1
100
AcDbSymbolTableRecord
100
AcDbBlockTableRecord
  2
SW_CENTERMARKSYMBOL_20
340
0
102
{BLKREFS
331
62F
102
}
  0
BLOCK_RECORD
  5
630
330
1
100
AcDbSymbolTableRecord
100
AcDbBlockTableRecord
  2
SW_CENTERMARKSYMBOL_21
340
0
102
{BLKREFS
331
63B
102
}
  0
BLOCK_RECORD
  5
63C
330
1
100
AcDbSymbolTableRecord
100
AcDbBlockTableRecord
  2
SW_CENTERMARKSYMBOL_22
340
0
102
{BLKREFS
331
647
102
}
  0
BLOCK_RECORD
  5
648
330
1
100
AcDbSymbolTableRecord
100
AcDbBlockTableRecord
  2
SW_CENTERMARKSYMBOL_23
340
0
102
{BLKREFS
331
653
102
}
  0
BLOCK_RECORD
  5
654
330
1
100
AcDbSymbolTableRecord
100
AcDbBlockTableRecord
  2
SW_CENTERMARKSYMBOL_24
340
0
102
{BLKREFS
331
65F
102
}
  0
BLOCK_RECORD
  5
660
330
1
100
AcDbSymbolTableRecord
100
AcDbBlockTableRecord
  2
SW_CENTERMARKSYMBOL_25
340
0
102
{BLKREFS
331
66B
102
}
  0
BLOCK_RECORD
  5
66C
330
1
100
AcDbSymbolTableRecord
100
AcDbBlockTableRecord
  2
SW_CENTERMARKSYMBOL_26
340
0
102
{BLKREFS
331
677
102
}
  0
BLOCK_RECORD
  5
678
330
1
100
AcDbSymbolTableRecord
100
AcDbBlockTableRecord
  2
SW_CENTERMARKSYMBOL_27
340
0
102
{BLKREFS
331
683
102
}
  0
BLOCK_RECORD
  5
684
330
1
100
AcDbSymbolTableRecord
100
AcDbBlockTableRecord
  2
SW_CENTERMARKSYMBOL_28
340
0
102
{BLKREFS
331
68F
102
}
  0
BLOCK_RECORD
  5
690
330
1
100
AcDbSymbolTableRecord
100
AcDbBlockTableRecord
  2
SW_CENTERMARKSYMBOL_29
340
0
102
{BLKREFS
331
69B
102
}
  0
BLOCK_RECORD
  5
69C
330
1
100
AcDbSymbolTableRecord
100
AcDbBlockTableRecord
  2
SW_CENTERMARKSYMBOL_30
340
0
102
{BLKREFS
331
6A7
102
}
  0
BLOCK_RECORD
  5
6A8
330
1
100
AcDbSymbolTableRecord
100
AcDbBlockTableRecord
  2
SW_CENTERMARKSYMBOL_31
340
0
102
{BLKREFS
331
6B3
102
}
  0
BLOCK_RECORD
  5
6B4
330
1
100
AcDbSymbolTableRecord
100
AcDbBlockTableRecord
  2
SW_CENTERMARKSYMBOL_32
340
0
102
{BLKREFS
331
6BF
102
}
  0
BLOCK_RECORD
  5
6C0
330
1
100
AcDbSymbolTableRecord
100
AcDbBlockTableRecord
  2
SW_CENTERMARKSYMBOL_33
340
0
102
{BLKREFS
331
6CB
102
}
  0
BLOCK_RECORD
  5
6CC
330
1
100
AcDbSymbolTableRecord
100
AcDbBlockTableRecord
  2
SW_CENTERMARKSYMBOL_34
340
0
102
{BLKREFS
331
6D7
102
}
  0
BLOCK_RECORD
  5
6D8
330
1
100
AcDbSymbolTableRecord
100
AcDbBlockTableRecord
  2
SW_CENTERMARKSYMBOL_35
340
0
102
{BLKREFS
331
6E3
102
}
  0
BLOCK_RECORD
  5
6E4
330
1
100
AcDbSymbolTableRecord
100
AcDbBlockTableRecord
  2
SW_CENTERMARKSYMBOL_36
340
0
102
{BLKREFS
331
6EF
102
}
  0
BLOCK_RECORD
  5
6F0
330
1
100
AcDbSymbolTableRecord
100
AcDbBlockTableRecord
  2
SW_CENTERMARKSYMBOL_37
340
0
102
{BLKREFS
331
6FB
102
}
  0
BLOCK_RECORD
  5
6FC
330
1
100
AcDbSymbolTableRecord
100
AcDbBlockTableRecord
  2
SW_CENTERMARKSYMBOL_38
340
0
102
{BLKREFS
331
707
102
}
  0
BLOCK_RECORD
  5
708
330
1
100
AcDbSymbolTableRecord
100
AcDbBlockTableRecord
  2
SW_CENTERMARKSYMBOL_39
340
0
102
{BLKREFS
331
713
102
}
  0
BLOCK_RECORD
  5
714
330
1
100
AcDbSymbolTableRecord
100
AcDbBlockTableRecord
  2
SW_CENTERMARKSYMBOL_40
340
0
102
{BLKREFS
331
71F
102
}
  0
BLOCK_RECORD
  5
720
330
1
100
AcDbSymbolTableRecord
100
AcDbBlockTableRecord
  2
SW_CENTERMARKSYMBOL_41
340
0
102
{BLKREFS
331
72B
102
}
  0
BLOCK_RECORD
  5
743
330
1
100
AcDbSymbolTableRecord
100
AcDbBlockTableRecord
  2
_D_36
340
0
  0
BLOCK_RECORD
  5
74F
330
1
100
AcDbSymbolTableRecord
100
AcDbBlockTableRecord
  2
_D_37
340
0
  0
BLOCK_RECORD
  5
75B
330
1
100
AcDbSymbolTableRecord
100
AcDbBlockTableRecord
  2
_D_38
340
0
  0
BLOCK_RECORD
  5
767
330
1
100
AcDbSymbolTableRecord
100
AcDbBlockTableRecord
  2
_D_39
340
0
  0
BLOCK_RECORD
  5
774
330
1
100
AcDbSymbolTableRecord
100
AcDbBlockTableRecord
  2
SW_CENTERMARKSYMBOL_42
340
0
102
{BLKREFS
331
77F
102
}
  0
BLOCK_RECORD
  5
780
330
1
100
AcDbSymbolTableRecord
100
AcDbBlockTableRecord
  2
SW_CENTERMARKSYMBOL_43
340
0
102
{BLKREFS
331
78B
102
}
  0
BLOCK_RECORD
  5
78C
330
1
100
AcDbSymbolTableRecord
100
AcDbBlockTableRecord
  2
SW_CENTERMARKSYMBOL_44
340
0
102
{BLKREFS
331
797
102
}
  0
BLOCK_RECORD
  5
798
330
1
100
AcDbSymbolTableRecord
100
AcDbBlockTableRecord
  2
SW_CENTERMARKSYMBOL_45
340
0
102
{BLKREFS
331
7A3
102
}
  0
BLOCK_RECORD
  5
7A4
330
1
100
AcDbSymbolTableRecord
100
AcDbBlockTableRecord
  2
SW_CENTERMARKSYMBOL_46
340
0
102
{BLKREFS
331
7AF
102
}
  0
BLOCK_RECORD
  5
7B0
330
1
100
AcDbSymbolTableRecord
100
AcDbBlockTableRecord
  2
SW_CENTERMARKSYMBOL_47
340
0
102
{BLKREFS
331
7BB
102
}
  0
BLOCK_RECORD
  5
7BC
330
1
100
AcDbSymbolTableRecord
100
AcDbBlockTableRecord
  2
SW_CENTERMARKSYMBOL_48
340
0
102
{BLKREFS
331
7C7
102
}
  0
BLOCK_RECORD
  5
7C8
330
1
100
AcDbSymbolTableRecord
100
AcDbBlockTableRecord
  2
SW_CENTERMARKSYMBOL_49
340
0
102
{BLKREFS
331
7D3
102
}
  0
ENDTAB
  0
ENDSEC
  0
SECTION
  2
BLOCKS
  0
BLOCK
  5
20
330
1F
100
AcDbEntity
  8
0
100
AcDbBlockBegin
  2
*Model_Space
 70
     0
 10
0.0
 20
0.0
 30
0.0
  3
*Model_Space
  1

  0
ENDBLK
  5
21
330
1F
100
AcDbEntity
  8
0
100
AcDbBlockEnd
  0
BLOCK
  5
1C
330
1B
100
AcDbEntity
 67
     1
  8
0
100
AcDbBlockBegin
  2
*Paper_Space
 70
     0
 10
0.0
 20
0.0
 30
0.0
  3
*Paper_Space
  1

  0
ENDBLK
  5
1D
330
1B
100
AcDbEntity
 67
     1
  8
0
100
AcDbBlockEnd
  0
BLOCK
  5
24
330
23
100
AcDbEntity
  8
0
100
AcDbBlockBegin
  2
*Paper_Space0
 70
     0
 10
0.0
 20
0.0
 30
0.0
  3
*Paper_Space0
  1

  0
ENDBLK
  5
25
330
23
100
AcDbEntity
  8
0
100
AcDbBlockEnd
  0
BLOCK
  5
7B
330
7A
100
AcDbEntity
  8
0
100
AcDbBlockBegin
  2
Block1_3_1
 70
     0
 10
0.0
 20
0.0
 30
0.0
  3
Block1_3_1
  1

  0
CIRCLE
  5
7D
330
7A
100
AcDbEntity
  8
0
  6
Continuous
 62
     7
370
    18
100
AcDbCircle
 10
81.2962813747
 20
63.6276108944
 30
0.0
 40
8.79136307741128
  0
CIRCLE
  5
7E
330
7A
100
AcDbEntity
  8
0
  6
Continuous
 62
     7
370
    18
100
AcDbCircle
 10
81.2962813747
 20
63.6276108944
 30
0.0
 40
15.51210404558959
  0
LINE
  5
7F
330
7A
100
AcDbEntity
  8
0
  6
CENTERX2
 62
     7
370
    18
100
AcDbLine
 10
81.2962813747
 20
63.6276108944
 30
0.0
 11
55.2841773291
 21
63.6276108944
 31
0.0
  0
LINE
  5
80
330
7A
100
AcDbEntity
  8
0
  6
Continuous
 62
     7
370
    18
100
AcDbLine
 10
57.1602751158
 20
48.1155068489
 30
0.0
 11
57.1602751158
 21
79.150109214
 31
0.0
  0
LINE
  5
81
330
7A
100
AcDbEntity
  8
0
  6
Continuous
 62
     7
370
    18
100
AcDbLine
 10
18.7580035265
 20
72.4189739719
 30
0.0
 11
18.7580035265
 21
54.836247817
 31
0.0
  0
LINE
  5
82
330
7A
100
AcDbEntity
  8
0
  6
Continuous
 62
     7
370
    18
100
AcDbLine
 10
18.7580035265
 20
54.836247817
 30
0.0
 11
57.1602751158
 21
48.1155068489
 31
0.0
  0
LINE
  5
83
330
7A
100
AcDbEntity
  8
0
  6
CENTERX2
 62
     7
370
    18
100
AcDbLine
 10
67.6602751158
 20
63.6276108944
 30
0.0
 11
8.2580035265
 21
63.6276108944
 31
0.0
  0
LINE
  5
84
330
7A
100
AcDbEntity
  8
0
  6
Continuous
 62
     7
370
    18
100
AcDbLine
 10
57.1602751158
 20
79.150109214
 30
0.0
 11
18.7580035265
 21
72.4189739719
 31
0.0
  0
LINE
  5
85
330
7A
100
AcDbEntity
  8
0
  6
CENTERX2
 62
     7
370
    18
100
AcDbLine
 10
81.2962813747
 20
63.6276108944
 30
0.0
 11
81.2962813747
 21
37.6155068489
 31
0.0
  0
LINE
  5
86
330
7A
100
AcDbEntity
  8
0
  6
CENTERX2
 62
     7
370
    18
100
AcDbLine
 10
81.2962813747
 20
63.6276108944
 30
0.0
 11
81.2962813747
 21
89.63971494
 31
0.0
  0
LINE
  5
87
330
7A
100
AcDbEntity
  8
0
  6
CENTERX2
 62
     7
370
    18
100
AcDbLine
 10
81.2962813747
 20
63.6276108944
 30
0.0
 11
107.3083854203
 21
63.6276108944
 31
0.0
  0
INSERT
  5
8E
330
7A
100
AcDbEntity
  8
0
  6
Continuous
 62
     7
370
     0
100
AcDbBlockReference
  2
SW_NOTE_0
 10
14.7222830224
 20
16.6281309378
 30
0.0
  0
ENDBLK
  5
7C
330
7A
100
AcDbEntity
  8
0
100
AcDbBlockEnd
  0
BLOCK
  5
89
330
88
100
AcDbEntity
  8
0
100
AcDbBlockBegin
  2
SW_NOTE_0
 70
     0
 10
0.0
 20
0.0
 30
0.0
  3
SW_NOTE_0
  1

  0
MTEXT
  5
8C
330
88
100
AcDbEntity
  8
0
  6
Continuous
 62
     0
370
     0
100
AcDbMText
 10
46.134375
 20
17.144600939
 30
0.0
 40
13.3
 41
0.0
 71
     2
 72
     1
  1
DIN 6  T1 - 
  7
SLDTEXTSTYLE0
 73
     1
 44
1.0
  0
MTEXT
  5
8D
330
88
100
AcDbEntity
  8
0
  6
Continuous
 62
     0
370
     0
100
AcDbMText
 10
46.5984838367
 20
0.0023782104
 30
0.0
 40
13.3
 41
0.0
 71
     2
 72
     1
  1
Proj.methode 1
  7
SLDTEXTSTYLE0
 73
     1
 44
1.0
  0
ENDBLK
  5
8A
330
88
100
AcDbEntity
  8
0
100
AcDbBlockEnd
  0
BLOCK
  5
90
330
8F
100
AcDbEntity
  8
0
100
AcDbBlockBegin
  2
Block2_3_1
 70
     0
 10
0.0
 20
0.0
 30
0.0
  3
Block2_3_1
  1

  0
ARC
  5
92
330
8F
100
AcDbEntity
  8
FORMAT
100
AcDbCircle
 10
1657.2474557671
 20
399.6934206979
 30
0.0
 40
26.25000000000006
100
AcDbArc
 50
93.8225537293
 51
266.1774462707
  0
ARC
  5
93
330
8F
100
AcDbEntity
  8
FORMAT
100
AcDbCircle
 10
1657.2474557671
 20
399.6934206979
 30
0.0
 40
21.0000000000001
100
AcDbArc
 50
94.7801918472
 51
265.2198081528
  0
ARC
  5
94
330
8F
100
AcDbEntity
  8
FORMAT
100
AcDbCircle
 10
1657.2474557671
 20
399.6934206979
 30
0.0
 40
26.25000000000006
100
AcDbArc
 50
273.8225537293
 51
86.1774462707
  0
ARC
  5
95
330
8F
100
AcDbEntity
  8
FORMAT
100
AcDbCircle
 10
1657.2474557671
 20
399.6934206979
 30
0.0
 40
21.0000000000001
100
AcDbArc
 50
274.7801918472
 51
85.2198081528
  0
ARC
  5
96
330
8F
100
AcDbEntity
  8
FORMAT
100
AcDbCircle
 10
1657.2474557671
 20
407.6242915053
 30
0.0
 40
6.022819479648172
100
AcDbArc
 50
304.8395134495
 51
73.1084194601
  0
ARC
  5
97
330
8F
100
AcDbEntity
  8
FORMAT
100
AcDbCircle
 10
1657.2474557671
 20
407.6242915053
 30
0.0
 40
9.81620102162464
100
AcDbArc
 50
313.8988153445
 51
79.7306010333
  0
ARC
  5
98
330
8F
100
AcDbEntity
  8
FORMAT
100
AcDbCircle
 10
1657.2474557671
 20
388.4857005791
 30
0.0
 40
3.440714680707612
100
AcDbArc
 50
300.5716370086
 51
0.0
  0
ARC
  5
99
330
8F
100
AcDbEntity
  8
FORMAT
100
AcDbCircle
 10
1657.2474557671
 20
407.6242915053
 30
0.0
 40
9.81620102162464
100
AcDbArc
 50
100.2693989667
 51
226.1011846555
  0
ARC
  5
9A
330
8F
100
AcDbEntity
  8
FORMAT
100
AcDbCircle
 10
1657.2474557671
 20
388.4857005791
 30
0.0
 40
6.806425489791309
100
AcDbArc
 50
180.0
 51
255.1013518888
  0
ARC
  5
9B
330
8F
100
AcDbEntity
  8
FORMAT
100
AcDbCircle
 10
1657.2474557671
 20
388.4857005791
 30
0.0
 40
6.806425489791309
100
AcDbArc
 50
284.8986481112
 51
0.0
  0
ARC
  5
9C
330
8F
100
AcDbEntity
  8
FORMAT
100
AcDbCircle
 10
1657.2474557671
 20
388.4857005791
 30
0.0
 40
3.440714680707612
100
AcDbArc
 50
180.0
 51
239.4283629914
  0
ARC
  5
9D
330
8F
100
AcDbEntity
  8
FORMAT
100
AcDbCircle
 10
1657.2474557671
 20
407.6242915053
 30
0.0
 40
6.022819479648172
100
AcDbArc
 50
106.8915805399
 51
235.1604865505
  0
LINE
  5
9E
330
8F
100
AcDbEntity
  8
FORMAT
100
AcDbLine
 10
1627.7186808898
 20
370.1646458206
 30
0.0
 11
1686.7762306444
 21
370.1646458206
 31
0.0
  0
LINE
  5
9F
330
8F
100
AcDbEntity
  8
FORMAT
100
AcDbLine
 10
1627.7186808898
 20
429.2221955752
 30
0.0
 11
1686.7762306444
 21
429.2221955752
 31
0.0
  0
LINE
  5
A0
330
8F
100
AcDbEntity
  8
FORMAT
100
AcDbLine
 10
1627.7186808898
 20
429.2221955752
 30
0.0
 11
1627.7186808898
 21
370.1646458206
 31
0.0
  0
LINE
  5
A1
330
8F
100
AcDbEntity
  8
FORMAT
100
AcDbLine
 10
1686.7762306444
 20
429.2221955752
 30
0.0
 11
1686.7762306444
 21
370.1646458206
 31
0.0
  0
LINE
  5
A2
330
8F
100
AcDbEntity
  8
FORMAT
100
AcDbLine
 10
1655.4974557671
 20
425.8850224053
 30
0.0
 11
1655.4974557671
 21
420.6203769983
 31
0.0
  0
LINE
  5
A3
330
8F
100
AcDbEntity
  8
FORMAT
100
AcDbLine
 10
1658.9974557671
 20
425.8850224053
 30
0.0
 11
1658.9974557671
 21
420.6203769983
 31
0.0
  0
LINE
  5
A4
330
8F
100
AcDbEntity
  8
FORMAT
100
AcDbLine
 10
1655.4974557671
 20
378.7664643974
 30
0.0
 11
1655.4974557671
 21
373.5018189904
 31
0.0
  0
LINE
  5
A5
330
8F
100
AcDbEntity
  8
FORMAT
100
AcDbLine
 10
1658.9974557671
 20
378.7664643974
 30
0.0
 11
1658.9974557671
 21
373.5018189904
 31
0.0
  0
LINE
  5
A6
330
8F
100
AcDbEntity
  8
FORMAT
100
AcDbLine
 10
1658.9974557671
 20
417.2832408527
 30
0.0
 11
1658.9974557671
 21
413.3872642177
 31
0.0
  0
LINE
  5
A7
330
8F
100
AcDbEntity
  8
FORMAT
100
AcDbLine
 10
1655.4974557671
 20
417.2832408527
 30
0.0
 11
1655.4974557671
 21
413.3872642177
 31
0.0
  0
LINE
  5
A8
330
8F
100
AcDbEntity
  8
FORMAT
100
AcDbLine
 10
1650.4410302773
 20
388.4857005791
 30
0.0
 11
1650.4410302773
 21
400.5510762146
 31
0.0
  0
LINE
  5
A9
330
8F
100
AcDbEntity
  8
FORMAT
100
AcDbLine
 10
1664.0538812569
 20
388.4857005791
 30
0.0
 11
1664.0538812569
 21
400.5510762146
 31
0.0
  0
LINE
  5
AA
330
8F
100
AcDbEntity
  8
FORMAT
100
AcDbLine
 10
1660.6881704478
 20
388.4857005791
 30
0.0
 11
1660.6881704478
 21
402.6810297309
 31
0.0
  0
LINE
  5
AB
330
8F
100
AcDbEntity
  8
FORMAT
100
AcDbLine
 10
1653.8067410864
 20
388.4857005791
 30
0.0
 11
1653.8067410864
 21
402.6810297309
 31
0.0
  0
LINE
  5
AC
330
8F
100
AcDbEntity
  8
FORMAT
100
AcDbLine
 10
1655.4974557671
 20
385.5232661892
 30
0.0
 11
1655.4974557671
 21
381.9080925071
 31
0.0
  0
LINE
  5
AD
330
8F
100
AcDbEntity
  8
FORMAT
100
AcDbLine
 10
1658.9974557671
 20
385.5232661892
 30
0.0
 11
1658.9974557671
 21
381.9080925071
 31
0.0
  0
HATCH
  5
AE
330
8F
100
AcDbEntity
  8
FORMAT
100
AcDbHatch
 10
0.0
 20
0.0
 30
0.0
210
0.0
220
0.0
230
1.0
  2
SOLID
 70
     1
 71
     0
 91
        5
 92
        0
 93
        4
 72
     1
 10
1686.776230644441
 20
429.2221955751519
 11
1686.776230644441
 21
370.1646458205502
 72
     1
 10
1686.776230644441
 20
370.1646458205502
 11
1627.718680889839
 21
370.1646458205502
 72
     1
 10
1627.718680889839
 20
370.1646458205502
 11
1627.718680889839
 21
429.2221955751519
 72
     1
 10
1627.718680889839
 20
429.2221955751519
 11
1686.776230644441
 21
429.2221955751519
 97
        0
 92
        0
 93
        4
 72
     2
 10
1657.24745576714
 20
399.693420697851
 40
21.00000000000007
 50
94.78019184719915
 51
265.2198081528017
 73
     0
 72
     1
 10
1655.49745576714
 20
420.6203769982786
 11
1655.49745576714
 21
425.8850224052687
 72
     2
 10
1657.24745576714
 20
399.693420697851
 40
26.25000000000005
 50
93.82255372927435
 51
266.1774462707265
 73
     1
 72
     1
 10
1655.49745576714
 20
373.5018189904334
 11
1655.49745576714
 21
378.7664643974235
 97
        0
 92
        0
 93
        8
 72
     1
 10
1664.053881256931
 20
388.4857005790521
 11
1664.053881256931
 21
400.5510762145541
 72
     2
 10
1657.24745576714
 20
407.6242915052733
 40
9.816201021624591
 50
313.8988153445118
 51
439.730601033339
 73
     1
 72
     1
 10
1658.99745576714
 20
417.2832408527408
 11
1658.99745576714
 21
413.3872642177221
 72
     2
 10
1657.24745576714
 20
407.6242915052733
 40
6.022819479648148
 50
286.8915805399267
 51
415.1604865505418
 73
     0
 72
     1
 10
1660.688170447847
 20
402.6810297308583
 11
1660.688170447847
 21
388.4857005790521
 72
     2
 10
1657.24745576714
 20
388.4857005790521
 40
3.440714680707529
 50
0.0
 51
59.42836299135161
 73
     0
 72
     1
 10
1658.99745576714
 20
385.523266189224
 11
1658.99745576714
 21
381.9080925071099
 72
     2
 10
1657.24745576714
 20
388.4857005790521
 40
6.806425489791268
 50
284.8986481111874
 51
360.0000000000008
 73
     1
 97
        0
 92
        0
 93
        8
 72
     2
 10
1657.24745576714
 20
388.4857005790521
 40
3.440714680707529
 50
120.5716370086479
 51
180.0
 73
     0
 72
     1
 10
1653.806741086432
 20
388.4857005790521
 11
1653.806741086432
 21
402.6810297308583
 72
     2
 10
1657.24745576714
 20
407.6242915052733
 40
6.022819479648148
 50
124.839513449459
 51
253.1084194600749
 73
     0
 72
     1
 10
1655.49745576714
 20
413.3872642177221
 11
1655.49745576714
 21
417.2832408527408
 72
     2
 10
1657.24745576714
 20
407.6242915052733
 40
9.816201021624591
 50
100.2693989666618
 51
226.1011846554899
 73
     1
 72
     1
 10
1650.441030277349
 20
400.5510762145541
 11
1650.441030277349
 21
388.4857005790521
 72
     2
 10
1657.24745576714
 20
388.4857005790521
 40
6.806425489791268
 50
180.0
 51
255.1013518888142
 73
     1
 72
     1
 10
1655.49745576714
 20
381.9080925071099
 11
1655.49745576714
 21
385.5232661892239
 97
        0
 92
        0
 93
        4
 72
     2
 10
1657.24745576714
 20
399.693420697851
 40
21.00000000000007
 50
274.7801918471999
 51
445.2198081528016
 73
     0
 72
     1
 10
1658.99745576714
 20
378.7664643974235
 11
1658.99745576714
 21
373.5018189904334
 72
     2
 10
1657.24745576714
 20
399.693420697851
 40
26.25000000000005
 50
273.8225537292751
 51
446.1774462707265
 73
     1
 72
     1
 10
1658.99745576714
 20
425.8850224052687
 11
1658.99745576714
 21
420.6203769982786
 97
        0
 75
     0
 76
     1
 98
        1
 10
0.0
 20
0.0
  0
INSERT
  5
B4
330
8F
100
AcDbEntity
  8
FORMAT
 62
     7
100
AcDbBlockReference
  2
SW_NOTE_0_1
 10
1625.7602656139
 20
334.0630571774
 30
0.0
  0
INSERT
  5
BC
330
8F
100
AcDbEntity
  8
0
  6
Continuous
 62
     7
370
     0
100
AcDbBlockReference
  2
SW_NOTE_0_2
 10
1708.506124485
 20
399.8232127904
 30
0.0
  0
ENDBLK
  5
91
330
8F
100
AcDbEntity
  8
0
100
AcDbBlockEnd
  0
BLOCK
  5
B0
330
AF
100
AcDbEntity
  8
0
100
AcDbBlockBegin
  2
SW_NOTE_0_1
 70
     0
 10
0.0
 20
0.0
 30
0.0
  3
SW_NOTE_0_1
  1

  0
MTEXT
  5
B3
330
AF
100
AcDbEntity
  8
FORMAT
 62
     0
100
AcDbMText
 10
0.0
 20
27.0563380282
 30
0.0
 40
21.0
 41
0.0
 71
     1
 72
     1
  1
ECO
  7
SLDTEXTSTYLE1
 73
     1
 44
1.0
  0
ENDBLK
  5
B1
330
AF
100
AcDbEntity
  8
0
100
AcDbBlockEnd
  0
BLOCK
  5
B6
330
B5
100
AcDbEntity
  8
0
100
AcDbBlockBegin
  2
SW_NOTE_0_2
 70
     0
 10
0.0
 20
0.0
 30
0.0
  3
SW_NOTE_0_2
  1

  0
MTEXT
  5
B9
330
B5
100
AcDbEntity
  8
0
  6
Continuous
 62
     0
370
     0
100
AcDbMText
 10
0.0
 20
22.558685446
 30
0.0
 40
17.5
 41
0.0
 71
     1
 72
     1
  1
ECO Schulte GmbH & Co. KG
  7
SLDTEXTSTYLE2
 73
     1
 44
1.0
  0
MTEXT
  5
BA
330
B5
100
AcDbEntity
  8
0
  6
Continuous
 62
     0
370
     0
100
AcDbMText
 10
0.0
 20
-1.9413153102
 30
0.0
 40
17.5
 41
0.0
 71
     1
 72
     1
  1
Postfach 206
  7
SLDTEXTSTYLE2
 73
     1
 44
1.0
  0
MTEXT
  5
BB
330
B5
100
AcDbEntity
  8
0
  6
Continuous
 62
     0
370
     0
100
AcDbMText
 10
0.0
 20
-26.4413160665
 30
0.0
 40
17.5
 41
0.0
 71
     1
 72
     1
  1
58682 Menden
  7
SLDTEXTSTYLE2
 73
     1
 44
1.0
  0
ENDBLK
  5
B7
330
B5
100
AcDbEntity
  8
0
100
AcDbBlockEnd
  0
BLOCK
  5
BE
330
BD
100
AcDbEntity
  8
0
100
AcDbBlockBegin
  2
rechtlicher_Hinweis_Katalogzeichnungen_1
 70
     0
 10
0.0
 20
0.0
 30
0.0
  3
rechtlicher_Hinweis_Katalogzeichnungen_1
  1

  0
INSERT
  5
C9
330
BD
100
AcDbEntity
  8
0
  6
Continuous
 62
     7
370
     0
100
AcDbBlockReference
  2
SW_NOTE_0_3
 10
2.1768074632
 20
401.5030406501
 30
0.0
  0
ENDBLK
  5
BF
330
BD
100
AcDbEntity
  8
0
100
AcDbBlockEnd
  0
BLOCK
  5
C1
330
C0
100
AcDbEntity
  8
0
100
AcDbBlockBegin
  2
SW_NOTE_0_3
 70
     0
 10
0.0
 20
0.0
 30
0.0
  3
SW_NOTE_0_3
  1

  0
MTEXT
  5
C3
330
C0
100
AcDbEntity
  8
0
  6
Continuous
 62
     0
370
     0
100
AcDbMText
 10
0.0
 20
45.117370892
 30
0.0
 40
35.0
 41
0.0
 71
     1
 72
     1
  1
Technische Änderungen und Irrtümer vorbehalten. Aus dem Gebrauch der Zeichnung können keinerlei Ansprüche (inkl. 
  7
SLDTEXTSTYLE0
 73
     1
 44
1.0
  0
MTEXT
  5
C4
330
C0
100
AcDbEntity
  8
0
  6
Continuous
 62
     0
370
     0
100
AcDbMText
 10
0.0
 20
-3.8826306204
 30
0.0
 40
35.0
 41
0.0
 71
     1
 72
     1
  1
Schadenersatzansprüche) erhoben und gegen ECO Schulte geltend gemacht werden. Die Zeichnung bleibt unser 
  7
SLDTEXTSTYLE0
 73
     1
 44
1.0
  0
MTEXT
  5
C5
330
C0
100
AcDbEntity
  8
0
  6
Continuous
 62
     0
370
     0
100
AcDbMText
 10
0.0
 20
-52.8826321329
 30
0.0
 40
35.0
 41
0.0
 71
     1
 72
     1
  1
Eigentum. Sämtliche sich aus der Zeichnung ergebenden Ansprüche stehen ausschließlich ECO Schulte zu.
  7
SLDTEXTSTYLE0
 73
     1
 44
1.0
  0
MTEXT
  5
C6
330
C0
100
AcDbEntity
  8
0
  6
Continuous
 62
     0
370
     0
100
AcDbMText
 10
0.0
 20
-150.8826351579
 30
0.0
 40
35.0
 41
0.0
 71
     1
 72
     1
  1
Technical changes and errors excepted. No claims (including compensation claims) may be raised against ECO Schulte by 
  7
SLDTEXTSTYLE0
 73
     1
 44
1.0
  0
MTEXT
  5
C7
330
C0
100
AcDbEntity
  8
0
  6
Continuous
 62
     0
370
     0
100
AcDbMText
 10
0.0
 20
-199.8826366703
 30
0.0
 40
35.0
 41
0.0
 71
     1
 72
     1
  1
using of this drawing. The drawing remains the property of ECO Schulte. All claims resulting from this drawing are solely 
  7
SLDTEXTSTYLE0
 73
     1
 44
1.0
  0
MTEXT
  5
C8
330
C0
100
AcDbEntity
  8
0
  6
Continuous
 62
     0
370
     0
100
AcDbMText
 10
0.0
 20
-248.8826381828
 30
0.0
 40
35.0
 41
0.0
 71
     1
 72
     1
  1
entitled to ECO Schulte.
  7
SLDTEXTSTYLE0
 73
     1
 44
1.0
  0
ENDBLK
  5
C2
330
C0
100
AcDbEntity
  8
0
100
AcDbBlockEnd
  0
BLOCK
  5
DD
330
DC
100
AcDbEntity
  8
0
100
AcDbBlockBegin
  2
SW_NOTE_0_4
 70
     0
 10
0.0
 20
0.0
 30
0.0
  3
SW_NOTE_0_4
  1

  0
MTEXT
  5
DF
330
DC
100
AcDbEntity
  8
FORMAT
 62
     0
100
AcDbMText
 10
0.0
 20
23.8746087637
 30
0.0
 40
18.5208333333
 41
0.0
 71
     1
 72
     1
  1
\LBefestigungsmittel:
  7
SLDTEXTSTYLE0
 73
     1
 44
1.0
  0
MTEXT
  5
E0
330
DC
100
AcDbEntity
  8
FORMAT
 62
     0
100
AcDbMText
 10
0.0
 20
-9.7180977825
 30
0.0
 40
18.5208333333
 41
0.0
 71
     1
 72
     1
  1
1. Montageplatte: Stahl/Alu-Tür: 6x M6 (Einnietmutter M6) ; Holztür: 6x Senkschraube ø6x60
  7
SLDTEXTSTYLE0
 73
     1
 44
1.0
  0
MTEXT
  5
E1
330
DC
100
AcDbEntity
  8
FORMAT
 62
     0
100
AcDbMText
 10
0.0
 20
-41.4125430759
 30
0.0
 40
18.5208333333
 41
0.0
 71
     1
 72
     1
  1
2. Gleitschiene: Stahl/Alu-Tür: 2x M6 (Einnietmutter M6) ; Holztür 2x Senkschraube ø4x30
  7
SLDTEXTSTYLE0
 73
     1
 44
1.0
  0
ENDBLK
  5
DE
330
DC
100
AcDbEntity
  8
0
100
AcDbBlockEnd
  0
BLOCK
  5
E6
330
E5
100
AcDbEntity
  8
0
100
AcDbBlockBegin
  2
SW_NOTE_0_5
 70
     0
 10
0.0
 20
0.0
 30
0.0
  3
SW_NOTE_0_5
  1

  0
MTEXT
  5
E8
330
E5
100
AcDbEntity
  8
FORMAT
 62
     0
100
AcDbMText
 10
0.0
 20
23.8746087637
 30
0.0
 40
18.5208333333
 41
0.0
 71
     1
 72
     1
  1
Bei Verwendung von Drehflügelantrieben an FS/RS Türen muss die
  7
SLDTEXTSTYLE0
 73
     1
 44
1.0
  0
MTEXT
  5
E9
330
E5
100
AcDbEntity
  8
FORMAT
 62
     0
100
AcDbMText
 10
0.0
 20
-7.8198365297
 30
0.0
 40
18.5208333333
 41
0.0
 71
     1
 72
     1
  1
technische Machbarkeit und die Zulassung durch den
  7
SLDTEXTSTYLE0
 73
     1
 44
1.0
  0
MTEXT
  5
EA
330
E5
100
AcDbEntity
  8
FORMAT
 62
     0
100
AcDbMText
 10
0.0
 20
-39.5142818231
 30
0.0
 40
18.5208333333
 41
0.0
 71
     1
 72
     1
  1
Türenhersteller/Systemgeber geprüft und freigegeben werden
  7
SLDTEXTSTYLE0
 73
     1
 44
1.0
  0
ENDBLK
  5
E7
330
E5
100
AcDbEntity
  8
0
100
AcDbBlockEnd
  0
BLOCK
  5
1C3
330
1C2
100
AcDbEntity
  8
0
100
AcDbBlockBegin
  2
_D
 70
     0
 10
0.0
 20
0.0
 30
0.0
  3
_D
  1

  0
SOLID
  5
1C5
330
1C2
100
AcDbEntity
  8
FORMAT
100
AcDbTrace
 10
566.4646673357
 20
1487.4999741994
 30
0.0
 11
589.5786673357
 21
1483.9439741994
 31
0.0
 12
589.5786673357
 22
1491.0559741994
 32
0.0
 13
589.5786673357
 23
1491.0559741994
 33
0.0
  0
SOLID
  5
1C6
330
1C2
100
AcDbEntity
  8
FORMAT
100
AcDbTrace
 10
1219.4646673357
 20
1487.4999741994
 30
0.0
 11
1196.3506673357
 21
1491.0559741994
 31
0.0
 12
1196.3506673357
 22
1483.9439741994
 32
0.0
 13
1196.3506673357
 23
1483.9439741994
 33
0.0
  0
LINE
  5
1C7
330
1C2
100
AcDbEntity
  8
FORMAT
100
AcDbLine
 10
566.4646673357
 20
1597.8656851186
 30
0.0
 11
566.4646673357
 21
1480.4999741994
 31
0.0
  0
LINE
  5
1C8
330
1C2
100
AcDbEntity
  8
FORMAT
100
AcDbLine
 10
1219.4646673357
 20
1597.8656851186
 30
0.0
 11
1219.4646673357
 21
1480.4999741994
 31
0.0
  0
LINE
  5
1C9
330
1C2
100
AcDbEntity
  8
FORMAT
100
AcDbLine
 10
566.4646673357
 20
1487.4999741994
 30
0.0
 11
1219.4646673357
 21
1487.4999741994
 31
0.0
  0
MTEXT
  5
1CA
330
1C2
100
AcDbEntity
  8
FORMAT
100
AcDbMText
 10
864.8917513645
 20
1519.0821354536
 30
0.0
 40
24.5
 41
0.0
 71
     1
 72
     1
  1
653
  7
SLDTEXTSTYLE0
 73
     1
 44
1.0
  0
ENDBLK
  5
1C4
330
1C2
100
AcDbEntity
  8
0
100
AcDbBlockEnd
  0
BLOCK
  5
1CD
330
1CC
100
AcDbEntity
  8
0
100
AcDbBlockBegin
  2
_D_1
 70
     0
 10
0.0
 20
0.0
 30
0.0
  3
_D_1
  1

  0
SOLID
  5
1CF
330
1CC
100
AcDbEntity
  8
FORMAT
100
AcDbTrace
 10
487.9646673348
 20
1788.3113917456
 30
0.0
 11
511.0786673348
 21
1784.7553917456
 31
0.0
 12
511.0786673348
 22
1791.8673917456
 32
0.0
 13
511.0786673348
 23
1791.8673917456
 33
0.0
  0
SOLID
  5
1D0
330
1CC
100
AcDbEntity
  8
FORMAT
100
AcDbTrace
 10
1176.9646673348
 20
1788.3113917456
 30
0.0
 11
1153.8506673348
 21
1791.8673917456
 31
0.0
 12
1153.8506673348
 22
1784.7553917456
 32
0.0
 13
1153.8506673348
 23
1784.7553917456
 33
0.0
  0
LINE
  5
1D1
330
1CC
100
AcDbEntity
  8
FORMAT
100
AcDbLine
 10
487.9646673348
 20
1761.365685127
 30
0.0
 11
487.9646673348
 21
1795.3113917456
 31
0.0
  0
LINE
  5
1D2
330
1CC
100
AcDbEntity
  8
FORMAT
100
AcDbLine
 10
1176.9646673348
 20
1761.3656851269
 30
0.0
 11
1176.9646673348
 21
1795.3113917456
 31
0.0
  0
LINE
  5
1D3
330
1CC
100
AcDbEntity
  8
FORMAT
100
AcDbLine
 10
487.9646673348
 20
1788.3113917456
 30
0.0
 11
1176.9646673348
 21
1788.3113917456
 31
0.0
  0
MTEXT
  5
1D4
330
1CC
100
AcDbEntity
  8
FORMAT
100
AcDbMText
 10
804.3917513635
 20
1819.8935529999
 30
0.0
 40
24.5
 41
0.0
 71
     1
 72
     1
  1
689
  7
SLDTEXTSTYLE0
 73
     1
 44
1.0
  0
ENDBLK
  5
1CE
330
1CC
100
AcDbEntity
  8
0
100
AcDbBlockEnd
  0
BLOCK
  5
1D8
330
1D7
100
AcDbEntity
  8
0
100
AcDbBlockBegin
  2
_D_2
 70
     0
 10
0.0
 20
0.0
 30
0.0
  3
_D_2
  1

  0
SOLID
  5
1DA
330
1D7
100
AcDbEntity
  8
FORMAT
100
AcDbTrace
 10
1255.950719921
 20
1604.3656851186
 30
0.0
 11
1252.394719921
 21
1581.2516851186
 31
0.0
 12
1259.506719921
 22
1581.2516851186
 32
0.0
 13
1259.506719921
 23
1581.2516851186
 33
0.0
  0
SOLID
  5
1DB
330
1D7
100
AcDbEntity
  8
FORMAT
100
AcDbTrace
 10
1255.950719921
 20
1621.3656851186
 30
0.0
 11
1259.506719921
 21
1644.4796851186
 31
0.0
 12
1252.394719921
 22
1644.4796851186
 32
0.0
 13
1252.394719921
 23
1644.4796851186
 33
0.0
  0
LINE
  5
1DC
330
1D7
100
AcDbEntity
  8
FORMAT
100
AcDbLine
 10
1225.9646673357
 20
1604.3656851186
 30
0.0
 11
1262.950719921
 21
1604.3656851186
 31
0.0
  0
LINE
  5
1DD
330
1D7
100
AcDbEntity
  8
FORMAT
100
AcDbLine
 10
1225.9646673357
 20
1621.3656851186
 30
0.0
 11
1262.950719921
 21
1621.3656851186
 31
0.0
  0
LINE
  5
1DE
330
1D7
100
AcDbEntity
  8
FORMAT
100
AcDbLine
 10
1255.950719921
 20
1604.3656851186
 30
0.0
 11
1255.950719921
 21
1554.5141054391
 31
0.0
  0
LINE
  5
1DF
330
1D7
100
AcDbEntity
  8
FORMAT
100
AcDbLine
 10
1255.950719921
 20
1604.3656851186
 30
0.0
 11
1255.950719921
 21
1621.3656851186
 31
0.0
  0
LINE
  5
1E0
330
1D7
100
AcDbEntity
  8
FORMAT
100
AcDbLine
 10
1255.950719921
 20
1621.3656851186
 30
0.0
 11
1255.950719921
 21
1665.8156851186
 31
0.0
  0
MTEXT
  5
1E1
330
1D7
100
AcDbEntity
  8
FORMAT
100
AcDbMText
 10
1224.3685586667
 20
1554.5141054391
 30
0.0
 40
24.5
 41
0.0
 71
     1
 72
     1
  1
17
  7
SLDTEXTSTYLE0
 11
-3.269436733918102E-15
 21
1.0
 31
0.0
 73
     1
 44
1.0
  0
ENDBLK
  5
1D9
330
1D7
100
AcDbEntity
  8
0
100
AcDbBlockEnd
  0
BLOCK
  5
1E4
330
1E3
100
AcDbEntity
  8
0
100
AcDbBlockBegin
  2
_D_3
 70
     0
 10
0.0
 20
0.0
 30
0.0
  3
_D_3
  1

  0
SOLID
  5
1E6
330
1E3
100
AcDbEntity
  8
FORMAT
100
AcDbTrace
 10
461.6886088708
 20
1664.365685127
 30
0.0
 11
465.2446088708
 21
1687.479685127
 31
0.0
 12
458.1326088708
 22
1687.479685127
 32
0.0
 13
458.1326088708
 23
1687.479685127
 33
0.0
  0
SOLID
  5
1E7
330
1E3
100
AcDbEntity
  8
FORMAT
100
AcDbTrace
 10
461.6886088708
 20
1759.365685127
 30
0.0
 11
458.1326088708
 21
1736.251685127
 31
0.0
 12
465.2446088708
 22
1736.251685127
 32
0.0
 13
465.2446088708
 23
1736.251685127
 33
0.0
  0
LINE
  5
1E8
330
1E3
100
AcDbEntity
  8
FORMAT
100
AcDbLine
 10
490.4646673348
 20
1664.365685127
 30
0.0
 11
454.6886088708
 21
1664.365685127
 31
0.0
  0
LINE
  5
1E9
330
1E3
100
AcDbEntity
  8
FORMAT
100
AcDbLine
 10
490.4646673348
 20
1759.365685127
 30
0.0
 11
454.6886088708
 21
1759.365685127
 31
0.0
  0
LINE
  5
1EA
330
1E3
100
AcDbEntity
  8
FORMAT
100
AcDbLine
 10
461.6886088708
 20
1664.365685127
 30
0.0
 11
461.6886088708
 21
1759.365685127
 31
0.0
  0
MTEXT
  5
1EB
330
1E3
100
AcDbEntity
  8
FORMAT
100
AcDbMText
 10
430.1064476165
 20
1693.1504078128
 30
0.0
 40
24.5
 41
0.0
 71
     1
 72
     1
  1
95
  7
SLDTEXTSTYLE0
 11
6.123233995736766E-17
 21
1.0
 31
0.0
 73
     1
 44
1.0
  0
ENDBLK
  5
1E5
330
1E3
100
AcDbEntity
  8
0
100
AcDbBlockEnd
  0
BLOCK
  5
1EE
330
1ED
100
AcDbEntity
  8
0
100
AcDbBlockBegin
  2
_D_4
 70
     0
 10
0.0
 20
0.0
 30
0.0
  3
_D_4
  1

  0
SOLID
  5
1F0
330
1ED
100
AcDbEntity
  8
FORMAT
100
AcDbTrace
 10
487.4646673348
 20
1487.4999742003
 30
0.0
 11
510.5786673348
 21
1483.9439742003
 31
0.0
 12
510.5786673348
 22
1491.0559742003
 32
0.0
 13
510.5786673348
 23
1491.0559742003
 33
0.0
  0
SOLID
  5
1F1
330
1ED
100
AcDbEntity
  8
FORMAT
100
AcDbTrace
 10
566.4646673357
 20
1487.4999742003
 30
0.0
 11
543.3506673357
 21
1491.0559742003
 31
0.0
 12
543.3506673357
 22
1483.9439742003
 32
0.0
 13
543.3506673357
 23
1483.9439742003
 33
0.0
  0
LINE
  5
1F2
330
1ED
100
AcDbEntity
  8
FORMAT
100
AcDbLine
 10
566.4646673357
 20
1597.8656851186
 30
0.0
 11
566.4646673357
 21
1480.4999742003
 31
0.0
  0
LINE
  5
1F3
330
1ED
100
AcDbEntity
  8
FORMAT
100
AcDbLine
 10
487.4646673348
 20
1487.4999742003
 30
0.0
 11
566.4646673357
 21
1487.4999742003
 31
0.0
  0
MTEXT
  5
1F4
330
1ED
100
AcDbEntity
  8
FORMAT
100
AcDbMText
 10
508.2493900211
 20
1519.0821354545
 30
0.0
 40
24.5
 41
0.0
 71
     1
 72
     1
  1
79
  7
SLDTEXTSTYLE0
 73
     1
 44
1.0
  0
ENDBLK
  5
1EF
330
1ED
100
AcDbEntity
  8
0
100
AcDbBlockEnd
  0
BLOCK
  5
1F7
330
1F6
100
AcDbEntity
  8
0
100
AcDbBlockBegin
  2
_D_5
 70
     0
 10
0.0
 20
0.0
 30
0.0
  3
_D_5
  1

  0
SOLID
  5
1F9
330
1F6
100
AcDbEntity
  8
FORMAT
100
AcDbTrace
 10
487.4646673348
 20
1436.578373583
 30
0.0
 11
510.5786673348
 21
1433.022373583
 31
0.0
 12
510.5786673348
 22
1440.134373583
 32
0.0
 13
510.5786673348
 23
1440.134373583
 33
0.0
  0
SOLID
  5
1FA
330
1F6
100
AcDbEntity
  8
FORMAT
100
AcDbTrace
 10
767.4646673347
 20
1436.578373583
 30
0.0
 11
744.3506673347
 21
1440.134373583
 31
0.0
 12
744.3506673347
 22
1433.022373583
 32
0.0
 13
744.3506673347
 23
1433.022373583
 33
0.0
  0
LINE
  5
1FB
330
1F6
100
AcDbEntity
  8
FORMAT
100
AcDbLine
 10
767.4646673347
 20
1636.3656851125
 30
0.0
 11
767.4646673347
 21
1429.578373583
 31
0.0
  0
LINE
  5
1FC
330
1F6
100
AcDbEntity
  8
FORMAT
100
AcDbLine
 10
487.4646673348
 20
1436.578373583
 30
0.0
 11
767.4646673347
 21
1436.578373583
 31
0.0
  0
MTEXT
  5
1FD
330
1F6
100
AcDbEntity
  8
FORMAT
100
AcDbMText
 10
599.3917513635
 20
1468.1605348372
 30
0.0
 40
24.5
 41
0.0
 71
     1
 72
     1
  1
280
  7
SLDTEXTSTYLE0
 73
     1
 44
1.0
  0
ENDBLK
  5
1F8
330
1F6
100
AcDbEntity
  8
0
100
AcDbBlockEnd
  0
BLOCK
  5
295
330
294
100
AcDbEntity
  8
0
100
AcDbBlockBegin
  2
_Dot
 70
     0
 10
0.0
 20
0.0
 30
0.0
  3
_Dot
  1

  0
LWPOLYLINE
  5
297
330
294
100
AcDbEntity
  8
0
  6
ByBlock
 62
     0
100
AcDbPolyline
 90
        2
 70
     1
 43
0.5
 10
-0.25
 20
0.0
 42
1.0
 10
0.25
 20
0.0
 42
1.0
  0
LINE
  5
298
330
294
100
AcDbEntity
  8
0
  6
ByBlock
 62
     0
370
    -2
100
AcDbLine
 10
-0.5
 20
0.0
 30
0.0
 11
-1.0
 21
0.0
 31
0.0
  0
ENDBLK
  5
296
330
294
100
AcDbEntity
  8
0
100
AcDbBlockEnd
  0
BLOCK
  5
29A
330
299
100
AcDbEntity
  8
0
100
AcDbBlockBegin
  2
_D_6
 70
     0
 10
0.0
 20
0.0
 30
0.0
  3
_D_6
  1

  0
INSERT
  5
29C
330
299
100
AcDbEntity
  8
FORMAT
100
AcDbBlockReference
  2
_Dot
 10
2212.5480060041
 20
1907.9922087913
 30
0.0
 41
7.112
 42
7.112
 50
180.0
  0
SOLID
  5
29D
330
299
100
AcDbEntity
  8
FORMAT
100
AcDbTrace
 10
2242.5480060041
 20
1907.9922087913
 30
0.0
 11
2219.4340060041
 21
1911.5482087913
 31
0.0
 12
2219.4340060041
 22
1904.4362087913
 32
0.0
 13
2219.4340060041
 23
1904.4362087913
 33
0.0
  0
LINE
  5
29E
330
299
100
AcDbEntity
  8
FORMAT
100
AcDbLine
 10
2212.5480060041
 20
1834.8656851132
 30
0.0
 11
2212.5480060041
 21
1914.9922087913
 31
0.0
  0
LINE
  5
29F
330
299
100
AcDbEntity
  8
FORMAT
100
AcDbLine
 10
2212.5480060041
 20
1907.9922087913
 30
0.0
 11
2242.5480060041
 21
1907.9922087913
 31
0.0
  0
LINE
  5
2A0
330
299
100
AcDbEntity
  8
FORMAT
100
AcDbLine
 10
2242.5480060041
 20
1907.9922087913
 30
0.0
 11
2348.4357642416
 21
1907.9922087913
 31
0.0
  0
MTEXT
  5
2A1
330
299
100
AcDbEntity
  8
FORMAT
100
AcDbMText
 10
2246.2281929735
 20
1931.8668187773
 30
0.0
 40
18.5208333333
 41
0.0
 71
     1
 72
     1
  1
max. +
  7
SLDTEXTSTYLE0
 73
     1
 44
1.0
  0
MTEXT
  5
2A2
330
299
100
AcDbEntity
  8
FORMAT
100
AcDbMText
 10
2320.9974850003
 20
1931.8668187773
 30
0.0
 40
18.5208333333
 41
0.0
 71
     1
 72
     1
  1
30
  7
SLDTEXTSTYLE0
 73
     1
 44
1.0
  0
ENDBLK
  5
29B
330
299
100
AcDbEntity
  8
0
100
AcDbBlockEnd
  0
BLOCK
  5
2A5
330
2A4
100
AcDbEntity
  8
0
100
AcDbBlockBegin
  2
_D_7
 70
     0
 10
0.0
 20
0.0
 30
0.0
  3
_D_7
  1

  0
INSERT
  5
2A7
330
2A4
100
AcDbEntity
  8
FORMAT
100
AcDbBlockReference
  2
_Dot
 10
2212.5480060041
 20
1907.9922087913
 30
0.0
 41
7.112
 42
7.112
 50
0.0
  0
SOLID
  5
2A8
330
2A4
100
AcDbEntity
  8
FORMAT
100
AcDbTrace
 10
2182.5480060041
 20
1907.9922087913
 30
0.0
 11
2205.6620060041
 21
1904.4362087913
 31
0.0
 12
2205.6620060041
 22
1911.5482087913
 32
0.0
 13
2205.6620060041
 23
1911.5482087913
 33
0.0
  0
LINE
  5
2A9
330
2A4
100
AcDbEntity
  8
FORMAT
100
AcDbLine
 10
2212.5480060041
 20
1834.8656851132
 30
0.0
 11
2212.5480060041
 21
1914.9922087913
 31
0.0
  0
LINE
  5
2AA
330
2A4
100
AcDbEntity
  8
FORMAT
100
AcDbLine
 10
2212.5480060041
 20
1907.9922087913
 30
0.0
 11
2182.5480060041
 21
1907.9922087913
 31
0.0
  0
LINE
  5
2AB
330
2A4
100
AcDbEntity
  8
FORMAT
100
AcDbLine
 10
2182.5480060041
 20
1907.9922087913
 30
0.0
 11
2076.6343255314
 21
1907.9922087913
 31
0.0
  0
MTEXT
  5
2AC
330
2A4
100
AcDbEntity
  8
FORMAT
100
AcDbMText
 10
2076.6343255314
 20
1931.8668187774
 30
0.0
 40
18.5208333333
 41
0.0
 71
     1
 72
     1
  1
max. -
  7
SLDTEXTSTYLE0
 73
     1
 44
1.0
  0
MTEXT
  5
2AD
330
2A4
100
AcDbEntity
  8
FORMAT
100
AcDbMText
 10
2145.2300040769
 20
1931.8668187774
 30
0.0
 40
18.5208333333
 41
0.0
 71
     1
 72
     1
  1
30
  7
SLDTEXTSTYLE0
 73
     1
 44
1.0
  0
ENDBLK
  5
2A6
330
2A4
100
AcDbEntity
  8
0
100
AcDbBlockEnd
  0
BLOCK
  5
2B1
330
2B0
100
AcDbEntity
  8
0
100
AcDbBlockBegin
  2
_D_8
 70
     0
 10
0.0
 20
0.0
 30
0.0
  3
_D_8
  1

  0
SOLID
  5
2B3
330
2B0
100
AcDbEntity
  8
FORMAT
100
AcDbTrace
 10
2454.2628280388
 20
1759.365685127
 30
0.0
 11
2450.7068280388
 21
1736.251685127
 31
0.0
 12
2457.8188280388
 22
1736.251685127
 32
0.0
 13
2457.8188280388
 23
1736.251685127
 33
0.0
  0
SOLID
  5
2B4
330
2B0
100
AcDbEntity
  8
FORMAT
100
AcDbTrace
 10
2454.2628280388
 20
1769.365685127
 30
0.0
 11
2457.8188280388
 21
1792.479685127
 31
0.0
 12
2450.7068280388
 22
1792.479685127
 32
0.0
 13
2450.7068280388
 23
1792.479685127
 33
0.0
  0
LINE
  5
2B5
330
2B0
100
AcDbEntity
  8
FORMAT
100
AcDbLine
 10
2344.548006006
 20
1759.365685127
 30
0.0
 11
2461.2628280388
 21
1759.365685127
 31
0.0
  0
LINE
  5
2B6
330
2B0
100
AcDbEntity
  8
FORMAT
100
AcDbLine
 10
2391.2628280388
 20
1769.365685127
 30
0.0
 11
2461.2628280388
 21
1769.365685127
 31
0.0
  0
LINE
  5
2B7
330
2B0
100
AcDbEntity
  8
FORMAT
100
AcDbLine
 10
2454.2628280388
 20
1759.365685127
 30
0.0
 11
2454.2628280388
 21
1714.915685127
 31
0.0
  0
LINE
  5
2B8
330
2B0
100
AcDbEntity
  8
FORMAT
100
AcDbLine
 10
2454.2628280388
 20
1759.365685127
 30
0.0
 11
2454.2628280388
 21
1769.365685127
 31
0.0
  0
LINE
  5
2B9
330
2B0
100
AcDbEntity
  8
FORMAT
100
AcDbLine
 10
2454.2628280388
 20
1769.365685127
 30
0.0
 11
2454.2628280388
 21
1906.0925144886
 31
0.0
  0
MTEXT
  5
2BA
330
2B0
100
AcDbEntity
  8
FORMAT
100
AcDbMText
 10
2430.3882180528
 20
1805.9428122078
 30
0.0
 40
18.5208333333
 41
0.0
 71
     1
 72
     1
  1
min. 
  7
SLDTEXTSTYLE0
 11
6.123233995736766E-17
 21
1.0
 31
0.0
 73
     1
 44
1.0
  0
MTEXT
  5
2BB
330
2B0
100
AcDbEntity
  8
FORMAT
100
AcDbMText
 10
2430.3882180528
 20
1859.4474417341
 30
0.0
 40
18.5208333333
 41
0.0
 71
     1
 72
     1
  1
10
  7
SLDTEXTSTYLE0
 11
6.123233995736766E-17
 21
1.0
 31
0.0
 73
     1
 44
1.0
  0
MTEXT
  5
2BC
330
2B0
100
AcDbEntity
  8
FORMAT
100
AcDbMText
 10
2430.3882180528
 20
1886.8857177158
 30
0.0
 40
18.5208333333
 41
0.0
 71
     1
 72
     1
  1
**
  7
SLDTEXTSTYLE0
 11
6.123233995736766E-17
 21
1.0
 31
0.0
 73
     1
 44
1.0
  0
ENDBLK
  5
2B2
330
2B0
100
AcDbEntity
  8
0
100
AcDbBlockEnd
  0
BLOCK
  5
2BF
330
2BE
100
AcDbEntity
  8
0
100
AcDbBlockBegin
  2
_D_9
 70
     0
 10
0.0
 20
0.0
 30
0.0
  3
_D_9
  1

  0
SOLID
  5
2C1
330
2BE
100
AcDbEntity
  8
FORMAT
100
AcDbTrace
 10
2212.5480060041
 20
1531.8661181401
 30
0.0
 11
2189.4340060041
 21
1535.4221181401
 31
0.0
 12
2189.4340060041
 22
1528.3101181401
 32
0.0
 13
2189.4340060041
 23
1528.3101181401
 33
0.0
  0
SOLID
  5
2C2
330
2BE
100
AcDbEntity
  8
FORMAT
100
AcDbTrace
 10
2240.5480060018
 20
1531.8661181401
 30
0.0
 11
2263.6620060018
 21
1528.3101181401
 31
0.0
 12
2263.6620060018
 22
1535.4221181401
 32
0.0
 13
2263.6620060018
 23
1535.4221181401
 33
0.0
  0
LINE
  5
2C3
330
2BE
100
AcDbEntity
  8
FORMAT
100
AcDbLine
 10
2240.5480060018
 20
1597.8656851186
 30
0.0
 11
2240.5480060018
 21
1524.8661181401
 31
0.0
  0
LINE
  5
2C4
330
2BE
100
AcDbEntity
  8
FORMAT
100
AcDbLine
 10
2212.5480060041
 20
1531.8661181401
 30
0.0
 11
2168.0980060041
 21
1531.8661181401
 31
0.0
  0
LINE
  5
2C5
330
2BE
100
AcDbEntity
  8
FORMAT
100
AcDbLine
 10
2212.5480060041
 20
1531.8661181401
 30
0.0
 11
2240.5480060018
 21
1531.8661181401
 31
0.0
  0
LINE
  5
2C6
330
2BE
100
AcDbEntity
  8
FORMAT
100
AcDbLine
 10
2240.5480060018
 20
1531.8661181401
 30
0.0
 11
2305.9287309522
 21
1531.8661181401
 31
0.0
  0
MTEXT
  5
2C7
330
2BE
100
AcDbEntity
  8
FORMAT
100
AcDbMText
 10
2268.4981763238
 20
1563.4482793944
 30
0.0
 40
24.5
 41
0.0
 71
     1
 72
     1
  1
28
  7
SLDTEXTSTYLE0
 73
     1
 44
1.0
  0
ENDBLK
  5
2C0
330
2BE
100
AcDbEntity
  8
0
100
AcDbBlockEnd
  0
BLOCK
  5
2CA
330
2C9
100
AcDbEntity
  8
0
100
AcDbBlockBegin
  2
_D_10
 70
     0
 10
0.0
 20
0.0
 30
0.0
  3
_D_10
  1

  0
SOLID
  5
2CC
330
2C9
100
AcDbEntity
  8
FORMAT
100
AcDbTrace
 10
2412.5480060061
 20
1604.3656851186
 30
0.0
 11
2416.1040060061
 21
1627.4796851186
 31
0.0
 12
2408.9920060061
 22
1627.4796851186
 32
0.0
 13
2408.9920060061
 23
1627.4796851186
 33
0.0
  0
SOLID
  5
2CD
330
2C9
100
AcDbEntity
  8
FORMAT
100
AcDbTrace
 10
2412.5480060061
 20
1759.365685127
 30
0.0
 11
2408.9920060061
 21
1736.251685127
 31
0.0
 12
2416.1040060061
 22
1736.251685127
 32
0.0
 13
2416.1040060061
 23
1736.251685127
 33
0.0
  0
LINE
  5
2CE
330
2C9
100
AcDbEntity
  8
FORMAT
100
AcDbLine
 10
2247.0480060018
 20
1604.3656851186
 30
0.0
 11
2419.5480060061
 21
1604.3656851186
 31
0.0
  0
LINE
  5
2CF
330
2C9
100
AcDbEntity
  8
FORMAT
100
AcDbLine
 10
2344.548006006
 20
1759.365685127
 30
0.0
 11
2419.5480060061
 21
1759.365685127
 31
0.0
  0
LINE
  5
2D0
330
2C9
100
AcDbEntity
  8
FORMAT
100
AcDbLine
 10
2412.5480060061
 20
1604.3656851186
 30
0.0
 11
2412.5480060061
 21
1759.365685127
 31
0.0
  0
MTEXT
  5
2D1
330
2C9
100
AcDbEntity
  8
FORMAT
100
AcDbMText
 10
2380.9658447518
 20
1653.7927691515
 30
0.0
 40
24.5
 41
0.0
 71
     1
 72
     1
  1
155
  7
SLDTEXTSTYLE0
 11
6.123233995736766E-17
 21
1.0
 31
0.0
 73
     1
 44
1.0
  0
ENDBLK
  5
2CB
330
2C9
100
AcDbEntity
  8
0
100
AcDbBlockEnd
  0
BLOCK
  5
2D4
330
2D3
100
AcDbEntity
  8
0
100
AcDbBlockBegin
  2
_D_11
 70
     0
 10
0.0
 20
0.0
 30
0.0
  3
_D_11
  1

  0
SOLID
  5
2D6
330
2D3
100
AcDbEntity
  8
FORMAT
100
AcDbTrace
 10
2212.548006006
 20
1456.9173612559
 30
0.0
 11
2235.662006006
 21
1453.3613612559
 31
0.0
 12
2235.662006006
 22
1460.4733612559
 32
0.0
 13
2235.662006006
 23
1460.4733612559
 33
0.0
  0
SOLID
  5
2D7
330
2D3
100
AcDbEntity
  8
FORMAT
100
AcDbTrace
 10
2342.548006006
 20
1456.9173612559
 30
0.0
 11
2319.434006006
 21
1460.4733612559
 31
0.0
 12
2319.434006006
 22
1453.3613612559
 32
0.0
 13
2319.434006006
 23
1453.3613612559
 33
0.0
  0
LINE
  5
2D8
330
2D3
100
AcDbEntity
  8
FORMAT
100
AcDbLine
 10
2212.548006006
 20
1662.515685127
 30
0.0
 11
2212.548006006
 21
1449.9173612559
 31
0.0
  0
LINE
  5
2D9
330
2D3
100
AcDbEntity
  8
FORMAT
100
AcDbLine
 10
2342.548006006
 20
1662.365685127
 30
0.0
 11
2342.548006006
 21
1449.9173612559
 31
0.0
  0
LINE
  5
2DA
330
2D3
100
AcDbEntity
  8
FORMAT
100
AcDbLine
 10
2212.548006006
 20
1456.9173612559
 30
0.0
 11
2342.548006006
 21
1456.9173612559
 31
0.0
  0
MTEXT
  5
2DB
330
2D3
100
AcDbEntity
  8
FORMAT
100
AcDbMText
 10
2249.4750900348
 20
1488.4995225101
 30
0.0
 40
24.5
 41
0.0
 71
     1
 72
     1
  1
130
  7
SLDTEXTSTYLE0
 73
     1
 44
1.0
  0
ENDBLK
  5
2D5
330
2D3
100
AcDbEntity
  8
0
100
AcDbBlockEnd
  0
BLOCK
  5
2DE
330
2DD
100
AcDbEntity
  8
0
100
AcDbBlockBegin
  2
_D_12
 70
     0
 10
0.0
 20
0.0
 30
0.0
  3
_D_12
  1

  0
SOLID
  5
2E0
330
2DD
100
AcDbEntity
  8
FORMAT
100
AcDbTrace
 10
2063.0267313247
 20
1760.365685127
 30
0.0
 11
2059.4707313247
 21
1737.251685127
 31
0.0
 12
2066.5827313247
 22
1737.251685127
 32
0.0
 13
2066.5827313247
 23
1737.251685127
 33
0.0
  0
SOLID
  5
2E1
330
2DD
100
AcDbEntity
  8
FORMAT
100
AcDbTrace
 10
2063.0267313247
 20
1652.8656851132
 30
0.0
 11
2066.5827313247
 21
1675.9796851132
 31
0.0
 12
2059.4707313247
 22
1675.9796851132
 32
0.0
 13
2059.4707313247
 23
1675.9796851132
 33
0.0
  0
LINE
  5
2E2
330
2DD
100
AcDbEntity
  8
FORMAT
100
AcDbLine
 10
2216.548006006
 20
1760.365685127
 30
0.0
 11
2056.0267313247
 21
1760.365685127
 31
0.0
  0
LINE
  5
2E3
330
2DD
100
AcDbEntity
  8
FORMAT
100
AcDbLine
 10
2165.5480060041
 20
1652.8656851132
 30
0.0
 11
2056.0267313247
 21
1652.8656851132
 31
0.0
  0
LINE
  5
2E4
330
2DD
100
AcDbEntity
  8
FORMAT
100
AcDbLine
 10
2063.0267313247
 20
1760.365685127
 30
0.0
 11
2063.0267313247
 21
1652.8656851132
 31
0.0
  0
MTEXT
  5
2E5
330
2DD
100
AcDbEntity
  8
FORMAT
100
AcDbMText
 10
2031.4445700705
 20
1664.5063111632
 30
0.0
 40
24.5
 41
0.0
 71
     1
 72
     1
  1
107,5
  7
SLDTEXTSTYLE0
 11
-7.044195017643634E-15
 21
1.0
 31
0.0
 73
     1
 44
1.0
  0
ENDBLK
  5
2DF
330
2DD
100
AcDbEntity
  8
0
100
AcDbBlockEnd
  0
BLOCK
  5
2E8
330
2E7
100
AcDbEntity
  8
0
100
AcDbBlockBegin
  2
SW_NOTE_0_6
 70
     0
 10
0.0
 20
0.0
 30
0.0
  3
SW_NOTE_0_6
  1

  0
MTEXT
  5
2EA
330
2E7
100
AcDbEntity
  8
FORMAT
 62
     0
100
AcDbMText
 10
0.0
 20
23.8746087637
 30
0.0
 40
18.5208333333
 41
0.0
 71
     1
 72
     1
  1
** Für ETS 64-R IRM Mindestabstand von 10mm zwischen
  7
SLDTEXTSTYLE0
 73
     1
 44
1.0
  0
MTEXT
  5
2EB
330
2E7
100
AcDbEntity
  8
FORMAT
 62
     0
100
AcDbMText
 10
0.0
 20
-7.8198365297
 30
0.0
 40
18.5208333333
 41
0.0
 71
     1
 72
     1
  1
    Oberkante Abdeckung zu Unterkante Decke
  7
SLDTEXTSTYLE0
 73
     1
 44
1.0
  0
ENDBLK
  5
2E9
330
2E7
100
AcDbEntity
  8
0
100
AcDbBlockEnd
  0
BLOCK
  5
390
330
38F
100
AcDbEntity
  8
0
100
AcDbBlockBegin
  2
_D_13
 70
     0
 10
0.0
 20
0.0
 30
0.0
  3
_D_13
  1

  0
ARC
  5
392
330
38F
100
AcDbEntity
  8
FORMAT
100
AcDbCircle
 10
2318.4598316048
 20
652.7469701484
 30
0.0
 40
42.03885414329039
100
AcDbArc
 50
153.4349488229
 51
206.5650511771
  0
ARC
  5
393
330
38F
100
AcDbEntity
  8
FORMAT
100
AcDbCircle
 10
2280.6889977847
 20
652.7469701484
 30
0.0
 40
42.03885414329039
100
AcDbArc
 50
333.4349488229
 51
26.5650511771
  0
SOLID
  5
394
330
38F
100
AcDbEntity
  8
FORMAT
100
AcDbTrace
 10
2197.6431848812
 20
633.9466230363
 30
0.0
 11
2174.5291848812
 21
637.5026230363
 31
0.0
 12
2174.5291848812
 22
630.3906230363
 32
0.0
 13
2174.5291848812
 23
630.3906230363
 33
0.0
  0
SOLID
  5
395
330
38F
100
AcDbEntity
  8
FORMAT
100
AcDbTrace
 10
2236.843184878
 20
633.9466230363
 30
0.0
 11
2259.957184878
 21
630.3906230363
 31
0.0
 12
2259.957184878
 22
637.5026230363
 32
0.0
 13
2259.957184878
 23
637.5026230363
 33
0.0
  0
LINE
  5
396
330
38F
100
AcDbEntity
  8
FORMAT
100
AcDbLine
 10
2197.6431848812
 20
715.7638944058
 30
0.0
 11
2197.6431848812
 21
626.9466230363
 31
0.0
  0
LINE
  5
397
330
38F
100
AcDbEntity
  8
FORMAT
100
AcDbLine
 10
2236.843184878
 20
764.4280299431
 30
0.0
 11
2236.843184878
 21
626.9466230363
 31
0.0
  0
LINE
  5
398
330
38F
100
AcDbEntity
  8
FORMAT
100
AcDbLine
 10
2197.6431848812
 20
633.9466230363
 30
0.0
 11
2153.1931848812
 21
633.9466230363
 31
0.0
  0
LINE
  5
399
330
38F
100
AcDbEntity
  8
FORMAT
100
AcDbLine
 10
2197.6431848812
 20
633.9466230363
 30
0.0
 11
2236.843184878
 21
633.9466230363
 31
0.0
  0
LINE
  5
39A
330
38F
100
AcDbEntity
  8
FORMAT
100
AcDbLine
 10
2236.843184878
 20
633.9466230363
 30
0.0
 11
2322.7278504829
 21
633.9466230363
 31
0.0
  0
MTEXT
  5
39B
330
38F
100
AcDbEntity
  8
FORMAT
100
AcDbMText
 10
2280.8591373806
 20
665.5287842905
 30
0.0
 40
24.5
 41
0.0
 71
     1
 72
     1
  1
28
  7
SLDTEXTSTYLE0
 73
     1
 44
1.0
  0
ENDBLK
  5
391
330
38F
100
AcDbEntity
  8
0
100
AcDbBlockEnd
  0
BLOCK
  5
39E
330
39D
100
AcDbEntity
  8
0
100
AcDbBlockBegin
  2
_D_14
 70
     0
 10
0.0
 20
0.0
 30
0.0
  3
_D_14
  1

  0
ARC
  5
3A0
330
39D
100
AcDbEntity
  8
FORMAT
100
AcDbCircle
 10
2370.9802418098
 20
727.3270014606
 30
0.0
 40
42.03885414329039
100
AcDbArc
 50
243.4349488229
 51
296.5650511771
  0
ARC
  5
3A1
330
39D
100
AcDbEntity
  8
FORMAT
100
AcDbCircle
 10
2370.9802418098
 20
689.5561676405
 30
0.0
 40
42.03885414329059
100
AcDbArc
 50
63.4349488229
 51
116.5650511771
  0
SOLID
  5
3A2
330
39D
100
AcDbEntity
  8
FORMAT
100
AcDbTrace
 10
2389.7805889219
 20
770.7280299432
 30
0.0
 11
2386.2245889219
 21
747.6140299432
 31
0.0
 12
2393.3365889219
 22
747.6140299432
 32
0.0
 13
2393.3365889219
 23
747.6140299432
 33
0.0
  0
SOLID
  5
3A3
330
39D
100
AcDbEntity
  8
FORMAT
100
AcDbTrace
 10
2389.7805889219
 20
794.5280299431
 30
0.0
 11
2393.3365889219
 21
817.6420299431
 31
0.0
 12
2386.2245889219
 22
817.6420299431
 32
0.0
 13
2386.2245889219
 23
817.6420299431
 33
0.0
  0
LINE
  5
3A4
330
39D
100
AcDbEntity
  8
FORMAT
100
AcDbLine
 10
2243.143184878
 20
770.7280299431
 30
0.0
 11
2396.7805889219
 21
770.7280299432
 31
0.0
  0
LINE
  5
3A5
330
39D
100
AcDbEntity
  8
FORMAT
100
AcDbLine
 10
2243.143184878
 20
794.5280299431
 30
0.0
 11
2396.7805889219
 21
794.5280299432
 31
0.0
  0
LINE
  5
3A6
330
39D
100
AcDbEntity
  8
FORMAT
100
AcDbLine
 10
2389.7805889219
 20
770.7280299432
 30
0.0
 11
2389.7805889219
 21
685.2881471327
 31
0.0
  0
LINE
  5
3A7
330
39D
100
AcDbEntity
  8
FORMAT
100
AcDbLine
 10
2389.7805889219
 20
770.7280299432
 30
0.0
 11
2389.7805889219
 21
794.5280299431
 31
0.0
  0
LINE
  5
3A8
330
39D
100
AcDbEntity
  8
FORMAT
100
AcDbLine
 10
2389.7805889219
 20
794.5280299431
 30
0.0
 11
2389.7805889219
 21
838.9780299431
 31
0.0
  0
MTEXT
  5
3A9
330
39D
100
AcDbEntity
  8
FORMAT
100
AcDbMText
 10
2358.1984276677
 20
689.7263072364
 30
0.0
 40
24.5
 41
0.0
 71
     1
 72
     1
  1
17
  7
SLDTEXTSTYLE0
 11
-1.191767205047844E-13
 21
1.0
 31
0.0
 73
     1
 44
1.0
  0
ENDBLK
  5
39F
330
39D
100
AcDbEntity
  8
0
100
AcDbBlockEnd
  0
BLOCK
  5
3AD
330
3AC
100
AcDbEntity
  8
0
100
AcDbBlockBegin
  2
_D_15
 70
     0
 10
0.0
 20
0.0
 30
0.0
  3
_D_15
  1

  0
SOLID
  5
3AF
330
3AC
100
AcDbEntity
  8
FORMAT
100
AcDbTrace
 10
2444.9285663361
 20
831.6280299357
 30
0.0
 11
2441.3725663361
 21
808.5140299357
 31
0.0
 12
2448.4845663361
 22
808.5140299357
 32
0.0
 13
2448.4845663361
 23
808.5140299357
 33
0.0
  0
SOLID
  5
3B0
330
3AC
100
AcDbEntity
  8
FORMAT
100
AcDbTrace
 10
2444.9285663361
 20
837.2280299346
 30
0.0
 11
2448.4845663361
 21
860.3420299346
 31
0.0
 12
2441.3725663361
 22
860.3420299346
 32
0.0
 13
2441.3725663361
 23
860.3420299346
 33
0.0
  0
LINE
  5
3B1
330
3AC
100
AcDbEntity
  8
FORMAT
100
AcDbLine
 10
2204.6431848812
 20
831.6280299357
 30
0.0
 11
2379.2805889219
 21
831.6280299357
 31
0.0
  0
LINE
  5
3B2
330
3AC
100
AcDbEntity
  8
FORMAT
100
AcDbLine
 10
2400.2805889219
 20
831.6280299357
 30
0.0
 11
2451.9285663361
 21
831.6280299357
 31
0.0
  0
LINE
  5
3B3
330
3AC
100
AcDbEntity
  8
FORMAT
100
AcDbLine
 10
2283.2414470898
 20
837.2280299346
 30
0.0
 11
2379.2805889219
 21
837.2280299346
 31
0.0
  0
LINE
  5
3B4
330
3AC
100
AcDbEntity
  8
FORMAT
100
AcDbLine
 10
2400.2805889219
 20
837.2280299346
 30
0.0
 11
2451.9285663361
 21
837.2280299346
 31
0.0
  0
LINE
  5
3B5
330
3AC
100
AcDbEntity
  8
FORMAT
100
AcDbLine
 10
2444.9285663361
 20
831.6280299357
 30
0.0
 11
2444.9285663361
 21
769.3082335682
 31
0.0
  0
LINE
  5
3B6
330
3AC
100
AcDbEntity
  8
FORMAT
100
AcDbLine
 10
2444.9285663361
 20
831.6280299357
 30
0.0
 11
2444.9285663361
 21
837.2280299346
 31
0.0
  0
LINE
  5
3B7
330
3AC
100
AcDbEntity
  8
FORMAT
100
AcDbLine
 10
2444.9285663361
 20
837.2280299346
 30
0.0
 11
2444.9285663361
 21
881.6780299346
 31
0.0
  0
MTEXT
  5
3B8
330
3AC
100
AcDbEntity
  8
FORMAT
100
AcDbMText
 10
2413.3464050818
 20
769.3082335682
 30
0.0
 40
24.5
 41
0.0
 71
     1
 72
     1
  1
4
  7
SLDTEXTSTYLE0
 11
6.123233995736766E-17
 21
1.0
 31
0.0
 73
     1
 44
1.0
  0
MTEXT
  5
3B9
330
3AC
100
AcDbEntity
  8
FORMAT
100
AcDbMText
 10
2413.3464050818
 20
788.0235108824
 30
0.0
 40
24.5
 41
0.0
 71
     1
 72
     1
  1
*
  7
SLDTEXTSTYLE0
 11
6.123233995736766E-17
 21
1.0
 31
0.0
 73
     1
 44
1.0
  0
ENDBLK
  5
3AE
330
3AC
100
AcDbEntity
  8
0
100
AcDbBlockEnd
  0
BLOCK
  5
3BC
330
3BB
100
AcDbEntity
  8
0
100
AcDbBlockBegin
  2
_D_16
 70
     0
 10
0.0
 20
0.0
 30
0.0
  3
_D_16
  1

  0
SOLID
  5
3BE
330
3BB
100
AcDbEntity
  8
FORMAT
100
AcDbTrace
 10
2505.2896925581
 20
837.2280299346
 30
0.0
 11
2501.7336925581
 21
814.1140299346
 31
0.0
 12
2508.8456925581
 22
814.1140299346
 32
0.0
 13
2508.8456925581
 23
814.1140299346
 33
0.0
  0
SOLID
  5
3BF
330
3BB
100
AcDbEntity
  8
FORMAT
100
AcDbTrace
 10
2505.2896925581
 20
854.7280299549
 30
0.0
 11
2508.8456925581
 21
877.8420299549
 31
0.0
 12
2501.7336925581
 22
877.8420299549
 32
0.0
 13
2501.7336925581
 23
877.8420299549
 33
0.0
  0
LINE
  5
3C0
330
3BB
100
AcDbEntity
  8
FORMAT
100
AcDbLine
 10
2283.2414470898
 20
837.2280299346
 30
0.0
 11
2379.2805889219
 21
837.2280299346
 31
0.0
  0
LINE
  5
3C1
330
3BB
100
AcDbEntity
  8
FORMAT
100
AcDbLine
 10
2400.2805889219
 20
837.2280299346
 30
0.0
 11
2512.2896925581
 21
837.2280299346
 31
0.0
  0
LINE
  5
3C2
330
3BB
100
AcDbEntity
  8
FORMAT
100
AcDbLine
 10
2379.643184884
 20
854.7280299549
 30
0.0
 11
2434.4285663361
 21
854.7280299549
 31
0.0
  0
LINE
  5
3C3
330
3BB
100
AcDbEntity
  8
FORMAT
100
AcDbLine
 10
2455.4285663361
 20
854.7280299549
 30
0.0
 11
2512.2896925581
 21
854.7280299549
 31
0.0
  0
LINE
  5
3C4
330
3BB
100
AcDbEntity
  8
FORMAT
100
AcDbLine
 10
2505.2896925581
 20
837.2280299346
 30
0.0
 11
2505.2896925581
 21
748.1245627423
 31
0.0
  0
LINE
  5
3C5
330
3BB
100
AcDbEntity
  8
FORMAT
100
AcDbLine
 10
2505.2896925581
 20
837.2280299346
 30
0.0
 11
2505.2896925581
 21
854.7280299549
 31
0.0
  0
LINE
  5
3C6
330
3BB
100
AcDbEntity
  8
FORMAT
100
AcDbLine
 10
2505.2896925581
 20
854.7280299549
 30
0.0
 11
2505.2896925581
 21
899.1780299549
 31
0.0
  0
MTEXT
  5
3C7
330
3BB
100
AcDbEntity
  8
FORMAT
100
AcDbMText
 10
2473.7075313038
 20
748.1245627423
 30
0.0
 40
24.5
 41
0.0
 71
     1
 72
     1
  1
12,5
  7
SLDTEXTSTYLE0
 11
6.123233995736766E-17
 21
1.0
 31
0.0
 73
     1
 44
1.0
  0
ENDBLK
  5
3BD
330
3BB
100
AcDbEntity
  8
0
100
AcDbBlockEnd
  0
BLOCK
  5
3CA
330
3C9
100
AcDbEntity
  8
0
100
AcDbBlockBegin
  2
_D_17
 70
     0
 10
0.0
 20
0.0
 30
0.0
  3
_D_17
  1

  0
SOLID
  5
3CC
330
3C9
100
AcDbEntity
  8
FORMAT
100
AcDbTrace
 10
2197.643184884
 20
1020.0170138623
 30
0.0
 11
2174.529184884
 21
1023.5730138623
 31
0.0
 12
2174.529184884
 22
1016.4610138623
 32
0.0
 13
2174.529184884
 23
1016.4610138623
 33
0.0
  0
SOLID
  5
3CD
330
3C9
100
AcDbEntity
  8
FORMAT
100
AcDbTrace
 10
2211.643184884
 20
1020.0170138623
 30
0.0
 11
2234.757184884
 21
1016.4610138623
 31
0.0
 12
2234.757184884
 22
1023.5730138623
 32
0.0
 13
2234.757184884
 23
1023.5730138623
 33
0.0
  0
LINE
  5
3CE
330
3C9
100
AcDbEntity
  8
FORMAT
100
AcDbLine
 10
2197.643184884
 20
987.5180299549
 30
0.0
 11
2197.643184884
 21
1027.0170138623
 31
0.0
  0
LINE
  5
3CF
330
3C9
100
AcDbEntity
  8
FORMAT
100
AcDbLine
 10
2211.643184884
 20
991.9280299549
 30
0.0
 11
2211.643184884
 21
1027.0170138623
 31
0.0
  0
LINE
  5
3D0
330
3C9
100
AcDbEntity
  8
FORMAT
100
AcDbLine
 10
2197.643184884
 20
1020.0170138623
 30
0.0
 11
2153.193184884
 21
1020.0170138623
 31
0.0
  0
LINE
  5
3D1
330
3C9
100
AcDbEntity
  8
FORMAT
100
AcDbLine
 10
2197.643184884
 20
1020.0170138623
 30
0.0
 11
2211.643184884
 21
1020.0170138623
 31
0.0
  0
LINE
  5
3D2
330
3C9
100
AcDbEntity
  8
FORMAT
100
AcDbLine
 10
2211.643184884
 20
1020.0170138623
 30
0.0
 11
2272.9043736061
 21
1020.0170138623
 31
0.0
  0
MTEXT
  5
3D3
330
3C9
100
AcDbEntity
  8
FORMAT
100
AcDbMText
 10
2235.4738189777
 20
1051.5991751165
 30
0.0
 40
24.5
 41
0.0
 71
     1
 72
     1
  1
10
  7
SLDTEXTSTYLE0
 73
     1
 44
1.0
  0
ENDBLK
  5
3CB
330
3C9
100
AcDbEntity
  8
0
100
AcDbBlockEnd
  0
BLOCK
  5
3D6
330
3D5
100
AcDbEntity
  8
0
100
AcDbBlockBegin
  2
_D_18
 70
     0
 10
0.0
 20
0.0
 30
0.0
  3
_D_18
  1

  0
SOLID
  5
3D8
330
3D5
100
AcDbEntity
  8
FORMAT
100
AcDbTrace
 10
2069.3031312682
 20
854.7280299549
 30
0.0
 11
2072.8591312682
 21
877.8420299549
 31
0.0
 12
2065.7471312682
 22
877.8420299549
 32
0.0
 13
2065.7471312682
 23
877.8420299549
 33
0.0
  0
SOLID
  5
3D9
330
3D5
100
AcDbEntity
  8
FORMAT
100
AcDbTrace
 10
2069.3031312682
 20
847.0280299345
 30
0.0
 11
2065.7471312682
 21
823.9140299345
 31
0.0
 12
2072.8591312682
 22
823.9140299345
 32
0.0
 13
2072.8591312682
 23
823.9140299345
 33
0.0
  0
LINE
  5
3DA
330
3D5
100
AcDbEntity
  8
FORMAT
100
AcDbLine
 10
2204.643184884
 20
854.7280299549
 30
0.0
 11
2062.3031312682
 21
854.7280299549
 31
0.0
  0
LINE
  5
3DB
330
3D5
100
AcDbEntity
  8
FORMAT
100
AcDbLine
 10
2227.4365882982
 20
847.0280299345
 30
0.0
 11
2062.3031312682
 21
847.0280299345
 31
0.0
  0
LINE
  5
3DC
330
3D5
100
AcDbEntity
  8
FORMAT
100
AcDbLine
 10
2069.3031312682
 20
854.7280299549
 30
0.0
 11
2069.3031312682
 21
938.7097265159
 31
0.0
  0
LINE
  5
3DD
330
3D5
100
AcDbEntity
  8
FORMAT
100
AcDbLine
 10
2069.3031312682
 20
854.7280299549
 30
0.0
 11
2069.3031312682
 21
847.0280299345
 31
0.0
  0
LINE
  5
3DE
330
3D5
100
AcDbEntity
  8
FORMAT
100
AcDbLine
 10
2069.3031312682
 20
847.0280299345
 30
0.0
 11
2069.3031312682
 21
802.5780299345
 31
0.0
  0
MTEXT
  5
3DF
330
3D5
100
AcDbEntity
  8
FORMAT
100
AcDbMText
 10
2037.7209700139
 20
891.9215332305
 30
0.0
 40
24.5
 41
0.0
 71
     1
 72
     1
  1
5,5
  7
SLDTEXTSTYLE0
 11
-7.044195017643634E-15
 21
1.0
 31
0.0
 73
     1
 44
1.0
  0
ENDBLK
  5
3D7
330
3D5
100
AcDbEntity
  8
0
100
AcDbBlockEnd
  0
BLOCK
  5
3E3
330
3E2
100
AcDbEntity
  8
0
100
AcDbBlockBegin
  2
_D_19
 70
     0
 10
0.0
 20
0.0
 30
0.0
  3
_D_19
  1

  0
INSERT
  5
3E5
330
3E2
100
AcDbEntity
  8
FORMAT
100
AcDbBlockReference
  2
_Dot
 10
1992.8349237143
 20
831.6280299357
 30
989.7716323657
 41
7.112
 42
7.112
 50
90.0
  0
SOLID
  5
3E6
330
3E2
100
AcDbEntity
  8
FORMAT
100
AcDbTrace
 10
1992.8349237143
 20
854.7280299549
 30
0.0
 11
1996.3909237143
 21
877.8420299549
 31
0.0
 12
1989.2789237143
 22
877.8420299549
 32
0.0
 13
1989.2789237143
 23
877.8420299549
 33
0.0
  0
LINE
  5
3E7
330
3E2
100
AcDbEntity
  8
FORMAT
100
AcDbLine
 10
2134.6431848812
 20
831.6280299357
 30
0.0
 11
2079.8031312682
 21
831.6280299357
 31
0.0
  0
LINE
  5
3E8
330
3E2
100
AcDbEntity
  8
FORMAT
100
AcDbLine
 10
2058.8031312682
 20
831.6280299357
 30
0.0
 11
1985.8349237143
 21
831.6280299357
 31
0.0
  0
LINE
  5
3E9
330
3E2
100
AcDbEntity
  8
FORMAT
100
AcDbLine
 10
2204.643184884
 20
854.7280299549
 30
0.0
 11
2003.3349237143
 21
854.7280299549
 31
0.0
  0
LINE
  5
3EA
330
3E2
100
AcDbEntity
  8
FORMAT
100
AcDbLine
 10
1992.8349237143
 20
831.6280299357
 30
0.0
 11
1992.8349237143
 21
805.0280299431
 31
0.0
  0
LINE
  5
3EB
330
3E2
100
AcDbEntity
  8
FORMAT
100
AcDbLine
 10
1992.8349237143
 20
831.6280299357
 30
0.0
 11
1992.8349237143
 21
854.7280299549
 31
0.0
  0
LINE
  5
3EC
330
3E2
100
AcDbEntity
  8
FORMAT
100
AcDbLine
 10
1992.8349237143
 20
854.7280299549
 30
0.0
 11
1992.8349237143
 21
948.0673651731
 31
0.0
  0
MTEXT
  5
3ED
330
3E2
100
AcDbEntity
  8
FORMAT
100
AcDbMText
 10
1961.2527624601
 20
882.5638945734
 30
0.0
 40
24.5
 41
0.0
 71
     1
 72
     1
  1
16,5
  7
SLDTEXTSTYLE0
 11
6.123233995736766E-17
 21
1.0
 31
0.0
 73
     1
 44
1.0
  0
ENDBLK
  5
3E4
330
3E2
100
AcDbEntity
  8
0
100
AcDbBlockEnd
  0
BLOCK
  5
3F0
330
3EF
100
AcDbEntity
  8
0
100
AcDbBlockBegin
  2
_D_20
 70
     0
 10
0.0
 20
0.0
 30
0.0
  3
_D_20
  1

  0
INSERT
  5
3F2
330
3EF
100
AcDbEntity
  8
FORMAT
100
AcDbBlockReference
  2
_Dot
 10
1992.8349237143
 20
831.6280299357
 30
989.7716323657
 41
7.112
 42
7.112
 50
270.0
  0
SOLID
  5
3F3
330
3EF
100
AcDbEntity
  8
FORMAT
100
AcDbTrace
 10
1992.8349237143
 20
794.5280299431
 30
0.0
 11
1989.2789237143
 21
771.4140299431
 31
0.0
 12
1996.3909237143
 22
771.4140299431
 32
0.0
 13
1996.3909237143
 23
771.4140299431
 33
0.0
  0
LINE
  5
3F4
330
3EF
100
AcDbEntity
  8
FORMAT
100
AcDbLine
 10
2134.6431848812
 20
831.6280299357
 30
0.0
 11
2079.8031312682
 21
831.6280299357
 31
0.0
  0
LINE
  5
3F5
330
3EF
100
AcDbEntity
  8
FORMAT
100
AcDbLine
 10
2058.8031312682
 20
831.6280299357
 30
0.0
 11
1985.8349237143
 21
831.6280299357
 31
0.0
  0
LINE
  5
3F6
330
3EF
100
AcDbEntity
  8
FORMAT
100
AcDbLine
 10
2191.343184878
 20
794.5280299431
 30
0.0
 11
1985.8349237143
 21
794.5280299431
 31
0.0
  0
LINE
  5
3F7
330
3EF
100
AcDbEntity
  8
FORMAT
100
AcDbLine
 10
1992.8349237143
 20
831.6280299357
 30
0.0
 11
1992.8349237143
 21
876.0780299357
 31
0.0
  0
LINE
  5
3F8
330
3EF
100
AcDbEntity
  8
FORMAT
100
AcDbLine
 10
1992.8349237143
 20
831.6280299357
 30
0.0
 11
1992.8349237143
 21
794.5280299431
 31
0.0
  0
LINE
  5
3F9
330
3EF
100
AcDbEntity
  8
FORMAT
100
AcDbLine
 10
1992.8349237143
 20
794.5280299431
 30
0.0
 11
1992.8349237143
 21
693.9915889476
 31
0.0
  0
MTEXT
  5
3FA
330
3EF
100
AcDbEntity
  8
FORMAT
100
AcDbMText
 10
1961.2527624601
 20
693.9915889476
 30
0.0
 40
24.5
 41
0.0
 71
     1
 72
     1
  1
26,5
  7
SLDTEXTSTYLE0
 11
-7.044195017643634E-15
 21
1.0
 31
0.0
 73
     1
 44
1.0
  0
ENDBLK
  5
3F1
330
3EF
100
AcDbEntity
  8
0
100
AcDbBlockEnd
  0
BLOCK
  5
482
330
481
100
AcDbEntity
  8
0
100
AcDbBlockBegin
  2
_D_21
 70
     0
 10
0.0
 20
0.0
 30
0.0
  3
_D_21
  1

  0
SOLID
  5
484
330
481
100
AcDbEntity
  8
FORMAT
100
AcDbTrace
 10
487.13468375
 20
625.5661332277
 30
0.0
 11
510.24868375
 21
622.0101332277
 31
0.0
 12
510.24868375
 22
629.1221332277
 32
0.0
 13
510.24868375
 23
629.1221332277
 33
0.0
  0
SOLID
  5
485
330
481
100
AcDbEntity
  8
FORMAT
100
AcDbTrace
 10
576.13468375
 20
625.5661332277
 30
0.0
 11
553.02068375
 21
629.1221332277
 31
0.0
 12
553.02068375
 22
622.0101332277
 32
0.0
 13
553.02068375
 23
622.0101332277
 33
0.0
  0
LINE
  5
486
330
481
100
AcDbEntity
  8
FORMAT
100
AcDbLine
 10
576.13468375
 20
742.6142515222
 30
0.0
 11
576.13468375
 21
618.5661332277
 31
0.0
  0
LINE
  5
487
330
481
100
AcDbEntity
  8
FORMAT
100
AcDbLine
 10
487.13468375
 20
625.5661332277
 30
0.0
 11
576.13468375
 21
625.5661332277
 31
0.0
  0
MTEXT
  5
488
330
481
100
AcDbEntity
  8
FORMAT
100
AcDbMText
 10
512.9194064358
 20
657.1482944819
 30
0.0
 40
24.5
 41
0.0
 71
     1
 72
     1
  1
89
  7
SLDTEXTSTYLE0
 73
     1
 44
1.0
  0
ENDBLK
  5
483
330
481
100
AcDbEntity
  8
0
100
AcDbBlockEnd
  0
BLOCK
  5
48B
330
48A
100
AcDbEntity
  8
0
100
AcDbBlockBegin
  2
_D_22
 70
     0
 10
0.0
 20
0.0
 30
0.0
  3
_D_22
  1

  0
SOLID
  5
48D
330
48A
100
AcDbEntity
  8
FORMAT
100
AcDbTrace
 10
576.13468375
 20
625.5661332277
 30
0.0
 11
599.24868375
 21
622.0101332277
 31
0.0
 12
599.24868375
 22
629.1221332277
 32
0.0
 13
599.24868375
 23
629.1221332277
 33
0.0
  0
SOLID
  5
48E
330
48A
100
AcDbEntity
  8
FORMAT
100
AcDbTrace
 10
1209.13468375
 20
625.5661332277
 30
0.0
 11
1186.02068375
 21
629.1221332277
 31
0.0
 12
1186.02068375
 22
622.0101332277
 32
0.0
 13
1186.02068375
 23
622.0101332277
 33
0.0
  0
LINE
  5
48F
330
48A
100
AcDbEntity
  8
FORMAT
100
AcDbLine
 10
576.13468375
 20
742.6142515222
 30
0.0
 11
576.13468375
 21
618.5661332277
 31
0.0
  0
LINE
  5
490
330
48A
100
AcDbEntity
  8
FORMAT
100
AcDbLine
 10
1209.13468375
 20
742.6142515222
 30
0.0
 11
1209.13468375
 21
618.5661332277
 31
0.0
  0
LINE
  5
491
330
48A
100
AcDbEntity
  8
FORMAT
100
AcDbLine
 10
576.13468375
 20
625.5661332277
 30
0.0
 11
1209.13468375
 21
625.5661332277
 31
0.0
  0
MTEXT
  5
492
330
48A
100
AcDbEntity
  8
FORMAT
100
AcDbMText
 10
864.5617677787
 20
657.1482944819
 30
0.0
 40
24.5
 41
0.0
 71
     1
 72
     1
  1
633
  7
SLDTEXTSTYLE0
 73
     1
 44
1.0
  0
ENDBLK
  5
48C
330
48A
100
AcDbEntity
  8
0
100
AcDbBlockEnd
  0
BLOCK
  5
496
330
495
100
AcDbEntity
  8
0
100
AcDbBlockBegin
  2
_D_23
 70
     0
 10
0.0
 20
0.0
 30
0.0
  3
_D_23
  1

  0
SOLID
  5
498
330
495
100
AcDbEntity
  8
FORMAT
100
AcDbTrace
 10
1275.6033073628
 20
755.3642515222
 30
0.0
 11
1272.0473073628
 21
732.2502515222
 31
0.0
 12
1279.1593073628
 22
732.2502515222
 32
0.0
 13
1279.1593073628
 23
732.2502515222
 33
0.0
  0
SOLID
  5
499
330
495
100
AcDbEntity
  8
FORMAT
100
AcDbTrace
 10
1275.6033073628
 20
790.6142515222
 30
0.0
 11
1279.1593073628
 21
813.7282515222
 31
0.0
 12
1272.0473073628
 22
813.7282515222
 32
0.0
 13
1272.0473073628
 23
813.7282515222
 33
0.0
  0
LINE
  5
49A
330
495
100
AcDbEntity
  8
FORMAT
100
AcDbLine
 10
1221.88468375
 20
755.3642515222
 30
0.0
 11
1282.6033073628
 21
755.3642515222
 31
0.0
  0
LINE
  5
49B
330
495
100
AcDbEntity
  8
FORMAT
100
AcDbLine
 10
1275.6033073628
 20
755.3642515222
 30
0.0
 11
1275.6033073628
 21
683.1980743306
 31
0.0
  0
LINE
  5
49C
330
495
100
AcDbEntity
  8
FORMAT
100
AcDbLine
 10
1275.6033073628
 20
755.3642515222
 30
0.0
 11
1275.6033073628
 21
790.6142515222
 31
0.0
  0
LINE
  5
49D
330
495
100
AcDbEntity
  8
FORMAT
100
AcDbLine
 10
1275.6033073628
 20
790.6142515222
 30
0.0
 11
1275.6033073628
 21
835.0642515222
 31
0.0
  0
MTEXT
  5
49E
330
495
100
AcDbEntity
  8
FORMAT
100
AcDbMText
 10
1244.0211461086
 20
683.1980743306
 30
0.0
 40
24.5
 41
0.0
 71
     1
 72
     1
  1
35
  7
SLDTEXTSTYLE0
 11
6.123233995736766E-17
 21
1.0
 31
0.0
 73
     1
 44
1.0
  0
ENDBLK
  5
497
330
495
100
AcDbEntity
  8
0
100
AcDbBlockEnd
  0
BLOCK
  5
4A1
330
4A0
100
AcDbEntity
  8
0
100
AcDbBlockBegin
  2
_D_24
 70
     0
 10
0.0
 20
0.0
 30
0.0
  3
_D_24
  1

  0
SOLID
  5
4A3
330
4A0
100
AcDbEntity
  8
FORMAT
100
AcDbTrace
 10
1215.9505253275
 20
809.6142515382
 30
0.0
 11
1219.5065253275
 21
832.7282515382
 31
0.0
 12
1212.3945253275
 22
832.7282515382
 32
0.0
 13
1212.3945253275
 23
832.7282515382
 33
0.0
  0
SOLID
  5
4A4
330
4A0
100
AcDbEntity
  8
FORMAT
100
AcDbTrace
 10
1215.9505253275
 20
899.6142515382
 30
0.0
 11
1212.3945253275
 21
876.5002515382
 31
0.0
 12
1219.5065253275
 22
876.5002515382
 32
0.0
 13
1219.5065253275
 23
876.5002515382
 33
0.0
  0
LINE
  5
4A5
330
4A0
100
AcDbEntity
  8
FORMAT
100
AcDbLine
 10
1174.1346837494
 20
809.6142515382
 30
0.0
 11
1222.9505253275
 21
809.6142515382
 31
0.0
  0
LINE
  5
4A6
330
4A0
100
AcDbEntity
  8
FORMAT
100
AcDbLine
 10
1174.1346837494
 20
899.6142515382
 30
0.0
 11
1222.9505253275
 21
899.6142515382
 31
0.0
  0
LINE
  5
4A7
330
4A0
100
AcDbEntity
  8
FORMAT
100
AcDbLine
 10
1215.9505253275
 20
809.6142515382
 30
0.0
 11
1215.9505253275
 21
899.6142515382
 31
0.0
  0
MTEXT
  5
4A8
330
4A0
100
AcDbEntity
  8
FORMAT
100
AcDbMText
 10
1184.3683640733
 20
835.898974224
 30
0.0
 40
24.5
 41
0.0
 71
     1
 72
     1
  1
90
  7
SLDTEXTSTYLE0
 11
-3.828568698926949E-16
 21
1.0
 31
0.0
 73
     1
 44
1.0
  0
ENDBLK
  5
4A2
330
4A0
100
AcDbEntity
  8
0
100
AcDbBlockEnd
  0
BLOCK
  5
4AB
330
4AA
100
AcDbEntity
  8
0
100
AcDbBlockBegin
  2
_D_25
 70
     0
 10
0.0
 20
0.0
 30
0.0
  3
_D_25
  1

  0
SOLID
  5
4AD
330
4AA
100
AcDbEntity
  8
FORMAT
100
AcDbTrace
 10
771.2157962296
 20
790.6142515222
 30
0.0
 11
767.6597962296
 21
767.5002515222
 31
0.0
 12
774.7717962296
 22
767.5002515222
 32
0.0
 13
774.7717962296
 23
767.5002515222
 33
0.0
  0
SOLID
  5
4AE
330
4AA
100
AcDbEntity
  8
FORMAT
100
AcDbTrace
 10
771.2157962296
 20
819.6142515382
 30
0.0
 11
774.7717962296
 21
842.7282515382
 31
0.0
 12
767.6597962296
 22
842.7282515382
 32
0.0
 13
767.6597962296
 23
842.7282515382
 33
0.0
  0
LINE
  5
4AF
330
4AA
100
AcDbEntity
  8
FORMAT
100
AcDbLine
 10
806.4346837494
 20
819.6142515382
 30
0.0
 11
764.2157962296
 21
819.6142515382
 31
0.0
  0
LINE
  5
4B0
330
4AA
100
AcDbEntity
  8
FORMAT
100
AcDbLine
 10
771.2157962296
 20
790.6142515222
 30
0.0
 11
771.2157962296
 21
726.7573688797
 31
0.0
  0
LINE
  5
4B1
330
4AA
100
AcDbEntity
  8
FORMAT
100
AcDbLine
 10
771.2157962296
 20
790.6142515222
 30
0.0
 11
771.2157962296
 21
819.6142515382
 31
0.0
  0
LINE
  5
4B2
330
4AA
100
AcDbEntity
  8
FORMAT
100
AcDbLine
 10
771.2157962296
 20
819.6142515382
 30
0.0
 11
771.2157962296
 21
864.0642515382
 31
0.0
  0
MTEXT
  5
4B3
330
4AA
100
AcDbEntity
  8
FORMAT
100
AcDbMText
 10
739.6336349754
 20
726.7573688797
 30
0.0
 40
24.5
 41
0.0
 71
     1
 72
     1
  1
29
  7
SLDTEXTSTYLE0
 11
6.123233995736766E-17
 21
1.0
 31
0.0
 73
     1
 44
1.0
  0
ENDBLK
  5
4AC
330
4AA
100
AcDbEntity
  8
0
100
AcDbBlockEnd
  0
BLOCK
  5
4B6
330
4B5
100
AcDbEntity
  8
0
100
AcDbBlockBegin
  2
_D_26
 70
     0
 10
0.0
 20
0.0
 30
0.0
  3
_D_26
  1

  0
SOLID
  5
4B8
330
4B5
100
AcDbEntity
  8
FORMAT
100
AcDbTrace
 10
364.5959526755
 20
790.6142515222
 30
0.0
 11
361.0399526755
 21
767.5002515222
 31
0.0
 12
368.1519526755
 22
767.5002515222
 32
0.0
 13
368.1519526755
 23
767.5002515222
 33
0.0
  0
SOLID
  5
4B9
330
4B5
100
AcDbEntity
  8
FORMAT
100
AcDbTrace
 10
364.5959526755
 20
809.6142515382
 30
0.0
 11
368.1519526755
 21
832.7282515382
 31
0.0
 12
361.0399526755
 22
832.7282515382
 32
0.0
 13
361.0399526755
 23
832.7282515382
 33
0.0
  0
LINE
  5
4BA
330
4B5
100
AcDbEntity
  8
FORMAT
100
AcDbLine
 10
485.13468375
 20
790.6142515222
 30
0.0
 11
357.5959526755
 21
790.6142515222
 31
0.0
  0
LINE
  5
4BB
330
4B5
100
AcDbEntity
  8
FORMAT
100
AcDbLine
 10
490.1346837494
 20
809.6142515382
 30
0.0
 11
357.5959526755
 21
809.6142515382
 31
0.0
  0
LINE
  5
4BC
330
4B5
100
AcDbEntity
  8
FORMAT
100
AcDbLine
 10
364.5959526755
 20
790.6142515222
 30
0.0
 11
364.5959526755
 21
726.7573688797
 31
0.0
  0
LINE
  5
4BD
330
4B5
100
AcDbEntity
  8
FORMAT
100
AcDbLine
 10
364.5959526755
 20
790.6142515222
 30
0.0
 11
364.5959526755
 21
809.6142515382
 31
0.0
  0
LINE
  5
4BE
330
4B5
100
AcDbEntity
  8
FORMAT
100
AcDbLine
 10
364.5959526755
 20
809.6142515382
 30
0.0
 11
364.5959526755
 21
854.0642515382
 31
0.0
  0
MTEXT
  5
4BF
330
4B5
100
AcDbEntity
  8
FORMAT
100
AcDbMText
 10
333.0137914213
 20
726.7573688797
 30
0.0
 40
24.5
 41
0.0
 71
     1
 72
     1
  1
19
  7
SLDTEXTSTYLE0
 11
6.123233995736766E-17
 21
1.0
 31
0.0
 73
     1
 44
1.0
  0
ENDBLK
  5
4B7
330
4B5
100
AcDbEntity
  8
0
100
AcDbBlockEnd
  0
BLOCK
  5
4C2
330
4C1
100
AcDbEntity
  8
0
100
AcDbBlockBegin
  2
_D_27
 70
     0
 10
0.0
 20
0.0
 30
0.0
  3
_D_27
  1

  0
SOLID
  5
4C4
330
4C1
100
AcDbEntity
  8
FORMAT
100
AcDbTrace
 10
325.3611775934
 20
809.6142515382
 30
0.0
 11
321.8051775934
 21
786.5002515382
 31
0.0
 12
328.9171775934
 22
786.5002515382
 32
0.0
 13
328.9171775934
 23
786.5002515382
 33
0.0
  0
SOLID
  5
4C5
330
4C1
100
AcDbEntity
  8
FORMAT
100
AcDbTrace
 10
325.3611775934
 20
843.6142515222
 30
0.0
 11
328.9171775934
 21
866.7282515222
 31
0.0
 12
321.8051775934
 22
866.7282515222
 32
0.0
 13
321.8051775934
 23
866.7282515222
 33
0.0
  0
LINE
  5
4C6
330
4C1
100
AcDbEntity
  8
FORMAT
100
AcDbLine
 10
490.1346837494
 20
809.6142515382
 30
0.0
 11
318.3611775934
 21
809.6142515382
 31
0.0
  0
LINE
  5
4C7
330
4C1
100
AcDbEntity
  8
FORMAT
100
AcDbLine
 10
491.63468375
 20
843.6142515222
 30
0.0
 11
375.0959526755
 21
843.6142515222
 31
0.0
  0
LINE
  5
4C8
330
4C1
100
AcDbEntity
  8
FORMAT
100
AcDbLine
 10
354.0959526755
 20
843.6142515222
 30
0.0
 11
318.3611775934
 21
843.6142515222
 31
0.0
  0
LINE
  5
4C9
330
4C1
100
AcDbEntity
  8
FORMAT
100
AcDbLine
 10
325.3611775934
 20
809.6142515382
 30
0.0
 11
325.3611775934
 21
726.7573688797
 31
0.0
  0
LINE
  5
4CA
330
4C1
100
AcDbEntity
  8
FORMAT
100
AcDbLine
 10
325.3611775934
 20
809.6142515382
 30
0.0
 11
325.3611775934
 21
843.6142515222
 31
0.0
  0
LINE
  5
4CB
330
4C1
100
AcDbEntity
  8
FORMAT
100
AcDbLine
 10
325.3611775934
 20
843.6142515222
 30
0.0
 11
325.3611775934
 21
888.0642515222
 31
0.0
  0
MTEXT
  5
4CC
330
4C1
100
AcDbEntity
  8
FORMAT
100
AcDbMText
 10
293.7790163392
 20
726.7573688797
 30
0.0
 40
24.5
 41
0.0
 71
     1
 72
     1
  1
34
  7
SLDTEXTSTYLE0
 11
-3.828568698926949E-16
 21
1.0
 31
0.0
 73
     1
 44
1.0
  0
ENDBLK
  5
4C3
330
4C1
100
AcDbEntity
  8
0
100
AcDbBlockEnd
  0
BLOCK
  5
4CF
330
4CE
100
AcDbEntity
  8
0
100
AcDbBlockBegin
  2
_D_28
 70
     0
 10
0.0
 20
0.0
 30
0.0
  3
_D_28
  1

  0
SOLID
  5
4D1
330
4CE
100
AcDbEntity
  8
FORMAT
100
AcDbTrace
 10
283.1437462334
 20
843.6142515222
 30
0.0
 11
279.5877462334
 21
820.5002515222
 31
0.0
 12
286.6997462334
 22
820.5002515222
 32
0.0
 13
286.6997462334
 23
820.5002515222
 33
0.0
  0
SOLID
  5
4D2
330
4CE
100
AcDbEntity
  8
FORMAT
100
AcDbTrace
 10
283.1437462334
 20
866.6142515222
 30
0.0
 11
286.6997462334
 21
889.7282515222
 31
0.0
 12
279.5877462334
 22
889.7282515222
 32
0.0
 13
279.5877462334
 23
889.7282515222
 33
0.0
  0
LINE
  5
4D3
330
4CE
100
AcDbEntity
  8
FORMAT
100
AcDbLine
 10
491.63468375
 20
843.6142515222
 30
0.0
 11
375.0959526755
 21
843.6142515222
 31
0.0
  0
LINE
  5
4D4
330
4CE
100
AcDbEntity
  8
FORMAT
100
AcDbLine
 10
354.0959526755
 20
843.6142515222
 30
0.0
 11
276.1437462334
 21
843.6142515222
 31
0.0
  0
LINE
  5
4D5
330
4CE
100
AcDbEntity
  8
FORMAT
100
AcDbLine
 10
491.63468375
 20
866.6142515222
 30
0.0
 11
335.8611775934
 21
866.6142515222
 31
0.0
  0
LINE
  5
4D6
330
4CE
100
AcDbEntity
  8
FORMAT
100
AcDbLine
 10
314.8611775934
 20
866.6142515222
 30
0.0
 11
276.1437462334
 21
866.6142515222
 31
0.0
  0
LINE
  5
4D7
330
4CE
100
AcDbEntity
  8
FORMAT
100
AcDbLine
 10
283.1437462334
 20
843.6142515222
 30
0.0
 11
283.1437462334
 21
726.7573688797
 31
0.0
  0
LINE
  5
4D8
330
4CE
100
AcDbEntity
  8
FORMAT
100
AcDbLine
 10
283.1437462334
 20
843.6142515222
 30
0.0
 11
283.1437462334
 21
866.6142515222
 31
0.0
  0
LINE
  5
4D9
330
4CE
100
AcDbEntity
  8
FORMAT
100
AcDbLine
 10
283.1437462334
 20
866.6142515222
 30
0.0
 11
283.1437462334
 21
911.0642515222
 31
0.0
  0
MTEXT
  5
4DA
330
4CE
100
AcDbEntity
  8
FORMAT
100
AcDbMText
 10
251.5615849792
 20
726.7573688797
 30
0.0
 40
24.5
 41
0.0
 71
     1
 72
     1
  1
23
  7
SLDTEXTSTYLE0
 11
6.123233995736766E-17
 21
1.0
 31
0.0
 73
     1
 44
1.0
  0
ENDBLK
  5
4D0
330
4CE
100
AcDbEntity
  8
0
100
AcDbBlockEnd
  0
BLOCK
  5
4DD
330
4DC
100
AcDbEntity
  8
0
100
AcDbBlockBegin
  2
_D_29
 70
     0
 10
0.0
 20
0.0
 30
0.0
  3
_D_29
  1

  0
SOLID
  5
4DF
330
4DC
100
AcDbEntity
  8
FORMAT
100
AcDbTrace
 10
487.13468375
 20
1008.5306910751
 30
0.0
 11
464.02068375
 21
1012.0866910751
 31
0.0
 12
464.02068375
 22
1004.9746910751
 32
0.0
 13
464.02068375
 23
1004.9746910751
 33
0.0
  0
SOLID
  5
4E0
330
4DC
100
AcDbEntity
  8
FORMAT
100
AcDbTrace
 10
497.1346837494
 20
1008.5306910751
 30
0.0
 11
520.2486837494
 21
1004.9746910751
 31
0.0
 12
520.2486837494
 22
1012.0866910751
 32
0.0
 13
520.2486837494
 23
1012.0866910751
 33
0.0
  0
LINE
  5
4E1
330
4DC
100
AcDbEntity
  8
FORMAT
100
AcDbLine
 10
487.13468375
 20
669.2315075201
 30
0.0
 11
487.13468375
 21
1015.5306910751
 31
0.0
  0
LINE
  5
4E2
330
4DC
100
AcDbEntity
  8
FORMAT
100
AcDbLine
 10
497.1346837494
 20
837.6142515382
 30
0.0
 11
497.1346837494
 21
1015.5306910751
 31
0.0
  0
LINE
  5
4E3
330
4DC
100
AcDbEntity
  8
FORMAT
100
AcDbLine
 10
487.13468375
 20
1008.5306910751
 30
0.0
 11
415.7626526259
 21
1008.5306910751
 31
0.0
  0
LINE
  5
4E4
330
4DC
100
AcDbEntity
  8
FORMAT
100
AcDbLine
 10
487.13468375
 20
1008.5306910751
 30
0.0
 11
497.1346837494
 21
1008.5306910751
 31
0.0
  0
LINE
  5
4E5
330
4DC
100
AcDbEntity
  8
FORMAT
100
AcDbLine
 10
497.1346837494
 20
1008.5306910751
 30
0.0
 11
541.5846837494
 21
1008.5306910751
 31
0.0
  0
MTEXT
  5
4E6
330
4DC
100
AcDbEntity
  8
FORMAT
100
AcDbMText
 10
415.7626526259
 20
1040.1128523293
 30
0.0
 40
24.5
 41
0.0
 71
     1
 72
     1
  1
10
  7
SLDTEXTSTYLE0
 73
     1
 44
1.0
  0
ENDBLK
  5
4DE
330
4DC
100
AcDbEntity
  8
0
100
AcDbBlockEnd
  0
BLOCK
  5
4E9
330
4E8
100
AcDbEntity
  8
0
100
AcDbBlockBegin
  2
_D_30
 70
     0
 10
0.0
 20
0.0
 30
0.0
  3
_D_30
  1

  0
SOLID
  5
4EB
330
4E8
100
AcDbEntity
  8
FORMAT
100
AcDbTrace
 10
487.13468375
 20
1053.7098120938
 30
0.0
 11
464.02068375
 21
1057.2658120938
 31
0.0
 12
464.02068375
 22
1050.1538120938
 32
0.0
 13
464.02068375
 23
1050.1538120938
 33
0.0
  0
SOLID
  5
4EC
330
4E8
100
AcDbEntity
  8
FORMAT
100
AcDbTrace
 10
511.13468375
 20
1053.7098120938
 30
0.0
 11
534.24868375
 21
1050.1538120938
 31
0.0
 12
534.24868375
 22
1057.2658120938
 32
0.0
 13
534.24868375
 23
1057.2658120938
 33
0.0
  0
LINE
  5
4ED
330
4E8
100
AcDbEntity
  8
FORMAT
100
AcDbLine
 10
487.13468375
 20
669.2315075201
 30
0.0
 11
487.13468375
 21
799.1142515382
 31
0.0
  0
LINE
  5
4EE
330
4E8
100
AcDbEntity
  8
FORMAT
100
AcDbLine
 10
487.13468375
 20
820.1142515382
 30
0.0
 11
487.13468375
 21
833.1142515222
 31
0.0
  0
LINE
  5
4EF
330
4E8
100
AcDbEntity
  8
FORMAT
100
AcDbLine
 10
487.13468375
 20
854.1142515222
 30
0.0
 11
487.13468375
 21
856.1142515222
 31
0.0
  0
LINE
  5
4F0
330
4E8
100
AcDbEntity
  8
FORMAT
100
AcDbLine
 10
487.13468375
 20
877.1142515222
 30
0.0
 11
487.13468375
 21
1060.7098120938
 31
0.0
  0
LINE
  5
4F1
330
4E8
100
AcDbEntity
  8
FORMAT
100
AcDbLine
 10
511.13468375
 20
863.1142515222
 30
0.0
 11
511.13468375
 21
998.0306910751
 31
0.0
  0
LINE
  5
4F2
330
4E8
100
AcDbEntity
  8
FORMAT
100
AcDbLine
 10
511.13468375
 20
1019.0306910751
 30
0.0
 11
511.13468375
 21
1060.7098120938
 31
0.0
  0
LINE
  5
4F3
330
4E8
100
AcDbEntity
  8
FORMAT
100
AcDbLine
 10
487.13468375
 20
1053.7098120938
 30
0.0
 11
415.7626526259
 21
1053.7098120938
 31
0.0
  0
LINE
  5
4F4
330
4E8
100
AcDbEntity
  8
FORMAT
100
AcDbLine
 10
487.13468375
 20
1053.7098120938
 30
0.0
 11
511.13468375
 21
1053.7098120938
 31
0.0
  0
LINE
  5
4F5
330
4E8
100
AcDbEntity
  8
FORMAT
100
AcDbLine
 10
511.13468375
 20
1053.7098120938
 30
0.0
 11
555.58468375
 21
1053.7098120938
 31
0.0
  0
MTEXT
  5
4F6
330
4E8
100
AcDbEntity
  8
FORMAT
100
AcDbMText
 10
415.7626526259
 20
1085.291973348
 30
0.0
 40
24.5
 41
0.0
 71
     1
 72
     1
  1
24
  7
SLDTEXTSTYLE0
 73
     1
 44
1.0
  0
ENDBLK
  5
4EA
330
4E8
100
AcDbEntity
  8
0
100
AcDbBlockEnd
  0
BLOCK
  5
4F9
330
4F8
100
AcDbEntity
  8
0
100
AcDbBlockBegin
  2
_D_31
 70
     0
 10
0.0
 20
0.0
 30
0.0
  3
_D_31
  1

  0
SOLID
  5
4FB
330
4F8
100
AcDbEntity
  8
FORMAT
100
AcDbTrace
 10
487.13468375
 20
1082.6142515222
 30
0.0
 11
510.24868375
 21
1079.0582515222
 31
0.0
 12
510.24868375
 22
1086.1702515222
 32
0.0
 13
510.24868375
 23
1086.1702515222
 33
0.0
  0
SOLID
  5
4FC
330
4F8
100
AcDbEntity
  8
FORMAT
100
AcDbTrace
 10
597.1346837494
 20
1082.6142515222
 30
0.0
 11
574.0206837494
 21
1086.1702515222
 31
0.0
 12
574.0206837494
 22
1079.0582515222
 32
0.0
 13
574.0206837494
 23
1079.0582515222
 33
0.0
  0
LINE
  5
4FD
330
4F8
100
AcDbEntity
  8
FORMAT
100
AcDbLine
 10
487.13468375
 20
669.2315075201
 30
0.0
 11
487.13468375
 21
1089.6142515222
 31
0.0
  0
LINE
  5
4FE
330
4F8
100
AcDbEntity
  8
FORMAT
100
AcDbLine
 10
597.1346837494
 20
895.3142515382
 30
0.0
 11
597.1346837494
 21
1089.6142515222
 31
0.0
  0
LINE
  5
4FF
330
4F8
100
AcDbEntity
  8
FORMAT
100
AcDbLine
 10
487.13468375
 20
1082.6142515222
 30
0.0
 11
597.1346837494
 21
1082.6142515222
 31
0.0
  0
MTEXT
  5
500
330
4F8
100
AcDbEntity
  8
FORMAT
100
AcDbMText
 10
514.0617677784
 20
1114.1964127764
 30
0.0
 40
24.5
 41
0.0
 71
     1
 72
     1
  1
110
  7
SLDTEXTSTYLE0
 73
     1
 44
1.0
  0
ENDBLK
  5
4FA
330
4F8
100
AcDbEntity
  8
0
100
AcDbBlockEnd
  0
BLOCK
  5
503
330
502
100
AcDbEntity
  8
0
100
AcDbBlockBegin
  2
_D_32
 70
     0
 10
0.0
 20
0.0
 30
0.0
  3
_D_32
  1

  0
SOLID
  5
505
330
502
100
AcDbEntity
  8
FORMAT
100
AcDbTrace
 10
597.1346837494
 20
1082.6142515222
 30
0.0
 11
620.2486837494
 21
1079.0582515222
 31
0.0
 12
620.2486837494
 22
1086.1702515222
 32
0.0
 13
620.2486837494
 23
1086.1702515222
 33
0.0
  0
SOLID
  5
506
330
502
100
AcDbEntity
  8
FORMAT
100
AcDbTrace
 10
822.1346837494
 20
1082.6142515222
 30
0.0
 11
799.0206837494
 21
1086.1702515222
 31
0.0
 12
799.0206837494
 22
1079.0582515222
 32
0.0
 13
799.0206837494
 23
1079.0582515222
 33
0.0
  0
LINE
  5
507
330
502
100
AcDbEntity
  8
FORMAT
100
AcDbLine
 10
597.1346837494
 20
895.3142515382
 30
0.0
 11
597.1346837494
 21
1089.6142515222
 31
0.0
  0
LINE
  5
508
330
502
100
AcDbEntity
  8
FORMAT
100
AcDbLine
 10
822.1346837494
 20
895.3142515382
 30
0.0
 11
822.1346837494
 21
1089.6142515222
 31
0.0
  0
LINE
  5
509
330
502
100
AcDbEntity
  8
FORMAT
100
AcDbLine
 10
597.1346837494
 20
1082.6142515222
 30
0.0
 11
822.1346837494
 21
1082.6142515222
 31
0.0
  0
MTEXT
  5
50A
330
502
100
AcDbEntity
  8
FORMAT
100
AcDbMText
 10
681.5617677781
 20
1114.1964127764
 30
0.0
 40
24.5
 41
0.0
 71
     1
 72
     1
  1
225
  7
SLDTEXTSTYLE0
 73
     1
 44
1.0
  0
ENDBLK
  5
504
330
502
100
AcDbEntity
  8
0
100
AcDbBlockEnd
  0
BLOCK
  5
50D
330
50C
100
AcDbEntity
  8
0
100
AcDbBlockBegin
  2
_D_33
 70
     0
 10
0.0
 20
0.0
 30
0.0
  3
_D_33
  1

  0
SOLID
  5
50F
330
50C
100
AcDbEntity
  8
FORMAT
100
AcDbTrace
 10
822.1346837494
 20
1082.6142515222
 30
0.0
 11
845.2486837494
 21
1079.0582515222
 31
0.0
 12
845.2486837494
 22
1086.1702515222
 32
0.0
 13
845.2486837494
 23
1086.1702515222
 33
0.0
  0
SOLID
  5
510
330
50C
100
AcDbEntity
  8
FORMAT
100
AcDbTrace
 10
1047.1346837494
 20
1082.6142515222
 30
0.0
 11
1024.0206837494
 21
1086.1702515222
 31
0.0
 12
1024.0206837494
 22
1079.0582515222
 32
0.0
 13
1024.0206837494
 23
1079.0582515222
 33
0.0
  0
LINE
  5
511
330
50C
100
AcDbEntity
  8
FORMAT
100
AcDbLine
 10
822.1346837494
 20
895.3142515382
 30
0.0
 11
822.1346837494
 21
1089.6142515222
 31
0.0
  0
LINE
  5
512
330
50C
100
AcDbEntity
  8
FORMAT
100
AcDbLine
 10
1047.1346837494
 20
895.3142515382
 30
0.0
 11
1047.1346837494
 21
1089.6142515222
 31
0.0
  0
LINE
  5
513
330
50C
100
AcDbEntity
  8
FORMAT
100
AcDbLine
 10
822.1346837494
 20
1082.6142515222
 30
0.0
 11
1047.1346837494
 21
1082.6142515222
 31
0.0
  0
MTEXT
  5
514
330
50C
100
AcDbEntity
  8
FORMAT
100
AcDbMText
 10
906.5617677781
 20
1114.1964127764
 30
0.0
 40
24.5
 41
0.0
 71
     1
 72
     1
  1
225
  7
SLDTEXTSTYLE0
 73
     1
 44
1.0
  0
ENDBLK
  5
50E
330
50C
100
AcDbEntity
  8
0
100
AcDbBlockEnd
  0
BLOCK
  5
517
330
516
100
AcDbEntity
  8
0
100
AcDbBlockBegin
  2
_D_34
 70
     0
 10
0.0
 20
0.0
 30
0.0
  3
_D_34
  1

  0
SOLID
  5
519
330
516
100
AcDbEntity
  8
FORMAT
100
AcDbTrace
 10
487.13468375
 20
1133.2942039137
 30
0.0
 11
510.24868375
 21
1129.7382039137
 31
0.0
 12
510.24868375
 22
1136.8502039137
 32
0.0
 13
510.24868375
 23
1136.8502039137
 33
0.0
  0
SOLID
  5
51A
330
516
100
AcDbEntity
  8
FORMAT
100
AcDbTrace
 10
1153.13468375
 20
1133.2942039137
 30
0.0
 11
1130.02068375
 21
1136.8502039137
 31
0.0
 12
1130.02068375
 22
1129.7382039137
 32
0.0
 13
1130.02068375
 23
1129.7382039137
 33
0.0
  0
LINE
  5
51B
330
516
100
AcDbEntity
  8
FORMAT
100
AcDbLine
 10
487.13468375
 20
669.2315075201
 30
0.0
 11
487.13468375
 21
1140.2942039137
 31
0.0
  0
LINE
  5
51C
330
516
100
AcDbEntity
  8
FORMAT
100
AcDbLine
 10
1153.13468375
 20
886.1142515222
 30
0.0
 11
1153.13468375
 21
1140.2942039137
 31
0.0
  0
LINE
  5
51D
330
516
100
AcDbEntity
  8
FORMAT
100
AcDbLine
 10
487.13468375
 20
1133.2942039137
 30
0.0
 11
1153.13468375
 21
1133.2942039137
 31
0.0
  0
MTEXT
  5
51E
330
516
100
AcDbEntity
  8
FORMAT
100
AcDbMText
 10
792.0617677787
 20
1164.8763651679
 30
0.0
 40
24.5
 41
0.0
 71
     1
 72
     1
  1
666
  7
SLDTEXTSTYLE0
 73
     1
 44
1.0
  0
ENDBLK
  5
518
330
516
100
AcDbEntity
  8
0
100
AcDbBlockEnd
  0
BLOCK
  5
521
330
520
100
AcDbEntity
  8
0
100
AcDbBlockBegin
  2
_D_35
 70
     0
 10
0.0
 20
0.0
 30
0.0
  3
_D_35
  1

  0
SOLID
  5
523
330
520
100
AcDbEntity
  8
FORMAT
100
AcDbTrace
 10
487.13468375
 20
1185.7825463668
 30
0.0
 11
510.24868375
 21
1182.2265463668
 31
0.0
 12
510.24868375
 22
1189.3385463668
 32
0.0
 13
510.24868375
 23
1189.3385463668
 33
0.0
  0
SOLID
  5
524
330
520
100
AcDbEntity
  8
FORMAT
100
AcDbTrace
 10
1167.1346837494
 20
1185.7825463668
 30
0.0
 11
1144.0206837494
 21
1189.3385463668
 31
0.0
 12
1144.0206837494
 22
1182.2265463668
 32
0.0
 13
1144.0206837494
 23
1182.2265463668
 33
0.0
  0
LINE
  5
525
330
520
100
AcDbEntity
  8
FORMAT
100
AcDbLine
 10
487.13468375
 20
669.2315075201
 30
0.0
 11
487.13468375
 21
1192.7825463668
 31
0.0
  0
LINE
  5
526
330
520
100
AcDbEntity
  8
FORMAT
100
AcDbLine
 10
1167.1346837494
 20
906.6142515382
 30
0.0
 11
1167.1346837494
 21
1192.7825463668
 31
0.0
  0
LINE
  5
527
330
520
100
AcDbEntity
  8
FORMAT
100
AcDbLine
 10
487.13468375
 20
1185.7825463668
 30
0.0
 11
1167.1346837494
 21
1185.7825463668
 31
0.0
  0
MTEXT
  5
528
330
520
100
AcDbEntity
  8
FORMAT
100
AcDbMText
 10
799.0617677784
 20
1217.364707621
 30
0.0
 40
24.5
 41
0.0
 71
     1
 72
     1
  1
680
  7
SLDTEXTSTYLE0
 73
     1
 44
1.0
  0
ENDBLK
  5
522
330
520
100
AcDbEntity
  8
0
100
AcDbBlockEnd
  0
BLOCK
  5
52E
330
52D
100
AcDbEntity
  8
0
100
AcDbBlockBegin
  2
SW_NOTE_0_7
 70
     0
 10
0.0
 20
0.0
 30
0.0
  3
SW_NOTE_0_7
  1

  0
MTEXT
  5
530
330
52D
100
AcDbEntity
  8
FORMAT
 62
     0
100
AcDbMText
 10
-306.1880950298
 20
37.670709808
 30
0.0
 40
18.5208333333
 41
0.0
 71
     1
 72
     1
  1
ø20
  7
SLDTEXTSTYLE0
 73
     1
 44
1.0
  0
MTEXT
  5
531
330
52D
100
AcDbEntity
  8
FORMAT
 62
     0
100
AcDbMText
 10
-306.1880950298
 20
5.9762645146
 30
0.0
 40
18.5208333333
 41
0.0
 71
     1
 72
     1
  1
(verdeckte Kabelzuführung)
  7
SLDTEXTSTYLE0
 73
     1
 44
1.0
  0
ENDBLK
  5
52F
330
52D
100
AcDbEntity
  8
0
100
AcDbBlockEnd
  0
BLOCK
  5
535
330
534
100
AcDbEntity
  8
0
100
AcDbBlockBegin
  2
SW_CENTERMARKSYMBOL_0
 70
     0
 10
0.0
 20
0.0
 30
0.0
  3
SW_CENTERMARKSYMBOL_0
  1

  0
LINE
  5
537
330
534
100
AcDbEntity
  8
FORMAT
 62
     0
100
AcDbLine
 10
0.0
 20
0.0
 30
0.0
 11
0.0
 21
2.5
 31
0.0
  0
LINE
  5
538
330
534
100
AcDbEntity
  8
FORMAT
 62
     0
100
AcDbLine
 10
0.0
 20
0.0
 30
0.0
 11
-2.5
 21
0.0
 31
0.0
  0
LINE
  5
539
330
534
100
AcDbEntity
  8
FORMAT
 62
     0
100
AcDbLine
 10
0.0
 20
0.0
 30
0.0
 11
0.0
 21
-2.5
 31
0.0
  0
LINE
  5
53A
330
534
100
AcDbEntity
  8
FORMAT
 62
     0
100
AcDbLine
 10
0.0
 20
0.0
 30
0.0
 11
2.5
 21
0.0
 31
0.0
  0
LINE
  5
53B
330
534
100
AcDbEntity
  8
FORMAT
 62
     0
100
AcDbLine
 10
0.0
 20
5.0
 30
0.0
 11
0.0
 21
5.75
 31
0.0
  0
LINE
  5
53C
330
534
100
AcDbEntity
  8
FORMAT
 62
     0
100
AcDbLine
 10
-5.0
 20
0.0
 30
0.0
 11
-5.75
 21
0.0
 31
0.0
  0
LINE
  5
53D
330
534
100
AcDbEntity
  8
FORMAT
 62
     0
100
AcDbLine
 10
0.0
 20
-5.0
 30
0.0
 11
0.0
 21
-5.75
 31
0.0
  0
LINE
  5
53E
330
534
100
AcDbEntity
  8
FORMAT
 62
     0
100
AcDbLine
 10
5.0
 20
0.0
 30
0.0
 11
5.75
 21
0.0
 31
0.0
  0
ENDBLK
  5
536
330
534
100
AcDbEntity
  8
0
100
AcDbBlockEnd
  0
BLOCK
  5
541
330
540
100
AcDbEntity
  8
0
100
AcDbBlockBegin
  2
SW_CENTERMARKSYMBOL_1
 70
     0
 10
0.0
 20
0.0
 30
0.0
  3
SW_CENTERMARKSYMBOL_1
  1

  0
LINE
  5
543
330
540
100
AcDbEntity
  8
FORMAT
 62
     0
100
AcDbLine
 10
0.0
 20
0.0
 30
0.0
 11
0.0
 21
2.5
 31
0.0
  0
LINE
  5
544
330
540
100
AcDbEntity
  8
FORMAT
 62
     0
100
AcDbLine
 10
0.0
 20
0.0
 30
0.0
 11
-2.5
 21
0.0
 31
0.0
  0
LINE
  5
545
330
540
100
AcDbEntity
  8
FORMAT
 62
     0
100
AcDbLine
 10
0.0
 20
0.0
 30
0.0
 11
0.0
 21
-2.5
 31
0.0
  0
LINE
  5
546
330
540
100
AcDbEntity
  8
FORMAT
 62
     0
100
AcDbLine
 10
0.0
 20
0.0
 30
0.0
 11
2.5
 21
0.0
 31
0.0
  0
LINE
  5
547
330
540
100
AcDbEntity
  8
FORMAT
 62
     0
100
AcDbLine
 10
0.0
 20
5.0
 30
0.0
 11
0.0
 21
5.75
 31
0.0
  0
LINE
  5
548
330
540
100
AcDbEntity
  8
FORMAT
 62
     0
100
AcDbLine
 10
-5.0
 20
0.0
 30
0.0
 11
-5.75
 21
0.0
 31
0.0
  0
LINE
  5
549
330
540
100
AcDbEntity
  8
FORMAT
 62
     0
100
AcDbLine
 10
0.0
 20
-5.0
 30
0.0
 11
0.0
 21
-5.75
 31
0.0
  0
LINE
  5
54A
330
540
100
AcDbEntity
  8
FORMAT
 62
     0
100
AcDbLine
 10
5.0
 20
0.0
 30
0.0
 11
5.75
 21
0.0
 31
0.0
  0
ENDBLK
  5
542
330
540
100
AcDbEntity
  8
0
100
AcDbBlockEnd
  0
BLOCK
  5
54D
330
54C
100
AcDbEntity
  8
0
100
AcDbBlockBegin
  2
SW_CENTERMARKSYMBOL_2
 70
     0
 10
0.0
 20
0.0
 30
0.0
  3
SW_CENTERMARKSYMBOL_2
  1

  0
LINE
  5
54F
330
54C
100
AcDbEntity
  8
FORMAT
 62
     0
100
AcDbLine
 10
0.0
 20
0.0
 30
0.0
 11
0.0
 21
2.5
 31
0.0
  0
LINE
  5
550
330
54C
100
AcDbEntity
  8
FORMAT
 62
     0
100
AcDbLine
 10
0.0
 20
0.0
 30
0.0
 11
-2.5
 21
0.0
 31
0.0
  0
LINE
  5
551
330
54C
100
AcDbEntity
  8
FORMAT
 62
     0
100
AcDbLine
 10
0.0
 20
0.0
 30
0.0
 11
0.0
 21
-2.5
 31
0.0
  0
LINE
  5
552
330
54C
100
AcDbEntity
  8
FORMAT
 62
     0
100
AcDbLine
 10
0.0
 20
0.0
 30
0.0
 11
2.5
 21
0.0
 31
0.0
  0
LINE
  5
553
330
54C
100
AcDbEntity
  8
FORMAT
 62
     0
100
AcDbLine
 10
0.0
 20
5.0
 30
0.0
 11
0.0
 21
12.5
 31
0.0
  0
LINE
  5
554
330
54C
100
AcDbEntity
  8
FORMAT
 62
     0
100
AcDbLine
 10
-5.0
 20
0.0
 30
0.0
 11
-12.5
 21
0.0
 31
0.0
  0
LINE
  5
555
330
54C
100
AcDbEntity
  8
FORMAT
 62
     0
100
AcDbLine
 10
0.0
 20
-5.0
 30
0.0
 11
0.0
 21
-12.5
 31
0.0
  0
LINE
  5
556
330
54C
100
AcDbEntity
  8
FORMAT
 62
     0
100
AcDbLine
 10
5.0
 20
0.0
 30
0.0
 11
12.5
 21
0.0
 31
0.0
  0
ENDBLK
  5
54E
330
54C
100
AcDbEntity
  8
0
100
AcDbBlockEnd
  0
BLOCK
  5
559
330
558
100
AcDbEntity
  8
0
100
AcDbBlockBegin
  2
SW_CENTERMARKSYMBOL_3
 70
     0
 10
0.0
 20
0.0
 30
0.0
  3
SW_CENTERMARKSYMBOL_3
  1

  0
LINE
  5
55B
330
558
100
AcDbEntity
  8
FORMAT
 62
     0
100
AcDbLine
 10
0.0
 20
0.0
 30
0.0
 11
0.0
 21
2.5
 31
0.0
  0
LINE
  5
55C
330
558
100
AcDbEntity
  8
FORMAT
 62
     0
100
AcDbLine
 10
0.0
 20
0.0
 30
0.0
 11
-2.5
 21
0.0
 31
0.0
  0
LINE
  5
55D
330
558
100
AcDbEntity
  8
FORMAT
 62
     0
100
AcDbLine
 10
0.0
 20
0.0
 30
0.0
 11
0.0
 21
-2.5
 31
0.0
  0
LINE
  5
55E
330
558
100
AcDbEntity
  8
FORMAT
 62
     0
100
AcDbLine
 10
0.0
 20
0.0
 30
0.0
 11
2.5
 21
0.0
 31
0.0
  0
LINE
  5
55F
330
558
100
AcDbEntity
  8
FORMAT
 62
     0
100
AcDbLine
 10
0.0
 20
5.0
 30
0.0
 11
0.0
 21
12.5
 31
0.0
  0
LINE
  5
560
330
558
100
AcDbEntity
  8
FORMAT
 62
     0
100
AcDbLine
 10
-5.0
 20
0.0
 30
0.0
 11
-12.5
 21
0.0
 31
0.0
  0
LINE
  5
561
330
558
100
AcDbEntity
  8
FORMAT
 62
     0
100
AcDbLine
 10
0.0
 20
-5.0
 30
0.0
 11
0.0
 21
-12.5
 31
0.0
  0
LINE
  5
562
330
558
100
AcDbEntity
  8
FORMAT
 62
     0
100
AcDbLine
 10
5.0
 20
0.0
 30
0.0
 11
12.5
 21
0.0
 31
0.0
  0
ENDBLK
  5
55A
330
558
100
AcDbEntity
  8
0
100
AcDbBlockEnd
  0
BLOCK
  5
565
330
564
100
AcDbEntity
  8
0
100
AcDbBlockBegin
  2
SW_CENTERMARKSYMBOL_4
 70
     0
 10
0.0
 20
0.0
 30
0.0
  3
SW_CENTERMARKSYMBOL_4
  1

  0
LINE
  5
567
330
564
100
AcDbEntity
  8
FORMAT
 62
     0
100
AcDbLine
 10
0.0
 20
0.0
 30
0.0
 11
0.0
 21
2.5
 31
0.0
  0
LINE
  5
568
330
564
100
AcDbEntity
  8
FORMAT
 62
     0
100
AcDbLine
 10
0.0
 20
0.0
 30
0.0
 11
-2.5
 21
0.0
 31
0.0
  0
LINE
  5
569
330
564
100
AcDbEntity
  8
FORMAT
 62
     0
100
AcDbLine
 10
0.0
 20
0.0
 30
0.0
 11
0.0
 21
-2.5
 31
0.0
  0
LINE
  5
56A
330
564
100
AcDbEntity
  8
FORMAT
 62
     0
100
AcDbLine
 10
0.0
 20
0.0
 30
0.0
 11
2.5
 21
0.0
 31
0.0
  0
LINE
  5
56B
330
564
100
AcDbEntity
  8
FORMAT
 62
     0
100
AcDbLine
 10
0.0
 20
5.0
 30
0.0
 11
0.0
 21
12.5
 31
0.0
  0
LINE
  5
56C
330
564
100
AcDbEntity
  8
FORMAT
 62
     0
100
AcDbLine
 10
-5.0
 20
0.0
 30
0.0
 11
-12.5
 21
0.0
 31
0.0
  0
LINE
  5
56D
330
564
100
AcDbEntity
  8
FORMAT
 62
     0
100
AcDbLine
 10
0.0
 20
-5.0
 30
0.0
 11
0.0
 21
-12.5
 31
0.0
  0
LINE
  5
56E
330
564
100
AcDbEntity
  8
FORMAT
 62
     0
100
AcDbLine
 10
5.0
 20
0.0
 30
0.0
 11
12.5
 21
0.0
 31
0.0
  0
ENDBLK
  5
566
330
564
100
AcDbEntity
  8
0
100
AcDbBlockEnd
  0
BLOCK
  5
571
330
570
100
AcDbEntity
  8
0
100
AcDbBlockBegin
  2
SW_CENTERMARKSYMBOL_5
 70
     0
 10
0.0
 20
0.0
 30
0.0
  3
SW_CENTERMARKSYMBOL_5
  1

  0
LINE
  5
573
330
570
100
AcDbEntity
  8
FORMAT
 62
     0
100
AcDbLine
 10
0.0
 20
0.0
 30
0.0
 11
0.0
 21
2.5
 31
0.0
  0
LINE
  5
574
330
570
100
AcDbEntity
  8
FORMAT
 62
     0
100
AcDbLine
 10
0.0
 20
0.0
 30
0.0
 11
-2.5
 21
0.0
 31
0.0
  0
LINE
  5
575
330
570
100
AcDbEntity
  8
FORMAT
 62
     0
100
AcDbLine
 10
0.0
 20
0.0
 30
0.0
 11
0.0
 21
-2.5
 31
0.0
  0
LINE
  5
576
330
570
100
AcDbEntity
  8
FORMAT
 62
     0
100
AcDbLine
 10
0.0
 20
0.0
 30
0.0
 11
2.5
 21
0.0
 31
0.0
  0
LINE
  5
577
330
570
100
AcDbEntity
  8
FORMAT
 62
     0
100
AcDbLine
 10
0.0
 20
5.0
 30
0.0
 11
0.0
 21
12.5
 31
0.0
  0
LINE
  5
578
330
570
100
AcDbEntity
  8
FORMAT
 62
     0
100
AcDbLine
 10
-5.0
 20
0.0
 30
0.0
 11
-12.5
 21
0.0
 31
0.0
  0
LINE
  5
579
330
570
100
AcDbEntity
  8
FORMAT
 62
     0
100
AcDbLine
 10
0.0
 20
-5.0
 30
0.0
 11
0.0
 21
-12.5
 31
0.0
  0
LINE
  5
57A
330
570
100
AcDbEntity
  8
FORMAT
 62
     0
100
AcDbLine
 10
5.0
 20
0.0
 30
0.0
 11
12.5
 21
0.0
 31
0.0
  0
ENDBLK
  5
572
330
570
100
AcDbEntity
  8
0
100
AcDbBlockEnd
  0
BLOCK
  5
57D
330
57C
100
AcDbEntity
  8
0
100
AcDbBlockBegin
  2
SW_CENTERMARKSYMBOL_6
 70
     0
 10
0.0
 20
0.0
 30
0.0
  3
SW_CENTERMARKSYMBOL_6
  1

  0
LINE
  5
57F
330
57C
100
AcDbEntity
  8
FORMAT
 62
     0
100
AcDbLine
 10
0.0
 20
0.0
 30
0.0
 11
0.0
 21
2.5
 31
0.0
  0
LINE
  5
580
330
57C
100
AcDbEntity
  8
FORMAT
 62
     0
100
AcDbLine
 10
0.0
 20
0.0
 30
0.0
 11
-2.5
 21
0.0
 31
0.0
  0
LINE
  5
581
330
57C
100
AcDbEntity
  8
FORMAT
 62
     0
100
AcDbLine
 10
0.0
 20
0.0
 30
0.0
 11
0.0
 21
-2.5
 31
0.0
  0
LINE
  5
582
330
57C
100
AcDbEntity
  8
FORMAT
 62
     0
100
AcDbLine
 10
0.0
 20
0.0
 30
0.0
 11
2.5
 21
0.0
 31
0.0
  0
LINE
  5
583
330
57C
100
AcDbEntity
  8
FORMAT
 62
     0
100
AcDbLine
 10
0.0
 20
5.0
 30
0.0
 11
0.0
 21
8.7
 31
0.0
  0
LINE
  5
584
330
57C
100
AcDbEntity
  8
FORMAT
 62
     0
100
AcDbLine
 10
-5.0
 20
0.0
 30
0.0
 11
-8.7
 21
0.0
 31
0.0
  0
LINE
  5
585
330
57C
100
AcDbEntity
  8
FORMAT
 62
     0
100
AcDbLine
 10
0.0
 20
-5.0
 30
0.0
 11
0.0
 21
-8.7
 31
0.0
  0
LINE
  5
586
330
57C
100
AcDbEntity
  8
FORMAT
 62
     0
100
AcDbLine
 10
5.0
 20
0.0
 30
0.0
 11
8.7
 21
0.0
 31
0.0
  0
ENDBLK
  5
57E
330
57C
100
AcDbEntity
  8
0
100
AcDbBlockEnd
  0
BLOCK
  5
589
330
588
100
AcDbEntity
  8
0
100
AcDbBlockBegin
  2
SW_CENTERMARKSYMBOL_7
 70
     0
 10
0.0
 20
0.0
 30
0.0
  3
SW_CENTERMARKSYMBOL_7
  1

  0
LINE
  5
58B
330
588
100
AcDbEntity
  8
FORMAT
 62
     0
100
AcDbLine
 10
0.0
 20
0.0
 30
0.0
 11
0.0
 21
2.5
 31
0.0
  0
LINE
  5
58C
330
588
100
AcDbEntity
  8
FORMAT
 62
     0
100
AcDbLine
 10
0.0
 20
0.0
 30
0.0
 11
-2.5
 21
0.0
 31
0.0
  0
LINE
  5
58D
330
588
100
AcDbEntity
  8
FORMAT
 62
     0
100
AcDbLine
 10
0.0
 20
0.0
 30
0.0
 11
0.0
 21
-2.5
 31
0.0
  0
LINE
  5
58E
330
588
100
AcDbEntity
  8
FORMAT
 62
     0
100
AcDbLine
 10
0.0
 20
0.0
 30
0.0
 11
2.5
 21
0.0
 31
0.0
  0
LINE
  5
58F
330
588
100
AcDbEntity
  8
FORMAT
 62
     0
100
AcDbLine
 10
0.0
 20
5.0
 30
0.0
 11
0.0
 21
8.7
 31
0.0
  0
LINE
  5
590
330
588
100
AcDbEntity
  8
FORMAT
 62
     0
100
AcDbLine
 10
-5.0
 20
0.0
 30
0.0
 11
-8.7
 21
0.0
 31
0.0
  0
LINE
  5
591
330
588
100
AcDbEntity
  8
FORMAT
 62
     0
100
AcDbLine
 10
0.0
 20
-5.0
 30
0.0
 11
0.0
 21
-8.7
 31
0.0
  0
LINE
  5
592
330
588
100
AcDbEntity
  8
FORMAT
 62
     0
100
AcDbLine
 10
5.0
 20
0.0
 30
0.0
 11
8.7
 21
0.0
 31
0.0
  0
ENDBLK
  5
58A
330
588
100
AcDbEntity
  8
0
100
AcDbBlockEnd
  0
BLOCK
  5
595
330
594
100
AcDbEntity
  8
0
100
AcDbBlockBegin
  2
SW_CENTERMARKSYMBOL_8
 70
     0
 10
0.0
 20
0.0
 30
0.0
  3
SW_CENTERMARKSYMBOL_8
  1

  0
LINE
  5
597
330
594
100
AcDbEntity
  8
FORMAT
 62
     0
100
AcDbLine
 10
0.0
 20
0.0
 30
0.0
 11
0.0
 21
2.5
 31
0.0
  0
LINE
  5
598
330
594
100
AcDbEntity
  8
FORMAT
 62
     0
100
AcDbLine
 10
0.0
 20
0.0
 30
0.0
 11
-2.5
 21
0.0
 31
0.0
  0
LINE
  5
599
330
594
100
AcDbEntity
  8
FORMAT
 62
     0
100
AcDbLine
 10
0.0
 20
0.0
 30
0.0
 11
0.0
 21
-2.5
 31
0.0
  0
LINE
  5
59A
330
594
100
AcDbEntity
  8
FORMAT
 62
     0
100
AcDbLine
 10
0.0
 20
0.0
 30
0.0
 11
2.5
 21
0.0
 31
0.0
  0
LINE
  5
59B
330
594
100
AcDbEntity
  8
FORMAT
 62
     0
100
AcDbLine
 10
0.0
 20
5.0
 30
0.0
 11
0.0
 21
8.7
 31
0.0
  0
LINE
  5
59C
330
594
100
AcDbEntity
  8
FORMAT
 62
     0
100
AcDbLine
 10
-5.0
 20
0.0
 30
0.0
 11
-8.7
 21
0.0
 31
0.0
  0
LINE
  5
59D
330
594
100
AcDbEntity
  8
FORMAT
 62
     0
100
AcDbLine
 10
0.0
 20
-5.0
 30
0.0
 11
0.0
 21
-8.7
 31
0.0
  0
LINE
  5
59E
330
594
100
AcDbEntity
  8
FORMAT
 62
     0
100
AcDbLine
 10
5.0
 20
0.0
 30
0.0
 11
8.7
 21
0.0
 31
0.0
  0
ENDBLK
  5
596
330
594
100
AcDbEntity
  8
0
100
AcDbBlockEnd
  0
BLOCK
  5
5A1
330
5A0
100
AcDbEntity
  8
0
100
AcDbBlockBegin
  2
SW_CENTERMARKSYMBOL_9
 70
     0
 10
0.0
 20
0.0
 30
0.0
  3
SW_CENTERMARKSYMBOL_9
  1

  0
LINE
  5
5A3
330
5A0
100
AcDbEntity
  8
FORMAT
 62
     0
100
AcDbLine
 10
0.0
 20
0.0
 30
0.0
 11
0.0
 21
2.5
 31
0.0
  0
LINE
  5
5A4
330
5A0
100
AcDbEntity
  8
FORMAT
 62
     0
100
AcDbLine
 10
0.0
 20
0.0
 30
0.0
 11
-2.5
 21
0.0
 31
0.0
  0
LINE
  5
5A5
330
5A0
100
AcDbEntity
  8
FORMAT
 62
     0
100
AcDbLine
 10
0.0
 20
0.0
 30
0.0
 11
0.0
 21
-2.5
 31
0.0
  0
LINE
  5
5A6
330
5A0
100
AcDbEntity
  8
FORMAT
 62
     0
100
AcDbLine
 10
0.0
 20
0.0
 30
0.0
 11
2.5
 21
0.0
 31
0.0
  0
LINE
  5
5A7
330
5A0
100
AcDbEntity
  8
FORMAT
 62
     0
100
AcDbLine
 10
0.0
 20
5.0
 30
0.0
 11
0.0
 21
8.7
 31
0.0
  0
LINE
  5
5A8
330
5A0
100
AcDbEntity
  8
FORMAT
 62
     0
100
AcDbLine
 10
-5.0
 20
0.0
 30
0.0
 11
-8.7
 21
0.0
 31
0.0
  0
LINE
  5
5A9
330
5A0
100
AcDbEntity
  8
FORMAT
 62
     0
100
AcDbLine
 10
0.0
 20
-5.0
 30
0.0
 11
0.0
 21
-8.7
 31
0.0
  0
LINE
  5
5AA
330
5A0
100
AcDbEntity
  8
FORMAT
 62
     0
100
AcDbLine
 10
5.0
 20
0.0
 30
0.0
 11
8.7
 21
0.0
 31
0.0
  0
ENDBLK
  5
5A2
330
5A0
100
AcDbEntity
  8
0
100
AcDbBlockEnd
  0
BLOCK
  5
5AD
330
5AC
100
AcDbEntity
  8
0
100
AcDbBlockBegin
  2
SW_CENTERMARKSYMBOL_10
 70
     0
 10
0.0
 20
0.0
 30
0.0
  3
SW_CENTERMARKSYMBOL_10
  1

  0
LINE
  5
5AF
330
5AC
100
AcDbEntity
  8
FORMAT
 62
     0
100
AcDbLine
 10
0.0
 20
0.0
 30
0.0
 11
0.0
 21
2.5
 31
0.0
  0
LINE
  5
5B0
330
5AC
100
AcDbEntity
  8
FORMAT
 62
     0
100
AcDbLine
 10
0.0
 20
0.0
 30
0.0
 11
-2.5
 21
0.0
 31
0.0
  0
LINE
  5
5B1
330
5AC
100
AcDbEntity
  8
FORMAT
 62
     0
100
AcDbLine
 10
0.0
 20
0.0
 30
0.0
 11
0.0
 21
-2.5
 31
0.0
  0
LINE
  5
5B2
330
5AC
100
AcDbEntity
  8
FORMAT
 62
     0
100
AcDbLine
 10
0.0
 20
0.0
 30
0.0
 11
2.5
 21
0.0
 31
0.0
  0
LINE
  5
5B3
330
5AC
100
AcDbEntity
  8
FORMAT
 62
     0
100
AcDbLine
 10
0.0
 20
5.0
 30
0.0
 11
0.0
 21
8.7
 31
0.0
  0
LINE
  5
5B4
330
5AC
100
AcDbEntity
  8
FORMAT
 62
     0
100
AcDbLine
 10
-5.0
 20
0.0
 30
0.0
 11
-8.7
 21
0.0
 31
0.0
  0
LINE
  5
5B5
330
5AC
100
AcDbEntity
  8
FORMAT
 62
     0
100
AcDbLine
 10
0.0
 20
-5.0
 30
0.0
 11
0.0
 21
-8.7
 31
0.0
  0
LINE
  5
5B6
330
5AC
100
AcDbEntity
  8
FORMAT
 62
     0
100
AcDbLine
 10
5.0
 20
0.0
 30
0.0
 11
8.7
 21
0.0
 31
0.0
  0
ENDBLK
  5
5AE
330
5AC
100
AcDbEntity
  8
0
100
AcDbBlockEnd
  0
BLOCK
  5
5B9
330
5B8
100
AcDbEntity
  8
0
100
AcDbBlockBegin
  2
SW_CENTERMARKSYMBOL_11
 70
     0
 10
0.0
 20
0.0
 30
0.0
  3
SW_CENTERMARKSYMBOL_11
  1

  0
LINE
  5
5BB
330
5B8
100
AcDbEntity
  8
FORMAT
 62
     0
100
AcDbLine
 10
0.0
 20
0.0
 30
0.0
 11
0.0
 21
2.5
 31
0.0
  0
LINE
  5
5BC
330
5B8
100
AcDbEntity
  8
FORMAT
 62
     0
100
AcDbLine
 10
0.0
 20
0.0
 30
0.0
 11
-2.5
 21
0.0
 31
0.0
  0
LINE
  5
5BD
330
5B8
100
AcDbEntity
  8
FORMAT
 62
     0
100
AcDbLine
 10
0.0
 20
0.0
 30
0.0
 11
0.0
 21
-2.5
 31
0.0
  0
LINE
  5
5BE
330
5B8
100
AcDbEntity
  8
FORMAT
 62
     0
100
AcDbLine
 10
0.0
 20
0.0
 30
0.0
 11
2.5
 21
0.0
 31
0.0
  0
LINE
  5
5BF
330
5B8
100
AcDbEntity
  8
FORMAT
 62
     0
100
AcDbLine
 10
0.0
 20
5.0
 30
0.0
 11
0.0
 21
8.7
 31
0.0
  0
LINE
  5
5C0
330
5B8
100
AcDbEntity
  8
FORMAT
 62
     0
100
AcDbLine
 10
-5.0
 20
0.0
 30
0.0
 11
-8.7
 21
0.0
 31
0.0
  0
LINE
  5
5C1
330
5B8
100
AcDbEntity
  8
FORMAT
 62
     0
100
AcDbLine
 10
0.0
 20
-5.0
 30
0.0
 11
0.0
 21
-8.7
 31
0.0
  0
LINE
  5
5C2
330
5B8
100
AcDbEntity
  8
FORMAT
 62
     0
100
AcDbLine
 10
5.0
 20
0.0
 30
0.0
 11
8.7
 21
0.0
 31
0.0
  0
ENDBLK
  5
5BA
330
5B8
100
AcDbEntity
  8
0
100
AcDbBlockEnd
  0
BLOCK
  5
5C5
330
5C4
100
AcDbEntity
  8
0
100
AcDbBlockBegin
  2
SW_CENTERMARKSYMBOL_12
 70
     0
 10
0.0
 20
0.0
 30
0.0
  3
SW_CENTERMARKSYMBOL_12
  1

  0
LINE
  5
5C7
330
5C4
100
AcDbEntity
  8
FORMAT
 62
     0
100
AcDbLine
 10
0.0
 20
0.0
 30
0.0
 11
0.0
 21
2.5
 31
0.0
  0
LINE
  5
5C8
330
5C4
100
AcDbEntity
  8
FORMAT
 62
     0
100
AcDbLine
 10
0.0
 20
0.0
 30
0.0
 11
-2.5
 21
0.0
 31
0.0
  0
LINE
  5
5C9
330
5C4
100
AcDbEntity
  8
FORMAT
 62
     0
100
AcDbLine
 10
0.0
 20
0.0
 30
0.0
 11
0.0
 21
-2.5
 31
0.0
  0
LINE
  5
5CA
330
5C4
100
AcDbEntity
  8
FORMAT
 62
     0
100
AcDbLine
 10
0.0
 20
0.0
 30
0.0
 11
2.5
 21
0.0
 31
0.0
  0
LINE
  5
5CB
330
5C4
100
AcDbEntity
  8
FORMAT
 62
     0
100
AcDbLine
 10
0.0
 20
5.0
 30
0.0
 11
0.0
 21
8.7
 31
0.0
  0
LINE
  5
5CC
330
5C4
100
AcDbEntity
  8
FORMAT
 62
     0
100
AcDbLine
 10
-5.0
 20
0.0
 30
0.0
 11
-8.7
 21
0.0
 31
0.0
  0
LINE
  5
5CD
330
5C4
100
AcDbEntity
  8
FORMAT
 62
     0
100
AcDbLine
 10
0.0
 20
-5.0
 30
0.0
 11
0.0
 21
-8.7
 31
0.0
  0
LINE
  5
5CE
330
5C4
100
AcDbEntity
  8
FORMAT
 62
     0
100
AcDbLine
 10
5.0
 20
0.0
 30
0.0
 11
8.7
 21
0.0
 31
0.0
  0
ENDBLK
  5
5C6
330
5C4
100
AcDbEntity
  8
0
100
AcDbBlockEnd
  0
BLOCK
  5
5D1
330
5D0
100
AcDbEntity
  8
0
100
AcDbBlockBegin
  2
SW_CENTERMARKSYMBOL_13
 70
     0
 10
0.0
 20
0.0
 30
0.0
  3
SW_CENTERMARKSYMBOL_13
  1

  0
LINE
  5
5D3
330
5D0
100
AcDbEntity
  8
FORMAT
 62
     0
100
AcDbLine
 10
0.0
 20
0.0
 30
0.0
 11
0.0
 21
2.5
 31
0.0
  0
LINE
  5
5D4
330
5D0
100
AcDbEntity
  8
FORMAT
 62
     0
100
AcDbLine
 10
0.0
 20
0.0
 30
0.0
 11
-2.5
 21
0.0
 31
0.0
  0
LINE
  5
5D5
330
5D0
100
AcDbEntity
  8
FORMAT
 62
     0
100
AcDbLine
 10
0.0
 20
0.0
 30
0.0
 11
0.0
 21
-2.5
 31
0.0
  0
LINE
  5
5D6
330
5D0
100
AcDbEntity
  8
FORMAT
 62
     0
100
AcDbLine
 10
0.0
 20
0.0
 30
0.0
 11
2.5
 21
0.0
 31
0.0
  0
LINE
  5
5D7
330
5D0
100
AcDbEntity
  8
FORMAT
 62
     0
100
AcDbLine
 10
0.0
 20
5.0
 30
0.0
 11
0.0
 21
8.7
 31
0.0
  0
LINE
  5
5D8
330
5D0
100
AcDbEntity
  8
FORMAT
 62
     0
100
AcDbLine
 10
-5.0
 20
0.0
 30
0.0
 11
-8.7
 21
0.0
 31
0.0
  0
LINE
  5
5D9
330
5D0
100
AcDbEntity
  8
FORMAT
 62
     0
100
AcDbLine
 10
0.0
 20
-5.0
 30
0.0
 11
0.0
 21
-8.7
 31
0.0
  0
LINE
  5
5DA
330
5D0
100
AcDbEntity
  8
FORMAT
 62
     0
100
AcDbLine
 10
5.0
 20
0.0
 30
0.0
 11
8.7
 21
0.0
 31
0.0
  0
ENDBLK
  5
5D2
330
5D0
100
AcDbEntity
  8
0
100
AcDbBlockEnd
  0
BLOCK
  5
5DD
330
5DC
100
AcDbEntity
  8
0
100
AcDbBlockBegin
  2
SW_CENTERMARKSYMBOL_14
 70
     0
 10
0.0
 20
0.0
 30
0.0
  3
SW_CENTERMARKSYMBOL_14
  1

  0
LINE
  5
5DF
330
5DC
100
AcDbEntity
  8
FORMAT
 62
     0
100
AcDbLine
 10
0.0
 20
0.0
 30
0.0
 11
0.0
 21
2.5
 31
0.0
  0
LINE
  5
5E0
330
5DC
100
AcDbEntity
  8
FORMAT
 62
     0
100
AcDbLine
 10
0.0
 20
0.0
 30
0.0
 11
-2.5
 21
0.0
 31
0.0
  0
LINE
  5
5E1
330
5DC
100
AcDbEntity
  8
FORMAT
 62
     0
100
AcDbLine
 10
0.0
 20
0.0
 30
0.0
 11
0.0
 21
-2.5
 31
0.0
  0
LINE
  5
5E2
330
5DC
100
AcDbEntity
  8
FORMAT
 62
     0
100
AcDbLine
 10
0.0
 20
0.0
 30
0.0
 11
2.5
 21
0.0
 31
0.0
  0
LINE
  5
5E3
330
5DC
100
AcDbEntity
  8
FORMAT
 62
     0
100
AcDbLine
 10
0.0
 20
5.0
 30
0.0
 11
0.0
 21
8.7
 31
0.0
  0
LINE
  5
5E4
330
5DC
100
AcDbEntity
  8
FORMAT
 62
     0
100
AcDbLine
 10
-5.0
 20
0.0
 30
0.0
 11
-8.7
 21
0.0
 31
0.0
  0
LINE
  5
5E5
330
5DC
100
AcDbEntity
  8
FORMAT
 62
     0
100
AcDbLine
 10
0.0
 20
-5.0
 30
0.0
 11
0.0
 21
-8.7
 31
0.0
  0
LINE
  5
5E6
330
5DC
100
AcDbEntity
  8
FORMAT
 62
     0
100
AcDbLine
 10
5.0
 20
0.0
 30
0.0
 11
8.7
 21
0.0
 31
0.0
  0
ENDBLK
  5
5DE
330
5DC
100
AcDbEntity
  8
0
100
AcDbBlockEnd
  0
BLOCK
  5
5E9
330
5E8
100
AcDbEntity
  8
0
100
AcDbBlockBegin
  2
SW_CENTERMARKSYMBOL_15
 70
     0
 10
0.0
 20
0.0
 30
0.0
  3
SW_CENTERMARKSYMBOL_15
  1

  0
LINE
  5
5EB
330
5E8
100
AcDbEntity
  8
FORMAT
 62
     0
100
AcDbLine
 10
0.0
 20
0.0
 30
0.0
 11
0.0
 21
2.5
 31
0.0
  0
LINE
  5
5EC
330
5E8
100
AcDbEntity
  8
FORMAT
 62
     0
100
AcDbLine
 10
0.0
 20
0.0
 30
0.0
 11
-2.5
 21
0.0
 31
0.0
  0
LINE
  5
5ED
330
5E8
100
AcDbEntity
  8
FORMAT
 62
     0
100
AcDbLine
 10
0.0
 20
0.0
 30
0.0
 11
0.0
 21
-2.5
 31
0.0
  0
LINE
  5
5EE
330
5E8
100
AcDbEntity
  8
FORMAT
 62
     0
100
AcDbLine
 10
0.0
 20
0.0
 30
0.0
 11
2.5
 21
0.0
 31
0.0
  0
LINE
  5
5EF
330
5E8
100
AcDbEntity
  8
FORMAT
 62
     0
100
AcDbLine
 10
0.0
 20
5.0
 30
0.0
 11
0.0
 21
8.7
 31
0.0
  0
LINE
  5
5F0
330
5E8
100
AcDbEntity
  8
FORMAT
 62
     0
100
AcDbLine
 10
-5.0
 20
0.0
 30
0.0
 11
-8.7
 21
0.0
 31
0.0
  0
LINE
  5
5F1
330
5E8
100
AcDbEntity
  8
FORMAT
 62
     0
100
AcDbLine
 10
0.0
 20
-5.0
 30
0.0
 11
0.0
 21
-8.7
 31
0.0
  0
LINE
  5
5F2
330
5E8
100
AcDbEntity
  8
FORMAT
 62
     0
100
AcDbLine
 10
5.0
 20
0.0
 30
0.0
 11
8.7
 21
0.0
 31
0.0
  0
ENDBLK
  5
5EA
330
5E8
100
AcDbEntity
  8
0
100
AcDbBlockEnd
  0
BLOCK
  5
5F5
330
5F4
100
AcDbEntity
  8
0
100
AcDbBlockBegin
  2
SW_CENTERMARKSYMBOL_16
 70
     0
 10
0.0
 20
0.0
 30
0.0
  3
SW_CENTERMARKSYMBOL_16
  1

  0
LINE
  5
5F7
330
5F4
100
AcDbEntity
  8
FORMAT
 62
     0
100
AcDbLine
 10
0.0
 20
0.0
 30
0.0
 11
0.0
 21
2.5
 31
0.0
  0
LINE
  5
5F8
330
5F4
100
AcDbEntity
  8
FORMAT
 62
     0
100
AcDbLine
 10
0.0
 20
0.0
 30
0.0
 11
-2.5
 21
0.0
 31
0.0
  0
LINE
  5
5F9
330
5F4
100
AcDbEntity
  8
FORMAT
 62
     0
100
AcDbLine
 10
0.0
 20
0.0
 30
0.0
 11
0.0
 21
-2.5
 31
0.0
  0
LINE
  5
5FA
330
5F4
100
AcDbEntity
  8
FORMAT
 62
     0
100
AcDbLine
 10
0.0
 20
0.0
 30
0.0
 11
2.5
 21
0.0
 31
0.0
  0
LINE
  5
5FB
330
5F4
100
AcDbEntity
  8
FORMAT
 62
     0
100
AcDbLine
 10
0.0
 20
5.0
 30
0.0
 11
0.0
 21
8.7
 31
0.0
  0
LINE
  5
5FC
330
5F4
100
AcDbEntity
  8
FORMAT
 62
     0
100
AcDbLine
 10
-5.0
 20
0.0
 30
0.0
 11
-8.7
 21
0.0
 31
0.0
  0
LINE
  5
5FD
330
5F4
100
AcDbEntity
  8
FORMAT
 62
     0
100
AcDbLine
 10
0.0
 20
-5.0
 30
0.0
 11
0.0
 21
-8.7
 31
0.0
  0
LINE
  5
5FE
330
5F4
100
AcDbEntity
  8
FORMAT
 62
     0
100
AcDbLine
 10
5.0
 20
0.0
 30
0.0
 11
8.7
 21
0.0
 31
0.0
  0
ENDBLK
  5
5F6
330
5F4
100
AcDbEntity
  8
0
100
AcDbBlockEnd
  0
BLOCK
  5
601
330
600
100
AcDbEntity
  8
0
100
AcDbBlockBegin
  2
SW_CENTERMARKSYMBOL_17
 70
     0
 10
0.0
 20
0.0
 30
0.0
  3
SW_CENTERMARKSYMBOL_17
  1

  0
LINE
  5
603
330
600
100
AcDbEntity
  8
FORMAT
 62
     0
100
AcDbLine
 10
0.0
 20
0.0
 30
0.0
 11
0.0
 21
2.5
 31
0.0
  0
LINE
  5
604
330
600
100
AcDbEntity
  8
FORMAT
 62
     0
100
AcDbLine
 10
0.0
 20
0.0
 30
0.0
 11
-2.5
 21
0.0
 31
0.0
  0
LINE
  5
605
330
600
100
AcDbEntity
  8
FORMAT
 62
     0
100
AcDbLine
 10
0.0
 20
0.0
 30
0.0
 11
0.0
 21
-2.5
 31
0.0
  0
LINE
  5
606
330
600
100
AcDbEntity
  8
FORMAT
 62
     0
100
AcDbLine
 10
0.0
 20
0.0
 30
0.0
 11
2.5
 21
0.0
 31
0.0
  0
LINE
  5
607
330
600
100
AcDbEntity
  8
FORMAT
 62
     0
100
AcDbLine
 10
0.0
 20
5.0
 30
0.0
 11
0.0
 21
8.7
 31
0.0
  0
LINE
  5
608
330
600
100
AcDbEntity
  8
FORMAT
 62
     0
100
AcDbLine
 10
-5.0
 20
0.0
 30
0.0
 11
-8.7
 21
0.0
 31
0.0
  0
LINE
  5
609
330
600
100
AcDbEntity
  8
FORMAT
 62
     0
100
AcDbLine
 10
0.0
 20
-5.0
 30
0.0
 11
0.0
 21
-8.7
 31
0.0
  0
LINE
  5
60A
330
600
100
AcDbEntity
  8
FORMAT
 62
     0
100
AcDbLine
 10
5.0
 20
0.0
 30
0.0
 11
8.7
 21
0.0
 31
0.0
  0
ENDBLK
  5
602
330
600
100
AcDbEntity
  8
0
100
AcDbBlockEnd
  0
BLOCK
  5
60D
330
60C
100
AcDbEntity
  8
0
100
AcDbBlockBegin
  2
SW_CENTERMARKSYMBOL_18
 70
     0
 10
0.0
 20
0.0
 30
0.0
  3
SW_CENTERMARKSYMBOL_18
  1

  0
LINE
  5
60F
330
60C
100
AcDbEntity
  8
FORMAT
 62
     0
100
AcDbLine
 10
0.0
 20
0.0
 30
0.0
 11
0.0
 21
2.5
 31
0.0
  0
LINE
  5
610
330
60C
100
AcDbEntity
  8
FORMAT
 62
     0
100
AcDbLine
 10
0.0
 20
0.0
 30
0.0
 11
-2.5
 21
0.0
 31
0.0
  0
LINE
  5
611
330
60C
100
AcDbEntity
  8
FORMAT
 62
     0
100
AcDbLine
 10
0.0
 20
0.0
 30
0.0
 11
0.0
 21
-2.5
 31
0.0
  0
LINE
  5
612
330
60C
100
AcDbEntity
  8
FORMAT
 62
     0
100
AcDbLine
 10
0.0
 20
0.0
 30
0.0
 11
2.5
 21
0.0
 31
0.0
  0
LINE
  5
613
330
60C
100
AcDbEntity
  8
FORMAT
 62
     0
100
AcDbLine
 10
0.0
 20
5.0
 30
0.0
 11
0.0
 21
8.7
 31
0.0
  0
LINE
  5
614
330
60C
100
AcDbEntity
  8
FORMAT
 62
     0
100
AcDbLine
 10
-5.0
 20
0.0
 30
0.0
 11
-8.7
 21
0.0
 31
0.0
  0
LINE
  5
615
330
60C
100
AcDbEntity
  8
FORMAT
 62
     0
100
AcDbLine
 10
0.0
 20
-5.0
 30
0.0
 11
0.0
 21
-8.7
 31
0.0
  0
LINE
  5
616
330
60C
100
AcDbEntity
  8
FORMAT
 62
     0
100
AcDbLine
 10
5.0
 20
0.0
 30
0.0
 11
8.7
 21
0.0
 31
0.0
  0
ENDBLK
  5
60E
330
60C
100
AcDbEntity
  8
0
100
AcDbBlockEnd
  0
BLOCK
  5
619
330
618
100
AcDbEntity
  8
0
100
AcDbBlockBegin
  2
SW_CENTERMARKSYMBOL_19
 70
     0
 10
0.0
 20
0.0
 30
0.0
  3
SW_CENTERMARKSYMBOL_19
  1

  0
LINE
  5
61B
330
618
100
AcDbEntity
  8
FORMAT
 62
     0
100
AcDbLine
 10
0.0
 20
0.0
 30
0.0
 11
0.0
 21
2.5
 31
0.0
  0
LINE
  5
61C
330
618
100
AcDbEntity
  8
FORMAT
 62
     0
100
AcDbLine
 10
0.0
 20
0.0
 30
0.0
 11
-2.5
 21
0.0
 31
0.0
  0
LINE
  5
61D
330
618
100
AcDbEntity
  8
FORMAT
 62
     0
100
AcDbLine
 10
0.0
 20
0.0
 30
0.0
 11
0.0
 21
-2.5
 31
0.0
  0
LINE
  5
61E
330
618
100
AcDbEntity
  8
FORMAT
 62
     0
100
AcDbLine
 10
0.0
 20
0.0
 30
0.0
 11
2.5
 21
0.0
 31
0.0
  0
LINE
  5
61F
330
618
100
AcDbEntity
  8
FORMAT
 62
     0
100
AcDbLine
 10
0.0
 20
5.0
 30
0.0
 11
0.0
 21
8.7
 31
0.0
  0
LINE
  5
620
330
618
100
AcDbEntity
  8
FORMAT
 62
     0
100
AcDbLine
 10
-5.0
 20
0.0
 30
0.0
 11
-8.7
 21
0.0
 31
0.0
  0
LINE
  5
621
330
618
100
AcDbEntity
  8
FORMAT
 62
     0
100
AcDbLine
 10
0.0
 20
-5.0
 30
0.0
 11
0.0
 21
-8.7
 31
0.0
  0
LINE
  5
622
330
618
100
AcDbEntity
  8
FORMAT
 62
     0
100
AcDbLine
 10
5.0
 20
0.0
 30
0.0
 11
8.7
 21
0.0
 31
0.0
  0
ENDBLK
  5
61A
330
618
100
AcDbEntity
  8
0
100
AcDbBlockEnd
  0
BLOCK
  5
625
330
624
100
AcDbEntity
  8
0
100
AcDbBlockBegin
  2
SW_CENTERMARKSYMBOL_20
 70
     0
 10
0.0
 20
0.0
 30
0.0
  3
SW_CENTERMARKSYMBOL_20
  1

  0
LINE
  5
627
330
624
100
AcDbEntity
  8
FORMAT
 62
     0
100
AcDbLine
 10
0.0
 20
0.0
 30
0.0
 11
0.0
 21
2.5
 31
0.0
  0
LINE
  5
628
330
624
100
AcDbEntity
  8
FORMAT
 62
     0
100
AcDbLine
 10
0.0
 20
0.0
 30
0.0
 11
-2.5
 21
0.0
 31
0.0
  0
LINE
  5
629
330
624
100
AcDbEntity
  8
FORMAT
 62
     0
100
AcDbLine
 10
0.0
 20
0.0
 30
0.0
 11
0.0
 21
-2.5
 31
0.0
  0
LINE
  5
62A
330
624
100
AcDbEntity
  8
FORMAT
 62
     0
100
AcDbLine
 10
0.0
 20
0.0
 30
0.0
 11
2.5
 21
0.0
 31
0.0
  0
LINE
  5
62B
330
624
100
AcDbEntity
  8
FORMAT
 62
     0
100
AcDbLine
 10
0.0
 20
5.0
 30
0.0
 11
0.0
 21
8.7
 31
0.0
  0
LINE
  5
62C
330
624
100
AcDbEntity
  8
FORMAT
 62
     0
100
AcDbLine
 10
-5.0
 20
0.0
 30
0.0
 11
-8.7
 21
0.0
 31
0.0
  0
LINE
  5
62D
330
624
100
AcDbEntity
  8
FORMAT
 62
     0
100
AcDbLine
 10
0.0
 20
-5.0
 30
0.0
 11
0.0
 21
-8.7
 31
0.0
  0
LINE
  5
62E
330
624
100
AcDbEntity
  8
FORMAT
 62
     0
100
AcDbLine
 10
5.0
 20
0.0
 30
0.0
 11
8.7
 21
0.0
 31
0.0
  0
ENDBLK
  5
626
330
624
100
AcDbEntity
  8
0
100
AcDbBlockEnd
  0
BLOCK
  5
631
330
630
100
AcDbEntity
  8
0
100
AcDbBlockBegin
  2
SW_CENTERMARKSYMBOL_21
 70
     0
 10
0.0
 20
0.0
 30
0.0
  3
SW_CENTERMARKSYMBOL_21
  1

  0
LINE
  5
633
330
630
100
AcDbEntity
  8
FORMAT
 62
     0
100
AcDbLine
 10
0.0
 20
0.0
 30
0.0
 11
0.0
 21
2.5
 31
0.0
  0
LINE
  5
634
330
630
100
AcDbEntity
  8
FORMAT
 62
     0
100
AcDbLine
 10
0.0
 20
0.0
 30
0.0
 11
-2.5
 21
0.0
 31
0.0
  0
LINE
  5
635
330
630
100
AcDbEntity
  8
FORMAT
 62
     0
100
AcDbLine
 10
0.0
 20
0.0
 30
0.0
 11
0.0
 21
-2.5
 31
0.0
  0
LINE
  5
636
330
630
100
AcDbEntity
  8
FORMAT
 62
     0
100
AcDbLine
 10
0.0
 20
0.0
 30
0.0
 11
2.5
 21
0.0
 31
0.0
  0
LINE
  5
637
330
630
100
AcDbEntity
  8
FORMAT
 62
     0
100
AcDbLine
 10
0.0
 20
5.0
 30
0.0
 11
0.0
 21
8.7
 31
0.0
  0
LINE
  5
638
330
630
100
AcDbEntity
  8
FORMAT
 62
     0
100
AcDbLine
 10
-5.0
 20
0.0
 30
0.0
 11
-8.7
 21
0.0
 31
0.0
  0
LINE
  5
639
330
630
100
AcDbEntity
  8
FORMAT
 62
     0
100
AcDbLine
 10
0.0
 20
-5.0
 30
0.0
 11
0.0
 21
-8.7
 31
0.0
  0
LINE
  5
63A
330
630
100
AcDbEntity
  8
FORMAT
 62
     0
100
AcDbLine
 10
5.0
 20
0.0
 30
0.0
 11
8.7
 21
0.0
 31
0.0
  0
ENDBLK
  5
632
330
630
100
AcDbEntity
  8
0
100
AcDbBlockEnd
  0
BLOCK
  5
63D
330
63C
100
AcDbEntity
  8
0
100
AcDbBlockBegin
  2
SW_CENTERMARKSYMBOL_22
 70
     0
 10
0.0
 20
0.0
 30
0.0
  3
SW_CENTERMARKSYMBOL_22
  1

  0
LINE
  5
63F
330
63C
100
AcDbEntity
  8
FORMAT
 62
     0
100
AcDbLine
 10
0.0
 20
0.0
 30
0.0
 11
0.0
 21
2.5
 31
0.0
  0
LINE
  5
640
330
63C
100
AcDbEntity
  8
FORMAT
 62
     0
100
AcDbLine
 10
0.0
 20
0.0
 30
0.0
 11
-2.5
 21
0.0
 31
0.0
  0
LINE
  5
641
330
63C
100
AcDbEntity
  8
FORMAT
 62
     0
100
AcDbLine
 10
0.0
 20
0.0
 30
0.0
 11
0.0
 21
-2.5
 31
0.0
  0
LINE
  5
642
330
63C
100
AcDbEntity
  8
FORMAT
 62
     0
100
AcDbLine
 10
0.0
 20
0.0
 30
0.0
 11
2.5
 21
0.0
 31
0.0
  0
LINE
  5
643
330
63C
100
AcDbEntity
  8
FORMAT
 62
     0
100
AcDbLine
 10
0.0
 20
5.0
 30
0.0
 11
0.0
 21
8.7
 31
0.0
  0
LINE
  5
644
330
63C
100
AcDbEntity
  8
FORMAT
 62
     0
100
AcDbLine
 10
-5.0
 20
0.0
 30
0.0
 11
-8.7
 21
0.0
 31
0.0
  0
LINE
  5
645
330
63C
100
AcDbEntity
  8
FORMAT
 62
     0
100
AcDbLine
 10
0.0
 20
-5.0
 30
0.0
 11
0.0
 21
-8.7
 31
0.0
  0
LINE
  5
646
330
63C
100
AcDbEntity
  8
FORMAT
 62
     0
100
AcDbLine
 10
5.0
 20
0.0
 30
0.0
 11
8.7
 21
0.0
 31
0.0
  0
ENDBLK
  5
63E
330
63C
100
AcDbEntity
  8
0
100
AcDbBlockEnd
  0
BLOCK
  5
649
330
648
100
AcDbEntity
  8
0
100
AcDbBlockBegin
  2
SW_CENTERMARKSYMBOL_23
 70
     0
 10
0.0
 20
0.0
 30
0.0
  3
SW_CENTERMARKSYMBOL_23
  1

  0
LINE
  5
64B
330
648
100
AcDbEntity
  8
FORMAT
 62
     0
100
AcDbLine
 10
0.0
 20
0.0
 30
0.0
 11
0.0
 21
2.5
 31
0.0
  0
LINE
  5
64C
330
648
100
AcDbEntity
  8
FORMAT
 62
     0
100
AcDbLine
 10
0.0
 20
0.0
 30
0.0
 11
-2.5
 21
0.0
 31
0.0
  0
LINE
  5
64D
330
648
100
AcDbEntity
  8
FORMAT
 62
     0
100
AcDbLine
 10
0.0
 20
0.0
 30
0.0
 11
0.0
 21
-2.5
 31
0.0
  0
LINE
  5
64E
330
648
100
AcDbEntity
  8
FORMAT
 62
     0
100
AcDbLine
 10
0.0
 20
0.0
 30
0.0
 11
2.5
 21
0.0
 31
0.0
  0
LINE
  5
64F
330
648
100
AcDbEntity
  8
FORMAT
 62
     0
100
AcDbLine
 10
0.0
 20
5.0
 30
0.0
 11
0.0
 21
8.7
 31
0.0
  0
LINE
  5
650
330
648
100
AcDbEntity
  8
FORMAT
 62
     0
100
AcDbLine
 10
-5.0
 20
0.0
 30
0.0
 11
-8.7
 21
0.0
 31
0.0
  0
LINE
  5
651
330
648
100
AcDbEntity
  8
FORMAT
 62
     0
100
AcDbLine
 10
0.0
 20
-5.0
 30
0.0
 11
0.0
 21
-8.7
 31
0.0
  0
LINE
  5
652
330
648
100
AcDbEntity
  8
FORMAT
 62
     0
100
AcDbLine
 10
5.0
 20
0.0
 30
0.0
 11
8.7
 21
0.0
 31
0.0
  0
ENDBLK
  5
64A
330
648
100
AcDbEntity
  8
0
100
AcDbBlockEnd
  0
BLOCK
  5
655
330
654
100
AcDbEntity
  8
0
100
AcDbBlockBegin
  2
SW_CENTERMARKSYMBOL_24
 70
     0
 10
0.0
 20
0.0
 30
0.0
  3
SW_CENTERMARKSYMBOL_24
  1

  0
LINE
  5
657
330
654
100
AcDbEntity
  8
FORMAT
 62
     0
100
AcDbLine
 10
0.0
 20
0.0
 30
0.0
 11
0.0
 21
2.5
 31
0.0
  0
LINE
  5
658
330
654
100
AcDbEntity
  8
FORMAT
 62
     0
100
AcDbLine
 10
0.0
 20
0.0
 30
0.0
 11
-2.5
 21
0.0
 31
0.0
  0
LINE
  5
659
330
654
100
AcDbEntity
  8
FORMAT
 62
     0
100
AcDbLine
 10
0.0
 20
0.0
 30
0.0
 11
0.0
 21
-2.5
 31
0.0
  0
LINE
  5
65A
330
654
100
AcDbEntity
  8
FORMAT
 62
     0
100
AcDbLine
 10
0.0
 20
0.0
 30
0.0
 11
2.5
 21
0.0
 31
0.0
  0
LINE
  5
65B
330
654
100
AcDbEntity
  8
FORMAT
 62
     0
100
AcDbLine
 10
0.0
 20
5.0
 30
0.0
 11
0.0
 21
8.7
 31
0.0
  0
LINE
  5
65C
330
654
100
AcDbEntity
  8
FORMAT
 62
     0
100
AcDbLine
 10
-5.0
 20
0.0
 30
0.0
 11
-8.7
 21
0.0
 31
0.0
  0
LINE
  5
65D
330
654
100
AcDbEntity
  8
FORMAT
 62
     0
100
AcDbLine
 10
0.0
 20
-5.0
 30
0.0
 11
0.0
 21
-8.7
 31
0.0
  0
LINE
  5
65E
330
654
100
AcDbEntity
  8
FORMAT
 62
     0
100
AcDbLine
 10
5.0
 20
0.0
 30
0.0
 11
8.7
 21
0.0
 31
0.0
  0
ENDBLK
  5
656
330
654
100
AcDbEntity
  8
0
100
AcDbBlockEnd
  0
BLOCK
  5
661
330
660
100
AcDbEntity
  8
0
100
AcDbBlockBegin
  2
SW_CENTERMARKSYMBOL_25
 70
     0
 10
0.0
 20
0.0
 30
0.0
  3
SW_CENTERMARKSYMBOL_25
  1

  0
LINE
  5
663
330
660
100
AcDbEntity
  8
FORMAT
 62
     0
100
AcDbLine
 10
0.0
 20
0.0
 30
0.0
 11
0.0
 21
2.5
 31
0.0
  0
LINE
  5
664
330
660
100
AcDbEntity
  8
FORMAT
 62
     0
100
AcDbLine
 10
0.0
 20
0.0
 30
0.0
 11
-2.5
 21
0.0
 31
0.0
  0
LINE
  5
665
330
660
100
AcDbEntity
  8
FORMAT
 62
     0
100
AcDbLine
 10
0.0
 20
0.0
 30
0.0
 11
0.0
 21
-2.5
 31
0.0
  0
LINE
  5
666
330
660
100
AcDbEntity
  8
FORMAT
 62
     0
100
AcDbLine
 10
0.0
 20
0.0
 30
0.0
 11
2.5
 21
0.0
 31
0.0
  0
LINE
  5
667
330
660
100
AcDbEntity
  8
FORMAT
 62
     0
100
AcDbLine
 10
0.0
 20
5.0
 30
0.0
 11
0.0
 21
8.7
 31
0.0
  0
LINE
  5
668
330
660
100
AcDbEntity
  8
FORMAT
 62
     0
100
AcDbLine
 10
-5.0
 20
0.0
 30
0.0
 11
-8.7
 21
0.0
 31
0.0
  0
LINE
  5
669
330
660
100
AcDbEntity
  8
FORMAT
 62
     0
100
AcDbLine
 10
0.0
 20
-5.0
 30
0.0
 11
0.0
 21
-8.7
 31
0.0
  0
LINE
  5
66A
330
660
100
AcDbEntity
  8
FORMAT
 62
     0
100
AcDbLine
 10
5.0
 20
0.0
 30
0.0
 11
8.7
 21
0.0
 31
0.0
  0
ENDBLK
  5
662
330
660
100
AcDbEntity
  8
0
100
AcDbBlockEnd
  0
BLOCK
  5
66D
330
66C
100
AcDbEntity
  8
0
100
AcDbBlockBegin
  2
SW_CENTERMARKSYMBOL_26
 70
     0
 10
0.0
 20
0.0
 30
0.0
  3
SW_CENTERMARKSYMBOL_26
  1

  0
LINE
  5
66F
330
66C
100
AcDbEntity
  8
FORMAT
 62
     0
100
AcDbLine
 10
0.0
 20
0.0
 30
0.0
 11
0.0
 21
2.5
 31
0.0
  0
LINE
  5
670
330
66C
100
AcDbEntity
  8
FORMAT
 62
     0
100
AcDbLine
 10
0.0
 20
0.0
 30
0.0
 11
-2.5
 21
0.0
 31
0.0
  0
LINE
  5
671
330
66C
100
AcDbEntity
  8
FORMAT
 62
     0
100
AcDbLine
 10
0.0
 20
0.0
 30
0.0
 11
0.0
 21
-2.5
 31
0.0
  0
LINE
  5
672
330
66C
100
AcDbEntity
  8
FORMAT
 62
     0
100
AcDbLine
 10
0.0
 20
0.0
 30
0.0
 11
2.5
 21
0.0
 31
0.0
  0
LINE
  5
673
330
66C
100
AcDbEntity
  8
FORMAT
 62
     0
100
AcDbLine
 10
0.0
 20
5.0
 30
0.0
 11
0.0
 21
8.7
 31
0.0
  0
LINE
  5
674
330
66C
100
AcDbEntity
  8
FORMAT
 62
     0
100
AcDbLine
 10
-5.0
 20
0.0
 30
0.0
 11
-8.7
 21
0.0
 31
0.0
  0
LINE
  5
675
330
66C
100
AcDbEntity
  8
FORMAT
 62
     0
100
AcDbLine
 10
0.0
 20
-5.0
 30
0.0
 11
0.0
 21
-8.7
 31
0.0
  0
LINE
  5
676
330
66C
100
AcDbEntity
  8
FORMAT
 62
     0
100
AcDbLine
 10
5.0
 20
0.0
 30
0.0
 11
8.7
 21
0.0
 31
0.0
  0
ENDBLK
  5
66E
330
66C
100
AcDbEntity
  8
0
100
AcDbBlockEnd
  0
BLOCK
  5
679
330
678
100
AcDbEntity
  8
0
100
AcDbBlockBegin
  2
SW_CENTERMARKSYMBOL_27
 70
     0
 10
0.0
 20
0.0
 30
0.0
  3
SW_CENTERMARKSYMBOL_27
  1

  0
LINE
  5
67B
330
678
100
AcDbEntity
  8
FORMAT
 62
     0
100
AcDbLine
 10
0.0
 20
0.0
 30
0.0
 11
0.0
 21
2.5
 31
0.0
  0
LINE
  5
67C
330
678
100
AcDbEntity
  8
FORMAT
 62
     0
100
AcDbLine
 10
0.0
 20
0.0
 30
0.0
 11
-2.5
 21
0.0
 31
0.0
  0
LINE
  5
67D
330
678
100
AcDbEntity
  8
FORMAT
 62
     0
100
AcDbLine
 10
0.0
 20
0.0
 30
0.0
 11
0.0
 21
-2.5
 31
0.0
  0
LINE
  5
67E
330
678
100
AcDbEntity
  8
FORMAT
 62
     0
100
AcDbLine
 10
0.0
 20
0.0
 30
0.0
 11
2.5
 21
0.0
 31
0.0
  0
LINE
  5
67F
330
678
100
AcDbEntity
  8
FORMAT
 62
     0
100
AcDbLine
 10
0.0
 20
5.0
 30
0.0
 11
0.0
 21
8.7
 31
0.0
  0
LINE
  5
680
330
678
100
AcDbEntity
  8
FORMAT
 62
     0
100
AcDbLine
 10
-5.0
 20
0.0
 30
0.0
 11
-8.7
 21
0.0
 31
0.0
  0
LINE
  5
681
330
678
100
AcDbEntity
  8
FORMAT
 62
     0
100
AcDbLine
 10
0.0
 20
-5.0
 30
0.0
 11
0.0
 21
-8.7
 31
0.0
  0
LINE
  5
682
330
678
100
AcDbEntity
  8
FORMAT
 62
     0
100
AcDbLine
 10
5.0
 20
0.0
 30
0.0
 11
8.7
 21
0.0
 31
0.0
  0
ENDBLK
  5
67A
330
678
100
AcDbEntity
  8
0
100
AcDbBlockEnd
  0
BLOCK
  5
685
330
684
100
AcDbEntity
  8
0
100
AcDbBlockBegin
  2
SW_CENTERMARKSYMBOL_28
 70
     0
 10
0.0
 20
0.0
 30
0.0
  3
SW_CENTERMARKSYMBOL_28
  1

  0
LINE
  5
687
330
684
100
AcDbEntity
  8
FORMAT
 62
     0
100
AcDbLine
 10
0.0
 20
0.0
 30
0.0
 11
0.0
 21
2.5
 31
0.0
  0
LINE
  5
688
330
684
100
AcDbEntity
  8
FORMAT
 62
     0
100
AcDbLine
 10
0.0
 20
0.0
 30
0.0
 11
-2.5
 21
0.0
 31
0.0
  0
LINE
  5
689
330
684
100
AcDbEntity
  8
FORMAT
 62
     0
100
AcDbLine
 10
0.0
 20
0.0
 30
0.0
 11
0.0
 21
-2.5
 31
0.0
  0
LINE
  5
68A
330
684
100
AcDbEntity
  8
FORMAT
 62
     0
100
AcDbLine
 10
0.0
 20
0.0
 30
0.0
 11
2.5
 21
0.0
 31
0.0
  0
LINE
  5
68B
330
684
100
AcDbEntity
  8
FORMAT
 62
     0
100
AcDbLine
 10
0.0
 20
5.0
 30
0.0
 11
0.0
 21
8.7
 31
0.0
  0
LINE
  5
68C
330
684
100
AcDbEntity
  8
FORMAT
 62
     0
100
AcDbLine
 10
-5.0
 20
0.0
 30
0.0
 11
-8.7
 21
0.0
 31
0.0
  0
LINE
  5
68D
330
684
100
AcDbEntity
  8
FORMAT
 62
     0
100
AcDbLine
 10
0.0
 20
-5.0
 30
0.0
 11
0.0
 21
-8.7
 31
0.0
  0
LINE
  5
68E
330
684
100
AcDbEntity
  8
FORMAT
 62
     0
100
AcDbLine
 10
5.0
 20
0.0
 30
0.0
 11
8.7
 21
0.0
 31
0.0
  0
ENDBLK
  5
686
330
684
100
AcDbEntity
  8
0
100
AcDbBlockEnd
  0
BLOCK
  5
691
330
690
100
AcDbEntity
  8
0
100
AcDbBlockBegin
  2
SW_CENTERMARKSYMBOL_29
 70
     0
 10
0.0
 20
0.0
 30
0.0
  3
SW_CENTERMARKSYMBOL_29
  1

  0
LINE
  5
693
330
690
100
AcDbEntity
  8
FORMAT
 62
     0
100
AcDbLine
 10
0.0
 20
0.0
 30
0.0
 11
0.0
 21
2.5
 31
0.0
  0
LINE
  5
694
330
690
100
AcDbEntity
  8
FORMAT
 62
     0
100
AcDbLine
 10
0.0
 20
0.0
 30
0.0
 11
-2.5
 21
0.0
 31
0.0
  0
LINE
  5
695
330
690
100
AcDbEntity
  8
FORMAT
 62
     0
100
AcDbLine
 10
0.0
 20
0.0
 30
0.0
 11
0.0
 21
-2.5
 31
0.0
  0
LINE
  5
696
330
690
100
AcDbEntity
  8
FORMAT
 62
     0
100
AcDbLine
 10
0.0
 20
0.0
 30
0.0
 11
2.5
 21
0.0
 31
0.0
  0
LINE
  5
697
330
690
100
AcDbEntity
  8
FORMAT
 62
     0
100
AcDbLine
 10
0.0
 20
5.0
 30
0.0
 11
0.0
 21
8.7
 31
0.0
  0
LINE
  5
698
330
690
100
AcDbEntity
  8
FORMAT
 62
     0
100
AcDbLine
 10
-5.0
 20
0.0
 30
0.0
 11
-8.7
 21
0.0
 31
0.0
  0
LINE
  5
699
330
690
100
AcDbEntity
  8
FORMAT
 62
     0
100
AcDbLine
 10
0.0
 20
-5.0
 30
0.0
 11
0.0
 21
-8.7
 31
0.0
  0
LINE
  5
69A
330
690
100
AcDbEntity
  8
FORMAT
 62
     0
100
AcDbLine
 10
5.0
 20
0.0
 30
0.0
 11
8.7
 21
0.0
 31
0.0
  0
ENDBLK
  5
692
330
690
100
AcDbEntity
  8
0
100
AcDbBlockEnd
  0
BLOCK
  5
69D
330
69C
100
AcDbEntity
  8
0
100
AcDbBlockBegin
  2
SW_CENTERMARKSYMBOL_30
 70
     0
 10
0.0
 20
0.0
 30
0.0
  3
SW_CENTERMARKSYMBOL_30
  1

  0
LINE
  5
69F
330
69C
100
AcDbEntity
  8
FORMAT
 62
     0
100
AcDbLine
 10
0.0
 20
0.0
 30
0.0
 11
0.0
 21
2.5
 31
0.0
  0
LINE
  5
6A0
330
69C
100
AcDbEntity
  8
FORMAT
 62
     0
100
AcDbLine
 10
0.0
 20
0.0
 30
0.0
 11
-2.5
 21
0.0
 31
0.0
  0
LINE
  5
6A1
330
69C
100
AcDbEntity
  8
FORMAT
 62
     0
100
AcDbLine
 10
0.0
 20
0.0
 30
0.0
 11
0.0
 21
-2.5
 31
0.0
  0
LINE
  5
6A2
330
69C
100
AcDbEntity
  8
FORMAT
 62
     0
100
AcDbLine
 10
0.0
 20
0.0
 30
0.0
 11
2.5
 21
0.0
 31
0.0
  0
LINE
  5
6A3
330
69C
100
AcDbEntity
  8
FORMAT
 62
     0
100
AcDbLine
 10
0.0
 20
2.5
 30
0.0
 11
0.0
 21
5.0
 31
0.0
  0
LINE
  5
6A4
330
69C
100
AcDbEntity
  8
FORMAT
 62
     0
100
AcDbLine
 10
-2.5
 20
0.0
 30
0.0
 11
-5.0
 21
0.0
 31
0.0
  0
LINE
  5
6A5
330
69C
100
AcDbEntity
  8
FORMAT
 62
     0
100
AcDbLine
 10
0.0
 20
-2.5
 30
0.0
 11
0.0
 21
-5.0
 31
0.0
  0
LINE
  5
6A6
330
69C
100
AcDbEntity
  8
FORMAT
 62
     0
100
AcDbLine
 10
2.5
 20
0.0
 30
0.0
 11
5.0
 21
0.0
 31
0.0
  0
ENDBLK
  5
69E
330
69C
100
AcDbEntity
  8
0
100
AcDbBlockEnd
  0
BLOCK
  5
6A9
330
6A8
100
AcDbEntity
  8
0
100
AcDbBlockBegin
  2
SW_CENTERMARKSYMBOL_31
 70
     0
 10
0.0
 20
0.0
 30
0.0
  3
SW_CENTERMARKSYMBOL_31
  1

  0
LINE
  5
6AB
330
6A8
100
AcDbEntity
  8
FORMAT
 62
     0
100
AcDbLine
 10
0.0
 20
0.0
 30
0.0
 11
0.0
 21
2.5
 31
0.0
  0
LINE
  5
6AC
330
6A8
100
AcDbEntity
  8
FORMAT
 62
     0
100
AcDbLine
 10
0.0
 20
0.0
 30
0.0
 11
-2.5
 21
0.0
 31
0.0
  0
LINE
  5
6AD
330
6A8
100
AcDbEntity
  8
FORMAT
 62
     0
100
AcDbLine
 10
0.0
 20
0.0
 30
0.0
 11
0.0
 21
-2.5
 31
0.0
  0
LINE
  5
6AE
330
6A8
100
AcDbEntity
  8
FORMAT
 62
     0
100
AcDbLine
 10
0.0
 20
0.0
 30
0.0
 11
2.5
 21
0.0
 31
0.0
  0
LINE
  5
6AF
330
6A8
100
AcDbEntity
  8
FORMAT
 62
     0
100
AcDbLine
 10
0.0
 20
2.5
 30
0.0
 11
0.0
 21
5.0
 31
0.0
  0
LINE
  5
6B0
330
6A8
100
AcDbEntity
  8
FORMAT
 62
     0
100
AcDbLine
 10
-2.5
 20
0.0
 30
0.0
 11
-5.0
 21
0.0
 31
0.0
  0
LINE
  5
6B1
330
6A8
100
AcDbEntity
  8
FORMAT
 62
     0
100
AcDbLine
 10
0.0
 20
-2.5
 30
0.0
 11
0.0
 21
-5.0
 31
0.0
  0
LINE
  5
6B2
330
6A8
100
AcDbEntity
  8
FORMAT
 62
     0
100
AcDbLine
 10
2.5
 20
0.0
 30
0.0
 11
5.0
 21
0.0
 31
0.0
  0
ENDBLK
  5
6AA
330
6A8
100
AcDbEntity
  8
0
100
AcDbBlockEnd
  0
BLOCK
  5
6B5
330
6B4
100
AcDbEntity
  8
0
100
AcDbBlockBegin
  2
SW_CENTERMARKSYMBOL_32
 70
     0
 10
0.0
 20
0.0
 30
0.0
  3
SW_CENTERMARKSYMBOL_32
  1

  0
LINE
  5
6B7
330
6B4
100
AcDbEntity
  8
FORMAT
 62
     0
100
AcDbLine
 10
0.0
 20
0.0
 30
0.0
 11
0.0
 21
2.5
 31
0.0
  0
LINE
  5
6B8
330
6B4
100
AcDbEntity
  8
FORMAT
 62
     0
100
AcDbLine
 10
0.0
 20
0.0
 30
0.0
 11
-2.5
 21
0.0
 31
0.0
  0
LINE
  5
6B9
330
6B4
100
AcDbEntity
  8
FORMAT
 62
     0
100
AcDbLine
 10
0.0
 20
0.0
 30
0.0
 11
0.0
 21
-2.5
 31
0.0
  0
LINE
  5
6BA
330
6B4
100
AcDbEntity
  8
FORMAT
 62
     0
100
AcDbLine
 10
0.0
 20
0.0
 30
0.0
 11
2.5
 21
0.0
 31
0.0
  0
LINE
  5
6BB
330
6B4
100
AcDbEntity
  8
FORMAT
 62
     0
100
AcDbLine
 10
0.0
 20
2.5
 30
0.0
 11
0.0
 21
5.0
 31
0.0
  0
LINE
  5
6BC
330
6B4
100
AcDbEntity
  8
FORMAT
 62
     0
100
AcDbLine
 10
-2.5
 20
0.0
 30
0.0
 11
-5.0
 21
0.0
 31
0.0
  0
LINE
  5
6BD
330
6B4
100
AcDbEntity
  8
FORMAT
 62
     0
100
AcDbLine
 10
0.0
 20
-2.5
 30
0.0
 11
0.0
 21
-5.0
 31
0.0
  0
LINE
  5
6BE
330
6B4
100
AcDbEntity
  8
FORMAT
 62
     0
100
AcDbLine
 10
2.5
 20
0.0
 30
0.0
 11
5.0
 21
0.0
 31
0.0
  0
ENDBLK
  5
6B6
330
6B4
100
AcDbEntity
  8
0
100
AcDbBlockEnd
  0
BLOCK
  5
6C1
330
6C0
100
AcDbEntity
  8
0
100
AcDbBlockBegin
  2
SW_CENTERMARKSYMBOL_33
 70
     0
 10
0.0
 20
0.0
 30
0.0
  3
SW_CENTERMARKSYMBOL_33
  1

  0
LINE
  5
6C3
330
6C0
100
AcDbEntity
  8
FORMAT
 62
     0
100
AcDbLine
 10
0.0
 20
0.0
 30
0.0
 11
0.0
 21
2.5
 31
0.0
  0
LINE
  5
6C4
330
6C0
100
AcDbEntity
  8
FORMAT
 62
     0
100
AcDbLine
 10
0.0
 20
0.0
 30
0.0
 11
-2.5
 21
0.0
 31
0.0
  0
LINE
  5
6C5
330
6C0
100
AcDbEntity
  8
FORMAT
 62
     0
100
AcDbLine
 10
0.0
 20
0.0
 30
0.0
 11
0.0
 21
-2.5
 31
0.0
  0
LINE
  5
6C6
330
6C0
100
AcDbEntity
  8
FORMAT
 62
     0
100
AcDbLine
 10
0.0
 20
0.0
 30
0.0
 11
2.5
 21
0.0
 31
0.0
  0
LINE
  5
6C7
330
6C0
100
AcDbEntity
  8
FORMAT
 62
     0
100
AcDbLine
 10
0.0
 20
2.5
 30
0.0
 11
0.0
 21
5.0
 31
0.0
  0
LINE
  5
6C8
330
6C0
100
AcDbEntity
  8
FORMAT
 62
     0
100
AcDbLine
 10
-2.5
 20
0.0
 30
0.0
 11
-5.0
 21
0.0
 31
0.0
  0
LINE
  5
6C9
330
6C0
100
AcDbEntity
  8
FORMAT
 62
     0
100
AcDbLine
 10
0.0
 20
-2.5
 30
0.0
 11
0.0
 21
-5.0
 31
0.0
  0
LINE
  5
6CA
330
6C0
100
AcDbEntity
  8
FORMAT
 62
     0
100
AcDbLine
 10
2.5
 20
0.0
 30
0.0
 11
5.0
 21
0.0
 31
0.0
  0
ENDBLK
  5
6C2
330
6C0
100
AcDbEntity
  8
0
100
AcDbBlockEnd
  0
BLOCK
  5
6CD
330
6CC
100
AcDbEntity
  8
0
100
AcDbBlockBegin
  2
SW_CENTERMARKSYMBOL_34
 70
     0
 10
0.0
 20
0.0
 30
0.0
  3
SW_CENTERMARKSYMBOL_34
  1

  0
LINE
  5
6CF
330
6CC
100
AcDbEntity
  8
FORMAT
 62
     0
100
AcDbLine
 10
0.0
 20
0.0
 30
0.0
 11
0.0
 21
2.5
 31
0.0
  0
LINE
  5
6D0
330
6CC
100
AcDbEntity
  8
FORMAT
 62
     0
100
AcDbLine
 10
0.0
 20
0.0
 30
0.0
 11
-2.5
 21
0.0
 31
0.0
  0
LINE
  5
6D1
330
6CC
100
AcDbEntity
  8
FORMAT
 62
     0
100
AcDbLine
 10
0.0
 20
0.0
 30
0.0
 11
0.0
 21
-2.5
 31
0.0
  0
LINE
  5
6D2
330
6CC
100
AcDbEntity
  8
FORMAT
 62
     0
100
AcDbLine
 10
0.0
 20
0.0
 30
0.0
 11
2.5
 21
0.0
 31
0.0
  0
LINE
  5
6D3
330
6CC
100
AcDbEntity
  8
FORMAT
 62
     0
100
AcDbLine
 10
0.0
 20
2.5
 30
0.0
 11
0.0
 21
5.0
 31
0.0
  0
LINE
  5
6D4
330
6CC
100
AcDbEntity
  8
FORMAT
 62
     0
100
AcDbLine
 10
-2.5
 20
0.0
 30
0.0
 11
-5.0
 21
0.0
 31
0.0
  0
LINE
  5
6D5
330
6CC
100
AcDbEntity
  8
FORMAT
 62
     0
100
AcDbLine
 10
0.0
 20
-2.5
 30
0.0
 11
0.0
 21
-5.0
 31
0.0
  0
LINE
  5
6D6
330
6CC
100
AcDbEntity
  8
FORMAT
 62
     0
100
AcDbLine
 10
2.5
 20
0.0
 30
0.0
 11
5.0
 21
0.0
 31
0.0
  0
ENDBLK
  5
6CE
330
6CC
100
AcDbEntity
  8
0
100
AcDbBlockEnd
  0
BLOCK
  5
6D9
330
6D8
100
AcDbEntity
  8
0
100
AcDbBlockBegin
  2
SW_CENTERMARKSYMBOL_35
 70
     0
 10
0.0
 20
0.0
 30
0.0
  3
SW_CENTERMARKSYMBOL_35
  1

  0
LINE
  5
6DB
330
6D8
100
AcDbEntity
  8
FORMAT
 62
     0
100
AcDbLine
 10
0.0
 20
0.0
 30
0.0
 11
0.0
 21
2.5
 31
0.0
  0
LINE
  5
6DC
330
6D8
100
AcDbEntity
  8
FORMAT
 62
     0
100
AcDbLine
 10
0.0
 20
0.0
 30
0.0
 11
-2.5
 21
0.0
 31
0.0
  0
LINE
  5
6DD
330
6D8
100
AcDbEntity
  8
FORMAT
 62
     0
100
AcDbLine
 10
0.0
 20
0.0
 30
0.0
 11
0.0
 21
-2.5
 31
0.0
  0
LINE
  5
6DE
330
6D8
100
AcDbEntity
  8
FORMAT
 62
     0
100
AcDbLine
 10
0.0
 20
0.0
 30
0.0
 11
2.5
 21
0.0
 31
0.0
  0
LINE
  5
6DF
330
6D8
100
AcDbEntity
  8
FORMAT
 62
     0
100
AcDbLine
 10
0.0
 20
2.5
 30
0.0
 11
0.0
 21
5.0
 31
0.0
  0
LINE
  5
6E0
330
6D8
100
AcDbEntity
  8
FORMAT
 62
     0
100
AcDbLine
 10
-2.5
 20
0.0
 30
0.0
 11
-5.0
 21
0.0
 31
0.0
  0
LINE
  5
6E1
330
6D8
100
AcDbEntity
  8
FORMAT
 62
     0
100
AcDbLine
 10
0.0
 20
-2.5
 30
0.0
 11
0.0
 21
-5.0
 31
0.0
  0
LINE
  5
6E2
330
6D8
100
AcDbEntity
  8
FORMAT
 62
     0
100
AcDbLine
 10
2.5
 20
0.0
 30
0.0
 11
5.0
 21
0.0
 31
0.0
  0
ENDBLK
  5
6DA
330
6D8
100
AcDbEntity
  8
0
100
AcDbBlockEnd
  0
BLOCK
  5
6E5
330
6E4
100
AcDbEntity
  8
0
100
AcDbBlockBegin
  2
SW_CENTERMARKSYMBOL_36
 70
     0
 10
0.0
 20
0.0
 30
0.0
  3
SW_CENTERMARKSYMBOL_36
  1

  0
LINE
  5
6E7
330
6E4
100
AcDbEntity
  8
FORMAT
 62
     0
100
AcDbLine
 10
0.0
 20
0.0
 30
0.0
 11
0.0
 21
2.5
 31
0.0
  0
LINE
  5
6E8
330
6E4
100
AcDbEntity
  8
FORMAT
 62
     0
100
AcDbLine
 10
0.0
 20
0.0
 30
0.0
 11
-2.5
 21
0.0
 31
0.0
  0
LINE
  5
6E9
330
6E4
100
AcDbEntity
  8
FORMAT
 62
     0
100
AcDbLine
 10
0.0
 20
0.0
 30
0.0
 11
0.0
 21
-2.5
 31
0.0
  0
LINE
  5
6EA
330
6E4
100
AcDbEntity
  8
FORMAT
 62
     0
100
AcDbLine
 10
0.0
 20
0.0
 30
0.0
 11
2.5
 21
0.0
 31
0.0
  0
LINE
  5
6EB
330
6E4
100
AcDbEntity
  8
FORMAT
 62
     0
100
AcDbLine
 10
0.0
 20
2.5
 30
0.0
 11
0.0
 21
5.0
 31
0.0
  0
LINE
  5
6EC
330
6E4
100
AcDbEntity
  8
FORMAT
 62
     0
100
AcDbLine
 10
-2.5
 20
0.0
 30
0.0
 11
-5.0
 21
0.0
 31
0.0
  0
LINE
  5
6ED
330
6E4
100
AcDbEntity
  8
FORMAT
 62
     0
100
AcDbLine
 10
0.0
 20
-2.5
 30
0.0
 11
0.0
 21
-5.0
 31
0.0
  0
LINE
  5
6EE
330
6E4
100
AcDbEntity
  8
FORMAT
 62
     0
100
AcDbLine
 10
2.5
 20
0.0
 30
0.0
 11
5.0
 21
0.0
 31
0.0
  0
ENDBLK
  5
6E6
330
6E4
100
AcDbEntity
  8
0
100
AcDbBlockEnd
  0
BLOCK
  5
6F1
330
6F0
100
AcDbEntity
  8
0
100
AcDbBlockBegin
  2
SW_CENTERMARKSYMBOL_37
 70
     0
 10
0.0
 20
0.0
 30
0.0
  3
SW_CENTERMARKSYMBOL_37
  1

  0
LINE
  5
6F3
330
6F0
100
AcDbEntity
  8
FORMAT
 62
     0
100
AcDbLine
 10
0.0
 20
0.0
 30
0.0
 11
0.0
 21
2.5
 31
0.0
  0
LINE
  5
6F4
330
6F0
100
AcDbEntity
  8
FORMAT
 62
     0
100
AcDbLine
 10
0.0
 20
0.0
 30
0.0
 11
-2.5
 21
0.0
 31
0.0
  0
LINE
  5
6F5
330
6F0
100
AcDbEntity
  8
FORMAT
 62
     0
100
AcDbLine
 10
0.0
 20
0.0
 30
0.0
 11
0.0
 21
-2.5
 31
0.0
  0
LINE
  5
6F6
330
6F0
100
AcDbEntity
  8
FORMAT
 62
     0
100
AcDbLine
 10
0.0
 20
0.0
 30
0.0
 11
2.5
 21
0.0
 31
0.0
  0
LINE
  5
6F7
330
6F0
100
AcDbEntity
  8
FORMAT
 62
     0
100
AcDbLine
 10
0.0
 20
2.5
 30
0.0
 11
0.0
 21
5.0
 31
0.0
  0
LINE
  5
6F8
330
6F0
100
AcDbEntity
  8
FORMAT
 62
     0
100
AcDbLine
 10
-2.5
 20
0.0
 30
0.0
 11
-5.0
 21
0.0
 31
0.0
  0
LINE
  5
6F9
330
6F0
100
AcDbEntity
  8
FORMAT
 62
     0
100
AcDbLine
 10
0.0
 20
-2.5
 30
0.0
 11
0.0
 21
-5.0
 31
0.0
  0
LINE
  5
6FA
330
6F0
100
AcDbEntity
  8
FORMAT
 62
     0
100
AcDbLine
 10
2.5
 20
0.0
 30
0.0
 11
5.0
 21
0.0
 31
0.0
  0
ENDBLK
  5
6F2
330
6F0
100
AcDbEntity
  8
0
100
AcDbBlockEnd
  0
BLOCK
  5
6FD
330
6FC
100
AcDbEntity
  8
0
100
AcDbBlockBegin
  2
SW_CENTERMARKSYMBOL_38
 70
     0
 10
0.0
 20
0.0
 30
0.0
  3
SW_CENTERMARKSYMBOL_38
  1

  0
LINE
  5
6FF
330
6FC
100
AcDbEntity
  8
FORMAT
 62
     0
100
AcDbLine
 10
0.0
 20
0.0
 30
0.0
 11
0.0
 21
2.5
 31
0.0
  0
LINE
  5
700
330
6FC
100
AcDbEntity
  8
FORMAT
 62
     0
100
AcDbLine
 10
0.0
 20
0.0
 30
0.0
 11
-2.5
 21
0.0
 31
0.0
  0
LINE
  5
701
330
6FC
100
AcDbEntity
  8
FORMAT
 62
     0
100
AcDbLine
 10
0.0
 20
0.0
 30
0.0
 11
0.0
 21
-2.5
 31
0.0
  0
LINE
  5
702
330
6FC
100
AcDbEntity
  8
FORMAT
 62
     0
100
AcDbLine
 10
0.0
 20
0.0
 30
0.0
 11
2.5
 21
0.0
 31
0.0
  0
LINE
  5
703
330
6FC
100
AcDbEntity
  8
FORMAT
 62
     0
100
AcDbLine
 10
0.0
 20
2.5
 30
0.0
 11
0.0
 21
5.0
 31
0.0
  0
LINE
  5
704
330
6FC
100
AcDbEntity
  8
FORMAT
 62
     0
100
AcDbLine
 10
-2.5
 20
0.0
 30
0.0
 11
-5.0
 21
0.0
 31
0.0
  0
LINE
  5
705
330
6FC
100
AcDbEntity
  8
FORMAT
 62
     0
100
AcDbLine
 10
0.0
 20
-2.5
 30
0.0
 11
0.0
 21
-5.0
 31
0.0
  0
LINE
  5
706
330
6FC
100
AcDbEntity
  8
FORMAT
 62
     0
100
AcDbLine
 10
2.5
 20
0.0
 30
0.0
 11
5.0
 21
0.0
 31
0.0
  0
ENDBLK
  5
6FE
330
6FC
100
AcDbEntity
  8
0
100
AcDbBlockEnd
  0
BLOCK
  5
709
330
708
100
AcDbEntity
  8
0
100
AcDbBlockBegin
  2
SW_CENTERMARKSYMBOL_39
 70
     0
 10
0.0
 20
0.0
 30
0.0
  3
SW_CENTERMARKSYMBOL_39
  1

  0
LINE
  5
70B
330
708
100
AcDbEntity
  8
FORMAT
 62
     0
100
AcDbLine
 10
0.0
 20
0.0
 30
0.0
 11
0.0
 21
2.5
 31
0.0
  0
LINE
  5
70C
330
708
100
AcDbEntity
  8
FORMAT
 62
     0
100
AcDbLine
 10
0.0
 20
0.0
 30
0.0
 11
-2.5
 21
0.0
 31
0.0
  0
LINE
  5
70D
330
708
100
AcDbEntity
  8
FORMAT
 62
     0
100
AcDbLine
 10
0.0
 20
0.0
 30
0.0
 11
0.0
 21
-2.5
 31
0.0
  0
LINE
  5
70E
330
708
100
AcDbEntity
  8
FORMAT
 62
     0
100
AcDbLine
 10
0.0
 20
0.0
 30
0.0
 11
2.5
 21
0.0
 31
0.0
  0
LINE
  5
70F
330
708
100
AcDbEntity
  8
FORMAT
 62
     0
100
AcDbLine
 10
0.0
 20
2.5
 30
0.0
 11
0.0
 21
5.0
 31
0.0
  0
LINE
  5
710
330
708
100
AcDbEntity
  8
FORMAT
 62
     0
100
AcDbLine
 10
-2.5
 20
0.0
 30
0.0
 11
-5.0
 21
0.0
 31
0.0
  0
LINE
  5
711
330
708
100
AcDbEntity
  8
FORMAT
 62
     0
100
AcDbLine
 10
0.0
 20
-2.5
 30
0.0
 11
0.0
 21
-5.0
 31
0.0
  0
LINE
  5
712
330
708
100
AcDbEntity
  8
FORMAT
 62
     0
100
AcDbLine
 10
2.5
 20
0.0
 30
0.0
 11
5.0
 21
0.0
 31
0.0
  0
ENDBLK
  5
70A
330
708
100
AcDbEntity
  8
0
100
AcDbBlockEnd
  0
BLOCK
  5
715
330
714
100
AcDbEntity
  8
0
100
AcDbBlockBegin
  2
SW_CENTERMARKSYMBOL_40
 70
     0
 10
0.0
 20
0.0
 30
0.0
  3
SW_CENTERMARKSYMBOL_40
  1

  0
LINE
  5
717
330
714
100
AcDbEntity
  8
FORMAT
 62
     0
100
AcDbLine
 10
0.0
 20
0.0
 30
0.0
 11
0.0
 21
2.5
 31
0.0
  0
LINE
  5
718
330
714
100
AcDbEntity
  8
FORMAT
 62
     0
100
AcDbLine
 10
0.0
 20
0.0
 30
0.0
 11
-2.5
 21
0.0
 31
0.0
  0
LINE
  5
719
330
714
100
AcDbEntity
  8
FORMAT
 62
     0
100
AcDbLine
 10
0.0
 20
0.0
 30
0.0
 11
0.0
 21
-2.5
 31
0.0
  0
LINE
  5
71A
330
714
100
AcDbEntity
  8
FORMAT
 62
     0
100
AcDbLine
 10
0.0
 20
0.0
 30
0.0
 11
2.5
 21
0.0
 31
0.0
  0
LINE
  5
71B
330
714
100
AcDbEntity
  8
FORMAT
 62
     0
100
AcDbLine
 10
0.0
 20
2.5
 30
0.0
 11
0.0
 21
5.0
 31
0.0
  0
LINE
  5
71C
330
714
100
AcDbEntity
  8
FORMAT
 62
     0
100
AcDbLine
 10
-2.5
 20
0.0
 30
0.0
 11
-5.0
 21
0.0
 31
0.0
  0
LINE
  5
71D
330
714
100
AcDbEntity
  8
FORMAT
 62
     0
100
AcDbLine
 10
0.0
 20
-2.5
 30
0.0
 11
0.0
 21
-5.0
 31
0.0
  0
LINE
  5
71E
330
714
100
AcDbEntity
  8
FORMAT
 62
     0
100
AcDbLine
 10
2.5
 20
0.0
 30
0.0
 11
5.0
 21
0.0
 31
0.0
  0
ENDBLK
  5
716
330
714
100
AcDbEntity
  8
0
100
AcDbBlockEnd
  0
BLOCK
  5
721
330
720
100
AcDbEntity
  8
0
100
AcDbBlockBegin
  2
SW_CENTERMARKSYMBOL_41
 70
     0
 10
0.0
 20
0.0
 30
0.0
  3
SW_CENTERMARKSYMBOL_41
  1

  0
LINE
  5
723
330
720
100
AcDbEntity
  8
FORMAT
 62
     0
100
AcDbLine
 10
0.0
 20
0.0
 30
0.0
 11
0.0
 21
2.5
 31
0.0
  0
LINE
  5
724
330
720
100
AcDbEntity
  8
FORMAT
 62
     0
100
AcDbLine
 10
0.0
 20
0.0
 30
0.0
 11
-2.5
 21
0.0
 31
0.0
  0
LINE
  5
725
330
720
100
AcDbEntity
  8
FORMAT
 62
     0
100
AcDbLine
 10
0.0
 20
0.0
 30
0.0
 11
0.0
 21
-2.5
 31
0.0
  0
LINE
  5
726
330
720
100
AcDbEntity
  8
FORMAT
 62
     0
100
AcDbLine
 10
0.0
 20
0.0
 30
0.0
 11
2.5
 21
0.0
 31
0.0
  0
LINE
  5
727
330
720
100
AcDbEntity
  8
FORMAT
 62
     0
100
AcDbLine
 10
0.0
 20
2.5
 30
0.0
 11
0.0
 21
5.0
 31
0.0
  0
LINE
  5
728
330
720
100
AcDbEntity
  8
FORMAT
 62
     0
100
AcDbLine
 10
-2.5
 20
0.0
 30
0.0
 11
-5.0
 21
0.0
 31
0.0
  0
LINE
  5
729
330
720
100
AcDbEntity
  8
FORMAT
 62
     0
100
AcDbLine
 10
0.0
 20
-2.5
 30
0.0
 11
0.0
 21
-5.0
 31
0.0
  0
LINE
  5
72A
330
720
100
AcDbEntity
  8
FORMAT
 62
     0
100
AcDbLine
 10
2.5
 20
0.0
 30
0.0
 11
5.0
 21
0.0
 31
0.0
  0
ENDBLK
  5
722
330
720
100
AcDbEntity
  8
0
100
AcDbBlockEnd
  0
BLOCK
  5
744
330
743
100
AcDbEntity
  8
0
100
AcDbBlockBegin
  2
_D_36
 70
     0
 10
0.0
 20
0.0
 30
0.0
  3
_D_36
  1

  0
SOLID
  5
746
330
743
100
AcDbEntity
  8
FORMAT
100
AcDbTrace
 10
1797.8052436659
 20
147.9976005644
 30
0.0
 11
1774.6912436659
 21
151.5536005644
 31
0.0
 12
1774.6912436659
 22
144.4416005644
 32
0.0
 13
1774.6912436659
 23
144.4416005644
 33
0.0
  0
SOLID
  5
747
330
743
100
AcDbEntity
  8
FORMAT
100
AcDbTrace
 10
1825.8052436659
 20
147.9976005644
 30
0.0
 11
1848.9192436659
 21
144.4416005644
 31
0.0
 12
1848.9192436659
 22
151.5536005644
 32
0.0
 13
1848.9192436659
 23
151.5536005644
 33
0.0
  0
LINE
  5
748
330
743
100
AcDbEntity
  8
FORMAT
100
AcDbLine
 10
1797.8052436659
 20
198.6789695126
 30
0.0
 11
1797.8052436659
 21
140.9976005644
 31
0.0
  0
LINE
  5
749
330
743
100
AcDbEntity
  8
FORMAT
100
AcDbLine
 10
1825.8052436659
 20
212.6789695126
 30
0.0
 11
1825.8052436659
 21
140.9976005644
 31
0.0
  0
LINE
  5
74A
330
743
100
AcDbEntity
  8
FORMAT
100
AcDbLine
 10
1797.8052436659
 20
147.9976005644
 30
0.0
 11
1753.3552436659
 21
147.9976005644
 31
0.0
  0
LINE
  5
74B
330
743
100
AcDbEntity
  8
FORMAT
100
AcDbLine
 10
1797.8052436659
 20
147.9976005644
 30
0.0
 11
1825.8052436659
 21
147.9976005644
 31
0.0
  0
LINE
  5
74C
330
743
100
AcDbEntity
  8
FORMAT
100
AcDbLine
 10
1825.8052436659
 20
147.9976005644
 30
0.0
 11
1897.0143757219
 21
147.9976005644
 31
0.0
  0
MTEXT
  5
74D
330
743
100
AcDbEntity
  8
FORMAT
100
AcDbMText
 10
1859.5838210935
 20
179.5797618187
 30
0.0
 40
24.5
 41
0.0
 71
     1
 72
     1
  1
20
  7
SLDTEXTSTYLE0
 73
     1
 44
1.0
  0
ENDBLK
  5
745
330
743
100
AcDbEntity
  8
0
100
AcDbBlockEnd
  0
BLOCK
  5
750
330
74F
100
AcDbEntity
  8
0
100
AcDbBlockBegin
  2
_D_37
 70
     0
 10
0.0
 20
0.0
 30
0.0
  3
_D_37
  1

  0
SOLID
  5
752
330
74F
100
AcDbEntity
  8
FORMAT
100
AcDbTrace
 10
1927.5616184558
 20
217.8589695126
 30
0.0
 11
1924.0056184558
 21
194.7449695126
 31
0.0
 12
1931.1176184558
 22
194.7449695126
 32
0.0
 13
1931.1176184558
 23
194.7449695126
 33
0.0
  0
SOLID
  5
753
330
74F
100
AcDbEntity
  8
FORMAT
100
AcDbTrace
 10
1927.5616184558
 20
231.8589695126
 30
0.0
 11
1931.1176184558
 21
254.9729695126
 31
0.0
 12
1924.0056184558
 22
254.9729695126
 32
0.0
 13
1924.0056184558
 23
254.9729695126
 33
0.0
  0
LINE
  5
754
330
74F
100
AcDbEntity
  8
FORMAT
100
AcDbLine
 10
1816.9852436659
 20
217.8589695126
 30
0.0
 11
1934.5616184558
 21
217.8589695126
 31
0.0
  0
LINE
  5
755
330
74F
100
AcDbEntity
  8
FORMAT
100
AcDbLine
 10
1844.9852436659
 20
231.8589695126
 30
0.0
 11
1934.5616184558
 21
231.8589695126
 31
0.0
  0
LINE
  5
756
330
74F
100
AcDbEntity
  8
FORMAT
100
AcDbLine
 10
1927.5616184558
 20
217.8589695126
 30
0.0
 11
1927.5616184558
 21
173.4089695126
 31
0.0
  0
LINE
  5
757
330
74F
100
AcDbEntity
  8
FORMAT
100
AcDbLine
 10
1927.5616184558
 20
217.8589695126
 30
0.0
 11
1927.5616184558
 21
231.8589695126
 31
0.0
  0
LINE
  5
758
330
74F
100
AcDbEntity
  8
FORMAT
100
AcDbLine
 10
1927.5616184558
 20
231.8589695126
 30
0.0
 11
1927.5616184558
 21
297.2850324667
 31
0.0
  0
MTEXT
  5
759
330
74F
100
AcDbEntity
  8
FORMAT
100
AcDbMText
 10
1895.9794572016
 20
259.8544778383
 30
0.0
 40
24.5
 41
0.0
 71
     1
 72
     1
  1
10
  7
SLDTEXTSTYLE0
 11
6.123233995736766E-17
 21
1.0
 31
0.0
 73
     1
 44
1.0
  0
ENDBLK
  5
751
330
74F
100
AcDbEntity
  8
0
100
AcDbBlockEnd
  0
BLOCK
  5
75C
330
75B
100
AcDbEntity
  8
0
100
AcDbBlockBegin
  2
_D_38
 70
     0
 10
0.0
 20
0.0
 30
0.0
  3
_D_38
  1

  0
SOLID
  5
75E
330
75B
100
AcDbEntity
  8
FORMAT
100
AcDbTrace
 10
1728.5271944121
 20
203.8589695126
 30
0.0
 11
1724.9711944121
 21
180.7449695126
 31
0.0
 12
1732.0831944121
 22
180.7449695126
 32
0.0
 13
1732.0831944121
 23
180.7449695126
 33
0.0
  0
SOLID
  5
75F
330
75B
100
AcDbEntity
  8
FORMAT
100
AcDbTrace
 10
1728.5271944121
 20
217.8589695126
 30
0.0
 11
1732.0831944121
 21
240.9729695126
 31
0.0
 12
1724.9711944121
 22
240.9729695126
 32
0.0
 13
1724.9711944121
 23
240.9729695126
 33
0.0
  0
LINE
  5
760
330
75B
100
AcDbEntity
  8
FORMAT
100
AcDbLine
 10
1768.9447959023
 20
203.8589695126
 30
0.0
 11
1721.5271944121
 21
203.8589695126
 31
0.0
  0
LINE
  5
761
330
75B
100
AcDbEntity
  8
FORMAT
100
AcDbLine
 10
1778.6252436659
 20
217.8589695126
 30
0.0
 11
1721.5271944121
 21
217.8589695126
 31
0.0
  0
LINE
  5
762
330
75B
100
AcDbEntity
  8
FORMAT
100
AcDbLine
 10
1728.5271944121
 20
203.8589695126
 30
0.0
 11
1728.5271944121
 21
136.3545142707
 31
0.0
  0
LINE
  5
763
330
75B
100
AcDbEntity
  8
FORMAT
100
AcDbLine
 10
1728.5271944121
 20
203.8589695126
 30
0.0
 11
1728.5271944121
 21
217.8589695126
 31
0.0
  0
LINE
  5
764
330
75B
100
AcDbEntity
  8
FORMAT
100
AcDbLine
 10
1728.5271944121
 20
217.8589695126
 30
0.0
 11
1728.5271944121
 21
262.3089695126
 31
0.0
  0
MTEXT
  5
765
330
75B
100
AcDbEntity
  8
FORMAT
100
AcDbMText
 10
1696.9450331579
 20
136.3545142707
 30
0.0
 40
24.5
 41
0.0
 71
     1
 72
     1
  1
10
  7
SLDTEXTSTYLE0
 11
-3.828568698926949E-16
 21
1.0
 31
0.0
 73
     1
 44
1.0
  0
ENDBLK
  5
75D
330
75B
100
AcDbEntity
  8
0
100
AcDbBlockEnd
  0
BLOCK
  5
768
330
767
100
AcDbEntity
  8
0
100
AcDbBlockBegin
  2
_D_39
 70
     0
 10
0.0
 20
0.0
 30
0.0
  3
_D_39
  1

  0
SOLID
  5
76A
330
767
100
AcDbEntity
  8
FORMAT
100
AcDbTrace
 10
1685.7168622136
 20
217.8589695126
 30
0.0
 11
1682.1608622136
 21
194.7449695126
 31
0.0
 12
1689.2728622136
 22
194.7449695126
 32
0.0
 13
1689.2728622136
 23
194.7449695126
 33
0.0
  0
SOLID
  5
76B
330
767
100
AcDbEntity
  8
FORMAT
100
AcDbTrace
 10
1685.7168622136
 20
245.8589695126
 30
0.0
 11
1689.2728622136
 21
268.9729695126
 31
0.0
 12
1682.1608622136
 22
268.9729695126
 32
0.0
 13
1682.1608622136
 23
268.9729695126
 33
0.0
  0
LINE
  5
76C
330
767
100
AcDbEntity
  8
FORMAT
100
AcDbLine
 10
1778.6252436659
 20
217.8589695126
 30
0.0
 11
1678.7168622136
 21
217.8589695126
 31
0.0
  0
LINE
  5
76D
330
767
100
AcDbEntity
  8
FORMAT
100
AcDbLine
 10
1778.6252436659
 20
245.8589695126
 30
0.0
 11
1739.0271944121
 21
245.8589695126
 31
0.0
  0
LINE
  5
76E
330
767
100
AcDbEntity
  8
FORMAT
100
AcDbLine
 10
1718.0271944121
 20
245.8589695126
 30
0.0
 11
1678.7168622136
 21
245.8589695126
 31
0.0
  0
LINE
  5
76F
330
767
100
AcDbEntity
  8
FORMAT
100
AcDbLine
 10
1685.7168622136
 20
217.8589695126
 30
0.0
 11
1685.7168622136
 21
136.3545142707
 31
0.0
  0
LINE
  5
770
330
767
100
AcDbEntity
  8
FORMAT
100
AcDbLine
 10
1685.7168622136
 20
217.8589695126
 30
0.0
 11
1685.7168622136
 21
245.8589695126
 31
0.0
  0
LINE
  5
771
330
767
100
AcDbEntity
  8
FORMAT
100
AcDbLine
 10
1685.7168622136
 20
245.8589695126
 30
0.0
 11
1685.7168622136
 21
290.3089695126
 31
0.0
  0
MTEXT
  5
772
330
767
100
AcDbEntity
  8
FORMAT
100
AcDbMText
 10
1654.1347009593
 20
136.3545142707
 30
0.0
 40
24.5
 41
0.0
 71
     1
 72
     1
  1
20
  7
SLDTEXTSTYLE0
 11
6.123233995736766E-17
 21
1.0
 31
0.0
 73
     1
 44
1.0
  0
ENDBLK
  5
769
330
767
100
AcDbEntity
  8
0
100
AcDbBlockEnd
  0
BLOCK
  5
775
330
774
100
AcDbEntity
  8
0
100
AcDbBlockBegin
  2
SW_CENTERMARKSYMBOL_42
 70
     0
 10
0.0
 20
0.0
 30
0.0
  3
SW_CENTERMARKSYMBOL_42
  1

  0
LINE
  5
777
330
774
100
AcDbEntity
  8
FORMAT
 62
     0
100
AcDbLine
 10
0.0
 20
0.0
 30
0.0
 11
0.0
 21
3.4999966621
 31
0.0
  0
LINE
  5
778
330
774
100
AcDbEntity
  8
FORMAT
 62
     0
100
AcDbLine
 10
0.0
 20
0.0
 30
0.0
 11
-3.4999966621
 21
0.0
 31
0.0
  0
LINE
  5
779
330
774
100
AcDbEntity
  8
FORMAT
 62
     0
100
AcDbLine
 10
0.0
 20
0.0
 30
0.0
 11
0.0
 21
-3.4999966621
 31
0.0
  0
LINE
  5
77A
330
774
100
AcDbEntity
  8
FORMAT
 62
     0
100
AcDbLine
 10
0.0
 20
0.0
 30
0.0
 11
3.5000175238
 21
0.0
 31
0.0
  0
LINE
  5
77B
330
774
100
AcDbEntity
  8
FORMAT
 62
     0
100
AcDbLine
 10
0.0
 20
7.0000037551
 30
0.0
 11
0.0
 21
12.1799975634
 31
0.0
  0
LINE
  5
77C
330
774
100
AcDbEntity
  8
FORMAT
 62
     0
100
AcDbLine
 10
-6.9999933243
 20
0.0
 30
0.0
 11
-12.1799975634
 21
0.0
 31
0.0
  0
LINE
  5
77D
330
774
100
AcDbEntity
  8
FORMAT
 62
     0
100
AcDbLine
 10
0.0
 20
-7.0000037551
 30
0.0
 11
0.0
 21
-12.1799975634
 31
0.0
  0
LINE
  5
77E
330
774
100
AcDbEntity
  8
FORMAT
 62
     0
100
AcDbLine
 10
7.0000141859
 20
0.0
 30
0.0
 11
12.180018425
 21
0.0
 31
0.0
  0
ENDBLK
  5
776
330
774
100
AcDbEntity
  8
0
100
AcDbBlockEnd
  0
BLOCK
  5
781
330
780
100
AcDbEntity
  8
0
100
AcDbBlockBegin
  2
SW_CENTERMARKSYMBOL_43
 70
     0
 10
0.0
 20
0.0
 30
0.0
  3
SW_CENTERMARKSYMBOL_43
  1

  0
LINE
  5
783
330
780
100
AcDbEntity
  8
FORMAT
 62
     0
100
AcDbLine
 10
0.0
 20
0.0
 30
0.0
 11
0.0
 21
3.500007093
 31
0.0
  0
LINE
  5
784
330
780
100
AcDbEntity
  8
FORMAT
 62
     0
100
AcDbLine
 10
0.0
 20
0.0
 30
0.0
 11
-3.4999966621
 21
0.0
 31
0.0
  0
LINE
  5
785
330
780
100
AcDbEntity
  8
FORMAT
 62
     0
100
AcDbLine
 10
0.0
 20
0.0
 30
0.0
 11
0.0
 21
-3.4999966621
 31
0.0
  0
LINE
  5
786
330
780
100
AcDbEntity
  8
FORMAT
 62
     0
100
AcDbLine
 10
0.0
 20
0.0
 30
0.0
 11
3.4999966621
 21
0.0
 31
0.0
  0
LINE
  5
787
330
780
100
AcDbEntity
  8
FORMAT
 62
     0
100
AcDbLine
 10
0.0
 20
7.0000037551
 30
0.0
 11
0.0
 21
12.1800079942
 31
0.0
  0
LINE
  5
788
330
780
100
AcDbEntity
  8
FORMAT
 62
     0
100
AcDbLine
 10
-7.0000141859
 20
0.0
 30
0.0
 11
-12.1799975634
 21
0.0
 31
0.0
  0
LINE
  5
789
330
780
100
AcDbEntity
  8
FORMAT
 62
     0
100
AcDbLine
 10
0.0
 20
-6.9999933243
 30
0.0
 11
0.0
 21
-12.1799975634
 31
0.0
  0
LINE
  5
78A
330
780
100
AcDbEntity
  8
FORMAT
 62
     0
100
AcDbLine
 10
6.9999933243
 20
0.0
 30
0.0
 11
12.1799975634
 21
0.0
 31
0.0
  0
ENDBLK
  5
782
330
780
100
AcDbEntity
  8
0
100
AcDbBlockEnd
  0
BLOCK
  5
78D
330
78C
100
AcDbEntity
  8
0
100
AcDbBlockBegin
  2
SW_CENTERMARKSYMBOL_44
 70
     0
 10
0.0
 20
0.0
 30
0.0
  3
SW_CENTERMARKSYMBOL_44
  1

  0
LINE
  5
78F
330
78C
100
AcDbEntity
  8
FORMAT
 62
     0
100
AcDbLine
 10
0.0
 20
0.0
 30
0.0
 11
0.0
 21
3.4999966621
 31
0.0
  0
LINE
  5
790
330
78C
100
AcDbEntity
  8
FORMAT
 62
     0
100
AcDbLine
 10
0.0
 20
0.0
 30
0.0
 11
-3.4999966621
 21
0.0
 31
0.0
  0
LINE
  5
791
330
78C
100
AcDbEntity
  8
FORMAT
 62
     0
100
AcDbLine
 10
0.0
 20
0.0
 30
0.0
 11
0.0
 21
-3.500007093
 31
0.0
  0
LINE
  5
792
330
78C
100
AcDbEntity
  8
FORMAT
 62
     0
100
AcDbLine
 10
0.0
 20
0.0
 30
0.0
 11
3.5000175238
 21
0.0
 31
0.0
  0
LINE
  5
793
330
78C
100
AcDbEntity
  8
FORMAT
 62
     0
100
AcDbLine
 10
0.0
 20
6.9999933243
 30
0.0
 11
0.0
 21
12.1799975634
 31
0.0
  0
LINE
  5
794
330
78C
100
AcDbEntity
  8
FORMAT
 62
     0
100
AcDbLine
 10
-6.9999933243
 20
0.0
 30
0.0
 11
-12.1799975634
 21
0.0
 31
0.0
  0
LINE
  5
795
330
78C
100
AcDbEntity
  8
FORMAT
 62
     0
100
AcDbLine
 10
0.0
 20
-7.0000037551
 30
0.0
 11
0.0
 21
-12.1800079942
 31
0.0
  0
LINE
  5
796
330
78C
100
AcDbEntity
  8
FORMAT
 62
     0
100
AcDbLine
 10
7.0000141859
 20
0.0
 30
0.0
 11
12.180018425
 21
0.0
 31
0.0
  0
ENDBLK
  5
78E
330
78C
100
AcDbEntity
  8
0
100
AcDbBlockEnd
  0
BLOCK
  5
799
330
798
100
AcDbEntity
  8
0
100
AcDbBlockBegin
  2
SW_CENTERMARKSYMBOL_45
 70
     0
 10
0.0
 20
0.0
 30
0.0
  3
SW_CENTERMARKSYMBOL_45
  1

  0
LINE
  5
79B
330
798
100
AcDbEntity
  8
FORMAT
 62
     0
100
AcDbLine
 10
0.0
 20
0.0
 30
0.0
 11
0.0
 21
3.5000175238
 31
0.0
  0
LINE
  5
79C
330
798
100
AcDbEntity
  8
FORMAT
 62
     0
100
AcDbLine
 10
0.0
 20
0.0
 30
0.0
 11
-3.4999966621
 21
0.0
 31
0.0
  0
LINE
  5
79D
330
798
100
AcDbEntity
  8
FORMAT
 62
     0
100
AcDbLine
 10
0.0
 20
0.0
 30
0.0
 11
0.0
 21
-3.4999966621
 31
0.0
  0
LINE
  5
79E
330
798
100
AcDbEntity
  8
FORMAT
 62
     0
100
AcDbLine
 10
0.0
 20
0.0
 30
0.0
 11
3.4999966621
 21
0.0
 31
0.0
  0
LINE
  5
79F
330
798
100
AcDbEntity
  8
FORMAT
 62
     0
100
AcDbLine
 10
0.0
 20
7.0000141859
 30
0.0
 11
0.0
 21
12.180018425
 31
0.0
  0
LINE
  5
7A0
330
798
100
AcDbEntity
  8
FORMAT
 62
     0
100
AcDbLine
 10
-7.0000141859
 20
0.0
 30
0.0
 11
-12.1799975634
 21
0.0
 31
0.0
  0
LINE
  5
7A1
330
798
100
AcDbEntity
  8
FORMAT
 62
     0
100
AcDbLine
 10
0.0
 20
-6.9999933243
 30
0.0
 11
0.0
 21
-12.1799871325
 31
0.0
  0
LINE
  5
7A2
330
798
100
AcDbEntity
  8
FORMAT
 62
     0
100
AcDbLine
 10
6.9999933243
 20
0.0
 30
0.0
 11
12.1799975634
 21
0.0
 31
0.0
  0
ENDBLK
  5
79A
330
798
100
AcDbEntity
  8
0
100
AcDbBlockEnd
  0
BLOCK
  5
7A5
330
7A4
100
AcDbEntity
  8
0
100
AcDbBlockBegin
  2
SW_CENTERMARKSYMBOL_46
 70
     0
 10
0.0
 20
0.0
 30
0.0
  3
SW_CENTERMARKSYMBOL_46
  1

  0
LINE
  5
7A7
330
7A4
100
AcDbEntity
  8
FORMAT
 62
     0
100
AcDbLine
 10
0.0
 20
0.0
 30
0.0
 11
0.0
 21
3.4999966621
 31
0.0
  0
LINE
  5
7A8
330
7A4
100
AcDbEntity
  8
FORMAT
 62
     0
100
AcDbLine
 10
0.0
 20
0.0
 30
0.0
 11
-3.4999966621
 21
0.0
 31
0.0
  0
LINE
  5
7A9
330
7A4
100
AcDbEntity
  8
FORMAT
 62
     0
100
AcDbLine
 10
0.0
 20
0.0
 30
0.0
 11
0.0
 21
-3.4999966621
 31
0.0
  0
LINE
  5
7AA
330
7A4
100
AcDbEntity
  8
FORMAT
 62
     0
100
AcDbLine
 10
0.0
 20
0.0
 30
0.0
 11
3.5000175238
 21
0.0
 31
0.0
  0
LINE
  5
7AB
330
7A4
100
AcDbEntity
  8
FORMAT
 62
     0
100
AcDbLine
 10
0.0
 20
6.9999933243
 30
0.0
 11
0.0
 21
12.1799975634
 31
0.0
  0
LINE
  5
7AC
330
7A4
100
AcDbEntity
  8
FORMAT
 62
     0
100
AcDbLine
 10
-6.9999933243
 20
0.0
 30
0.0
 11
-12.1799975634
 21
0.0
 31
0.0
  0
LINE
  5
7AD
330
7A4
100
AcDbEntity
  8
FORMAT
 62
     0
100
AcDbLine
 10
0.0
 20
-6.9999933243
 30
0.0
 11
0.0
 21
-12.1799975634
 31
0.0
  0
LINE
  5
7AE
330
7A4
100
AcDbEntity
  8
FORMAT
 62
     0
100
AcDbLine
 10
7.0000141859
 20
0.0
 30
0.0
 11
12.180018425
 21
0.0
 31
0.0
  0
ENDBLK
  5
7A6
330
7A4
100
AcDbEntity
  8
0
100
AcDbBlockEnd
  0
BLOCK
  5
7B1
330
7B0
100
AcDbEntity
  8
0
100
AcDbBlockBegin
  2
SW_CENTERMARKSYMBOL_47
 70
     0
 10
0.0
 20
0.0
 30
0.0
  3
SW_CENTERMARKSYMBOL_47
  1

  0
LINE
  5
7B3
330
7B0
100
AcDbEntity
  8
FORMAT
 62
     0
100
AcDbLine
 10
0.0
 20
0.0
 30
0.0
 11
0.0
 21
3.4999966621
 31
0.0
  0
LINE
  5
7B4
330
7B0
100
AcDbEntity
  8
FORMAT
 62
     0
100
AcDbLine
 10
0.0
 20
0.0
 30
0.0
 11
-3.4999966621
 21
0.0
 31
0.0
  0
LINE
  5
7B5
330
7B0
100
AcDbEntity
  8
FORMAT
 62
     0
100
AcDbLine
 10
0.0
 20
0.0
 30
0.0
 11
0.0
 21
-3.4999966621
 31
0.0
  0
LINE
  5
7B6
330
7B0
100
AcDbEntity
  8
FORMAT
 62
     0
100
AcDbLine
 10
0.0
 20
0.0
 30
0.0
 11
3.4999966621
 21
0.0
 31
0.0
  0
LINE
  5
7B7
330
7B0
100
AcDbEntity
  8
FORMAT
 62
     0
100
AcDbLine
 10
0.0
 20
6.9999933243
 30
0.0
 11
0.0
 21
12.1799975634
 31
0.0
  0
LINE
  5
7B8
330
7B0
100
AcDbEntity
  8
FORMAT
 62
     0
100
AcDbLine
 10
-7.0000141859
 20
0.0
 30
0.0
 11
-12.1799975634
 21
0.0
 31
0.0
  0
LINE
  5
7B9
330
7B0
100
AcDbEntity
  8
FORMAT
 62
     0
100
AcDbLine
 10
0.0
 20
-7.0000141859
 30
0.0
 11
0.0
 21
-12.1799975634
 31
0.0
  0
LINE
  5
7BA
330
7B0
100
AcDbEntity
  8
FORMAT
 62
     0
100
AcDbLine
 10
6.9999933243
 20
0.0
 30
0.0
 11
12.1799975634
 21
0.0
 31
0.0
  0
ENDBLK
  5
7B2
330
7B0
100
AcDbEntity
  8
0
100
AcDbBlockEnd
  0
BLOCK
  5
7BD
330
7BC
100
AcDbEntity
  8
0
100
AcDbBlockBegin
  2
SW_CENTERMARKSYMBOL_48
 70
     0
 10
0.0
 20
0.0
 30
0.0
  3
SW_CENTERMARKSYMBOL_48
  1

  0
LINE
  5
7BF
330
7BC
100
AcDbEntity
  8
FORMAT
 62
     0
100
AcDbLine
 10
0.0
 20
0.0
 30
0.0
 11
0.0
 21
3.5000175238
 31
0.0
  0
LINE
  5
7C0
330
7BC
100
AcDbEntity
  8
FORMAT
 62
     0
100
AcDbLine
 10
0.0
 20
0.0
 30
0.0
 11
-3.4999966621
 21
0.0
 31
0.0
  0
LINE
  5
7C1
330
7BC
100
AcDbEntity
  8
FORMAT
 62
     0
100
AcDbLine
 10
0.0
 20
0.0
 30
0.0
 11
0.0
 21
-3.4999966621
 31
0.0
  0
LINE
  5
7C2
330
7BC
100
AcDbEntity
  8
FORMAT
 62
     0
100
AcDbLine
 10
0.0
 20
0.0
 30
0.0
 11
3.5000175238
 21
0.0
 31
0.0
  0
LINE
  5
7C3
330
7BC
100
AcDbEntity
  8
FORMAT
 62
     0
100
AcDbLine
 10
0.0
 20
7.0000141859
 30
0.0
 11
0.0
 21
12.1799975634
 31
0.0
  0
LINE
  5
7C4
330
7BC
100
AcDbEntity
  8
FORMAT
 62
     0
100
AcDbLine
 10
-6.9999933243
 20
0.0
 30
0.0
 11
-12.1799975634
 21
0.0
 31
0.0
  0
LINE
  5
7C5
330
7BC
100
AcDbEntity
  8
FORMAT
 62
     0
100
AcDbLine
 10
0.0
 20
-6.9999933243
 30
0.0
 11
0.0
 21
-12.1799975634
 31
0.0
  0
LINE
  5
7C6
330
7BC
100
AcDbEntity
  8
FORMAT
 62
     0
100
AcDbLine
 10
7.0000141859
 20
0.0
 30
0.0
 11
12.180018425
 21
0.0
 31
0.0
  0
ENDBLK
  5
7BE
330
7BC
100
AcDbEntity
  8
0
100
AcDbBlockEnd
  0
BLOCK
  5
7C9
330
7C8
100
AcDbEntity
  8
0
100
AcDbBlockBegin
  2
SW_CENTERMARKSYMBOL_49
 70
     0
 10
0.0
 20
0.0
 30
0.0
  3
SW_CENTERMARKSYMBOL_49
  1

  0
LINE
  5
7CB
330
7C8
100
AcDbEntity
  8
FORMAT
 62
     0
100
AcDbLine
 10
0.0
 20
0.0
 30
0.0
 11
0.0
 21
3.4999966621
 31
0.0
  0
LINE
  5
7CC
330
7C8
100
AcDbEntity
  8
FORMAT
 62
     0
100
AcDbLine
 10
0.0
 20
0.0
 30
0.0
 11
-3.4999966621
 21
0.0
 31
0.0
  0
LINE
  5
7CD
330
7C8
100
AcDbEntity
  8
FORMAT
 62
     0
100
AcDbLine
 10
0.0
 20
0.0
 30
0.0
 11
0.0
 21
-3.4999966621
 31
0.0
  0
LINE
  5
7CE
330
7C8
100
AcDbEntity
  8
FORMAT
 62
     0
100
AcDbLine
 10
0.0
 20
0.0
 30
0.0
 11
3.4999966621
 21
0.0
 31
0.0
  0
LINE
  5
7CF
330
7C8
100
AcDbEntity
  8
FORMAT
 62
     0
100
AcDbLine
 10
0.0
 20
6.9999933243
 30
0.0
 11
0.0
 21
12.1799975634
 31
0.0
  0
LINE
  5
7D0
330
7C8
100
AcDbEntity
  8
FORMAT
 62
     0
100
AcDbLine
 10
-7.0000141859
 20
0.0
 30
0.0
 11
-12.1799975634
 21
0.0
 31
0.0
  0
LINE
  5
7D1
330
7C8
100
AcDbEntity
  8
FORMAT
 62
     0
100
AcDbLine
 10
0.0
 20
-6.9999933243
 30
0.0
 11
0.0
 21
-12.1799975634
 31
0.0
  0
LINE
  5
7D2
330
7C8
100
AcDbEntity
  8
FORMAT
 62
     0
100
AcDbLine
 10
6.9999933243
 20
0.0
 30
0.0
 11
12.1799975634
 21
0.0
 31
0.0
  0
ENDBLK
  5
7CA
330
7C8
100
AcDbEntity
  8
0
100
AcDbBlockEnd
  0
ENDSEC
  0
SECTION
  2
ENTITIES
  0
LINE
  5
CA
330
1F
100
AcDbEntity
  8
FORMAT
  6
Continuous
 62
     7
370
    18
100
AcDbLine
 10
2648.7467156628
 20
249.0548071362
 30
0.0
 11
2121.8704816337
 21
249.0548071362
 31
0.0
  0
LINE
  5
CB
330
1F
100
AcDbEntity
  8
FORMAT
  6
Continuous
 62
     7
370
    18
100
AcDbLine
 10
2648.7467156628
 20
341.1944719343
 30
0.0
 11
2869.6070185003
 21
341.1944719343
 31
0.0
  0
LINE
  5
CC
330
1F
100
AcDbEntity
  8
0
  6
Continuous
 62
     7
370
    18
100
AcDbLine
 10
2552.9704263625
 20
249.0548071362
 30
0.0
 11
2552.9704263625
 21
181.3583509723
 31
0.0
  0
LINE
  5
CD
330
1F
100
AcDbEntity
  8
FORMAT
100
AcDbLine
 10
2869.6070185003
 20
2009.0
 30
0.0
 11
69.6070185003
 21
2009.0
 31
0.0
  0
LINE
  5
CE
330
1F
100
AcDbEntity
  8
FORMAT
100
AcDbLine
 10
69.6070185003
 20
2009.0
 30
0.0
 11
69.6070185003
 21
70.0
 31
0.0
  0
LINE
  5
CF
330
1F
100
AcDbEntity
  8
BEMASSUNG
  6
Continuous
 62
     7
370
    18
100
AcDbLine
 10
2648.7467156628
 20
283.9466531596
 30
0.0
 11
2869.6070185003
 21
283.9466531596
 31
0.0
  0
LINE
  5
D0
330
1F
100
AcDbEntity
  8
FORMAT
100
AcDbLine
 10
69.6070185003
 20
70.0
 30
0.0
 11
2869.6070185003
 21
70.0
 31
0.0
  0
LINE
  5
D1
330
1F
100
AcDbEntity
  8
FORMAT
100
AcDbLine
 10
2869.6070185003
 20
70.0
 30
0.0
 11
2869.6070185003
 21
2009.0
 31
0.0
  0
LINE
  5
D2
330
1F
100
AcDbEntity
  8
0
  6
Continuous
 62
     7
370
    18
100
AcDbLine
 10
2121.8704816337
 20
368.7467824209
 30
0.0
 11
2121.8704816337
 21
70.0000160588
 31
0.0
  0
LINE
  5
D3
330
1F
100
AcDbEntity
  8
0
  6
Continuous
 62
     7
370
    18
100
AcDbLine
 10
2766.39523512
 20
70.0
 30
0.0
 11
2766.39523512
 21
135.4292810523
 31
0.0
  0
LINE
  5
D4
330
1F
100
AcDbEntity
  8
0
  6
Continuous
 62
     7
370
    18
100
AcDbLine
 10
2121.8704816337
 20
181.3583509723
 30
0.0
 11
2869.6070185003
 21
181.3583509723
 31
0.0
  0
LINE
  5
D5
330
1F
100
AcDbEntity
  8
0
  6
Continuous
 62
     7
370
    18
100
AcDbLine
 10
2648.7467156628
 20
135.4292810523
 30
0.0
 11
2869.6070185003
 21
135.4292810523
 31
0.0
  0
LINE
  5
D6
330
1F
100
AcDbEntity
  8
0
  6
Continuous
 62
     7
370
    18
100
AcDbLine
 10
2121.8704816337
 20
368.7467824209
 30
0.0
 11
2869.7006917056
 21
368.7467824209
 31
0.0
  0
LINE
  5
D7
330
1F
100
AcDbEntity
  8
0
  6
Continuous
 62
     7
370
    18
100
AcDbLine
 10
2648.7467156628
 20
70.0
 30
0.0
 11
2648.7467156628
 21
368.7467824209
 31
0.0
  0
INSERT
  5
D8
330
1F
100
AcDbEntity
  8
0
  6
Continuous
 62
     7
100
AcDbBlockReference
  2
Block1_3_1
 10
2700.6135347481
 20
189.6696797211
 30
0.0
  0
INSERT
  5
D9
330
1F
100
AcDbEntity
  8
0
  6
Continuous
 62
     7
100
AcDbBlockReference
  2
Block2_3_1
 10
509.1807851128
 20
-261.5944962483
 30
0.0
  0
INSERT
  5
DA
330
1F
100
AcDbEntity
  8
FORMAT
100
AcDbBlockReference
  2
rechtlicher_Hinweis_Katalogzeichnungen_1
 10
86.2294908427
 20
31.5549972483
 30
0.0
 41
0.5
 42
0.5
 43
0.5
  0
MTEXT
  5
DB
330
1F
100
AcDbEntity
  8
FORMAT
100
AcDbMText
 10
2097.5005397018
 20
603.9459395244
 30
0.0
 40
18.5208333333
 41
0.0
 71
     1
 72
     1
  1
* Abstand Unterkante Hebel zu Oberkante Türflügel
  7
SLDTEXTSTYLE0
 73
     1
 44
1.0
  0
INSERT
  5
E2
330
1F
100
AcDbEntity
  8
FORMAT
100
AcDbBlockReference
  2
SW_NOTE_0_4
 10
89.6854922132
 20
376.2736854505
 30
0.0
  0
MTEXT
  5
E3
330
1F
100
AcDbEntity
  8
FORMAT
100
AcDbMText
 10
2198.515404856
 20
1937.9414269032
 30
0.0
 40
18.5208333333
 41
0.0
 71
     1
 72
     1
  1
***
  7
SLDTEXTSTYLE0
 73
     1
 44
1.0
  0
MTEXT
  5
E4
330
1F
100
AcDbEntity
  8
FORMAT
100
AcDbMText
 10
2133.0532639634
 20
1250.1954447221
 30
0.0
 40
18.5208333333
 41
0.0
 71
     1
 72
     1
  1
*** Sturztiefe
  7
SLDTEXTSTYLE0
 73
     1
 44
1.0
  0
INSERT
  5
EB
330
1F
100
AcDbEntity
  8
FORMAT
100
AcDbBlockReference
  2
SW_NOTE_0_5
 10
2121.2495445992
 20
444.2360899467
 30
0.0
  0
MTEXT
  5
EC
330
1F
100
AcDbEntity
  8
0
  6
Continuous
 62
     7
370
     0
100
AcDbMText
 10
2655.2495495755
 20
165.0094332157
 30
0.0
 40
14.0
 41
0.0
 71
     1
 72
     1
  1
Maßstab:
  7
SLDTEXTSTYLE0
 73
     1
 44
1.0
  0
MTEXT
  5
ED
330
1F
100
AcDbEntity
  8
0
  6
Continuous
 62
     7
370
     0
100
AcDbMText
 10
2785.9502817651
 20
125.2286542559
 30
0.0
 40
14.0
 41
0.0
 71
     1
 72
     1
  1
Format
  7
SLDTEXTSTYLE0
 73
     1
 44
1.0
  0
MTEXT
  5
EE
330
1F
100
AcDbEntity
  8
0
  6
Continuous
 62
     7
370
     0
100
AcDbMText
 10
2135.8123898948
 20
356.9818853041
 30
0.0
 40
14.0
 41
0.0
 71
     1
 72
     1
  1
Benennung:
  7
SLDTEXTSTYLE0
 73
     1
 44
1.0
  0
MTEXT
  5
EF
330
1F
100
AcDbEntity
  8
0
  6
Continuous
 62
     7
370
     0
100
AcDbMText
 10
2664.5005395913
 20
125.2286542559
 30
0.0
 40
14.0
 41
0.0
 71
     1
 72
     1
  1
Blatt / von
  7
SLDTEXTSTYLE0
 73
     1
 44
1.0
  0
MTEXT
  5
F0
330
1F
100
AcDbEntity
  8
0
  6
Continuous
 62
     7
370
     0
100
AcDbMText
 10
2706.4725907482
 20
100.6974422258
 30
0.0
 40
17.5
 41
0.0
 71
     2
 72
     1
  1
/
  7
SLDTEXTSTYLE0
 73
     1
 44
1.0
  0
MTEXT
  5
F2
330
1F
100
AcDbEntity
  8
0
  6
Continuous
 62
     7
370
     0
100
AcDbMText
 10
2134.2541581219
 20
214.7882486886
 30
0.0
 40
22.225
 41
0.0
 71
     1
 72
     1
  1
D052-49347
  7
SLDTEXTSTYLE3
 73
     1
 44
1.0
  0
MTEXT
  5
F3
330
1F
100
AcDbEntity
  8
0
  6
Continuous
 62
     7
370
     0
100
AcDbMText
 10
2752.495267605
 20
165.9085614452
 30
0.0
 40
14.8166666667
 41
0.0
 71
     1
 72
     1
  1
1:7
  7
SLDTEXTSTYLE0
 73
     1
 44
1.0
  0
MTEXT
  5
F4
330
1F
100
AcDbEntity
  8
0
  6
Continuous
 62
     7
370
     0
100
AcDbMText
 10
2803.7489693293
 20
99.2074950551
 30
0.0
 40
14.8166666667
 41
0.0
 71
     1
 72
     1
  1
A3
  7
SLDTEXTSTYLE0
 73
     1
 44
1.0
  0
MTEXT
  5
F5
330
1F
100
AcDbEntity
  8
0
  6
Continuous
 62
     7
370
     0
100
AcDbMText
 10
2680.0334055091
 20
99.9642475618
 30
0.0
 40
14.8166666667
 41
0.0
 71
     1
 72
     1
  1
1
  7
SLDTEXTSTYLE0
 73
     1
 44
1.0
  0
MTEXT
  5
F6
330
1F
100
AcDbEntity
  8
0
  6
Continuous
 62
     7
370
     0
100
AcDbMText
 10
2722.5410575592
 20
99.9642475618
 30
0.0
 40
14.8166666667
 41
0.0
 71
     1
 72
     1
  1
1
  7
SLDTEXTSTYLE0
 73
     1
 44
1.0
  0
MTEXT
  5
F7
330
1F
100
AcDbEntity
  8
FORMAT
100
AcDbMText
 10
2137.971220638
 20
240.9301481691
 30
0.0
 40
14.0
 41
0.0
 71
     1
 72
     1
  1
Zeichnungsnummer:
  7
SLDTEXTSTYLE0
 73
     1
 44
1.0
  0
MTEXT
  5
F8
330
1F
100
AcDbEntity
  8
FORMAT
100
AcDbMText
 10
2666.6233339517
 20
361.2067203863
 30
0.0
 40
12.6
 41
0.0
 71
     1
 72
     1
  1
KATALOGZEICHNUNG
  7
SLDTEXTSTYLE3
 73
     1
 44
1.0
  0
MTEXT
  5
F9
330
1F
100
AcDbEntity
  8
FORMAT
100
AcDbMText
 10
2573.4610565193
 20
241.0417881835
 30
0.0
 40
14.0
 41
0.0
 71
     1
 72
     1
  1
Index:
  7
SLDTEXTSTYLE0
 73
     1
 44
1.0
  0
MTEXT
  5
FA
330
1F
100
AcDbEntity
  8
BEMASSUNG
 62
     7
100
AcDbMText
 10
2654.3752871088
 20
335.5547520888
 30
0.0
 40
14.0
 41
0.0
 71
     1
 72
     1
  1
Ausführung:
  7
SLDTEXTSTYLE0
 73
     1
 44
1.0
  0
MTEXT
  5
FB
330
1F
100
AcDbEntity
  8
FORMAT
100
AcDbMText
 10
2592.6394653786
 20
211.4361979484
 30
0.0
 40
17.5
 41
0.0
 71
     1
 72
     1
  1
a
  7
SLDTEXTSTYLE3
 73
     1
 44
1.0
  0
MTEXT
  5
FC
330
1F
100
AcDbEntity
  8
FORMAT
100
AcDbMText
 10
2134.4508235056
 20
277.1473496808
 30
0.0
 40
17.5
 41
0.0
 71
     1
 72
     1
  1
Bandseite DIN Links
  7
SLDTEXTSTYLE3
 73
     1
 44
1.0
  0
MTEXT
  5
FD
330
1F
100
AcDbEntity
  8
FORMAT
100
AcDbMText
 10
2134.4508235056
 20
333.2914097385
 30
0.0
 40
24.5
 41
0.0
 71
     1
 72
     1
  1
ETS 64-R (GSZ - GB 46 - AV 0)
  7
SLDTEXTSTYLE3
 73
     1
 44
1.0
  0
LINE
  5
FE
330
1F
100
AcDbEntity
  8
0
  6
Continuous
 62
     7
370
    25
100
AcDbLine
 10
1156.4184998688
 20
1651.3656851124
 30
0.0
 11
1156.4184998688
 21
1621.3656851166
 31
0.0
  0
LINE
  5
FF
330
1F
100
AcDbEntity
  8
0
  6
Continuous
 62
     7
370
    25
100
AcDbLine
 10
1170.4184998688
 20
1621.3656851166
 30
0.0
 11
1170.4184998688
 21
1651.3656851124
 31
0.0
  0
LINE
  5
100
330
1F
100
AcDbEntity
  8
0
  6
Continuous
 62
     7
370
    25
100
AcDbLine
 10
1168.4184998688
 20
1651.3656851124
 30
0.0
 11
1168.4184998688
 21
1651.8656851124
 31
0.0
  0
LINE
  5
101
330
1F
100
AcDbEntity
  8
0
  6
Continuous
 62
     7
370
    25
100
AcDbLine
 10
1158.4184998688
 20
1651.8656851124
 30
0.0
 11
1158.4184998688
 21
1651.3656851124
 31
0.0
  0
ARC
  5
102
330
1F
100
AcDbEntity
  8
0
  6
Continuous
 62
     7
370
    25
100
AcDbCircle
 10
785.4646673347
 20
1661.8656851125
 30
0.0
 40
3.000000000000227
100
AcDbArc
 50
179.9999999999
 51
270.0
  0
LINE
  5
103
330
1F
100
AcDbEntity
  8
0
  6
Continuous
 62
     7
370
    25
100
AcDbLine
 10
752.4646673348
 20
1664.365685127
 30
0.0
 11
752.4646673348
 21
1652.8656851125
 31
0.0
  0
LINE
  5
104
330
1F
100
AcDbEntity
  8
0
  6
Continuous
 62
     7
370
    25
100
AcDbLine
 10
782.4646673347
 20
1661.8656851125
 30
0.0
 11
782.4646673347
 21
1664.365685127
 31
0.0
  0
LINE
  5
105
330
1F
100
AcDbEntity
  8
0
  6
Continuous
 62
     7
370
    25
100
AcDbLine
 10
752.4646673348
 20
1652.8656851125
 30
0.0
 11
753.4646673348
 21
1651.8656851125
 31
0.0
  0
LINE
  5
106
330
1F
100
AcDbEntity
  8
0
  6
Continuous
 62
     7
370
    25
100
AcDbLine
 10
1174.4184998687
 20
1657.8656851124
 30
0.0
 11
1173.4184998687
 21
1658.8656851124
 31
0.0
  0
LINE
  5
107
330
1F
100
AcDbEntity
  8
0
  6
Continuous
 62
     7
370
    25
100
AcDbLine
 10
1173.4184998687
 20
1651.8656851124
 30
0.0
 11
1174.4184998687
 21
1652.8656851124
 31
0.0
  0
LINE
  5
108
330
1F
100
AcDbEntity
  8
0
  6
Continuous
 62
     7
370
    25
100
AcDbLine
 10
1174.4184998687
 20
1652.8656851124
 30
0.0
 11
1174.4184998687
 21
1657.8656851124
 31
0.0
  0
LINE
  5
109
330
1F
100
AcDbEntity
  8
0
  6
Continuous
 62
     7
370
    25
100
AcDbLine
 10
475.4646673348
 20
1467.8656851132
 30
0.0
 11
475.4646673348
 21
1427.8656851132
 31
0.0
  0
LINE
  5
10A
330
1F
100
AcDbEntity
  8
0
  6
Continuous
 62
     7
370
    25
100
AcDbLine
 10
499.4946673348
 20
1467.8656851132
 30
0.0
 11
499.4946673348
 21
1497.8656851132
 31
0.0
  0
LINE
  5
10B
330
1F
100
AcDbEntity
  8
0
  6
Continuous
 62
     7
370
    25
100
AcDbLine
 10
499.4946673348
 20
1397.8656851132
 30
0.0
 11
499.4946673348
 21
1427.8656851132
 31
0.0
  0
LINE
  5
10C
330
1F
100
AcDbEntity
  8
0
  6
Continuous
 62
     7
370
    25
100
AcDbLine
 10
1170.4184998688
 20
1651.3656851124
 30
0.0
 11
1156.4184998688
 21
1651.3656851124
 31
0.0
  0
LWPOLYLINE
  5
10D
330
1F
100
AcDbEntity
  8
0
  6
Continuous
 62
     7
370
    25
100
AcDbPolyline
 90
       16
 70
   128
 43
0.0
 10
780.6501829358
 20
1658.8656851125
 10
778.8564175489
 20
1659.0019429136
 10
777.0174279728
 20
1659.3613013324
 10
775.1292718038
 20
1659.8869994579
 10
773.8289993907
 20
1660.3113172584
 10
772.3682174752
 20
1660.8279525668
 10
772.0319993247
 20
1660.9509774764
 10
771.6891500512
 20
1661.07762115
 10
771.3395236931
 20
1661.207711757
 10
770.9829470074
 20
1661.3410530336
 10
769.957117945
 20
1661.7285866179
 10
769.692301451
 20
1661.8287443038
 10
769.6218734941
 20
1661.8551221101
 10
769.6021636228
 20
1661.8623805628
 10
769.5961855777
 20
1661.8645270778
 10
769.5927923349
 20
1661.8656851125
  0
LINE
  5
10E
330
1F
100
AcDbEntity
  8
0
  6
Continuous
 62
     7
370
    25
100
AcDbLine
 10
780.7920579358
 20
1657.8656851125
 30
0.0
 11
780.6501829358
 21
1658.8656851125
 31
0.0
  0
LWPOLYLINE
  5
10F
330
1F
100
AcDbEntity
  8
0
  6
Continuous
 62
     7
370
    25
100
AcDbPolyline
 90
       16
 70
   128
 43
0.0
 10
780.7920579358
 20
1657.8656851125
 10
778.813836957
 20
1658.0449532086
 10
776.8471874636
 20
1658.523822502
 10
774.905250324
 20
1659.2274451503
 10
774.0684614147
 20
1659.5881148433
 10
773.1690814647
 20
1660.0063135432
 10
772.2071104739
 20
1660.4820412501
 10
770.8945923486
 20
1661.16617439
 10
770.6566481953
 20
1661.2928509431
 10
770.4394837139
 20
1661.409231685
 10
770.2430989044
 20
1661.5153166154
 10
769.7693029103
 20
1661.7718033868
 10
769.6438869453
 20
1661.8390698803
 10
769.6090494708
 20
1661.8574589041
 10
769.5985983605
 20
1661.8628423602
 10
769.5927923349
 20
1661.8656851125
  0
LINE
  5
110
330
1F
100
AcDbEntity
  8
0
  6
Continuous
 62
     7
370
    25
100
AcDbLine
 10
769.5927923349
 20
1652.8656851125
 30
0.0
 11
769.5927923349
 21
1661.8656851125
 31
0.0
  0
LINE
  5
111
330
1F
100
AcDbEntity
  8
0
  6
Continuous
 62
     7
370
    25
100
AcDbLine
 10
769.5927923349
 20
1652.8656851125
 30
0.0
 11
752.4646673348
 21
1652.8656851125
 31
0.0
  0
LINE
  5
112
330
1F
100
AcDbEntity
  8
0
  6
Continuous
 62
     7
370
    25
100
AcDbLine
 10
769.4509173349
 20
1651.8656851125
 30
0.0
 11
769.5927923349
 21
1652.8656851125
 31
0.0
  0
LINE
  5
113
330
1F
100
AcDbEntity
  8
0
  6
Continuous
 62
     7
370
    25
100
AcDbLine
 10
769.4509173349
 20
1651.8656851125
 30
0.0
 11
753.4646673348
 21
1651.8656851125
 31
0.0
  0
LINE
  5
114
330
1F
100
AcDbEntity
  8
0
  6
Continuous
 62
     7
370
    25
100
AcDbLine
 10
977.9350712042
 20
1652.8656851124
 30
0.0
 11
977.9350712042
 21
1657.8656851124
 31
0.0
  0
LINE
  5
115
330
1F
100
AcDbEntity
  8
0
  6
Continuous
 62
     7
370
    25
100
AcDbLine
 10
977.9350712042
 20
1652.8656851124
 30
0.0
 11
769.5927923349
 21
1652.8656851125
 31
0.0
  0
LINE
  5
116
330
1F
100
AcDbEntity
  8
0
  6
Continuous
 62
     7
370
    25
100
AcDbLine
 10
977.9350712042
 20
1657.8656851124
 30
0.0
 11
780.7920579358
 21
1657.8656851125
 31
0.0
  0
LINE
  5
117
330
1F
100
AcDbEntity
  8
0
  6
Continuous
 62
     7
370
    25
100
AcDbLine
 10
977.9350712042
 20
1652.8656851124
 30
0.0
 11
977.7931962042
 21
1651.8656851124
 31
0.0
  0
LINE
  5
118
330
1F
100
AcDbEntity
  8
0
  6
Continuous
 62
     7
370
    25
100
AcDbLine
 10
977.7931962042
 20
1651.8656851124
 30
0.0
 11
769.4509173349
 21
1651.8656851125
 31
0.0
  0
LINE
  5
119
330
1F
100
AcDbEntity
  8
0
  6
Continuous
 62
     7
370
    25
100
AcDbLine
 10
780.6501829358
 20
1658.8656851125
 30
0.0
 11
977.7931962042
 21
1658.8656851124
 31
0.0
  0
LINE
  5
11A
330
1F
100
AcDbEntity
  8
0
  6
Continuous
 62
     7
370
    25
100
AcDbLine
 10
977.9350712042
 20
1657.8656851124
 30
0.0
 11
977.7931962042
 21
1658.8656851124
 31
0.0
  0
LINE
  5
11B
330
1F
100
AcDbEntity
  8
0
  6
Continuous
 62
     7
370
    25
100
AcDbLine
 10
978.8173278979
 20
1651.8656851124
 30
0.0
 11
978.9801035447
 21
1652.8656851124
 31
0.0
  0
LINE
  5
11C
330
1F
100
AcDbEntity
  8
0
  6
Continuous
 62
     7
370
    25
100
AcDbLine
 10
977.9350712042
 20
1652.8656851124
 30
0.0
 11
978.9801035447
 21
1652.8656851124
 31
0.0
  0
LINE
  5
11D
330
1F
100
AcDbEntity
  8
0
  6
Continuous
 62
     7
370
    25
100
AcDbLine
 10
978.8173278979
 20
1651.8656851124
 30
0.0
 11
977.7931962042
 21
1651.8656851124
 31
0.0
  0
LINE
  5
11E
330
1F
100
AcDbEntity
  8
0
  6
Continuous
 62
     7
370
    25
100
AcDbLine
 10
978.9801035447
 20
1657.8656851124
 30
0.0
 11
977.9350712042
 21
1657.8656851124
 31
0.0
  0
LINE
  5
11F
330
1F
100
AcDbEntity
  8
0
  6
Continuous
 62
     7
370
    25
100
AcDbLine
 10
978.9801035447
 20
1657.8656851124
 30
0.0
 11
978.9801035447
 21
1652.8656851124
 31
0.0
  0
LINE
  5
120
330
1F
100
AcDbEntity
  8
0
  6
Continuous
 62
     7
370
    25
100
AcDbLine
 10
978.8173278979
 20
1658.8656851124
 30
0.0
 11
978.9801035447
 21
1657.8656851124
 31
0.0
  0
LINE
  5
121
330
1F
100
AcDbEntity
  8
0
  6
Continuous
 62
     7
370
    25
100
AcDbLine
 10
977.7931962042
 20
1658.8656851124
 30
0.0
 11
978.8173278979
 21
1658.8656851124
 31
0.0
  0
LINE
  5
122
330
1F
100
AcDbEntity
  8
0
  6
Continuous
 62
     7
370
    25
100
AcDbLine
 10
1165.046256337
 20
1651.8656851124
 30
0.0
 11
1165.2090319838
 21
1652.8656851124
 31
0.0
  0
LINE
  5
123
330
1F
100
AcDbEntity
  8
0
  6
Continuous
 62
     7
370
    25
100
AcDbLine
 10
1165.2090319838
 20
1652.8656851124
 30
0.0
 11
978.9801035447
 21
1652.8656851124
 31
0.0
  0
LINE
  5
124
330
1F
100
AcDbEntity
  8
0
  6
Continuous
 62
     7
370
    25
100
AcDbLine
 10
1165.046256337
 20
1651.8656851124
 30
0.0
 11
978.8173278979
 21
1651.8656851124
 31
0.0
  0
LINE
  5
125
330
1F
100
AcDbEntity
  8
0
  6
Continuous
 62
     7
370
    25
100
AcDbLine
 10
1165.2090319838
 20
1657.8656851124
 30
0.0
 11
1165.046256337
 21
1658.8656851124
 31
0.0
  0
LINE
  5
126
330
1F
100
AcDbEntity
  8
0
  6
Continuous
 62
     7
370
    25
100
AcDbLine
 10
1165.2090319838
 20
1657.8656851124
 30
0.0
 11
978.9801035447
 21
1657.8656851124
 31
0.0
  0
LINE
  5
127
330
1F
100
AcDbEntity
  8
0
  6
Continuous
 62
     7
370
    25
100
AcDbLine
 10
978.8173278979
 20
1658.8656851124
 30
0.0
 11
1165.046256337
 21
1658.8656851124
 31
0.0
  0
LINE
  5
128
330
1F
100
AcDbEntity
  8
0
  6
Continuous
 62
     7
370
    25
100
AcDbLine
 10
1165.2090319838
 20
1652.8656851124
 30
0.0
 11
1165.2090319838
 21
1657.8656851124
 31
0.0
  0
LINE
  5
129
330
1F
100
AcDbEntity
  8
0
  6
Continuous
 62
     7
370
    25
100
AcDbLine
 10
1174.4184998687
 20
1657.8656851124
 30
0.0
 11
1165.2090319838
 21
1657.8656851124
 31
0.0
  0
LINE
  5
12A
330
1F
100
AcDbEntity
  8
0
  6
Continuous
 62
     7
370
    25
100
AcDbLine
 10
1165.046256337
 20
1658.8656851124
 30
0.0
 11
1173.4184998687
 21
1658.8656851124
 31
0.0
  0
LINE
  5
12B
330
1F
100
AcDbEntity
  8
0
  6
Continuous
 62
     7
370
    25
100
AcDbLine
 10
1174.4184998687
 20
1652.8656851124
 30
0.0
 11
1165.2090319838
 21
1652.8656851124
 31
0.0
  0
LINE
  5
12C
330
1F
100
AcDbEntity
  8
0
  6
Continuous
 62
     7
370
    25
100
AcDbLine
 10
1173.4184998687
 20
1651.8656851124
 30
0.0
 11
1165.046256337
 21
1651.8656851124
 31
0.0
  0
LINE
  5
12D
330
1F
100
AcDbEntity
  8
0
  6
Continuous
 62
     7
370
    25
100
AcDbLine
 10
1219.4646673357
 20
1620.8656851186
 30
0.0
 11
1219.4646673357
 21
1604.8656851186
 31
0.0
  0
LINE
  5
12E
330
1F
100
AcDbEntity
  8
0
  6
Continuous
 62
     7
370
    25
100
AcDbLine
 10
1218.9646673357
 20
1604.8656851186
 30
0.0
 11
1219.4646673357
 21
1604.8656851186
 31
0.0
  0
LINE
  5
12F
330
1F
100
AcDbEntity
  8
0
  6
Continuous
 62
     7
370
    25
100
AcDbLine
 10
1218.9646673357
 20
1620.8656851186
 30
0.0
 11
1218.9646673357
 21
1604.8656851186
 31
0.0
  0
LINE
  5
130
330
1F
100
AcDbEntity
  8
0
  6
Continuous
 62
     7
370
    25
100
AcDbLine
 10
1219.4646673357
 20
1620.8656851186
 30
0.0
 11
1218.9646673357
 21
1620.8656851186
 31
0.0
  0
LINE
  5
131
330
1F
100
AcDbEntity
  8
0
  6
Continuous
 62
     7
370
    25
100
AcDbLine
 10
1201.4646673362
 20
1604.8656851186
 30
0.0
 11
1218.9646673357
 21
1604.8656851186
 31
0.0
  0
LINE
  5
132
330
1F
100
AcDbEntity
  8
0
  6
Continuous
 62
     7
370
    25
100
AcDbLine
 10
1201.4646673364
 20
1620.8656851186
 30
0.0
 11
1201.4646673362
 21
1604.8656851186
 31
0.0
  0
LINE
  5
133
330
1F
100
AcDbEntity
  8
0
  6
Continuous
 62
     7
370
    25
100
AcDbLine
 10
1218.9646673357
 20
1620.8656851186
 30
0.0
 11
1201.4646673364
 21
1620.8656851186
 31
0.0
  0
LINE
  5
134
330
1F
100
AcDbEntity
  8
0
  6
Continuous
 62
     7
370
    25
100
AcDbLine
 10
1200.9646673361
 20
1604.8656851186
 30
0.0
 11
1201.4646673362
 21
1604.8656851186
 31
0.0
  0
LINE
  5
135
330
1F
100
AcDbEntity
  8
0
  6
Continuous
 62
     7
370
    25
100
AcDbLine
 10
1200.9646673364
 20
1620.8656851186
 30
0.0
 11
1200.9646673361
 21
1604.8656851186
 31
0.0
  0
LINE
  5
136
330
1F
100
AcDbEntity
  8
0
  6
Continuous
 62
     7
370
    25
100
AcDbLine
 10
1201.4646673364
 20
1620.8656851186
 30
0.0
 11
1200.9646673364
 21
1620.8656851186
 31
0.0
  0
LINE
  5
137
330
1F
100
AcDbEntity
  8
0
  6
Continuous
 62
     7
370
    25
100
AcDbLine
 10
1201.4646673364
 20
1621.3656851186
 30
0.0
 11
1201.4646673364
 21
1620.8656851186
 31
0.0
  0
LINE
  5
138
330
1F
100
AcDbEntity
  8
0
  6
Continuous
 62
     7
370
    25
100
AcDbLine
 10
1201.4646673364
 20
1621.3656851186
 30
0.0
 11
1218.9646673357
 21
1621.3656851186
 31
0.0
  0
LINE
  5
139
330
1F
100
AcDbEntity
  8
0
  6
Continuous
 62
     7
370
    25
100
AcDbLine
 10
1218.9646673357
 20
1621.3656851186
 30
0.0
 11
1218.9646673357
 21
1620.8656851186
 31
0.0
  0
ARC
  5
13A
330
1F
100
AcDbEntity
  8
0
  6
Continuous
 62
     7
370
    25
100
AcDbCircle
 10
1218.9646673357
 20
1620.8656851186
 30
0.0
 40
0.5000000000002274
100
AcDbArc
 50
0.0000000002
 51
90.0
  0
ARC
  5
13B
330
1F
100
AcDbEntity
  8
0
  6
Continuous
 62
     7
370
    25
100
AcDbCircle
 10
1201.4646673364
 20
1620.8656851186
 30
0.0
 40
0.5000000000002274
100
AcDbArc
 50
90.0
 51
179.9999999989
  0
ARC
  5
13C
330
1F
100
AcDbEntity
  8
0
  6
Continuous
 62
     7
370
    25
100
AcDbCircle
 10
1218.9646673357
 20
1604.8656851186
 30
0.0
 40
0.5
100
AcDbArc
 50
270.0
 51
0.0
  0
LINE
  5
13D
330
1F
100
AcDbEntity
  8
0
  6
Continuous
 62
     7
370
    25
100
AcDbLine
 10
1218.9646673357
 20
1604.8656851186
 30
0.0
 11
1218.9646673357
 21
1604.3656851186
 31
0.0
  0
LINE
  5
13E
330
1F
100
AcDbEntity
  8
0
  6
Continuous
 62
     7
370
    25
100
AcDbLine
 10
1218.9646673357
 20
1604.3656851186
 30
0.0
 11
1201.4646673361
 21
1604.3656851186
 31
0.0
  0
LINE
  5
13F
330
1F
100
AcDbEntity
  8
0
  6
Continuous
 62
     7
370
    25
100
AcDbLine
 10
1201.4646673362
 20
1604.8656851186
 30
0.0
 11
1201.4646673361
 21
1604.3656851186
 31
0.0
  0
ARC
  5
140
330
1F
100
AcDbEntity
  8
0
  6
Continuous
 62
     7
370
    25
100
AcDbCircle
 10
1201.4646673361
 20
1604.8656851186
 30
0.0
 40
0.4999999999997726
100
AcDbArc
 50
179.9999999989
 51
270.0
  0
LINE
  5
141
330
1F
100
AcDbEntity
  8
0
  6
Continuous
 62
     7
370
    25
100
AcDbLine
 10
584.9646673351
 20
1620.8656851186
 30
0.0
 11
584.4646673352
 21
1620.8656851186
 31
0.0
  0
LINE
  5
142
330
1F
100
AcDbEntity
  8
0
  6
Continuous
 62
     7
370
    25
100
AcDbLine
 10
584.9646673354
 20
1604.8656851186
 30
0.0
 11
584.9646673351
 21
1620.8656851186
 31
0.0
  0
LINE
  5
143
330
1F
100
AcDbEntity
  8
0
  6
Continuous
 62
     7
370
    25
100
AcDbLine
 10
584.4646673354
 20
1604.8656851186
 30
0.0
 11
584.9646673354
 21
1604.8656851186
 31
0.0
  0
LINE
  5
144
330
1F
100
AcDbEntity
  8
0
  6
Continuous
 62
     7
370
    25
100
AcDbLine
 10
584.4646673354
 20
1604.8656851186
 30
0.0
 11
584.4646673352
 21
1620.8656851186
 31
0.0
  0
LINE
  5
145
330
1F
100
AcDbEntity
  8
0
  6
Continuous
 62
     7
370
    25
100
AcDbLine
 10
566.9646673357
 20
1604.8656851186
 30
0.0
 11
566.9646673357
 21
1620.8656851186
 31
0.0
  0
LINE
  5
146
330
1F
100
AcDbEntity
  8
0
  6
Continuous
 62
     7
370
    25
100
AcDbLine
 10
584.4646673352
 20
1620.8656851186
 30
0.0
 11
566.9646673357
 21
1620.8656851186
 31
0.0
  0
LINE
  5
147
330
1F
100
AcDbEntity
  8
0
  6
Continuous
 62
     7
370
    25
100
AcDbLine
 10
566.9646673357
 20
1604.8656851186
 30
0.0
 11
584.4646673354
 21
1604.8656851186
 31
0.0
  0
LINE
  5
148
330
1F
100
AcDbEntity
  8
0
  6
Continuous
 62
     7
370
    25
100
AcDbLine
 10
566.9646673357
 20
1604.8656851186
 30
0.0
 11
566.9646673357
 21
1604.3656851186
 31
0.0
  0
LINE
  5
149
330
1F
100
AcDbEntity
  8
0
  6
Continuous
 62
     7
370
    25
100
AcDbLine
 10
584.4646673354
 20
1604.3656851186
 30
0.0
 11
584.4646673354
 21
1604.8656851186
 31
0.0
  0
LINE
  5
14A
330
1F
100
AcDbEntity
  8
0
  6
Continuous
 62
     7
370
    25
100
AcDbLine
 10
584.4646673354
 20
1604.3656851186
 30
0.0
 11
566.9646673357
 21
1604.3656851186
 31
0.0
  0
LINE
  5
14B
330
1F
100
AcDbEntity
  8
0
  6
Continuous
 62
     7
370
    25
100
AcDbLine
 10
566.9646673357
 20
1620.8656851186
 30
0.0
 11
566.4646673357
 21
1620.8656851186
 31
0.0
  0
ARC
  5
14C
330
1F
100
AcDbEntity
  8
0
  6
Continuous
 62
     7
370
    25
100
AcDbCircle
 10
566.9646673357
 20
1620.8656851186
 30
0.0
 40
0.5
100
AcDbArc
 50
89.9999999939
 51
180.0
  0
LINE
  5
14D
330
1F
100
AcDbEntity
  8
0
  6
Continuous
 62
     7
370
    25
100
AcDbLine
 10
566.9646673357
 20
1620.8656851186
 30
0.0
 11
566.9646673358
 21
1621.3656851186
 31
0.0
  0
ARC
  5
14E
330
1F
100
AcDbEntity
  8
0
  6
Continuous
 62
     7
370
    25
100
AcDbCircle
 10
584.4646673351
 20
1620.8656851186
 30
0.0
 40
0.5000000000001137
100
AcDbArc
 50
0.000000003
 51
90.0
  0
LINE
  5
14F
330
1F
100
AcDbEntity
  8
0
  6
Continuous
 62
     7
370
    25
100
AcDbLine
 10
584.4646673352
 20
1620.8656851186
 30
0.0
 11
584.4646673351
 21
1621.3656851186
 31
0.0
  0
LINE
  5
150
330
1F
100
AcDbEntity
  8
0
  6
Continuous
 62
     7
370
    25
100
AcDbLine
 10
566.9646673358
 20
1621.3656851186
 30
0.0
 11
584.4646673351
 21
1621.3656851186
 31
0.0
  0
LINE
  5
151
330
1F
100
AcDbEntity
  8
0
  6
Continuous
 62
     7
370
    25
100
AcDbLine
 10
566.4646673357
 20
1604.8656851186
 30
0.0
 11
566.9646673357
 21
1604.8656851186
 31
0.0
  0
LINE
  5
152
330
1F
100
AcDbEntity
  8
0
  6
Continuous
 62
     7
370
    25
100
AcDbLine
 10
566.4646673357
 20
1604.8656851186
 30
0.0
 11
566.4646673357
 21
1620.8656851186
 31
0.0
  0
ARC
  5
153
330
1F
100
AcDbEntity
  8
0
  6
Continuous
 62
     7
370
    25
100
AcDbCircle
 10
566.9646673357
 20
1604.8656851186
 30
0.0
 40
0.5
100
AcDbArc
 50
180.0
 51
270.0
  0
ARC
  5
154
330
1F
100
AcDbEntity
  8
0
  6
Continuous
 62
     7
370
    25
100
AcDbCircle
 10
584.4646673354
 20
1604.8656851186
 30
0.0
 40
0.5000000000002274
100
AcDbArc
 50
270.0
 51
0.0000000011
  0
LINE
  5
155
330
1F
100
AcDbEntity
  8
0
  6
Continuous
 62
     7
370
    25
100
AcDbLine
 10
584.4646673351
 20
1621.3656851166
 30
0.0
 11
1201.4646673364
 21
1621.3656851166
 31
0.0
  0
LINE
  5
156
330
1F
100
AcDbEntity
  8
0
  6
Continuous
 62
     7
370
    25
100
AcDbLine
 10
1201.4646673361
 20
1604.3656851186
 30
0.0
 11
584.4646673354
 21
1604.3656851186
 31
0.0
  0
LINE
  5
157
330
1F
100
AcDbEntity
  8
0
  6
Continuous
 62
     7
370
    25
100
AcDbLine
 10
744.4646673348
 20
1760.365685127
 30
0.0
 11
744.4646673348
 21
1759.365685127
 31
0.0
  0
LINE
  5
158
330
1F
100
AcDbEntity
  8
0
  6
Continuous
 62
     7
370
    25
100
AcDbLine
 10
744.4646673348
 20
1760.365685127
 30
0.0
 11
790.4646673348
 21
1760.365685127
 31
0.0
  0
LINE
  5
159
330
1F
100
AcDbEntity
  8
0
  6
Continuous
 62
     7
370
    25
100
AcDbLine
 10
790.4646673348
 20
1760.365685127
 30
0.0
 11
790.4646673348
 21
1759.365685127
 31
0.0
  0
LINE
  5
15A
330
1F
100
AcDbEntity
  8
0
  6
Continuous
 62
     7
370
    25
100
AcDbLine
 10
747.6909474015
 20
1663.365685127
 30
0.0
 11
747.6909474015
 21
1664.365685127
 31
0.0
  0
LINE
  5
15B
330
1F
100
AcDbEntity
  8
0
  6
Continuous
 62
     7
370
    25
100
AcDbLine
 10
747.6909474015
 20
1663.365685127
 30
0.0
 11
744.4646673348
 21
1663.365685127
 31
0.0
  0
LINE
  5
15C
330
1F
100
AcDbEntity
  8
0
  6
Continuous
 62
     7
370
    25
100
AcDbLine
 10
744.4646673348
 20
1664.365685127
 30
0.0
 11
744.4646673348
 21
1663.365685127
 31
0.0
  0
LINE
  5
15D
330
1F
100
AcDbEntity
  8
0
  6
Continuous
 62
     7
370
    25
100
AcDbLine
 10
787.238387268
 20
1664.365685127
 30
0.0
 11
787.238387268
 21
1663.365685127
 31
0.0
  0
LINE
  5
15E
330
1F
100
AcDbEntity
  8
0
  6
Continuous
 62
     7
370
    25
100
AcDbLine
 10
790.4646673348
 20
1663.365685127
 30
0.0
 11
787.238387268
 21
1663.365685127
 31
0.0
  0
LINE
  5
15F
330
1F
100
AcDbEntity
  8
0
  6
Continuous
 62
     7
370
    25
100
AcDbLine
 10
790.4646673348
 20
1663.365685127
 30
0.0
 11
790.4646673348
 21
1664.365685127
 31
0.0
  0
LINE
  5
160
330
1F
100
AcDbEntity
  8
0
  6
Continuous
 62
     7
370
    25
100
AcDbLine
 10
787.238387268
 20
1663.365685127
 30
0.0
 11
782.4646673347
 21
1663.365685127
 31
0.0
  0
LINE
  5
161
330
1F
100
AcDbEntity
  8
0
  6
Continuous
 62
     7
370
    25
100
AcDbLine
 10
752.4646673348
 20
1663.365685127
 30
0.0
 11
747.6909474015
 21
1663.365685127
 31
0.0
  0
LINE
  5
162
330
1F
100
AcDbEntity
  8
0
  6
Continuous
 62
     7
370
    25
100
AcDbLine
 10
1169.4646673348
 20
1669.3656851269
 30
0.0
 11
1169.4646673348
 21
1754.3656851269
 31
0.0
  0
LINE
  5
163
330
1F
100
AcDbEntity
  8
0
  6
Continuous
 62
     7
370
    25
100
AcDbLine
 10
1167.4646673348
 20
1669.3656851269
 30
0.0
 11
1169.4646673348
 21
1669.3656851269
 31
0.0
  0
LINE
  5
164
330
1F
100
AcDbEntity
  8
0
  6
Continuous
 62
     7
370
    25
100
AcDbLine
 10
1167.4646673348
 20
1669.3656851269
 30
0.0
 11
1167.4646673348
 21
1754.3656851269
 31
0.0
  0
LINE
  5
165
330
1F
100
AcDbEntity
  8
0
  6
Continuous
 62
     7
370
    25
100
AcDbLine
 10
1167.4646673348
 20
1754.3656851269
 30
0.0
 11
1169.4646673348
 21
1754.3656851269
 31
0.0
  0
LINE
  5
166
330
1F
100
AcDbEntity
  8
0
  6
Continuous
 62
     7
370
    25
100
AcDbLine
 10
1169.4646673348
 20
1754.3656851269
 30
0.0
 11
1169.4646673348
 21
1759.3656851269
 31
0.0
  0
LINE
  5
167
330
1F
100
AcDbEntity
  8
0
  6
Continuous
 62
     7
370
    25
100
AcDbLine
 10
1167.4646673348
 20
1754.3656851269
 30
0.0
 11
1167.4646673348
 21
1759.3656851269
 31
0.0
  0
LINE
  5
168
330
1F
100
AcDbEntity
  8
0
  6
Continuous
 62
     7
370
    25
100
AcDbLine
 10
1167.4646673348
 20
1759.3656851269
 30
0.0
 11
1169.4646673348
 21
1759.3656851269
 31
0.0
  0
LINE
  5
169
330
1F
100
AcDbEntity
  8
0
  6
Continuous
 62
     7
370
    25
100
AcDbLine
 10
1167.4646673348
 20
1664.3656851269
 30
0.0
 11
1169.4646673348
 21
1664.3656851269
 31
0.0
  0
LINE
  5
16A
330
1F
100
AcDbEntity
  8
0
  6
Continuous
 62
     7
370
    25
100
AcDbLine
 10
1167.4646673348
 20
1664.3656851269
 30
0.0
 11
1167.4646673348
 21
1669.3656851269
 31
0.0
  0
LINE
  5
16B
330
1F
100
AcDbEntity
  8
0
  6
Continuous
 62
     7
370
    25
100
AcDbLine
 10
1169.4646673348
 20
1664.3656851269
 30
0.0
 11
1169.4646673348
 21
1669.3656851269
 31
0.0
  0
LINE
  5
16C
330
1F
100
AcDbEntity
  8
0
  6
Continuous
 62
     7
370
    25
100
AcDbLine
 10
1173.9646673348
 20
1754.3656851269
 30
0.0
 11
1173.9646673348
 21
1669.3656851222
 31
0.0
  0
LINE
  5
16D
330
1F
100
AcDbEntity
  8
0
  6
Continuous
 62
     7
370
    25
100
AcDbLine
 10
1169.4646673348
 20
1669.3656851269
 30
0.0
 11
1173.9646673348
 21
1669.3656851269
 31
0.0
  0
LINE
  5
16E
330
1F
100
AcDbEntity
  8
0
  6
Continuous
 62
     7
370
    25
100
AcDbLine
 10
1173.9646673348
 20
1754.3656851269
 30
0.0
 11
1169.4646673348
 21
1754.3656851269
 31
0.0
  0
LINE
  5
16F
330
1F
100
AcDbEntity
  8
0
  6
Continuous
 62
     7
370
    25
100
AcDbLine
 10
1173.9646673348
 20
1669.3656851175
 30
0.0
 11
1173.9646673348
 21
1666.3656851269
 31
0.0
  0
LINE
  5
170
330
1F
100
AcDbEntity
  8
0
  6
Continuous
 62
     7
370
    25
100
AcDbLine
 10
1173.9646673348
 20
1666.3656851269
 30
0.0
 11
1169.4646673348
 21
1666.3656851269
 31
0.0
  0
LINE
  5
171
330
1F
100
AcDbEntity
  8
0
  6
Continuous
 62
     7
370
    25
100
AcDbLine
 10
1176.9646673348
 20
1754.3656851269
 30
0.0
 11
1173.9646673348
 21
1754.3656851269
 31
0.0
  0
LINE
  5
172
330
1F
100
AcDbEntity
  8
0
  6
Continuous
 62
     7
370
    25
100
AcDbLine
 10
1176.9646673348
 20
1754.3656851269
 30
0.0
 11
1176.9646673348
 21
1669.3656851269
 31
0.0
  0
LINE
  5
173
330
1F
100
AcDbEntity
  8
0
  6
Continuous
 62
     7
370
    25
100
AcDbLine
 10
1173.9646673348
 20
1669.3656851269
 30
0.0
 11
1176.9646673348
 21
1669.3656851269
 31
0.0
  0
LINE
  5
174
330
1F
100
AcDbEntity
  8
0
  6
Continuous
 62
     7
370
    25
100
AcDbLine
 10
1169.4646673348
 20
1757.3656851269
 30
0.0
 11
1173.9646673348
 21
1757.3656851269
 31
0.0
  0
LINE
  5
175
330
1F
100
AcDbEntity
  8
0
  6
Continuous
 62
     7
370
    25
100
AcDbLine
 10
1173.9646673348
 20
1757.3656851269
 30
0.0
 11
1173.9646673348
 21
1754.3656851269
 31
0.0
  0
ARC
  5
176
330
1F
100
AcDbEntity
  8
0
  6
Continuous
 62
     7
370
    25
100
AcDbCircle
 10
1173.9646673348
 20
1754.3656851269
 30
0.0
 40
3.0
100
AcDbArc
 50
0.0
 51
90.0
  0
ARC
  5
177
330
1F
100
AcDbEntity
  8
0
  6
Continuous
 62
     7
370
    25
100
AcDbCircle
 10
1173.9646673348
 20
1669.3656851269
 30
0.0
 40
3.0
100
AcDbArc
 50
270.0
 51
0.0
  0
LINE
  5
178
330
1F
100
AcDbEntity
  8
0
  6
Continuous
 62
     7
370
    25
100
AcDbLine
 10
495.4646673348
 20
1759.365685127
 30
0.0
 11
495.4646673348
 21
1754.365685127
 31
0.0
  0
LINE
  5
179
330
1F
100
AcDbEntity
  8
0
  6
Continuous
 62
     7
370
    25
100
AcDbLine
 10
497.4646673348
 20
1759.365685127
 30
0.0
 11
495.4646673348
 21
1759.365685127
 31
0.0
  0
LINE
  5
17A
330
1F
100
AcDbEntity
  8
0
  6
Continuous
 62
     7
370
    25
100
AcDbLine
 10
497.4646673348
 20
1759.365685127
 30
0.0
 11
497.4646673348
 21
1754.365685127
 31
0.0
  0
LINE
  5
17B
330
1F
100
AcDbEntity
  8
0
  6
Continuous
 62
     7
370
    25
100
AcDbLine
 10
497.4646673348
 20
1754.365685127
 30
0.0
 11
495.4646673348
 21
1754.365685127
 31
0.0
  0
LINE
  5
17C
330
1F
100
AcDbEntity
  8
0
  6
Continuous
 62
     7
370
    25
100
AcDbLine
 10
495.4646673348
 20
1669.365685127
 30
0.0
 11
495.4646673348
 21
1664.365685127
 31
0.0
  0
LINE
  5
17D
330
1F
100
AcDbEntity
  8
0
  6
Continuous
 62
     7
370
    25
100
AcDbLine
 10
497.4646673348
 20
1669.365685127
 30
0.0
 11
495.4646673348
 21
1669.365685127
 31
0.0
  0
LINE
  5
17E
330
1F
100
AcDbEntity
  8
0
  6
Continuous
 62
     7
370
    25
100
AcDbLine
 10
497.4646673348
 20
1669.365685127
 30
0.0
 11
497.4646673348
 21
1664.365685127
 31
0.0
  0
LINE
  5
17F
330
1F
100
AcDbEntity
  8
0
  6
Continuous
 62
     7
370
    25
100
AcDbLine
 10
497.4646673348
 20
1664.365685127
 30
0.0
 11
495.4646673348
 21
1664.365685127
 31
0.0
  0
LINE
  5
180
330
1F
100
AcDbEntity
  8
0
  6
Continuous
 62
     7
370
    25
100
AcDbLine
 10
495.4646673348
 20
1754.365685127
 30
0.0
 11
495.4646673348
 21
1669.365685127
 31
0.0
  0
LINE
  5
181
330
1F
100
AcDbEntity
  8
0
  6
Continuous
 62
     7
370
    25
100
AcDbLine
 10
497.4646673348
 20
1754.365685127
 30
0.0
 11
497.4646673348
 21
1669.365685127
 31
0.0
  0
LINE
  5
182
330
1F
100
AcDbEntity
  8
0
  6
Continuous
 62
     7
370
    25
100
AcDbLine
 10
495.4646673348
 20
1754.365685127
 30
0.0
 11
490.9646673348
 21
1754.365685127
 31
0.0
  0
LINE
  5
183
330
1F
100
AcDbEntity
  8
0
  6
Continuous
 62
     7
370
    25
100
AcDbLine
 10
490.9646673348
 20
1754.3656851364
 30
0.0
 11
490.9646673348
 21
1757.365685127
 31
0.0
  0
LINE
  5
184
330
1F
100
AcDbEntity
  8
0
  6
Continuous
 62
     7
370
    25
100
AcDbLine
 10
490.9646673348
 20
1757.365685127
 30
0.0
 11
495.4646673348
 21
1757.365685127
 31
0.0
  0
LINE
  5
185
330
1F
100
AcDbEntity
  8
0
  6
Continuous
 62
     7
370
    25
100
AcDbLine
 10
490.9646673348
 20
1669.365685127
 30
0.0
 11
490.9646673348
 21
1754.3656851317
 31
0.0
  0
LINE
  5
186
330
1F
100
AcDbEntity
  8
0
  6
Continuous
 62
     7
370
    25
100
AcDbLine
 10
490.9646673348
 20
1669.365685127
 30
0.0
 11
495.4646673348
 21
1669.365685127
 31
0.0
  0
LINE
  5
187
330
1F
100
AcDbEntity
  8
0
  6
Continuous
 62
     7
370
    25
100
AcDbLine
 10
487.9646673348
 20
1669.365685127
 30
0.0
 11
490.9646673348
 21
1669.365685127
 31
0.0
  0
LINE
  5
188
330
1F
100
AcDbEntity
  8
0
  6
Continuous
 62
     7
370
    25
100
AcDbLine
 10
487.9646673348
 20
1669.365685127
 30
0.0
 11
487.9646673348
 21
1754.365685127
 31
0.0
  0
LINE
  5
189
330
1F
100
AcDbEntity
  8
0
  6
Continuous
 62
     7
370
    25
100
AcDbLine
 10
490.9646673348
 20
1754.365685127
 30
0.0
 11
487.9646673348
 21
1754.365685127
 31
0.0
  0
LINE
  5
18A
330
1F
100
AcDbEntity
  8
0
  6
Continuous
 62
     7
370
    25
100
AcDbLine
 10
495.4646673348
 20
1666.365685127
 30
0.0
 11
490.9646673348
 21
1666.365685127
 31
0.0
  0
LINE
  5
18B
330
1F
100
AcDbEntity
  8
0
  6
Continuous
 62
     7
370
    25
100
AcDbLine
 10
490.9646673348
 20
1666.365685127
 30
0.0
 11
490.9646673348
 21
1669.365685127
 31
0.0
  0
ARC
  5
18C
330
1F
100
AcDbEntity
  8
0
  6
Continuous
 62
     7
370
    25
100
AcDbCircle
 10
490.9646673348
 20
1669.365685127
 30
0.0
 40
3.0
100
AcDbArc
 50
180.0
 51
270.0
  0
ARC
  5
18D
330
1F
100
AcDbEntity
  8
0
  6
Continuous
 62
     7
370
    25
100
AcDbCircle
 10
490.9646673348
 20
1754.365685127
 30
0.0
 40
3.0
100
AcDbArc
 50
90.0
 51
180.0
  0
LINE
  5
18E
330
1F
100
AcDbEntity
  8
0
  6
Continuous
 62
     7
370
    25
100
AcDbLine
 10
497.4646673348
 20
1754.365685127
 30
0.0
 11
1167.4646673348
 21
1754.365685127
 31
0.0
  0
LINE
  5
18F
330
1F
100
AcDbEntity
  8
0
  6
Continuous
 62
     7
370
    25
100
AcDbLine
 10
497.4646673348
 20
1669.365685127
 30
0.0
 11
1167.4646673348
 21
1669.365685127
 31
0.0
  0
LINE
  5
190
330
1F
100
AcDbEntity
  8
0
  6
Continuous
 62
     7
370
    25
100
AcDbLine
 10
497.4646673348
 20
1664.365685127
 30
0.0
 11
1167.4646673348
 21
1664.365685127
 31
0.0
  0
LINE
  5
191
330
1F
100
AcDbEntity
  8
0
  6
Continuous
 62
     7
370
    25
100
AcDbLine
 10
497.4646673348
 20
1759.365685127
 30
0.0
 11
1167.4646673348
 21
1759.365685127
 31
0.0
  0
LINE
  5
192
330
1F
100
AcDbEntity
  8
0
  6
Continuous
 62
     7
370
    25
100
AcDbLine
 10
497.168945277
 20
1467.8656851132
 30
0.0
 11
497.168945277
 21
1427.8656851132
 31
0.0
  0
LINE
  5
193
330
1F
100
AcDbEntity
  8
0
  6
Continuous
 62
     7
370
    25
100
AcDbLine
 10
501.2123944196
 20
1467.8656851132
 30
0.0
 11
501.2123944196
 21
1427.8656851132
 31
0.0
  0
LINE
  5
194
330
1F
100
AcDbEntity
  8
0
  6
Continuous
 62
     7
370
    25
100
AcDbLine
 10
501.2123944196
 20
1467.8656851132
 30
0.0
 11
497.4566672294
 21
1467.8656851132
 31
0.0
  0
LINE
  5
195
330
1F
100
AcDbEntity
  8
0
  6
Continuous
 62
     7
370
    25
100
AcDbLine
 10
501.2123944196
 20
1427.8656851132
 30
0.0
 11
497.4566672294
 21
1427.8656851132
 31
0.0
  0
LINE
  5
196
330
1F
100
AcDbEntity
  8
0
  6
Continuous
 62
     7
370
    25
100
AcDbLine
 10
519.4646673348
 20
1467.8656851132
 30
0.0
 11
519.4646673348
 21
1427.8656851132
 31
0.0
  0
LINE
  5
197
330
1F
100
AcDbEntity
  8
0
  6
Continuous
 62
     7
370
    25
100
AcDbLine
 10
519.4646673348
 20
1467.8656851132
 30
0.0
 11
501.2123944196
 21
1467.8656851132
 31
0.0
  0
LINE
  5
198
330
1F
100
AcDbEntity
  8
0
  6
Continuous
 62
     7
370
    25
100
AcDbLine
 10
519.4646673348
 20
1427.8656851132
 30
0.0
 11
501.2123944196
 21
1427.8656851132
 31
0.0
  0
LINE
  5
199
330
1F
100
AcDbEntity
  8
0
  6
Continuous
 62
     7
370
    25
100
AcDbLine
 10
1482.4646673348
 20
1327.8656851132
 30
0.0
 11
492.4646673348
 21
1327.8656851132
 31
0.0
  0
LINE
  5
19A
330
1F
100
AcDbEntity
  8
0
  6
Continuous
 62
     7
370
    25
100
AcDbLine
 10
492.4646673348
 20
1327.8656851132
 30
0.0
 11
492.4646673348
 21
1397.8656851132
 31
0.0
  0
LINE
  5
19B
330
1F
100
AcDbEntity
  8
0
  6
Continuous
 62
     7
370
    25
100
AcDbLine
 10
492.4646673348
 20
1497.8656851132
 30
0.0
 11
492.4646673348
 21
1647.8656851132
 31
0.0
  0
LINE
  5
19C
330
1F
100
AcDbEntity
  8
0
  6
Continuous
 62
     7
370
    25
100
AcDbLine
 10
492.4646673348
 20
1647.8656851132
 30
0.0
 11
1156.4184998688
 21
1647.8656851132
 31
0.0
  0
LINE
  5
19D
330
1F
100
AcDbEntity
  8
0
  6
Continuous
 62
     7
370
    25
100
AcDbLine
 10
1170.4184998688
 20
1647.8656851132
 30
0.0
 11
1482.4646673348
 21
1647.8656851132
 31
0.0
  0
LINE
  5
19E
330
1F
100
AcDbEntity
  8
0
  6
Continuous
 62
     7
370
    25
100
AcDbLine
 10
1482.4646673348
 20
1647.8656851132
 30
0.0
 11
1482.4646673348
 21
1327.8656851132
 31
0.0
  0
LINE
  5
19F
330
1F
100
AcDbEntity
  8
0
  6
Continuous
 62
     7
370
    25
100
AcDbLine
 10
477.4801116591
 20
1497.8656851132
 30
0.0
 11
477.4801116591
 21
1467.8656851132
 31
0.0
  0
LINE
  5
1A0
330
1F
100
AcDbEntity
  8
0
  6
Continuous
 62
     7
370
    25
100
AcDbLine
 10
499.4946673348
 20
1497.8656851132
 30
0.0
 11
477.4801116591
 21
1497.8656851132
 31
0.0
  0
LINE
  5
1A1
330
1F
100
AcDbEntity
  8
0
  6
Continuous
 62
     7
370
    25
100
AcDbLine
 10
497.4566672294
 20
1467.8656851132
 30
0.0
 11
477.4801116591
 21
1467.8656851132
 31
0.0
  0
LINE
  5
1A2
330
1F
100
AcDbEntity
  8
0
  6
Continuous
 62
     7
370
    25
100
AcDbLine
 10
477.4801116591
 20
1427.8656851132
 30
0.0
 11
477.4801116591
 21
1397.8656851132
 31
0.0
  0
LINE
  5
1A3
330
1F
100
AcDbEntity
  8
0
  6
Continuous
 62
     7
370
    25
100
AcDbLine
 10
497.4566672294
 20
1427.8656851132
 30
0.0
 11
477.4801116591
 21
1427.8656851132
 31
0.0
  0
LINE
  5
1A4
330
1F
100
AcDbEntity
  8
0
  6
Continuous
 62
     7
370
    25
100
AcDbLine
 10
499.4946673348
 20
1397.8656851132
 30
0.0
 11
477.4801116591
 21
1397.8656851132
 31
0.0
  0
LINE
  5
1A5
330
1F
100
AcDbEntity
  8
0
  6
Continuous
 62
     7
370
    25
100
AcDbLine
 10
473.7146673348
 20
1497.8656851132
 30
0.0
 11
473.7146673348
 21
1467.8656851132
 31
0.0
  0
LINE
  5
1A6
330
1F
100
AcDbEntity
  8
0
  6
Continuous
 62
     7
370
    25
100
AcDbLine
 10
477.4801116591
 20
1467.8656851132
 30
0.0
 11
473.7146673348
 21
1467.8656851132
 31
0.0
  0
LINE
  5
1A7
330
1F
100
AcDbEntity
  8
0
  6
Continuous
 62
     7
370
    25
100
AcDbLine
 10
477.4801116591
 20
1497.8656851132
 30
0.0
 11
473.7146673348
 21
1497.8656851132
 31
0.0
  0
LINE
  5
1A8
330
1F
100
AcDbEntity
  8
0
  6
Continuous
 62
     7
370
    25
100
AcDbLine
 10
473.7146673348
 20
1427.8656851132
 30
0.0
 11
473.7146673348
 21
1397.8656851132
 31
0.0
  0
LINE
  5
1A9
330
1F
100
AcDbEntity
  8
0
  6
Continuous
 62
     7
370
    25
100
AcDbLine
 10
477.4801116591
 20
1397.8656851132
 30
0.0
 11
473.7146673348
 21
1397.8656851132
 31
0.0
  0
LINE
  5
1AA
330
1F
100
AcDbEntity
  8
0
  6
Continuous
 62
     7
370
    25
100
AcDbLine
 10
477.4801116591
 20
1427.8656851132
 30
0.0
 11
473.7146673348
 21
1427.8656851132
 31
0.0
  0
LINE
  5
1AB
330
1F
100
AcDbEntity
  8
0
  6
Continuous
 62
     7
370
    25
100
AcDbLine
 10
455.4646673348
 20
1427.8656851132
 30
0.0
 11
455.4646673348
 21
1397.8656851132
 31
0.0
  0
LINE
  5
1AC
330
1F
100
AcDbEntity
  8
0
  6
Continuous
 62
     7
370
    25
100
AcDbLine
 10
473.7146673348
 20
1397.8656851132
 30
0.0
 11
455.4646673348
 21
1397.8656851132
 31
0.0
  0
LINE
  5
1AD
330
1F
100
AcDbEntity
  8
0
  6
Continuous
 62
     7
370
    25
100
AcDbLine
 10
473.7146673348
 20
1427.8656851132
 30
0.0
 11
455.4646673348
 21
1427.8656851132
 31
0.0
  0
LINE
  5
1AE
330
1F
100
AcDbEntity
  8
0
  6
Continuous
 62
     7
370
    25
100
AcDbLine
 10
455.4646673348
 20
1497.8656851132
 30
0.0
 11
455.4646673348
 21
1467.8656851132
 31
0.0
  0
LINE
  5
1AF
330
1F
100
AcDbEntity
  8
0
  6
Continuous
 62
     7
370
    25
100
AcDbLine
 10
473.7146673348
 20
1467.8656851132
 30
0.0
 11
455.4646673348
 21
1467.8656851132
 31
0.0
  0
LINE
  5
1B0
330
1F
100
AcDbEntity
  8
0
  6
Continuous
 62
     7
370
    25
100
AcDbLine
 10
473.7146673348
 20
1497.8656851132
 30
0.0
 11
455.4646673348
 21
1497.8656851132
 31
0.0
  0
LINE
  5
1B1
330
1F
100
AcDbEntity
  8
0
  6
Continuous
 62
     7
370
    25
100
AcDbLine
 10
1587.4646673348
 20
1827.8656851132
 30
0.0
 11
387.4646673348
 21
1827.8656851132
 31
0.0
  0
LINE
  5
1B2
330
1F
100
AcDbEntity
  8
0
  6
Continuous
 62
     7
370
    25
100
AcDbLine
 10
1487.4646673348
 20
1327.8656851132
 30
0.0
 11
1487.4646673348
 21
1652.8656851132
 31
0.0
  0
LINE
  5
1B3
330
1F
100
AcDbEntity
  8
0
  6
Continuous
 62
     7
370
    25
100
AcDbLine
 10
1487.4646673348
 20
1652.8656851132
 30
0.0
 11
1174.4184998687
 21
1652.8656851132
 31
0.0
  0
LINE
  5
1B4
330
1F
100
AcDbEntity
  8
0
  6
Continuous
 62
     7
370
    25
100
AcDbLine
 10
752.4646673341
 20
1652.8656851132
 30
0.0
 11
487.4646673348
 21
1652.8656851132
 31
0.0
  0
LINE
  5
1B5
330
1F
100
AcDbEntity
  8
0
  6
Continuous
 62
     7
370
    25
100
AcDbLine
 10
487.4646673348
 20
1652.8656851132
 30
0.0
 11
487.4646673348
 21
1497.8656851132
 31
0.0
  0
LINE
  5
1B6
330
1F
100
AcDbEntity
  8
0
  6
Continuous
 62
     7
370
    25
100
AcDbLine
 10
487.4646673348
 20
1397.8656851132
 30
0.0
 11
487.4646673348
 21
1327.8656851132
 31
0.0
  0
LINE
  5
1B7
330
1F
100
AcDbEntity
  8
0
  6
Continuous
 62
     7
370
    25
100
AcDbLine
 10
387.4646673348
 20
1327.8656851132
 30
0.0
 11
487.4646673348
 21
1327.8656851132
 31
0.0
  0
LINE
  5
1B8
330
1F
100
AcDbEntity
  8
0
  6
Continuous
 62
     7
370
    25
100
AcDbLine
 10
1487.4646673348
 20
1327.8656851132
 30
0.0
 11
1587.4646673348
 21
1327.8656851132
 31
0.0
  0
LINE
  5
1B9
330
1F
100
AcDbEntity
  8
0
  6
Continuous
 62
     7
370
    25
100
AcDbLine
 10
387.4646673348
 20
1827.8656851132
 30
0.0
 11
387.4646673348
 21
1327.8656851132
 31
0.0
  0
LINE
  5
1BA
330
1F
100
AcDbEntity
  8
0
  6
Continuous
 62
     7
370
    25
100
AcDbLine
 10
1587.4646673348
 20
1327.8656851132
 30
0.0
 11
1587.4646673348
 21
1827.8656851132
 31
0.0
  0
LINE
  5
1BB
330
1F
100
AcDbEntity
  8
0
  6
Continuous
 62
     7
370
    25
100
AcDbLine
 10
487.4646673348
 20
1327.8656851132
 30
0.0
 11
492.4646673348
 21
1327.8656851132
 31
0.0
  0
LINE
  5
1BC
330
1F
100
AcDbEntity
  8
0
  6
Continuous
 62
     7
370
    25
100
AcDbLine
 10
1482.4646673348
 20
1327.8656851132
 30
0.0
 11
1487.4646673348
 21
1327.8656851132
 31
0.0
  0
LINE
  5
1BD
330
1F
100
AcDbEntity
  8
0
  6
Continuous
 62
     7
370
    25
100
AcDbLine
 10
769.5927923349
 20
1661.8656851125
 30
0.0
 11
782.4646673347
 21
1661.8656851125
 31
0.0
  0
LINE
  5
1BE
330
1F
100
AcDbEntity
  8
0
  6
Continuous
 62
     7
370
    25
100
AcDbLine
 10
1200.9646673364
 20
1620.8656851166
 30
0.0
 11
584.9646673351
 21
1620.8656851166
 31
0.0
  0
LINE
  5
1BF
330
1F
100
AcDbEntity
  8
0
  6
Continuous
 62
     7
370
    25
100
AcDbLine
 10
1200.9646673361
 20
1604.8656851186
 30
0.0
 11
584.9646673354
 21
1604.8656851186
 31
0.0
  0
DIMENSION
  5
1C0
330
1F
100
AcDbEntity
  8
FORMAT
100
AcDbDimension
  2
_D
 10
1219.4646673357
 20
1487.4999741994
 30
0.0
 11
892.9646673357
 21
1487.4999741994
 31
0.0
 70
   160
  1
<>
 71
     2
 42
-1.0
  3
SLDDIMSTYLE0
100
AcDbAlignedDimension
 13
566.4646673357
 23
1604.8656851186
 33
0.0
 14
1219.4646673357
 24
1604.8656851186
 34
0.0
 50
0.0
100
AcDbRotatedDimension
  0
DIMENSION
  5
1CB
330
1F
100
AcDbEntity
  8
FORMAT
100
AcDbDimension
  2
_D_1
 10
1176.9646673348
 20
1788.3113917456
 30
0.0
 11
832.4646673348
 21
1788.3113917456
 31
0.0
 70
   160
  1
<>
 71
     2
 42
-1.0
  3
SLDDIMSTYLE0
100
AcDbAlignedDimension
 13
487.9646673348
 23
1754.365685127
 33
0.0
 14
1176.9646673348
 24
1754.3656851269
 34
0.0
100
AcDbRotatedDimension
  0
DIMENSION
  5
1D5
330
1F
100
AcDbEntity
  8
FORMAT
100
AcDbDimension
  2
_D_2
 10
1255.950719921
 20
1621.3656851186
 30
0.0
 11
1255.950719921
 21
1573.2293827533
 31
0.0
 70
   160
  1
<>
 71
     2
 42
-1.0
  3
SLDDIMSTYLE1
100
AcDbAlignedDimension
 13
1218.9646673357
 23
1604.3656851186
 33
0.0
 14
1218.9646673357
 24
1621.3656851186
 34
0.0
 50
90.0
100
AcDbRotatedDimension
  0
DIMENSION
  5
1E2
330
1F
100
AcDbEntity
  8
FORMAT
100
AcDbDimension
  2
_D_3
 10
461.6886088708
 20
1759.365685127
 30
0.0
 11
461.6886088708
 21
1711.865685127
 31
0.0
 70
   160
  1
<>
 71
     2
 42
-1.0
  3
SLDDIMSTYLE0
100
AcDbAlignedDimension
 13
497.4646673348
 23
1664.365685127
 33
0.0
 14
497.4646673348
 24
1759.365685127
 34
0.0
 50
90.0
100
AcDbRotatedDimension
  0
DIMENSION
  5
1EC
330
1F
100
AcDbEntity
  8
FORMAT
100
AcDbDimension
  2
_D_4
 10
566.4646673357
 20
1487.4999742003
 30
0.0
 11
526.9646673353
 21
1487.4999742003
 31
0.0
 70
   160
  1
<>
 71
     2
 42
-1.0
  3
SLDDIMSTYLE0
100
AcDbAlignedDimension
 13
487.4646673348
 23
1505.4956071784
 33
0.0
 14
566.4646673357
 24
1604.8656851186
 34
0.0
100
AcDbRotatedDimension
  0
DIMENSION
  5
1F5
330
1F
100
AcDbEntity
  8
FORMAT
100
AcDbDimension
  2
_D_5
 10
767.4646673347
 20
1436.578373583
 30
0.0
 11
627.4646673348
 21
1436.578373583
 31
0.0
 70
   160
  1
<>
 71
     2
 42
-1.0
  3
SLDDIMSTYLE0
100
AcDbAlignedDimension
 13
487.4646673348
 23
1392.1543696704
 33
0.0
 14
767.4646673347
 24
1643.3656851125
 34
0.0
100
AcDbRotatedDimension
  0
LINE
  5
1FE
330
1F
100
AcDbEntity
  8
0
  6
CENTER
 62
     7
370
    18
100
AcDbLine
 10
601.4241671429
 20
1887.8656851132
 30
0.0
 11
601.4241671429
 21
1267.8656851132
 31
0.0
  0
LINE
  5
1FF
330
1F
100
AcDbEntity
  8
0
  6
Continuous
 62
     7
370
    18
100
AcDbLine
 10
512.5241671429
 20
1873.8656851132
 30
0.0
 11
601.4241671429
 21
1873.8656851132
 31
0.0
  0
SOLID
  5
200
330
1F
100
AcDbEntity
  8
0
  6
Continuous
 62
     7
370
    18
100
AcDbTrace
 10
601.4241671429
 20
1873.8656851132
 30
0.0
 11
556.9741671429
 21
1880.9776851132
 31
0.0
 12
556.9741671429
 22
1866.7536851132
 32
0.0
 13
556.9741671429
 23
1866.7536851132
 33
0.0
  0
LINE
  5
201
330
1F
100
AcDbEntity
  8
0
  6
Continuous
 62
     7
370
    18
100
AcDbLine
 10
512.5241671429
 20
1281.8656851132
 30
0.0
 11
601.4241671429
 21
1281.8656851132
 31
0.0
  0
SOLID
  5
202
330
1F
100
AcDbEntity
  8
0
  6
Continuous
 62
     7
370
    18
100
AcDbTrace
 10
601.4241671429
 20
1281.8656851132
 30
0.0
 11
556.9741671429
 21
1288.9776851132
 31
0.0
 12
556.9741671429
 22
1274.7536851132
 32
0.0
 13
556.9741671429
 23
1274.7536851132
 33
0.0
  0
MTEXT
  5
203
330
1F
100
AcDbEntity
  8
0
  6
Continuous
 62
     7
100
AcDbMText
 10
512.5241671429
 20
1927.5346282107
 30
0.0
 40
35.0
 41
0.0
 71
     1
 72
     1
  1
A
  7
SLDTEXTSTYLE0
 73
     1
 44
1.0
  0
MTEXT
  5
204
330
1F
100
AcDbEntity
  8
0
  6
Continuous
 62
     7
100
AcDbMText
 10
512.5241671429
 20
1263.9939270618
 30
0.0
 40
35.0
 41
0.0
 71
     1
 72
     1
  1
A
  7
SLDTEXTSTYLE0
 73
     1
 44
1.0
  0
LINE
  5
205
330
1F
100
AcDbEntity
  8
FORMAT
  6
CENTERX2
370
    18
100
AcDbLine
 10
767.4646673347
 20
1643.3656851125
 30
0.0
 11
767.4646673348
 21
1686.6656851125
 31
0.0
  0
LINE
  5
206
330
1F
100
AcDbEntity
  8
FORMAT
  6
CENTERX2
370
    18
100
AcDbLine
 10
487.4646673348
 20
1505.4956071784
 30
0.0
 11
487.4646673348
 21
1392.1543696704
 31
0.0
  0
LINE
  5
207
330
1F
100
AcDbEntity
  8
0
  6
Continuous
 62
     7
370
    25
100
AcDbLine
 10
2218.7980060029
 20
1651.3656851124
 30
0.0
 11
2218.7980060029
 21
1621.3656851186
 31
0.0
  0
LINE
  5
208
330
1F
100
AcDbEntity
  8
0
  6
Continuous
 62
     7
370
    25
100
AcDbLine
 10
2232.7980060029
 20
1621.3656851186
 30
0.0
 11
2232.7980060029
 21
1651.3656851124
 31
0.0
  0
LINE
  5
209
330
1F
100
AcDbEntity
  8
0
  6
Continuous
 62
     7
370
    25
100
AcDbLine
 10
2230.7980060029
 20
1651.3656851124
 30
0.0
 11
2230.7980060029
 21
1651.8656851124
 31
0.0
  0
LINE
  5
20A
330
1F
100
AcDbEntity
  8
0
  6
Continuous
 62
     7
370
    25
100
AcDbLine
 10
2220.7980060029
 20
1651.8656851124
 30
0.0
 11
2220.7980060029
 21
1651.3656851124
 31
0.0
  0
LINE
  5
20B
330
1F
100
AcDbEntity
  8
0
  6
Continuous
 62
     7
370
    25
100
AcDbLine
 10
2267.5480060061
 20
1663.365685127
 30
0.0
 11
2267.5480060061
 21
1661.8656851125
 31
0.0
  0
LINE
  5
20C
330
1F
100
AcDbEntity
  8
0
  6
Continuous
 62
     7
370
    25
100
AcDbLine
 10
2297.548006006
 20
1652.8656851125
 30
0.0
 11
2297.548006006
 21
1664.365685127
 31
0.0
  0
LINE
  5
20D
330
1F
100
AcDbEntity
  8
0
  6
Continuous
 62
     7
370
    25
100
AcDbLine
 10
2296.548006006
 20
1651.8656851125
 30
0.0
 11
2297.548006006
 21
1652.8656851125
 31
0.0
  0
LWPOLYLINE
  5
20E
330
1F
100
AcDbEntity
  8
0
  6
Continuous
 62
     7
370
    25
100
AcDbPolyline
 90
        3
 70
   128
 43
0.0
 10
2267.3269327675
 20
1660.6109200047
 10
2267.2095566514
 20
1660.1119600862
 10
2267.0439418289
 20
1659.5431494713
  0
ARC
  5
20F
330
1F
100
AcDbEntity
  8
0
  6
Continuous
 62
     7
370
    25
100
AcDbCircle
 10
2264.5480060061
 20
1661.8656851125
 30
0.0
 40
3.000000000000455
100
AcDbArc
 50
344.604438681
 51
0.0000000003
  0
LINE
  5
210
330
1F
100
AcDbEntity
  8
0
  6
Continuous
 62
     7
370
    25
100
AcDbLine
 10
2214.7980060029
 20
1652.8656851124
 30
0.0
 11
2215.7980060029
 21
1651.8656851124
 31
0.0
  0
LINE
  5
211
330
1F
100
AcDbEntity
  8
0
  6
Continuous
 62
     7
370
    25
100
AcDbLine
 10
2215.7980060029
 20
1658.8656851124
 30
0.0
 11
2214.7980060029
 21
1657.8656851124
 31
0.0
  0
LINE
  5
212
330
1F
100
AcDbEntity
  8
0
  6
Continuous
 62
     7
370
    25
100
AcDbLine
 10
2214.7980060029
 20
1657.8656851124
 30
0.0
 11
2214.7980060029
 21
1652.8656851124
 31
0.0
  0
LINE
  5
213
330
1F
100
AcDbEntity
  8
0
  6
Continuous
 62
     7
370
    25
100
AcDbLine
 10
2305.548006006
 20
1759.365685127
 30
0.0
 11
2305.548006006
 21
1760.365685127
 31
0.0
  0
LINE
  5
214
330
1F
100
AcDbEntity
  8
0
  6
Continuous
 62
     7
370
    25
100
AcDbLine
 10
2212.5480060041
 20
1327.8656851132
 30
0.0
 11
2212.5480060041
 21
1604.8656851186
 31
0.0
  0
LINE
  5
215
330
1F
100
AcDbEntity
  8
0
  6
Continuous
 62
     7
370
    25
100
AcDbLine
 10
2212.5480060041
 20
1620.8656851186
 30
0.0
 11
2212.5480060041
 21
1647.8656851132
 31
0.0
  0
LINE
  5
216
330
1F
100
AcDbEntity
  8
0
  6
Continuous
 62
     7
370
    25
100
AcDbLine
 10
2212.5480060041
 20
1327.8656851132
 30
0.0
 11
2142.5480060041
 21
1327.8656851132
 31
0.0
  0
LINE
  5
217
330
1F
100
AcDbEntity
  8
0
  6
Continuous
 62
     7
370
    25
100
AcDbLine
 10
2142.5480060041
 20
1327.8656851132
 30
0.0
 11
2142.5480060041
 21
1622.8656851132
 31
0.0
  0
LINE
  5
218
330
1F
100
AcDbEntity
  8
0
  6
Continuous
 62
     7
370
    25
100
AcDbLine
 10
2172.5480060041
 20
1622.8656851132
 30
0.0
 11
2172.5480060041
 21
1647.8656851132
 31
0.0
  0
LINE
  5
219
330
1F
100
AcDbEntity
  8
0
  6
Continuous
 62
     7
370
    25
100
AcDbLine
 10
2172.5480060041
 20
1647.8656851132
 30
0.0
 11
2212.5480060041
 21
1647.8656851132
 31
0.0
  0
LINE
  5
21A
330
1F
100
AcDbEntity
  8
0
  6
Continuous
 62
     7
370
    25
100
AcDbLine
 10
2142.5480060041
 20
1622.8656851132
 30
0.0
 11
2172.5480060041
 21
1622.8656851132
 31
0.0
  0
LINE
  5
21B
330
1F
100
AcDbEntity
  8
0
  6
Continuous
 62
     7
370
    25
100
AcDbLine
 10
2212.5480060041
 20
1827.8656851132
 30
0.0
 11
2212.5480060041
 21
1759.365685127
 31
0.0
  0
LINE
  5
21C
330
1F
100
AcDbEntity
  8
0
  6
Continuous
 62
     7
370
    25
100
AcDbLine
 10
2212.5480060041
 20
1664.365685127
 30
0.0
 11
2212.5480060041
 21
1652.8656851132
 31
0.0
  0
LINE
  5
21D
330
1F
100
AcDbEntity
  8
0
  6
Continuous
 62
     7
370
    25
100
AcDbLine
 10
2212.5480060041
 20
1652.8656851132
 30
0.0
 11
2172.5480060041
 21
1652.8656851132
 31
0.0
  0
LINE
  5
21E
330
1F
100
AcDbEntity
  8
0
  6
Continuous
 62
     7
370
    25
100
AcDbLine
 10
2172.5480060041
 20
1652.8656851132
 30
0.0
 11
2172.5480060041
 21
1627.8656851132
 31
0.0
  0
LINE
  5
21F
330
1F
100
AcDbEntity
  8
0
  6
Continuous
 62
     7
370
    25
100
AcDbLine
 10
2142.5480060041
 20
1827.8656851132
 30
0.0
 11
2212.5480060041
 21
1827.8656851132
 31
0.0
  0
LINE
  5
220
330
1F
100
AcDbEntity
  8
0
  6
Continuous
 62
     7
370
    25
100
AcDbLine
 10
2142.5480060041
 20
1827.8656851132
 30
0.0
 11
2142.5480060041
 21
1627.8656851132
 31
0.0
  0
LINE
  5
221
330
1F
100
AcDbEntity
  8
0
  6
Continuous
 62
     7
370
    25
100
AcDbLine
 10
2172.5480060041
 20
1627.8656851132
 30
0.0
 11
2142.5480060041
 21
1627.8656851132
 31
0.0
  0
LINE
  5
222
330
1F
100
AcDbEntity
  8
0
  6
Continuous
 62
     7
370
    25
100
AcDbLine
 10
2142.5480060041
 20
1622.8656851132
 30
0.0
 11
2142.5480060041
 21
1627.8656851132
 31
0.0
  0
LINE
  5
223
330
1F
100
AcDbEntity
  8
0
  6
Continuous
 62
     7
370
    25
100
AcDbLine
 10
2212.5480060041
 20
1647.8656851132
 30
0.0
 11
2212.5480060041
 21
1652.8656851132
 31
0.0
  0
LINE
  5
224
330
1F
100
AcDbEntity
  8
0
  6
Continuous
 62
     7
370
    25
100
AcDbLine
 10
2232.7980060029
 20
1651.3656851124
 30
0.0
 11
2218.7980060029
 21
1651.3656851124
 31
0.0
  0
LINE
  5
225
330
1F
100
AcDbEntity
  8
0
  6
Continuous
 62
     7
370
    25
100
AcDbLine
 10
2297.548006006
 20
1652.8656851125
 30
0.0
 11
2267.699737286
 21
1652.8656851125
 31
0.0
  0
LINE
  5
226
330
1F
100
AcDbEntity
  8
0
  6
Continuous
 62
     7
370
    25
100
AcDbLine
 10
2267.699737286
 20
1652.8656851125
 30
0.0
 11
2267.699737286
 21
1661.8656851125
 31
0.0
  0
LINE
  5
227
330
1F
100
AcDbEntity
  8
0
  6
Continuous
 62
     7
370
    25
100
AcDbLine
 10
2296.548006006
 20
1651.8656851125
 30
0.0
 11
2268.6896218674
 21
1651.8656851125
 31
0.0
  0
LINE
  5
228
330
1F
100
AcDbEntity
  8
0
  6
Continuous
 62
     7
370
    25
100
AcDbLine
 10
2268.6896218674
 20
1651.8656851125
 30
0.0
 11
2267.699737286
 21
1652.8656851125
 31
0.0
  0
ARC
  5
229
330
1F
100
AcDbEntity
  8
0
  6
Continuous
 62
     7
370
    25
100
AcDbCircle
 10
2275.1833555375
 20
1658.9714266781
 30
0.0
 40
8.023794240769902
100
AcDbArc
 50
158.8562276299
 51
168.7969895732
  0
LWPOLYLINE
  5
22A
330
1F
100
AcDbEntity
  8
0
  6
Continuous
 62
     7
370
    25
100
AcDbPolyline
 90
       11
 70
   128
 43
0.0
 10
2267.699737286
 20
1661.8656851125
 10
2267.6997090385
 20
1661.8655890507
 10
2267.6994910437
 20
1661.86479658
 10
2267.698889462
 20
1661.8625632869
 10
2267.6966202804
 20
1661.8540624189
 10
2267.6878178441
 20
1661.8209235555
 10
2267.4302151634
 20
1660.860726536
 10
2267.1789562483
 20
1659.9788304259
 10
2266.9383300018
 20
1659.2274388397
 10
2266.5293980821
 20
1658.2690370407
 10
2266.0946048926
 20
1657.8656851125
  0
LINE
  5
22B
330
1F
100
AcDbEntity
  8
0
  6
Continuous
 62
     7
370
    25
100
AcDbLine
 10
2266.0946048926
 20
1657.8656851125
 30
0.0
 11
2266.4881333557
 21
1658.2632349587
 31
0.0
  0
LINE
  5
22C
330
1F
100
AcDbEntity
  8
0
  6
Continuous
 62
     7
370
    25
100
AcDbLine
 10
2267.699737286
 20
1652.8656851125
 30
0.0
 11
2237.8391238634
 21
1652.8656851124
 31
0.0
  0
LINE
  5
22D
330
1F
100
AcDbEntity
  8
0
  6
Continuous
 62
     7
370
    25
100
AcDbLine
 10
2237.8391238634
 20
1657.8656851124
 30
0.0
 11
2237.8391238634
 21
1652.8656851124
 31
0.0
  0
LINE
  5
22E
330
1F
100
AcDbEntity
  8
0
  6
Continuous
 62
     7
370
    25
100
AcDbLine
 10
2266.0946048926
 20
1657.8656851125
 30
0.0
 11
2237.8391238634
 21
1657.8656851124
 31
0.0
  0
LINE
  5
22F
330
1F
100
AcDbEntity
  8
0
  6
Continuous
 62
     7
370
    25
100
AcDbLine
 10
2238.8290084448
 20
1651.8656851124
 30
0.0
 11
2237.8391238634
 21
1652.8656851124
 31
0.0
  0
LINE
  5
230
330
1F
100
AcDbEntity
  8
0
  6
Continuous
 62
     7
370
    25
100
AcDbLine
 10
2268.6896218674
 20
1651.8656851125
 30
0.0
 11
2238.8290084448
 21
1651.8656851124
 31
0.0
  0
LINE
  5
231
330
1F
100
AcDbEntity
  8
0
  6
Continuous
 62
     7
370
    25
100
AcDbLine
 10
2238.8290084448
 20
1658.8656851124
 30
0.0
 11
2237.8391238634
 21
1657.8656851124
 31
0.0
  0
LINE
  5
232
330
1F
100
AcDbEntity
  8
0
  6
Continuous
 62
     7
370
    25
100
AcDbLine
 10
2238.8290084448
 20
1658.8656851124
 30
0.0
 11
2266.7839765289
 21
1658.8656851125
 31
0.0
  0
LINE
  5
233
330
1F
100
AcDbEntity
  8
0
  6
Continuous
 62
     7
370
    25
100
AcDbLine
 10
2237.7001847574
 20
1652.8656851124
 30
0.0
 11
2237.8391238634
 21
1652.8656851124
 31
0.0
  0
LINE
  5
234
330
1F
100
AcDbEntity
  8
0
  6
Continuous
 62
     7
370
    25
100
AcDbLine
 10
2237.7001847574
 20
1652.8656851124
 30
0.0
 11
2237.7001847574
 21
1657.8656851124
 31
0.0
  0
LINE
  5
235
330
1F
100
AcDbEntity
  8
0
  6
Continuous
 62
     7
370
    25
100
AcDbLine
 10
2237.8391238634
 20
1657.8656851124
 30
0.0
 11
2237.7001847574
 21
1657.8656851124
 31
0.0
  0
LINE
  5
236
330
1F
100
AcDbEntity
  8
0
  6
Continuous
 62
     7
370
    25
100
AcDbLine
 10
2238.6928481209
 20
1651.8656851124
 30
0.0
 11
2237.7001847574
 21
1652.8656851124
 31
0.0
  0
LINE
  5
237
330
1F
100
AcDbEntity
  8
0
  6
Continuous
 62
     7
370
    25
100
AcDbLine
 10
2238.8290084448
 20
1651.8656851124
 30
0.0
 11
2238.6928481209
 21
1651.8656851124
 31
0.0
  0
LINE
  5
238
330
1F
100
AcDbEntity
  8
0
  6
Continuous
 62
     7
370
    25
100
AcDbLine
 10
2237.7001847574
 20
1657.8656851124
 30
0.0
 11
2238.6928481209
 21
1658.8656851124
 31
0.0
  0
LINE
  5
239
330
1F
100
AcDbEntity
  8
0
  6
Continuous
 62
     7
370
    25
100
AcDbLine
 10
2238.6928481209
 20
1658.8656851124
 30
0.0
 11
2238.8290084448
 21
1658.8656851124
 31
0.0
  0
LINE
  5
23A
330
1F
100
AcDbEntity
  8
0
  6
Continuous
 62
     7
370
    25
100
AcDbLine
 10
2215.8713723684
 20
1651.8656851124
 30
0.0
 11
2214.8787090049
 21
1652.8656851124
 31
0.0
  0
LINE
  5
23B
330
1F
100
AcDbEntity
  8
0
  6
Continuous
 62
     7
370
    25
100
AcDbLine
 10
2237.7001847574
 20
1652.8656851124
 30
0.0
 11
2214.8787090049
 21
1652.8656851124
 31
0.0
  0
LINE
  5
23C
330
1F
100
AcDbEntity
  8
0
  6
Continuous
 62
     7
370
    25
100
AcDbLine
 10
2238.6928481209
 20
1651.8656851124
 30
0.0
 11
2215.8713723684
 21
1651.8656851124
 31
0.0
  0
LINE
  5
23D
330
1F
100
AcDbEntity
  8
0
  6
Continuous
 62
     7
370
    25
100
AcDbLine
 10
2214.8787090049
 20
1657.8656851124
 30
0.0
 11
2215.8713723684
 21
1658.8656851124
 31
0.0
  0
LINE
  5
23E
330
1F
100
AcDbEntity
  8
0
  6
Continuous
 62
     7
370
    25
100
AcDbLine
 10
2237.7001847574
 20
1657.8656851124
 30
0.0
 11
2214.8787090049
 21
1657.8656851124
 31
0.0
  0
LINE
  5
23F
330
1F
100
AcDbEntity
  8
0
  6
Continuous
 62
     7
370
    25
100
AcDbLine
 10
2215.8713723684
 20
1658.8656851124
 30
0.0
 11
2238.6928481209
 21
1658.8656851124
 31
0.0
  0
LINE
  5
240
330
1F
100
AcDbEntity
  8
0
  6
Continuous
 62
     7
370
    25
100
AcDbLine
 10
2214.8787090049
 20
1652.8656851124
 30
0.0
 11
2214.8787090049
 21
1657.8656851124
 31
0.0
  0
LINE
  5
241
330
1F
100
AcDbEntity
  8
0
  6
Continuous
 62
     7
370
    25
100
AcDbLine
 10
2214.8787090049
 20
1652.8656851124
 30
0.0
 11
2214.7980060029
 21
1652.8656851124
 31
0.0
  0
LINE
  5
242
330
1F
100
AcDbEntity
  8
0
  6
Continuous
 62
     7
370
    25
100
AcDbLine
 10
2215.8713723684
 20
1651.8656851124
 30
0.0
 11
2215.7980060029
 21
1651.8656851124
 31
0.0
  0
LINE
  5
243
330
1F
100
AcDbEntity
  8
0
  6
Continuous
 62
     7
370
    25
100
AcDbLine
 10
2214.8787090049
 20
1657.8656851124
 30
0.0
 11
2214.7980060029
 21
1657.8656851124
 31
0.0
  0
LINE
  5
244
330
1F
100
AcDbEntity
  8
0
  6
Continuous
 62
     7
370
    25
100
AcDbLine
 10
2215.7980060029
 20
1658.8656851124
 30
0.0
 11
2215.8713723684
 21
1658.8656851124
 31
0.0
  0
LINE
  5
245
330
1F
100
AcDbEntity
  8
0
  6
Continuous
 62
     7
370
    25
100
AcDbLine
 10
2212.5480060018
 20
1604.8656851186
 30
0.0
 11
2213.0480060018
 21
1604.8656851186
 31
0.0
  0
LINE
  5
246
330
1F
100
AcDbEntity
  8
0
  6
Continuous
 62
     7
370
    25
100
AcDbLine
 10
2213.0480060018
 20
1604.8656851186
 30
0.0
 11
2213.0480060018
 21
1604.3656851186
 31
0.0
  0
ARC
  5
247
330
1F
100
AcDbEntity
  8
0
  6
Continuous
 62
     7
370
    25
100
AcDbCircle
 10
2213.0480060018
 20
1604.8656851186
 30
0.0
 40
0.5
100
AcDbArc
 50
180.0
 51
270.0000000001
  0
LINE
  5
248
330
1F
100
AcDbEntity
  8
0
  6
Continuous
 62
     7
370
    25
100
AcDbLine
 10
2213.0480060018
 20
1604.8656851186
 30
0.0
 11
2240.0480060018
 21
1604.8656851186
 31
0.0
  0
LINE
  5
249
330
1F
100
AcDbEntity
  8
0
  6
Continuous
 62
     7
370
    25
100
AcDbLine
 10
2240.0480060018
 20
1604.3656851186
 30
0.0
 11
2240.0480060018
 21
1604.8656851186
 31
0.0
  0
LINE
  5
24A
330
1F
100
AcDbEntity
  8
0
  6
Continuous
 62
     7
370
    25
100
AcDbLine
 10
2213.0480060018
 20
1604.3656851186
 30
0.0
 11
2240.0480060018
 21
1604.3656851186
 31
0.0
  0
LINE
  5
24B
330
1F
100
AcDbEntity
  8
0
  6
Continuous
 62
     7
370
    25
100
AcDbLine
 10
2240.0480060018
 20
1620.8656851186
 30
0.0
 11
2240.0480060018
 21
1621.3656851186
 31
0.0
  0
LINE
  5
24C
330
1F
100
AcDbEntity
  8
0
  6
Continuous
 62
     7
370
    25
100
AcDbLine
 10
2240.0480060018
 20
1620.8656851186
 30
0.0
 11
2213.0480060018
 21
1620.8656851186
 31
0.0
  0
LINE
  5
24D
330
1F
100
AcDbEntity
  8
0
  6
Continuous
 62
     7
370
    25
100
AcDbLine
 10
2213.0480060018
 20
1621.3656851186
 30
0.0
 11
2213.0480060018
 21
1620.8656851186
 31
0.0
  0
LINE
  5
24E
330
1F
100
AcDbEntity
  8
0
  6
Continuous
 62
     7
370
    25
100
AcDbLine
 10
2240.0480060018
 20
1621.3656851186
 30
0.0
 11
2213.0480060018
 21
1621.3656851186
 31
0.0
  0
LINE
  5
24F
330
1F
100
AcDbEntity
  8
0
  6
Continuous
 62
     7
370
    25
100
AcDbLine
 10
2213.0480060018
 20
1620.8656851186
 30
0.0
 11
2213.0480060018
 21
1604.8656851186
 31
0.0
  0
LINE
  5
250
330
1F
100
AcDbEntity
  8
0
  6
Continuous
 62
     7
370
    25
100
AcDbLine
 10
2240.0480060018
 20
1604.8656851186
 30
0.0
 11
2240.0480060018
 21
1620.8656851186
 31
0.0
  0
LINE
  5
251
330
1F
100
AcDbEntity
  8
0
  6
Continuous
 62
     7
370
    25
100
AcDbLine
 10
2213.0480060018
 20
1620.8656851186
 30
0.0
 11
2212.5480060018
 21
1620.8656851186
 31
0.0
  0
LINE
  5
252
330
1F
100
AcDbEntity
  8
0
  6
Continuous
 62
     7
370
    25
100
AcDbLine
 10
2212.5480060018
 20
1620.8656851186
 30
0.0
 11
2212.5480060018
 21
1604.8656851186
 31
0.0
  0
ARC
  5
253
330
1F
100
AcDbEntity
  8
0
  6
Continuous
 62
     7
370
    25
100
AcDbCircle
 10
2213.0480060018
 20
1620.8656851186
 30
0.0
 40
0.5
100
AcDbArc
 50
89.9999999999
 51
180.0
  0
LINE
  5
254
330
1F
100
AcDbEntity
  8
0
  6
Continuous
 62
     7
370
    25
100
AcDbLine
 10
2240.0480060018
 20
1604.8656851186
 30
0.0
 11
2240.5480060018
 21
1604.8656851186
 31
0.0
  0
ARC
  5
255
330
1F
100
AcDbEntity
  8
0
  6
Continuous
 62
     7
370
    25
100
AcDbCircle
 10
2240.0480060018
 20
1604.8656851186
 30
0.0
 40
0.5000000000009095
100
AcDbArc
 50
270.0
 51
0.0
  0
LINE
  5
256
330
1F
100
AcDbEntity
  8
0
  6
Continuous
 62
     7
370
    25
100
AcDbLine
 10
2240.5480060018
 20
1620.8656851186
 30
0.0
 11
2240.0480060018
 21
1620.8656851186
 31
0.0
  0
ARC
  5
257
330
1F
100
AcDbEntity
  8
0
  6
Continuous
 62
     7
370
    25
100
AcDbCircle
 10
2240.0480060018
 20
1620.8656851186
 30
0.0
 40
0.5
100
AcDbArc
 50
360.0
 51
90.0
  0
LINE
  5
258
330
1F
100
AcDbEntity
  8
0
  6
Continuous
 62
     7
370
    25
100
AcDbLine
 10
2240.5480060018
 20
1604.8656851186
 30
0.0
 11
2240.5480060018
 21
1620.8656851186
 31
0.0
  0
LINE
  5
259
330
1F
100
AcDbEntity
  8
0
  6
Continuous
 62
     7
370
    25
100
AcDbLine
 10
2223.548006006
 20
1760.365685127
 30
0.0
 11
2282.548006006
 21
1760.365685127
 31
0.0
  0
LINE
  5
25A
330
1F
100
AcDbEntity
  8
0
  6
Continuous
 62
     7
370
    25
100
AcDbLine
 10
2282.548006006
 20
1760.365685127
 30
0.0
 11
2282.548006006
 21
1759.365685127
 31
0.0
  0
LINE
  5
25B
330
1F
100
AcDbEntity
  8
0
  6
Continuous
 62
     7
370
    25
100
AcDbLine
 10
2223.548006006
 20
1759.365685127
 30
0.0
 11
2223.548006006
 21
1760.365685127
 31
0.0
  0
LINE
  5
25C
330
1F
100
AcDbEntity
  8
0
  6
Continuous
 62
     7
370
    25
100
AcDbLine
 10
2282.548006006
 20
1760.365685127
 30
0.0
 11
2305.548006006
 21
1760.365685127
 31
0.0
  0
LINE
  5
25D
330
1F
100
AcDbEntity
  8
0
  6
Continuous
 62
     7
370
    25
100
AcDbLine
 10
2279.548006006
 20
1664.365685127
 30
0.0
 11
2279.548006006
 21
1663.365685127
 31
0.0
  0
LINE
  5
25E
330
1F
100
AcDbEntity
  8
0
  6
Continuous
 62
     7
370
    25
100
AcDbLine
 10
2279.548006006
 20
1663.365685127
 30
0.0
 11
2223.548006006
 21
1663.365685127
 31
0.0
  0
LINE
  5
25F
330
1F
100
AcDbEntity
  8
0
  6
Continuous
 62
     7
370
    25
100
AcDbLine
 10
2223.548006006
 20
1663.365685127
 30
0.0
 11
2223.548006006
 21
1664.365685127
 31
0.0
  0
LINE
  5
260
330
1F
100
AcDbEntity
  8
0
  6
Continuous
 62
     7
370
    25
100
AcDbLine
 10
2222.548006006
 20
1669.515685127
 30
0.0
 11
2222.548006006
 21
1754.215685127
 31
0.0
  0
LINE
  5
261
330
1F
100
AcDbEntity
  8
0
  6
Continuous
 62
     7
370
    25
100
AcDbLine
 10
2212.548006006
 20
1669.515685127
 30
0.0
 11
2222.548006006
 21
1669.515685127
 31
0.0
  0
LINE
  5
262
330
1F
100
AcDbEntity
  8
0
  6
Continuous
 62
     7
370
    25
100
AcDbLine
 10
2212.548006006
 20
1754.215685127
 30
0.0
 11
2212.548006006
 21
1669.515685127
 31
0.0
  0
LINE
  5
263
330
1F
100
AcDbEntity
  8
0
  6
Continuous
 62
     7
370
    25
100
AcDbLine
 10
2222.548006006
 20
1754.215685127
 30
0.0
 11
2212.548006006
 21
1754.215685127
 31
0.0
  0
LINE
  5
264
330
1F
100
AcDbEntity
  8
0
  6
Continuous
 62
     7
370
    25
100
AcDbLine
 10
2222.548006006
 20
1757.215685127
 30
0.0
 11
2212.548006006
 21
1757.215685127
 31
0.0
  0
LINE
  5
265
330
1F
100
AcDbEntity
  8
0
  6
Continuous
 62
     7
370
    25
100
AcDbLine
 10
2212.548006006
 20
1754.215685127
 30
0.0
 11
2212.548006006
 21
1757.215685127
 31
0.0
  0
LINE
  5
266
330
1F
100
AcDbEntity
  8
0
  6
Continuous
 62
     7
370
    25
100
AcDbLine
 10
2212.548006006
 20
1666.515685127
 30
0.0
 11
2222.548006006
 21
1666.515685127
 31
0.0
  0
LINE
  5
267
330
1F
100
AcDbEntity
  8
0
  6
Continuous
 62
     7
370
    25
100
AcDbLine
 10
2212.548006006
 20
1666.515685127
 30
0.0
 11
2212.548006006
 21
1669.515685127
 31
0.0
  0
LINE
  5
268
330
1F
100
AcDbEntity
  8
0
  6
Continuous
 62
     7
370
    25
100
AcDbLine
 10
2212.548006006
 20
1759.365685127
 30
0.0
 11
2222.548006006
 21
1759.365685127
 31
0.0
  0
LINE
  5
269
330
1F
100
AcDbEntity
  8
0
  6
Continuous
 62
     7
370
    25
100
AcDbLine
 10
2222.548006006
 20
1759.365685127
 30
0.0
 11
2222.548006006
 21
1757.365685127
 31
0.0
  0
LINE
  5
26A
330
1F
100
AcDbEntity
  8
0
  6
Continuous
 62
     7
370
    25
100
AcDbLine
 10
2212.548006006
 20
1757.215685127
 30
0.0
 11
2212.548006006
 21
1759.365685127
 31
0.0
  0
LINE
  5
26B
330
1F
100
AcDbEntity
  8
0
  6
Continuous
 62
     7
370
    25
100
AcDbLine
 10
2212.548006006
 20
1664.365685127
 30
0.0
 11
2222.548006006
 21
1664.365685127
 31
0.0
  0
LINE
  5
26C
330
1F
100
AcDbEntity
  8
0
  6
Continuous
 62
     7
370
    25
100
AcDbLine
 10
2222.548006006
 20
1666.365685127
 30
0.0
 11
2222.548006006
 21
1664.365685127
 31
0.0
  0
LINE
  5
26D
330
1F
100
AcDbEntity
  8
0
  6
Continuous
 62
     7
370
    25
100
AcDbLine
 10
2212.548006006
 20
1664.365685127
 30
0.0
 11
2212.548006006
 21
1666.515685127
 31
0.0
  0
LINE
  5
26E
330
1F
100
AcDbEntity
  8
0
  6
Continuous
 62
     7
370
    25
100
AcDbLine
 10
2337.548006006
 20
1669.365685127
 30
0.0
 11
2337.548006006
 21
1754.365685127
 31
0.0
  0
LINE
  5
26F
330
1F
100
AcDbEntity
  8
0
  6
Continuous
 62
     7
370
    25
100
AcDbLine
 10
2222.548006006
 20
1669.365685127
 30
0.0
 11
2337.548006006
 21
1669.365685127
 31
0.0
  0
LINE
  5
270
330
1F
100
AcDbEntity
  8
0
  6
Continuous
 62
     7
370
    25
100
AcDbLine
 10
2222.548006006
 20
1754.365685127
 30
0.0
 11
2222.548006006
 21
1669.365685127
 31
0.0
  0
LINE
  5
271
330
1F
100
AcDbEntity
  8
0
  6
Continuous
 62
     7
370
    25
100
AcDbLine
 10
2337.548006006
 20
1754.365685127
 30
0.0
 11
2222.548006006
 21
1754.365685127
 31
0.0
  0
LINE
  5
272
330
1F
100
AcDbEntity
  8
0
  6
Continuous
 62
     7
370
    25
100
AcDbLine
 10
2234.548006006
 20
1741.365685127
 30
0.0
 11
2234.548006006
 21
1682.365685127
 31
0.0
  0
ARC
  5
273
330
1F
100
AcDbEntity
  8
0
  6
Continuous
 62
     7
370
    25
100
AcDbCircle
 10
2237.548006006
 20
1682.365685127
 30
0.0
 40
3.000000000000227
100
AcDbArc
 50
180.0
 51
270.0
  0
LINE
  5
274
330
1F
100
AcDbEntity
  8
0
  6
Continuous
 62
     7
370
    25
100
AcDbLine
 10
2237.548006006
 20
1679.365685127
 30
0.0
 11
2323.548006006
 21
1679.365685127
 31
0.0
  0
ARC
  5
275
330
1F
100
AcDbEntity
  8
0
  6
Continuous
 62
     7
370
    25
100
AcDbCircle
 10
2323.548006006
 20
1682.365685127
 30
0.0
 40
3.000000000000227
100
AcDbArc
 50
270.0
 51
0.0
  0
LINE
  5
276
330
1F
100
AcDbEntity
  8
0
  6
Continuous
 62
     7
370
    25
100
AcDbLine
 10
2326.548006006
 20
1682.365685127
 30
0.0
 11
2326.548006006
 21
1741.365685127
 31
0.0
  0
ARC
  5
277
330
1F
100
AcDbEntity
  8
0
  6
Continuous
 62
     7
370
    25
100
AcDbCircle
 10
2323.548006006
 20
1741.365685127
 30
0.0
 40
3.0
100
AcDbArc
 50
0.0
 51
90.0
  0
LINE
  5
278
330
1F
100
AcDbEntity
  8
0
  6
Continuous
 62
     7
370
    25
100
AcDbLine
 10
2323.548006006
 20
1744.365685127
 30
0.0
 11
2237.548006006
 21
1744.365685127
 31
0.0
  0
ARC
  5
279
330
1F
100
AcDbEntity
  8
0
  6
Continuous
 62
     7
370
    25
100
AcDbCircle
 10
2237.548006006
 20
1741.365685127
 30
0.0
 40
3.0
100
AcDbArc
 50
90.0
 51
180.0
  0
LINE
  5
27A
330
1F
100
AcDbEntity
  8
0
  6
Continuous
 62
     7
370
    25
100
AcDbLine
 10
2337.548006006
 20
1757.365685127
 30
0.0
 11
2231.048006006
 21
1757.365685127
 31
0.0
  0
LINE
  5
27B
330
1F
100
AcDbEntity
  8
0
  6
Continuous
 62
     7
370
    25
100
AcDbLine
 10
2337.548006006
 20
1754.365685127
 30
0.0
 11
2337.548006006
 21
1757.365685127
 31
0.0
  0
LINE
  5
27C
330
1F
100
AcDbEntity
  8
0
  6
Continuous
 62
     7
370
    25
100
AcDbLine
 10
2222.548006006
 20
1754.365685127
 30
0.0
 11
2222.548006006
 21
1757.365685127
 31
0.0
  0
LINE
  5
27D
330
1F
100
AcDbEntity
  8
0
  6
Continuous
 62
     7
370
    25
100
AcDbLine
 10
2226.048006006
 20
1757.365685127
 30
0.0
 11
2222.548006006
 21
1757.365685127
 31
0.0
  0
ARC
  5
27E
330
1F
100
AcDbEntity
  8
0
  6
Continuous
 62
     7
370
    25
100
AcDbCircle
 10
2228.548006006
 20
1758.6990184603
 30
0.0
 40
2.833333333334421
100
AcDbArc
 50
208.0724869359
 51
331.9275130641
  0
LINE
  5
27F
330
1F
100
AcDbEntity
  8
0
  6
Continuous
 62
     7
370
    25
100
AcDbLine
 10
2222.548006006
 20
1666.365685127
 30
0.0
 11
2226.048006006
 21
1666.365685127
 31
0.0
  0
LINE
  5
280
330
1F
100
AcDbEntity
  8
0
  6
Continuous
 62
     7
370
    25
100
AcDbLine
 10
2222.548006006
 20
1666.365685127
 30
0.0
 11
2222.548006006
 21
1669.365685127
 31
0.0
  0
LINE
  5
281
330
1F
100
AcDbEntity
  8
0
  6
Continuous
 62
     7
370
    25
100
AcDbLine
 10
2337.548006006
 20
1666.365685127
 30
0.0
 11
2337.548006006
 21
1669.365685127
 31
0.0
  0
LINE
  5
282
330
1F
100
AcDbEntity
  8
0
  6
Continuous
 62
     7
370
    25
100
AcDbLine
 10
2231.048006006
 20
1666.365685127
 30
0.0
 11
2337.548006006
 21
1666.365685127
 31
0.0
  0
ARC
  5
283
330
1F
100
AcDbEntity
  8
0
  6
Continuous
 62
     7
370
    25
100
AcDbCircle
 10
2228.548006006
 20
1665.0323517936
 30
0.0
 40
2.833333333333592
100
AcDbArc
 50
28.0724869358
 51
151.9275130641
  0
LINE
  5
284
330
1F
100
AcDbEntity
  8
0
  6
Continuous
 62
     7
370
    25
100
AcDbLine
 10
2340.548006006
 20
1669.365685127
 30
0.0
 11
2340.548006006
 21
1754.3656851317
 31
0.0
  0
LINE
  5
285
330
1F
100
AcDbEntity
  8
0
  6
Continuous
 62
     7
370
    25
100
AcDbLine
 10
2337.548006006
 20
1669.365685127
 30
0.0
 11
2340.548006006
 21
1669.365685127
 31
0.0
  0
LINE
  5
286
330
1F
100
AcDbEntity
  8
0
  6
Continuous
 62
     7
370
    25
100
AcDbLine
 10
2340.548006006
 20
1754.365685127
 30
0.0
 11
2337.548006006
 21
1754.365685127
 31
0.0
  0
ARC
  5
287
330
1F
100
AcDbEntity
  8
0
  6
Continuous
 62
     7
370
    25
100
AcDbCircle
 10
2337.548006006
 20
1669.365685127
 30
0.0
 40
3.0
100
AcDbArc
 50
269.9999996402
 51
0.0
  0
ARC
  5
288
330
1F
100
AcDbEntity
  8
0
  6
Continuous
 62
     7
370
    25
100
AcDbCircle
 10
2337.548006006
 20
1754.365685127
 30
0.0
 40
3.000000000000227
100
AcDbArc
 50
0.0000001799
 51
90.0
  0
ARC
  5
289
330
1F
100
AcDbEntity
  8
0
  6
Continuous
 62
     7
370
    25
100
AcDbCircle
 10
2337.548006006
 20
1754.365685127
 30
0.0
 40
5.000000000000227
100
AcDbArc
 50
0.0
 51
90.0
  0
LINE
  5
28A
330
1F
100
AcDbEntity
  8
0
  6
Continuous
 62
     7
370
    25
100
AcDbLine
 10
2342.548006006
 20
1754.365685127
 30
0.0
 11
2342.548006006
 21
1669.365685127
 31
0.0
  0
ARC
  5
28B
330
1F
100
AcDbEntity
  8
0
  6
Continuous
 62
     7
370
    25
100
AcDbCircle
 10
2337.548006006
 20
1669.365685127
 30
0.0
 40
4.999999999999773
100
AcDbArc
 50
270.0
 51
0.0
  0
LINE
  5
28C
330
1F
100
AcDbEntity
  8
0
  6
Continuous
 62
     7
370
    25
100
AcDbLine
 10
2337.548006006
 20
1664.365685127
 30
0.0
 11
2222.548006006
 21
1664.365685127
 31
0.0
  0
LINE
  5
28D
330
1F
100
AcDbEntity
  8
0
  6
Continuous
 62
     7
370
    25
100
AcDbLine
 10
2222.548006006
 20
1759.365685127
 30
0.0
 11
2337.548006006
 21
1759.365685127
 31
0.0
  0
LINE
  5
28E
330
1F
100
AcDbEntity
  8
0
  6
Continuous
 62
     7
370
    25
100
AcDbLine
 10
2267.5480060061
 20
1661.8656851125
 30
0.0
 11
2267.699737286
 21
1661.8656851125
 31
0.0
  0
LINE
  5
28F
330
1F
100
AcDbEntity
  8
FORMAT
370
    25
100
AcDbLine
 10
2212.5480060041
 20
1769.365685127
 30
0.0
 11
2384.2628280388
 21
1769.365685127
 31
0.0
  0
LINE
  5
290
330
1F
100
AcDbEntity
  8
FORMAT
370
    25
100
AcDbLine
 10
2242.5480060041
 20
1835.7769721776
 30
0.0
 11
2242.5480060041
 21
1924.1783825151
 31
0.0
  0
LINE
  5
291
330
1F
100
AcDbEntity
  8
FORMAT
370
    25
100
AcDbLine
 10
2182.5480060041
 20
1835.7769721776
 30
0.0
 11
2182.5480060041
 21
1924.1783825151
 31
0.0
  0
DIMENSION
  5
292
330
1F
100
AcDbEntity
  8
FORMAT
100
AcDbDimension
  2
_D_6
 10
2242.5480060041
 20
1907.9922087913
 30
0.0
 11
2297.3319786075
 21
1907.9922087913
 31
0.0
 70
   160
  1
max. +<>
 71
     2
 42
-1.0
  3
SLDDIMSTYLE2
100
AcDbAlignedDimension
 13
2212.5480060041
 23
1827.8656851132
 33
0.0
 14
2242.5480060041
 24
1924.1783825151
 34
0.0
 50
0.0
100
AcDbRotatedDimension
  0
DIMENSION
  5
2A3
330
1F
100
AcDbEntity
  8
FORMAT
100
AcDbDimension
  2
_D_7
 10
2182.5480060041
 20
1907.9922087913
 30
0.0
 11
2124.6513076845
 21
1907.9922087913
 31
0.0
 70
   160
  1
max. -<>
 71
     2
 42
-1.0
  3
SLDDIMSTYLE2
100
AcDbAlignedDimension
 13
2212.5480060041
 23
1827.8656851132
 33
0.0
 14
2182.5480060041
 24
1924.1783825151
 34
0.0
 50
0.0
100
AcDbRotatedDimension
  0
DIMENSION
  5
2AE
330
1F
100
AcDbEntity
  8
FORMAT
100
AcDbDimension
  2
_D_8
 10
2454.2628280388
 20
1769.365685127
 30
0.0
 11
2454.2628280388
 21
1856.0176633482
 31
0.0
 70
   160
  1
min. <>**
 71
     2
 42
-1.0
  3
SLDDIMSTYLE3
100
AcDbAlignedDimension
 13
2337.548006006
 23
1759.365685127
 33
0.0
 14
2384.2628280388
 24
1769.365685127
 34
0.0
 50
90.0
100
AcDbRotatedDimension
  0
DIMENSION
  5
2BD
330
1F
100
AcDbEntity
  8
FORMAT
100
AcDbDimension
  2
_D_9
 10
2240.5480060018
 20
1531.8661181401
 30
0.0
 11
2287.213453638
 21
1531.8661181401
 31
0.0
 70
   160
  1
<>
 71
     2
 42
-1.0
  3
SLDDIMSTYLE1
100
AcDbAlignedDimension
 13
2212.5480060041
 23
1647.8656851132
 33
0.0
 14
2240.5480060018
 24
1604.8656851186
 34
0.0
100
AcDbRotatedDimension
  0
DIMENSION
  5
2C8
330
1F
100
AcDbEntity
  8
FORMAT
100
AcDbDimension
  2
_D_10
 10
2412.5480060061
 20
1759.365685127
 30
0.0
 11
2412.5480060061
 21
1681.8656851228
 31
0.0
 70
   160
  1
<>
 71
     2
 42
-1.0
  3
SLDDIMSTYLE0
100
AcDbAlignedDimension
 13
2240.0480060018
 23
1604.3656851186
 33
0.0
 14
2337.548006006
 24
1759.365685127
 34
0.0
 50
90.0
100
AcDbRotatedDimension
  0
DIMENSION
  5
2D2
330
1F
100
AcDbEntity
  8
FORMAT
100
AcDbDimension
  2
_D_11
 10
2342.548006006
 20
1456.9173612559
 30
0.0
 11
2277.548006006
 21
1456.9173612559
 31
0.0
 70
   160
  1
<>
 71
     2
 42
-1.0
  3
SLDDIMSTYLE0
100
AcDbAlignedDimension
 13
2212.548006006
 23
1669.515685127
 33
0.0
 14
2342.548006006
 24
1669.365685127
 34
0.0
100
AcDbRotatedDimension
  0
DIMENSION
  5
2DC
330
1F
100
AcDbEntity
  8
FORMAT
100
AcDbDimension
  2
_D_12
 10
2063.0267313247
 20
1652.8656851132
 30
0.0
 11
2063.0267313247
 21
1706.6156851201
 31
0.0
 70
   160
  1
<>
 71
     2
 42
-1.0
  3
SLDDIMSTYLE0
100
AcDbAlignedDimension
 13
2223.548006006
 23
1760.365685127
 33
0.0
 14
2172.5480060041
 24
1652.8656851132
 34
0.0
 50
90.0
100
AcDbRotatedDimension
  0
MTEXT
  5
2E6
330
1F
100
AcDbEntity
  8
FORMAT
100
AcDbMText
 10
2216.0279781403
 20
1996.2448965411
 30
0.0
 40
35.0
 41
0.0
 71
     2
 72
     1
  1
A-A
  7
SLDTEXTSTYLE0
 73
     1
 44
1.0
  0
INSERT
  5
2EC
330
1F
100
AcDbEntity
  8
FORMAT
100
AcDbBlockReference
  2
SW_NOTE_0_6
 10
2143.2913939479
 20
1287.8077897085
 30
0.0
  0
CIRCLE
  5
2ED
330
1F
100
AcDbEntity
  8
0
  6
Continuous
 62
     7
370
    18
100
AcDbCircle
 10
2215.448006006
 20
1711.0664287596
 30
0.0
 40
140.9906682887381
  0
MTEXT
  5
2EE
330
1F
100
AcDbEntity
  8
0
  6
Continuous
 62
     7
370
    18
100
AcDbMText
 10
2062.3099205784
 20
1856.2505710081
 30
0.0
 40
35.0
 41
0.0
 71
     1
 72
     1
  1
B
  7
SLDTEXTSTYLE0
 73
     1
 44
1.0
  0
LINE
  5
2EF
330
1F
100
AcDbEntity
  8
0
  6
Continuous
 62
     7
370
    25
100
AcDbLine
 10
2206.3931852998
 20
836.5280298522
 30
0.0
 11
2206.3931852998
 21
794.5280281833
 31
0.0
  0
LINE
  5
2F0
330
1F
100
AcDbEntity
  8
0
  6
Continuous
 62
     7
370
    25
100
AcDbLine
 10
2225.993184601
 20
794.5280281833
 30
0.0
 11
2225.993184601
 21
836.5280298522
 31
0.0
  0
LINE
  5
2F1
330
1F
100
AcDbEntity
  8
0
  6
Continuous
 62
     7
370
    25
100
AcDbLine
 10
2223.1931854458
 20
836.5280298522
 30
0.0
 11
2223.1931854458
 21
837.2280312708
 31
0.0
  0
LINE
  5
2F2
330
1F
100
AcDbEntity
  8
0
  6
Continuous
 62
     7
370
    25
100
AcDbLine
 10
2209.1931857588
 20
837.2280312708
 30
0.0
 11
2209.1931857588
 21
836.5280298522
 31
0.0
  0
LINE
  5
2F3
330
1F
100
AcDbEntity
  8
0
  6
Continuous
 62
     7
370
    25
100
AcDbLine
 10
2274.6431854041
 20
853.3280326059
 30
0.0
 11
2274.6431854041
 21
851.2280283502
 31
0.0
  0
LINE
  5
2F4
330
1F
100
AcDbEntity
  8
0
  6
Continuous
 62
     7
370
    25
100
AcDbLine
 10
2316.6431844654
 20
838.628034108
 30
0.0
 11
2316.6431844654
 21
854.7280250123
 31
0.0
  0
LINE
  5
2F5
330
1F
100
AcDbEntity
  8
0
  6
Continuous
 62
     7
370
    25
100
AcDbLine
 10
2315.2431868436
 20
837.2280312708
 30
0.0
 11
2316.6431844654
 21
838.628034108
 31
0.0
  0
LWPOLYLINE
  5
2F6
330
1F
100
AcDbEntity
  8
0
  6
Continuous
 62
     7
370
    25
100
AcDbPolyline
 90
        3
 70
   128
 43
0.0
 10
2274.3336823257
 20
849.4713542989
 10
2274.1693553002
 20
848.7728131941
 10
2273.9374939771
 20
847.976483219
  0
ARC
  5
2F7
330
1F
100
AcDbEntity
  8
0
  6
Continuous
 62
     7
370
    25
100
AcDbCircle
 10
2270.4431221869
 20
851.2280337431
 30
0.0
 40
4.200063217207864
100
AcDbArc
 50
344.6045913599
 51
359.9999264314
  0
LINE
  5
2F8
330
1F
100
AcDbEntity
  8
0
  6
Continuous
 62
     7
370
    25
100
AcDbLine
 10
2200.7931843819
 20
838.628034108
 30
0.0
 11
2202.1931846114
 21
837.2280312708
 31
0.0
  0
LINE
  5
2F9
330
1F
100
AcDbEntity
  8
0
  6
Continuous
 62
     7
370
    25
100
AcDbLine
 10
2202.1931846114
 20
847.0280302694
 30
0.0
 11
2200.7931843819
 21
845.6280274323
 31
0.0
  0
LINE
  5
2FA
330
1F
100
AcDbEntity
  8
0
  6
Continuous
 62
     7
370
    25
100
AcDbLine
 10
2200.7931843819
 20
845.6280274323
 30
0.0
 11
2200.7931843819
 21
838.628034108
 31
0.0
  0
LINE
  5
2FB
330
1F
100
AcDbEntity
  8
0
  6
Continuous
 62
     7
370
    25
100
AcDbLine
 10
2327.8431863012
 20
987.7280337742
 30
0.0
 11
2327.8431863012
 21
989.1280366114
 31
0.0
  0
ARC
  5
2FC
330
1F
100
AcDbEntity
  8
0
  6
Continuous
 62
     7
370
    18
100
AcDbCircle
 10
2201.7031860773
 20
920.1090725487
 30
0.0
 40
197.3869371015041
100
AcDbArc
 50
238.8650526812
 51
268.8214149901
  0
LINE
  5
2FD
330
1F
100
AcDbEntity
  8
0
  6
Continuous
 62
     7
370
    25
100
AcDbLine
 10
2197.6431858214
 20
722.7638944058
 30
0.0
 11
2197.6431858214
 21
771.4280309162
 31
0.0
  0
LINE
  5
2FE
330
1F
100
AcDbEntity
  8
0
  6
Continuous
 62
     7
370
    25
100
AcDbLine
 10
2197.6431858214
 20
793.8280319801
 30
0.0
 11
2197.6431858214
 21
831.6280303529
 31
0.0
  0
LINE
  5
2FF
330
1F
100
AcDbEntity
  8
0
  6
Continuous
 62
     7
370
    25
100
AcDbLine
 10
2099.6431827964
 20
751.1553550145
 30
0.0
 11
2099.6431827964
 21
796.6280324391
 31
0.0
  0
LINE
  5
300
330
1F
100
AcDbEntity
  8
0
  6
Continuous
 62
     7
370
    25
100
AcDbLine
 10
2141.6431844653
 20
796.6280324391
 30
0.0
 11
2141.6431844653
 21
831.6280303529
 31
0.0
  0
LINE
  5
301
330
1F
100
AcDbEntity
  8
0
  6
Continuous
 62
     7
370
    25
100
AcDbLine
 10
2141.6431844653
 20
831.6280303529
 30
0.0
 11
2197.6431858214
 21
831.6280303529
 31
0.0
  0
LINE
  5
302
330
1F
100
AcDbEntity
  8
0
  6
Continuous
 62
     7
370
    25
100
AcDbLine
 10
2099.6431827964
 20
796.6280324391
 30
0.0
 11
2141.6431844653
 21
796.6280324391
 31
0.0
  0
LINE
  5
303
330
1F
100
AcDbEntity
  8
0
  6
Continuous
 62
     7
370
    25
100
AcDbLine
 10
2197.6431858214
 20
1083.6280299357
 30
0.0
 11
2197.6431858214
 21
987.7280337742
 31
0.0
  0
LINE
  5
304
330
1F
100
AcDbEntity
  8
0
  6
Continuous
 62
     7
370
    25
100
AcDbLine
 10
2197.6431858214
 20
854.7280250123
 30
0.0
 11
2197.6431858214
 21
838.628034108
 31
0.0
  0
LINE
  5
305
330
1F
100
AcDbEntity
  8
0
  6
Continuous
 62
     7
370
    25
100
AcDbLine
 10
2197.6431858214
 20
838.628034108
 30
0.0
 11
2141.6431844653
 21
838.628034108
 31
0.0
  0
LINE
  5
306
330
1F
100
AcDbEntity
  8
0
  6
Continuous
 62
     7
370
    25
100
AcDbLine
 10
2141.6431844653
 20
838.628034108
 30
0.0
 11
2141.6431844653
 21
803.6280309787
 31
0.0
  0
LINE
  5
307
330
1F
100
AcDbEntity
  8
0
  6
Continuous
 62
     7
370
    25
100
AcDbLine
 10
2099.6431827964
 20
1083.6280299357
 30
0.0
 11
2197.6431858214
 21
1083.6280299357
 31
0.0
  0
LINE
  5
308
330
1F
100
AcDbEntity
  8
0
  6
Continuous
 62
     7
370
    25
100
AcDbLine
 10
2099.6431827964
 20
1083.6280299357
 30
0.0
 11
2099.6431827964
 21
803.6280309787
 31
0.0
  0
LINE
  5
309
330
1F
100
AcDbEntity
  8
0
  6
Continuous
 62
     7
370
    25
100
AcDbLine
 10
2141.6431844653
 20
803.6280309787
 30
0.0
 11
2099.6431827964
 21
803.6280309787
 31
0.0
  0
LINE
  5
30A
330
1F
100
AcDbEntity
  8
0
  6
Continuous
 62
     7
370
    25
100
AcDbLine
 10
2099.6431827964
 20
796.6280324391
 30
0.0
 11
2099.6431827964
 21
803.6280309787
 31
0.0
  0
LINE
  5
30B
330
1F
100
AcDbEntity
  8
0
  6
Continuous
 62
     7
370
    25
100
AcDbLine
 10
2197.6431858214
 20
831.6280303529
 30
0.0
 11
2197.6431858214
 21
838.628034108
 31
0.0
  0
LINE
  5
30C
330
1F
100
AcDbEntity
  8
0
  6
Continuous
 62
     7
370
    25
100
AcDbLine
 10
2225.993184601
 20
836.5280298522
 30
0.0
 11
2206.3931852998
 21
836.5280298522
 31
0.0
  0
LINE
  5
30D
330
1F
100
AcDbEntity
  8
0
  6
Continuous
 62
     7
370
    25
100
AcDbLine
 10
2316.6431844654
 20
838.628034108
 30
0.0
 11
2274.8556089075
 21
838.628034108
 31
0.0
  0
LINE
  5
30E
330
1F
100
AcDbEntity
  8
0
  6
Continuous
 62
     7
370
    25
100
AcDbLine
 10
2274.8556089075
 20
838.628034108
 30
0.0
 11
2274.8556089075
 21
851.2280283502
 31
0.0
  0
LINE
  5
30F
330
1F
100
AcDbEntity
  8
0
  6
Continuous
 62
     7
370
    25
100
AcDbLine
 10
2315.2431868436
 20
837.2280312708
 30
0.0
 11
2276.2414467009
 21
837.2280312708
 31
0.0
  0
LINE
  5
310
330
1F
100
AcDbEntity
  8
0
  6
Continuous
 62
     7
370
    25
100
AcDbLine
 10
2276.2414467009
 20
837.2280312708
 30
0.0
 11
2274.8556089075
 21
838.628034108
 31
0.0
  0
ARC
  5
311
330
1F
100
AcDbEntity
  8
0
  6
Continuous
 62
     7
370
    25
100
AcDbCircle
 10
2285.3318840347
 20
847.1762834137
 30
0.0
 40
11.23249649770926
100
AcDbArc
 50
158.8558050609
 51
168.7972701584
  0
LWPOLYLINE
  5
312
330
1F
100
AcDbEntity
  8
0
  6
Continuous
 62
     7
370
    25
100
AcDbPolyline
 90
       11
 70
   128
 43
0.0
 10
2274.8556089075
 20
851.2280283502
 10
2274.855569792
 20
851.2278927496
 10
2274.8552646907
 20
851.2267870834
 10
2274.8544224026
 20
851.2236578396
 10
2274.8512436124
 20
851.2117562822
 10
2274.8389222147
 20
851.1653600267
 10
2274.4782768609
 20
849.8210890225
 10
2274.1265159519
 20
848.5864354304
 10
2273.7896372052
 20
847.5344879559
 10
2273.2171342196
 20
846.1927203468
 10
2272.6084232749
 20
845.6280274323
  0
LINE
  5
313
330
1F
100
AcDbEntity
  8
0
  6
Continuous
 62
     7
370
    25
100
AcDbLine
 10
2272.6084232749
 20
845.6280274323
 30
0.0
 11
2273.1593631627
 21
846.1845947436
 31
0.0
  0
LINE
  5
314
330
1F
100
AcDbEntity
  8
0
  6
Continuous
 62
     7
370
    25
100
AcDbLine
 10
2274.8556089075
 20
838.628034108
 30
0.0
 11
2233.0507501448
 21
838.628034108
 31
0.0
  0
LINE
  5
315
330
1F
100
AcDbEntity
  8
0
  6
Continuous
 62
     7
370
    25
100
AcDbLine
 10
2233.0507501448
 20
845.6280274323
 30
0.0
 11
2233.0507501448
 21
838.628034108
 31
0.0
  0
LINE
  5
316
330
1F
100
AcDbEntity
  8
0
  6
Continuous
 62
     7
370
    25
100
AcDbLine
 10
2272.6084232749
 20
845.6280274323
 30
0.0
 11
2233.0507501448
 21
845.6280274323
 31
0.0
  0
LINE
  5
317
330
1F
100
AcDbEntity
  8
0
  6
Continuous
 62
     7
370
    25
100
AcDbLine
 10
2234.4365882641
 20
837.2280312708
 30
0.0
 11
2233.0507501448
 21
838.628034108
 31
0.0
  0
LINE
  5
318
330
1F
100
AcDbEntity
  8
0
  6
Continuous
 62
     7
370
    25
100
AcDbLine
 10
2276.2414467009
 20
837.2280312708
 30
0.0
 11
2234.4365882641
 21
837.2280312708
 31
0.0
  0
LINE
  5
319
330
1F
100
AcDbEntity
  8
0
  6
Continuous
 62
     7
370
    25
100
AcDbLine
 10
2234.4365882641
 20
847.0280302694
 30
0.0
 11
2233.0507501448
 21
845.6280274323
 31
0.0
  0
LINE
  5
31A
330
1F
100
AcDbEntity
  8
0
  6
Continuous
 62
     7
370
    25
100
AcDbLine
 10
2234.4365882641
 20
847.0280302694
 30
0.0
 11
2273.5735446634
 21
847.0280302694
 31
0.0
  0
LINE
  5
31B
330
1F
100
AcDbEntity
  8
0
  6
Continuous
 62
     7
370
    25
100
AcDbLine
 10
2232.8562350431
 20
838.628034108
 30
0.0
 11
2233.0507501448
 21
838.628034108
 31
0.0
  0
LINE
  5
31C
330
1F
100
AcDbEntity
  8
0
  6
Continuous
 62
     7
370
    25
100
AcDbLine
 10
2232.8562350431
 20
838.628034108
 30
0.0
 11
2232.8562350431
 21
845.6280274323
 31
0.0
  0
LINE
  5
31D
330
1F
100
AcDbEntity
  8
0
  6
Continuous
 62
     7
370
    25
100
AcDbLine
 10
2233.0507501448
 20
845.6280274323
 30
0.0
 11
2232.8562350431
 21
845.6280274323
 31
0.0
  0
LINE
  5
31E
330
1F
100
AcDbEntity
  8
0
  6
Continuous
 62
     7
370
    25
100
AcDbLine
 10
2234.2459638556
 20
837.2280312708
 30
0.0
 11
2232.8562350431
 21
838.628034108
 31
0.0
  0
LINE
  5
31F
330
1F
100
AcDbEntity
  8
0
  6
Continuous
 62
     7
370
    25
100
AcDbLine
 10
2234.4365882641
 20
837.2280312708
 30
0.0
 11
2234.2459638556
 21
837.2280312708
 31
0.0
  0
LINE
  5
320
330
1F
100
AcDbEntity
  8
0
  6
Continuous
 62
     7
370
    25
100
AcDbLine
 10
2232.8562350431
 20
845.6280274323
 30
0.0
 11
2234.2459638556
 21
847.0280302694
 31
0.0
  0
LINE
  5
321
330
1F
100
AcDbEntity
  8
0
  6
Continuous
 62
     7
370
    25
100
AcDbLine
 10
2234.2459638556
 20
847.0280302694
 30
0.0
 11
2234.4365882641
 21
847.0280302694
 31
0.0
  0
LINE
  5
322
330
1F
100
AcDbEntity
  8
0
  6
Continuous
 62
     7
370
    25
100
AcDbLine
 10
2202.2958968254
 20
837.2280312708
 30
0.0
 11
2200.9061683388
 21
838.628034108
 31
0.0
  0
LINE
  5
323
330
1F
100
AcDbEntity
  8
0
  6
Continuous
 62
     7
370
    25
100
AcDbLine
 10
2232.8562350431
 20
838.628034108
 30
0.0
 11
2200.9061683388
 21
838.628034108
 31
0.0
  0
LINE
  5
324
330
1F
100
AcDbEntity
  8
0
  6
Continuous
 62
     7
370
    25
100
AcDbLine
 10
2234.2459638556
 20
837.2280312708
 30
0.0
 11
2202.2958968254
 21
837.2280312708
 31
0.0
  0
LINE
  5
325
330
1F
100
AcDbEntity
  8
0
  6
Continuous
 62
     7
370
    25
100
AcDbLine
 10
2200.9061683388
 20
845.6280274323
 30
0.0
 11
2202.2958968254
 21
847.0280302694
 31
0.0
  0
LINE
  5
326
330
1F
100
AcDbEntity
  8
0
  6
Continuous
 62
     7
370
    25
100
AcDbLine
 10
2232.8562350431
 20
845.6280274323
 30
0.0
 11
2200.9061683388
 21
845.6280274323
 31
0.0
  0
LINE
  5
327
330
1F
100
AcDbEntity
  8
0
  6
Continuous
 62
     7
370
    25
100
AcDbLine
 10
2202.2958968254
 20
847.0280302694
 30
0.0
 11
2234.2459638556
 21
847.0280302694
 31
0.0
  0
LINE
  5
328
330
1F
100
AcDbEntity
  8
0
  6
Continuous
 62
     7
370
    25
100
AcDbLine
 10
2200.9061683388
 20
838.628034108
 30
0.0
 11
2200.9061683388
 21
845.6280274323
 31
0.0
  0
LINE
  5
329
330
1F
100
AcDbEntity
  8
0
  6
Continuous
 62
     7
370
    25
100
AcDbLine
 10
2200.9061683388
 20
838.628034108
 30
0.0
 11
2200.7931843819
 21
838.628034108
 31
0.0
  0
LINE
  5
32A
330
1F
100
AcDbEntity
  8
0
  6
Continuous
 62
     7
370
    25
100
AcDbLine
 10
2202.2958968254
 20
837.2280312708
 30
0.0
 11
2202.1931846114
 21
837.2280312708
 31
0.0
  0
LINE
  5
32B
330
1F
100
AcDbEntity
  8
0
  6
Continuous
 62
     7
370
    25
100
AcDbLine
 10
2200.9061683388
 20
845.6280274323
 30
0.0
 11
2200.7931843819
 21
845.6280274323
 31
0.0
  0
LINE
  5
32C
330
1F
100
AcDbEntity
  8
0
  6
Continuous
 62
     7
370
    25
100
AcDbLine
 10
2202.1931846114
 20
847.0280302694
 30
0.0
 11
2202.2958968254
 21
847.0280302694
 31
0.0
  0
LINE
  5
32D
330
1F
100
AcDbEntity
  8
0
  6
Continuous
 62
     7
370
    25
100
AcDbLine
 10
2197.6431858214
 20
771.4280309162
 30
0.0
 11
2198.3431846322
 21
771.4280309162
 31
0.0
  0
LINE
  5
32E
330
1F
100
AcDbEntity
  8
0
  6
Continuous
 62
     7
370
    25
100
AcDbLine
 10
2198.3431846322
 20
771.4280309162
 30
0.0
 11
2198.3431846322
 21
770.7280294976
 31
0.0
  0
ARC
  5
32F
330
1F
100
AcDbEntity
  8
0
  6
Continuous
 62
     7
370
    25
100
AcDbCircle
 10
2198.3431864913
 20
771.4280301675
 30
0.0
 40
0.7000006699617554
100
AcDbArc
 50
179.9999387237
 51
269.9998478329
  0
LINE
  5
330
330
1F
100
AcDbEntity
  8
0
  6
Continuous
 62
     7
370
    25
100
AcDbLine
 10
2198.3431846322
 20
771.4280309162
 30
0.0
 11
2236.1431849608
 21
771.4280309162
 31
0.0
  0
LINE
  5
331
330
1F
100
AcDbEntity
  8
0
  6
Continuous
 62
     7
370
    25
100
AcDbLine
 10
2236.1431849608
 20
770.7280294976
 30
0.0
 11
2236.1431849608
 21
771.4280309162
 31
0.0
  0
LINE
  5
332
330
1F
100
AcDbEntity
  8
0
  6
Continuous
 62
     7
370
    25
100
AcDbLine
 10
2198.3431846322
 20
770.7280294976
 30
0.0
 11
2236.1431849608
 21
770.7280294976
 31
0.0
  0
LINE
  5
333
330
1F
100
AcDbEntity
  8
0
  6
Continuous
 62
     7
370
    25
100
AcDbLine
 10
2236.1431849608
 20
793.8280319801
 30
0.0
 11
2236.1431849608
 21
794.5280281833
 31
0.0
  0
LINE
  5
334
330
1F
100
AcDbEntity
  8
0
  6
Continuous
 62
     7
370
    25
100
AcDbLine
 10
2236.1431849608
 20
793.8280319801
 30
0.0
 11
2198.3431846322
 21
793.8280319801
 31
0.0
  0
LINE
  5
335
330
1F
100
AcDbEntity
  8
0
  6
Continuous
 62
     7
370
    25
100
AcDbLine
 10
2198.3431846322
 20
794.5280281833
 30
0.0
 11
2198.3431846322
 21
793.8280319801
 31
0.0
  0
LINE
  5
336
330
1F
100
AcDbEntity
  8
0
  6
Continuous
 62
     7
370
    25
100
AcDbLine
 10
2236.1431849608
 20
794.5280281833
 30
0.0
 11
2198.3431846322
 21
794.5280281833
 31
0.0
  0
LINE
  5
337
330
1F
100
AcDbEntity
  8
0
  6
Continuous
 62
     7
370
    25
100
AcDbLine
 10
2198.3431846322
 20
793.8280319801
 30
0.0
 11
2198.3431846322
 21
771.4280309162
 31
0.0
  0
LINE
  5
338
330
1F
100
AcDbEntity
  8
0
  6
Continuous
 62
     7
370
    25
100
AcDbLine
 10
2236.1431849608
 20
771.4280309162
 30
0.0
 11
2236.1431849608
 21
793.8280319801
 31
0.0
  0
LINE
  5
339
330
1F
100
AcDbEntity
  8
0
  6
Continuous
 62
     7
370
    25
100
AcDbLine
 10
2198.3431846322
 20
793.8280319801
 30
0.0
 11
2197.6431858214
 21
793.8280319801
 31
0.0
  0
LINE
  5
33A
330
1F
100
AcDbEntity
  8
0
  6
Continuous
 62
     7
370
    25
100
AcDbLine
 10
2197.6431858214
 20
793.8280319801
 30
0.0
 11
2197.6431858214
 21
771.4280309162
 31
0.0
  0
ARC
  5
33B
330
1F
100
AcDbEntity
  8
0
  6
Continuous
 62
     7
370
    25
100
AcDbCircle
 10
2198.3431820397
 20
793.828031965
 30
0.0
 40
0.6999962183313074
100
AcDbArc
 50
89.9997877953
 51
179.9999987606
  0
LINE
  5
33C
330
1F
100
AcDbEntity
  8
0
  6
Continuous
 62
     7
370
    25
100
AcDbLine
 10
2236.1431849608
 20
771.4280309162
 30
0.0
 11
2236.8431847496
 21
771.4280309162
 31
0.0
  0
ARC
  5
33D
330
1F
100
AcDbEntity
  8
0
  6
Continuous
 62
     7
370
    25
100
AcDbCircle
 10
2236.1431846361
 20
771.4280296111
 30
0.0
 40
0.7000001135055187
100
AcDbArc
 50
270.0000265794
 51
0.0001068227
  0
LINE
  5
33E
330
1F
100
AcDbEntity
  8
0
  6
Continuous
 62
     7
370
    25
100
AcDbLine
 10
2236.8431847496
 20
793.8280319801
 30
0.0
 11
2236.1431849608
 21
793.8280319801
 31
0.0
  0
ARC
  5
33F
330
1F
100
AcDbEntity
  8
0
  6
Continuous
 62
     7
370
    25
100
AcDbCircle
 10
2236.1431890877
 20
793.8280325214
 30
0.0
 40
0.6999956618921989
100
AcDbArc
 50
359.9999556934
 51
90.0003377921
  0
LINE
  5
340
330
1F
100
AcDbEntity
  8
0
  6
Continuous
 62
     7
370
    25
100
AcDbLine
 10
2236.8431847496
 20
771.4280309162
 30
0.0
 11
2236.8431847496
 21
793.8280319801
 31
0.0
  0
LINE
  5
341
330
1F
100
AcDbEntity
  8
0
  6
Continuous
 62
     7
370
    25
100
AcDbLine
 10
2213.0431857379
 20
989.1280366114
 30
0.0
 11
2295.6431836309
 21
989.1280366114
 31
0.0
  0
LINE
  5
342
330
1F
100
AcDbEntity
  8
0
  6
Continuous
 62
     7
370
    25
100
AcDbLine
 10
2295.6431836309
 20
989.1280366114
 30
0.0
 11
2295.6431836309
 21
987.7280337742
 31
0.0
  0
LINE
  5
343
330
1F
100
AcDbEntity
  8
0
  6
Continuous
 62
     7
370
    25
100
AcDbLine
 10
2213.0431857379
 20
987.7280337742
 30
0.0
 11
2213.0431857379
 21
989.1280366114
 31
0.0
  0
LINE
  5
344
330
1F
100
AcDbEntity
  8
0
  6
Continuous
 62
     7
370
    25
100
AcDbLine
 10
2295.6431836309
 20
989.1280366114
 30
0.0
 11
2327.8431863012
 21
989.1280366114
 31
0.0
  0
LINE
  5
345
330
1F
100
AcDbEntity
  8
0
  6
Continuous
 62
     7
370
    25
100
AcDbLine
 10
2291.4431855502
 20
854.7280250123
 30
0.0
 11
2291.4431855502
 21
853.3280326059
 31
0.0
  0
LINE
  5
346
330
1F
100
AcDbEntity
  8
0
  6
Continuous
 62
     7
370
    25
100
AcDbLine
 10
2291.4431855502
 20
853.3280326059
 30
0.0
 11
2213.0431857379
 21
853.3280326059
 31
0.0
  0
LINE
  5
347
330
1F
100
AcDbEntity
  8
0
  6
Continuous
 62
     7
370
    25
100
AcDbLine
 10
2213.0431857379
 20
853.3280326059
 30
0.0
 11
2213.0431857379
 21
854.7280250123
 31
0.0
  0
LINE
  5
348
330
1F
100
AcDbEntity
  8
0
  6
Continuous
 62
     7
370
    25
100
AcDbLine
 10
2211.6431855084
 20
861.9380323222
 30
0.0
 11
2211.6431855084
 21
980.5180264643
 31
0.0
  0
LINE
  5
349
330
1F
100
AcDbEntity
  8
0
  6
Continuous
 62
     7
370
    25
100
AcDbLine
 10
2197.6431858214
 20
861.9380323222
 30
0.0
 11
2211.6431855084
 21
861.9380323222
 31
0.0
  0
LINE
  5
34A
330
1F
100
AcDbEntity
  8
0
  6
Continuous
 62
     7
370
    25
100
AcDbLine
 10
2197.6431858214
 20
980.5180264643
 30
0.0
 11
2197.6431858214
 21
861.9380323222
 31
0.0
  0
LINE
  5
34B
330
1F
100
AcDbEntity
  8
0
  6
Continuous
 62
     7
370
    25
100
AcDbLine
 10
2211.6431855084
 20
980.5180264643
 30
0.0
 11
2197.6431858214
 21
980.5180264643
 31
0.0
  0
LINE
  5
34C
330
1F
100
AcDbEntity
  8
0
  6
Continuous
 62
     7
370
    25
100
AcDbLine
 10
2211.6431855084
 20
984.7180349758
 30
0.0
 11
2197.6431858214
 21
984.7180349758
 31
0.0
  0
LINE
  5
34D
330
1F
100
AcDbEntity
  8
0
  6
Continuous
 62
     7
370
    25
100
AcDbLine
 10
2197.6431858214
 20
980.5180264643
 30
0.0
 11
2197.6431858214
 21
984.7180349758
 31
0.0
  0
LINE
  5
34E
330
1F
100
AcDbEntity
  8
0
  6
Continuous
 62
     7
370
    25
100
AcDbLine
 10
2197.6431858214
 20
857.7380342415
 30
0.0
 11
2211.6431855084
 21
857.7380342415
 31
0.0
  0
LINE
  5
34F
330
1F
100
AcDbEntity
  8
0
  6
Continuous
 62
     7
370
    25
100
AcDbLine
 10
2197.6431858214
 20
857.7380342415
 30
0.0
 11
2197.6431858214
 21
861.9380323222
 31
0.0
  0
LINE
  5
350
330
1F
100
AcDbEntity
  8
0
  6
Continuous
 62
     7
370
    25
100
AcDbLine
 10
2197.6431858214
 20
987.7280337742
 30
0.0
 11
2211.6431855084
 21
987.7280337742
 31
0.0
  0
LINE
  5
351
330
1F
100
AcDbEntity
  8
0
  6
Continuous
 62
     7
370
    25
100
AcDbLine
 10
2211.6431855084
 20
987.7280337742
 30
0.0
 11
2211.6431855084
 21
984.9280280998
 31
0.0
  0
LINE
  5
352
330
1F
100
AcDbEntity
  8
0
  6
Continuous
 62
     7
370
    25
100
AcDbLine
 10
2197.6431858214
 20
984.7180349758
 30
0.0
 11
2197.6431858214
 21
987.7280337742
 31
0.0
  0
LINE
  5
353
330
1F
100
AcDbEntity
  8
0
  6
Continuous
 62
     7
370
    25
100
AcDbLine
 10
2197.6431858214
 20
854.7280250123
 30
0.0
 11
2211.6431855084
 21
854.7280250123
 31
0.0
  0
LINE
  5
354
330
1F
100
AcDbEntity
  8
0
  6
Continuous
 62
     7
370
    25
100
AcDbLine
 10
2211.6431855084
 20
857.5280306867
 30
0.0
 11
2211.6431855084
 21
854.7280250123
 31
0.0
  0
LINE
  5
355
330
1F
100
AcDbEntity
  8
0
  6
Continuous
 62
     7
370
    25
100
AcDbLine
 10
2197.6431858214
 20
854.7280250123
 30
0.0
 11
2197.6431858214
 21
857.7380342415
 31
0.0
  0
LINE
  5
356
330
1F
100
AcDbEntity
  8
0
  6
Continuous
 62
     7
370
    25
100
AcDbLine
 10
2372.6431832137
 20
861.7280287674
 30
0.0
 11
2372.6431832137
 21
980.7280195883
 31
0.0
  0
LINE
  5
357
330
1F
100
AcDbEntity
  8
0
  6
Continuous
 62
     7
370
    25
100
AcDbLine
 10
2211.6431855084
 20
861.7280287674
 30
0.0
 11
2372.6431832137
 21
861.7280287674
 31
0.0
  0
LINE
  5
358
330
1F
100
AcDbEntity
  8
0
  6
Continuous
 62
     7
370
    25
100
AcDbLine
 10
2211.6431855084
 20
980.7280195883
 30
0.0
 11
2211.6431855084
 21
861.7280287674
 31
0.0
  0
LINE
  5
359
330
1F
100
AcDbEntity
  8
0
  6
Continuous
 62
     7
370
    25
100
AcDbLine
 10
2372.6431832137
 20
980.7280195883
 30
0.0
 11
2211.6431855084
 21
980.7280195883
 31
0.0
  0
LINE
  5
35A
330
1F
100
AcDbEntity
  8
0
  6
Continuous
 62
     7
370
    25
100
AcDbLine
 10
2228.4431843506
 20
962.5280244282
 30
0.0
 11
2228.4431843506
 21
879.9280343583
 31
0.0
  0
ARC
  5
35B
330
1F
100
AcDbEntity
  8
0
  6
Continuous
 62
     7
370
    25
100
AcDbCircle
 10
2232.6431961607
 20
879.9280376569
 30
0.0
 40
4.200011810110882
100
AcDbArc
 50
180.0000449982
 51
269.9998482802
  0
LINE
  5
35C
330
1F
100
AcDbEntity
  8
0
  6
Continuous
 62
     7
370
    25
100
AcDbLine
 10
2232.643185039
 20
875.7280258468
 30
0.0
 11
2353.0431852164
 21
875.7280258468
 31
0.0
  0
ARC
  5
35D
330
1F
100
AcDbEntity
  8
0
  6
Continuous
 62
     7
370
    25
100
AcDbCircle
 10
2353.0431792774
 20
879.9280298665
 30
0.0
 40
4.200004019735516
100
AcDbArc
 50
270.0000810189
 51
0.0000612766
  0
LINE
  5
35E
330
1F
100
AcDbEntity
  8
0
  6
Continuous
 62
     7
370
    25
100
AcDbLine
 10
2357.2431832971
 20
879.9280343583
 30
0.0
 11
2357.2431832971
 21
962.5280244282
 31
0.0
  0
ARC
  5
35F
330
1F
100
AcDbEntity
  8
0
  6
Continuous
 62
     7
370
    25
100
AcDbCircle
 10
2353.0431970838
 20
962.5280467264
 30
0.0
 40
4.199986213358383
100
AcDbArc
 50
359.9996958102
 51
90.0001618943
  0
LINE
  5
360
330
1F
100
AcDbEntity
  8
0
  6
Continuous
 62
     7
370
    25
100
AcDbLine
 10
2353.0431852164
 20
966.7280329397
 30
0.0
 11
2232.643185039
 21
966.7280329397
 31
0.0
  0
ARC
  5
361
330
1F
100
AcDbEntity
  8
0
  6
Continuous
 62
     7
370
    25
100
AcDbCircle
 10
2232.6431783542
 20
962.5280389361
 30
0.0
 40
4.199994003626307
100
AcDbArc
 50
89.9999088064
 51
180.0001979152
  0
LINE
  5
362
330
1F
100
AcDbEntity
  8
0
  6
Continuous
 62
     7
370
    25
100
AcDbLine
 10
2372.6431832137
 20
984.9280280998
 30
0.0
 11
2223.5431848513
 21
984.9280280998
 31
0.0
  0
LINE
  5
363
330
1F
100
AcDbEntity
  8
0
  6
Continuous
 62
     7
370
    25
100
AcDbLine
 10
2372.6431832137
 20
980.7280195883
 30
0.0
 11
2372.6431832137
 21
984.9280280998
 31
0.0
  0
LINE
  5
364
330
1F
100
AcDbEntity
  8
0
  6
Continuous
 62
     7
370
    25
100
AcDbLine
 10
2211.6431855084
 20
980.7280195883
 30
0.0
 11
2211.6431855084
 21
984.9280280998
 31
0.0
  0
LINE
  5
365
330
1F
100
AcDbEntity
  8
0
  6
Continuous
 62
     7
370
    25
100
AcDbLine
 10
2216.5431850078
 20
984.9280280998
 30
0.0
 11
2211.6431855084
 21
984.9280280998
 31
0.0
  0
ARC
  5
366
330
1F
100
AcDbEntity
  8
0
  6
Continuous
 62
     7
370
    25
100
AcDbCircle
 10
2220.0431849295
 20
986.7946916289
 30
0.0
 40
3.966665121098449
100
AcDbArc
 50
208.0724474783
 51
331.9275525217
  0
LINE
  5
367
330
1F
100
AcDbEntity
  8
0
  6
Continuous
 62
     7
370
    25
100
AcDbLine
 10
2211.6431855084
 20
857.5280306867
 30
0.0
 11
2216.5431850078
 21
857.5280306867
 31
0.0
  0
LINE
  5
368
330
1F
100
AcDbEntity
  8
0
  6
Continuous
 62
     7
370
    25
100
AcDbLine
 10
2211.6431855084
 20
857.5280306867
 30
0.0
 11
2211.6431855084
 21
861.7280287674
 31
0.0
  0
LINE
  5
369
330
1F
100
AcDbEntity
  8
0
  6
Continuous
 62
     7
370
    25
100
AcDbLine
 10
2372.6431832137
 20
857.5280306867
 30
0.0
 11
2372.6431832137
 21
861.7280287674
 31
0.0
  0
LINE
  5
36A
330
1F
100
AcDbEntity
  8
0
  6
Continuous
 62
     7
370
    25
100
AcDbLine
 10
2223.5431848513
 20
857.5280306867
 30
0.0
 11
2372.6431832137
 21
857.5280306867
 31
0.0
  0
ARC
  5
36B
330
1F
100
AcDbEntity
  8
0
  6
Continuous
 62
     7
370
    25
100
AcDbCircle
 10
2220.0431849295
 20
855.6613662485
 30
0.0
 40
3.966665548962458
100
AcDbArc
 50
28.0724590662
 51
151.9275409338
  0
LINE
  5
36C
330
1F
100
AcDbEntity
  8
0
  6
Continuous
 62
     7
370
    25
100
AcDbLine
 10
2376.8431812944
 20
861.7280287674
 30
0.0
 11
2376.8431812944
 21
980.7280195883
 31
0.0
  0
LINE
  5
36D
330
1F
100
AcDbEntity
  8
0
  6
Continuous
 62
     7
370
    25
100
AcDbLine
 10
2372.6431832137
 20
861.7280287674
 30
0.0
 11
2376.8431812944
 21
861.7280287674
 31
0.0
  0
LINE
  5
36E
330
1F
100
AcDbEntity
  8
0
  6
Continuous
 62
     7
370
    25
100
AcDbLine
 10
2376.8431812944
 20
980.7280195883
 30
0.0
 11
2372.6431832137
 21
980.7280195883
 31
0.0
  0
ARC
  5
36F
330
1F
100
AcDbEntity
  8
0
  6
Continuous
 62
     7
370
    25
100
AcDbCircle
 10
2372.6431950811
 20
861.7280168999
 30
0.0
 40
4.199986213285851
100
AcDbArc
 50
269.9998381053
 51
0.0001618947
  0
ARC
  5
370
330
1F
100
AcDbEntity
  8
0
  6
Continuous
 62
     7
370
    25
100
AcDbCircle
 10
2372.6431950811
 20
980.7280418865
 30
0.0
 40
4.199986213358383
100
AcDbArc
 50
359.9996958102
 51
90.0001618943
  0
ARC
  5
371
330
1F
100
AcDbEntity
  8
0
  6
Continuous
 62
     7
370
    25
100
AcDbCircle
 10
2372.6431624626
 20
980.7280092681
 30
0.0
 40
7.000024506144077
100
AcDbArc
 50
0.0000844717
 51
89.999830151
  0
LINE
  5
372
330
1F
100
AcDbEntity
  8
0
  6
Continuous
 62
     7
370
    25
100
AcDbLine
 10
2379.6431869687
 20
980.7280195883
 30
0.0
 11
2379.6431869687
 21
861.7280287674
 31
0.0
  0
ARC
  5
373
330
1F
100
AcDbEntity
  8
0
  6
Continuous
 62
     7
370
    25
100
AcDbCircle
 10
2372.6431624626
 20
861.7280495185
 30
0.0
 40
7.000024506183143
100
AcDbArc
 50
270.0001698491
 51
359.9998301509
  0
LINE
  5
374
330
1F
100
AcDbEntity
  8
0
  6
Continuous
 62
     7
370
    25
100
AcDbLine
 10
2372.6431832137
 20
854.7280250123
 30
0.0
 11
2211.6431855084
 21
854.7280250123
 31
0.0
  0
LINE
  5
375
330
1F
100
AcDbEntity
  8
0
  6
Continuous
 62
     7
370
    25
100
AcDbLine
 10
2211.6431855084
 20
987.7280337742
 30
0.0
 11
2372.6431832137
 21
987.7280337742
 31
0.0
  0
LINE
  5
376
330
1F
100
AcDbEntity
  8
0
  6
Continuous
 62
     7
370
    25
100
AcDbLine
 10
2274.6431854041
 20
851.2280283502
 30
0.0
 11
2274.8556089075
 21
851.2280283502
 31
0.0
  0
LINE
  5
377
330
1F
100
AcDbEntity
  8
FORMAT
370
    25
100
AcDbLine
 10
2211.643184884
 20
881.3280299548
 30
0.0
 11
2215.843184884
 21
881.3280299548
 31
0.0
  0
LINE
  5
378
330
1F
100
AcDbEntity
  8
FORMAT
370
    25
100
AcDbLine
 10
2215.843184884
 20
891.1280299548
 30
0.0
 11
2211.643184884
 21
891.1280299548
 31
0.0
  0
LINE
  5
379
330
1F
100
AcDbEntity
  8
FORMAT
370
    25
100
AcDbLine
 10
2211.643184884
 20
893.2280299548
 30
0.0
 11
2215.843184884
 21
893.2280299548
 31
0.0
  0
LINE
  5
37A
330
1F
100
AcDbEntity
  8
FORMAT
370
    25
100
AcDbLine
 10
2215.843184884
 20
907.2280299548
 30
0.0
 11
2211.643184884
 21
907.2280299548
 31
0.0
  0
LINE
  5
37B
330
1F
100
AcDbEntity
  8
FORMAT
370
    25
100
AcDbLine
 10
2211.643184884
 20
909.3280299548
 30
0.0
 11
2215.843184884
 21
909.3280299548
 31
0.0
  0
LINE
  5
37C
330
1F
100
AcDbEntity
  8
FORMAT
370
    25
100
AcDbLine
 10
2215.843184884
 20
919.1280299548
 30
0.0
 11
2211.643184884
 21
919.1280299548
 31
0.0
  0
LINE
  5
37D
330
1F
100
AcDbEntity
  8
FORMAT
370
    25
100
AcDbLine
 10
2211.643184884
 20
923.3280299548
 30
0.0
 11
2215.843184884
 21
923.3280299548
 31
0.0
  0
LINE
  5
37E
330
1F
100
AcDbEntity
  8
FORMAT
370
    25
100
AcDbLine
 10
2215.843184884
 20
933.1280299548
 30
0.0
 11
2211.643184884
 21
933.1280299548
 31
0.0
  0
LINE
  5
37F
330
1F
100
AcDbEntity
  8
FORMAT
370
    25
100
AcDbLine
 10
2211.643184884
 20
935.2280299548
 30
0.0
 11
2215.843184884
 21
935.2280299548
 31
0.0
  0
LINE
  5
380
330
1F
100
AcDbEntity
  8
FORMAT
370
    25
100
AcDbLine
 10
2215.843184884
 20
949.2280299548
 30
0.0
 11
2211.643184884
 21
949.2280299548
 31
0.0
  0
LINE
  5
381
330
1F
100
AcDbEntity
  8
FORMAT
370
    25
100
AcDbLine
 10
2211.643184884
 20
951.3280299548
 30
0.0
 11
2215.843184884
 21
951.3280299548
 31
0.0
  0
LINE
  5
382
330
1F
100
AcDbEntity
  8
FORMAT
370
    25
100
AcDbLine
 10
2215.843184884
 20
961.1280299548
 30
0.0
 11
2211.643184884
 21
961.1280299548
 31
0.0
  0
LINE
  5
383
330
1F
100
AcDbEntity
  8
FORMAT
  6
HIDDEN
370
    25
100
AcDbLine
 10
2201.703184884
 20
970.2280299581
 30
0.0
 11
2232.7105137221
 21
970.2280299581
 31
0.0
  0
LINE
  5
384
330
1F
100
AcDbEntity
  8
FORMAT
  6
HIDDEN
370
    25
100
AcDbLine
 10
2201.703184884
 20
970.2280299581
 30
0.0
 11
2201.703184884
 21
870.6926527583
 31
0.0
  0
LINE
  5
385
330
1F
100
AcDbEntity
  8
FORMAT
  6
HIDDEN
370
    25
100
AcDbLine
 10
2201.703184884
 20
870.6926527583
 30
0.0
 11
2232.7105137221
 21
870.6926527583
 31
0.0
  0
LINE
  5
386
330
1F
100
AcDbEntity
  8
FORMAT
  6
HIDDEN
370
    25
100
AcDbLine
 10
2232.7105137221
 20
970.2280299581
 30
0.0
 11
2232.7105137221
 21
870.6926527583
 31
0.0
  0
ARC
  5
387
330
1F
100
AcDbEntity
  8
FORMAT
370
    25
100
AcDbCircle
 10
2215.843184884
 20
886.2280299548
 30
0.0
 40
4.900000000000091
100
AcDbArc
 50
270.0
 51
90.0
  0
ARC
  5
388
330
1F
100
AcDbEntity
  8
FORMAT
370
    25
100
AcDbCircle
 10
2215.843184884
 20
900.2280299548
 30
0.0
 40
6.999999999999773
100
AcDbArc
 50
270.0
 51
90.0
  0
ARC
  5
389
330
1F
100
AcDbEntity
  8
FORMAT
370
    25
100
AcDbCircle
 10
2215.843184884
 20
914.2280299548
 30
0.0
 40
4.900000000000091
100
AcDbArc
 50
270.0
 51
90.0
  0
ARC
  5
38A
330
1F
100
AcDbEntity
  8
FORMAT
370
    25
100
AcDbCircle
 10
2215.843184884
 20
928.2280299548
 30
0.0
 40
4.900000000000091
100
AcDbArc
 50
270.0
 51
90.0
  0
ARC
  5
38B
330
1F
100
AcDbEntity
  8
FORMAT
370
    25
100
AcDbCircle
 10
2215.843184884
 20
942.2280299548
 30
0.0
 40
7.0
100
AcDbArc
 50
270.0
 51
90.0
  0
ARC
  5
38C
330
1F
100
AcDbEntity
  8
FORMAT
370
    25
100
AcDbCircle
 10
2215.843184884
 20
956.2280299548
 30
0.0
 40
4.89999999999975
100
AcDbArc
 50
270.0
 51
90.0
  0
DIMENSION
  5
38D
330
1F
100
AcDbEntity
  8
FORMAT
100
AcDbDimension
  2
_D_13
 10
2236.843184878
 20
633.9466230363
 30
0.0
 11
2299.5744138799
 21
633.9466230363
 31
0.0
 70
   160
  1
(<>)
 71
     2
 42
-1.0
  3
SLDDIMSTYLE4
100
AcDbAlignedDimension
 13
2197.6431848812
 23
722.7638944058
 33
0.0
 14
2236.843184878
 24
771.4280299431
 34
0.0
100
AcDbRotatedDimension
  0
DIMENSION
  5
39C
330
1F
100
AcDbEntity
  8
FORMAT
100
AcDbDimension
  2
_D_14
 10
2389.7805889219
 20
794.5280299431
 30
0.0
 11
2389.7805889219
 21
708.4415837357
 31
0.0
 70
   160
  1
(<>)
 71
     2
 42
-1.0
  3
SLDDIMSTYLE4
100
AcDbAlignedDimension
 13
2236.143184878
 23
770.7280299431
 33
0.0
 14
2236.143184878
 24
794.5280299431
 34
0.0
 50
90.0
100
AcDbRotatedDimension
  0
DIMENSION
  5
3AA
330
1F
100
AcDbEntity
  8
FORMAT
100
AcDbDimension
  2
_D_15
 10
2444.9285663361
 20
837.2280299346
 30
0.0
 11
2444.9285663361
 21
785.2162189593
 31
0.0
 70
   160
  1
<>*
 71
     2
 42
-1.0
  3
SLDDIMSTYLE5
100
AcDbAlignedDimension
 13
2197.6431848812
 23
831.6280299357
 33
0.0
 14
2276.2414470898
 24
837.2280299346
 34
0.0
 50
90.0
100
AcDbRotatedDimension
  0
DIMENSION
  5
3BA
330
1F
100
AcDbEntity
  8
FORMAT
100
AcDbDimension
  2
_D_16
 10
2505.2896925581
 20
854.7280299549
 30
0.0
 11
2505.2896925581
 21
780.8762980421
 31
0.0
 70
   160
  1
<>
 71
     2
 42
-1.0
  3
SLDDIMSTYLE4
100
AcDbAlignedDimension
 13
2276.2414470898
 23
837.2280299346
 33
0.0
 14
2372.643184884
 24
854.7280299549
 34
0.0
 50
90.0
100
AcDbRotatedDimension
  0
DIMENSION
  5
3C8
330
1F
100
AcDbEntity
  8
FORMAT
100
AcDbDimension
  2
_D_17
 10
2211.643184884
 20
1020.0170138623
 30
0.0
 11
2254.1890962919
 21
1020.0170138623
 31
0.0
 70
   160
  1
<>
 71
     2
 42
-1.0
  3
SLDDIMSTYLE4
100
AcDbAlignedDimension
 13
2197.643184884
 23
980.5180299549
 33
0.0
 14
2211.643184884
 24
984.9280299549
 34
0.0
100
AcDbRotatedDimension
  0
DIMENSION
  5
3D4
330
1F
100
AcDbEntity
  8
FORMAT
100
AcDbDimension
  2
_D_18
 10
2069.3031312682
 20
847.0280299345
 30
0.0
 11
2069.3031312682
 21
915.3156298732
 31
0.0
 70
   160
  1
<>
 71
     2
 42
-1.0
  3
SLDDIMSTYLE4
100
AcDbAlignedDimension
 13
2211.643184884
 23
854.7280299549
 33
0.0
 14
2234.4365882982
 24
847.0280299345
 34
0.0
 50
90.0
100
AcDbRotatedDimension
  0
DIMENSION
  5
3E0
330
1F
100
AcDbEntity
  8
FORMAT
100
AcDbDimension
  2
_D_19
 10
1992.8349237143
 20
854.7280299549
 30
0.0
 11
1992.8349237143
 21
915.3156298732
 31
0.0
 70
   160
  1
<>
 71
     2
 42
-1.0
  3
SLDDIMSTYLE6
100
AcDbAlignedDimension
 13
2141.6431848812
 23
831.6280299357
 33
0.0
 14
2211.643184884
 24
854.7280299549
 34
0.0
 50
90.0
100
AcDbRotatedDimension
  0
DIMENSION
  5
3EE
330
1F
100
AcDbEntity
  8
FORMAT
100
AcDbDimension
  2
_D_20
 10
1992.8349237143
 20
794.5280299431
 30
0.0
 11
1992.8349237143
 21
726.7433242474
 31
0.0
 70
   160
  1
<>
 71
     2
 42
-1.0
  3
SLDDIMSTYLE6
100
AcDbAlignedDimension
 13
2141.6431848812
 23
831.6280299357
 33
0.0
 14
2198.343184878
 24
794.5280299431
 34
0.0
 50
90.0
100
AcDbRotatedDimension
  0
MTEXT
  5
3FB
330
1F
100
AcDbEntity
  8
FORMAT
100
AcDbMText
 10
2183.4443925235
 20
1155.394863615
 30
0.0
 40
35.0
 41
0.0
 71
     2
 72
     1
  1
B (1 : 5)
  7
SLDTEXTSTYLE0
 73
     1
 44
1.0
  0
MTEXT
  5
3FC
330
1F
100
AcDbEntity
  8
FORMAT
100
AcDbMText
 10
1924.6870743515
 20
641.40862092
 30
0.0
 40
18.5208333333
 41
0.0
 71
     1
 72
     1
  1
GB 46
  7
SLDTEXTSTYLE0
 73
     1
 44
1.0
  0
LEADER
  5
3FE
330
1F
100
AcDbEntity
  8
FORMAT
100
AcDbLeader
  3
SLDDIMSTYLE7
 76
     3
 10
2216.1060861809
 20
813.5469063629
 30
0.0
 10
2042.1613315173
 20
632.8003308821
 30
0.0
 10
1997.7113315173
 20
632.8003308821
 30
0.0
  0
MTEXT
  5
3FF
330
1F
100
AcDbEntity
  8
FORMAT
100
AcDbMText
 10
1659.5702298643
 20
1021.4095034733
 30
0.0
 40
18.5208333333
 41
0.0
 71
     1
 72
     1
  1
aufliegende Kabelzuführung (optional)
  7
SLDTEXTSTYLE0
 73
     1
 44
1.0
  0
LEADER
  5
401
330
1F
100
AcDbEntity
  8
FORMAT
100
AcDbLeader
  3
SLDDIMSTYLE8
 76
     3
 10
2201.703184884
 20
938.3191585453
 30
0.0
 10
2124.2596859519
 20
1012.1434596634
 30
0.0
 10
2079.8096859519
 20
1012.1434596634
 30
0.0
  0
LINE
  5
402
330
1F
100
AcDbEntity
  8
0
  6
Continuous
 62
     7
370
    25
100
AcDbLine
 10
475.13468375
 20
610.6142515222
 30
0.0
 11
475.13468375
 21
570.6142515222
 31
0.0
  0
LINE
  5
403
330
1F
100
AcDbEntity
  8
0
  6
Continuous
 62
     7
370
    25
100
AcDbLine
 10
499.16468375
 20
610.6142515222
 30
0.0
 11
499.16468375
 21
640.6142515222
 31
0.0
  0
LINE
  5
404
330
1F
100
AcDbEntity
  8
0
  6
Continuous
 62
     7
370
    25
100
AcDbLine
 10
499.16468375
 20
540.6142515222
 30
0.0
 11
499.16468375
 21
570.6142515222
 31
0.0
  0
CIRCLE
  5
405
330
1F
100
AcDbEntity
  8
0
  6
Continuous
 62
     7
370
    25
100
AcDbCircle
 10
617.1346837494
 20
849.6142515382
 30
0.0
 40
6.200000000000045
  0
CIRCLE
  5
406
330
1F
100
AcDbEntity
  8
0
  6
Continuous
 62
     7
370
    25
100
AcDbCircle
 10
617.1346837494
 20
869.6142515382
 30
0.0
 40
6.199999999999932
  0
CIRCLE
  5
407
330
1F
100
AcDbEntity
  8
0
  6
Continuous
 62
     7
370
    25
100
AcDbCircle
 10
617.1346837494
 20
889.6142515382
 30
0.0
 40
6.200000000000045
  0
CIRCLE
  5
408
330
1F
100
AcDbEntity
  8
0
  6
Continuous
 62
     7
370
    25
100
AcDbCircle
 10
597.1346837494
 20
879.6142515382
 30
0.0
 40
6.199999999999818
  0
CIRCLE
  5
409
330
1F
100
AcDbEntity
  8
0
  6
Continuous
 62
     7
370
    25
100
AcDbCircle
 10
597.1346837494
 20
859.6142515382
 30
0.0
 40
6.200000000000045
  0
CIRCLE
  5
40A
330
1F
100
AcDbEntity
  8
0
  6
Continuous
 62
     7
370
    25
100
AcDbCircle
 10
597.1346837494
 20
839.6142515382
 30
0.0
 40
6.200000000000045
  0
CIRCLE
  5
40B
330
1F
100
AcDbEntity
  8
0
  6
Continuous
 62
     7
370
    25
100
AcDbCircle
 10
597.1346837494
 20
819.6142515382
 30
0.0
 40
6.200000000000045
  0
CIRCLE
  5
40C
330
1F
100
AcDbEntity
  8
0
  6
Continuous
 62
     7
370
    25
100
AcDbCircle
 10
617.1346837494
 20
829.6142515382
 30
0.0
 40
6.199999999999932
  0
LINE
  5
40D
330
1F
100
AcDbEntity
  8
0
  6
Continuous
 62
     7
370
    25
100
AcDbLine
 10
519.1346837494
 20
830.6142515382
 30
0.0
 11
497.1346837494
 21
830.6142515382
 31
0.0
  0
ARC
  5
40E
330
1F
100
AcDbEntity
  8
0
  6
Continuous
 62
     7
370
    25
100
AcDbCircle
 10
519.1346837494
 20
836.6142515382
 30
0.0
 40
6.000000000000114
100
AcDbArc
 50
270.0
 51
0.0
  0
LINE
  5
40F
330
1F
100
AcDbEntity
  8
0
  6
Continuous
 62
     7
370
    25
100
AcDbLine
 10
525.1346837494
 20
872.6142515382
 30
0.0
 11
525.1346837494
 21
836.6142515382
 31
0.0
  0
ARC
  5
410
330
1F
100
AcDbEntity
  8
0
  6
Continuous
 62
     7
370
    25
100
AcDbCircle
 10
519.1346837494
 20
872.6142515382
 30
0.0
 40
6.000000000000114
100
AcDbArc
 50
360.0
 51
90.0
  0
LINE
  5
411
330
1F
100
AcDbEntity
  8
0
  6
Continuous
 62
     7
370
    25
100
AcDbLine
 10
497.1346837494
 20
878.6142515382
 30
0.0
 11
519.1346837494
 21
878.6142515382
 31
0.0
  0
LINE
  5
412
330
1F
100
AcDbEntity
  8
0
  6
Continuous
 62
     7
370
    25
100
AcDbLine
 10
497.1346837494
 20
899.6142515382
 30
0.0
 11
497.1346837494
 21
878.6142515382
 31
0.0
  0
LINE
  5
413
330
1F
100
AcDbEntity
  8
0
  6
Continuous
 62
     7
370
    25
100
AcDbLine
 10
1167.1346837494
 20
899.6142515382
 30
0.0
 11
497.1346837494
 21
899.6142515382
 31
0.0
  0
LINE
  5
414
330
1F
100
AcDbEntity
  8
0
  6
Continuous
 62
     7
370
    25
100
AcDbLine
 10
1167.1346837494
 20
878.6142515382
 30
0.0
 11
1167.1346837494
 21
899.6142515382
 31
0.0
  0
LINE
  5
415
330
1F
100
AcDbEntity
  8
0
  6
Continuous
 62
     7
370
    25
100
AcDbLine
 10
1145.1346837494
 20
878.6142515382
 30
0.0
 11
1167.1346837494
 21
878.6142515382
 31
0.0
  0
ARC
  5
416
330
1F
100
AcDbEntity
  8
0
  6
Continuous
 62
     7
370
    25
100
AcDbCircle
 10
1145.1346837494
 20
872.6142515382
 30
0.0
 40
6.000000000000114
100
AcDbArc
 50
90.0
 51
180.0
  0
LINE
  5
417
330
1F
100
AcDbEntity
  8
0
  6
Continuous
 62
     7
370
    25
100
AcDbLine
 10
1139.1346837494
 20
836.6142515382
 30
0.0
 11
1139.1346837494
 21
872.6142515382
 31
0.0
  0
ARC
  5
418
330
1F
100
AcDbEntity
  8
0
  6
Continuous
 62
     7
370
    25
100
AcDbCircle
 10
1145.1346837494
 20
836.6142515382
 30
0.0
 40
6.000000000000227
100
AcDbArc
 50
180.0
 51
270.0
  0
LINE
  5
419
330
1F
100
AcDbEntity
  8
0
  6
Continuous
 62
     7
370
    25
100
AcDbLine
 10
1167.1346837494
 20
830.6142515382
 30
0.0
 11
1145.1346837494
 21
830.6142515382
 31
0.0
  0
LINE
  5
41A
330
1F
100
AcDbEntity
  8
0
  6
Continuous
 62
     7
370
    25
100
AcDbLine
 10
1167.1346837494
 20
809.6142515382
 30
0.0
 11
1167.1346837494
 21
830.6142515382
 31
0.0
  0
LINE
  5
41B
330
1F
100
AcDbEntity
  8
0
  6
Continuous
 62
     7
370
    25
100
AcDbLine
 10
497.1346837494
 20
809.6142515382
 30
0.0
 11
1167.1346837494
 21
809.6142515382
 31
0.0
  0
LINE
  5
41C
330
1F
100
AcDbEntity
  8
0
  6
Continuous
 62
     7
370
    25
100
AcDbLine
 10
497.1346837494
 20
830.6142515382
 30
0.0
 11
497.1346837494
 21
809.6142515382
 31
0.0
  0
CIRCLE
  5
41D
330
1F
100
AcDbEntity
  8
0
  6
Continuous
 62
     7
370
    25
100
AcDbCircle
 10
1047.1346837494
 20
819.6142515382
 30
0.0
 40
6.199999999999932
  0
CIRCLE
  5
41E
330
1F
100
AcDbEntity
  8
0
  6
Continuous
 62
     7
370
    25
100
AcDbCircle
 10
1047.1346837494
 20
839.6142515382
 30
0.0
 40
6.200000000000045
  0
CIRCLE
  5
41F
330
1F
100
AcDbEntity
  8
0
  6
Continuous
 62
     7
370
    25
100
AcDbCircle
 10
1047.1346837494
 20
859.6142515382
 30
0.0
 40
6.199999999999932
  0
CIRCLE
  5
420
330
1F
100
AcDbEntity
  8
0
  6
Continuous
 62
     7
370
    25
100
AcDbCircle
 10
1047.1346837494
 20
879.6142515382
 30
0.0
 40
6.199999999999932
  0
CIRCLE
  5
421
330
1F
100
AcDbEntity
  8
0
  6
Continuous
 62
     7
370
    25
100
AcDbCircle
 10
1067.1346837494
 20
889.6142515382
 30
0.0
 40
6.200000000000045
  0
CIRCLE
  5
422
330
1F
100
AcDbEntity
  8
0
  6
Continuous
 62
     7
370
    25
100
AcDbCircle
 10
1067.1346837494
 20
869.6142515382
 30
0.0
 40
6.200000000000159
  0
CIRCLE
  5
423
330
1F
100
AcDbEntity
  8
0
  6
Continuous
 62
     7
370
    25
100
AcDbCircle
 10
1067.1346837494
 20
849.6142515382
 30
0.0
 40
6.199999999999932
  0
CIRCLE
  5
424
330
1F
100
AcDbEntity
  8
0
  6
Continuous
 62
     7
370
    25
100
AcDbCircle
 10
1067.1346837494
 20
829.6142515382
 30
0.0
 40
6.200000000000159
  0
CIRCLE
  5
425
330
1F
100
AcDbEntity
  8
0
  6
Continuous
 62
     7
370
    25
100
AcDbCircle
 10
842.1346837494
 20
829.6142515382
 30
0.0
 40
6.200000000000045
  0
CIRCLE
  5
426
330
1F
100
AcDbEntity
  8
0
  6
Continuous
 62
     7
370
    25
100
AcDbCircle
 10
822.1346837494
 20
819.6142515382
 30
0.0
 40
6.200000000000045
  0
CIRCLE
  5
427
330
1F
100
AcDbEntity
  8
0
  6
Continuous
 62
     7
370
    25
100
AcDbCircle
 10
822.1346837494
 20
839.6142515382
 30
0.0
 40
6.200000000000045
  0
CIRCLE
  5
428
330
1F
100
AcDbEntity
  8
0
  6
Continuous
 62
     7
370
    25
100
AcDbCircle
 10
822.1346837494
 20
859.6142515382
 30
0.0
 40
6.200000000000045
  0
CIRCLE
  5
429
330
1F
100
AcDbEntity
  8
0
  6
Continuous
 62
     7
370
    25
100
AcDbCircle
 10
822.1346837494
 20
879.6142515382
 30
0.0
 40
6.200000000000045
  0
CIRCLE
  5
42A
330
1F
100
AcDbEntity
  8
0
  6
Continuous
 62
     7
370
    25
100
AcDbCircle
 10
842.1346837494
 20
889.6142515382
 30
0.0
 40
6.199999999999818
  0
CIRCLE
  5
42B
330
1F
100
AcDbEntity
  8
0
  6
Continuous
 62
     7
370
    25
100
AcDbCircle
 10
842.1346837494
 20
869.6142515382
 30
0.0
 40
6.200000000000159
  0
CIRCLE
  5
42C
330
1F
100
AcDbEntity
  8
0
  6
Continuous
 62
     7
370
    25
100
AcDbCircle
 10
842.1346837494
 20
849.6142515382
 30
0.0
 40
6.199999999999932
  0
CIRCLE
  5
42D
330
1F
100
AcDbEntity
  8
0
  6
Continuous
 62
     7
370
    25
100
AcDbCircle
 10
1137.1346837494
 20
892.6142515382
 30
0.0
 40
2.499999999999773
  0
CIRCLE
  5
42E
330
1F
100
AcDbEntity
  8
0
  6
Continuous
 62
     7
370
    25
100
AcDbCircle
 10
960.1346837494
 20
892.6142515382
 30
0.0
 40
2.5
  0
CIRCLE
  5
42F
330
1F
100
AcDbEntity
  8
0
  6
Continuous
 62
     7
370
    25
100
AcDbCircle
 10
911.1346837494
 20
892.6142515382
 30
0.0
 40
2.5
  0
CIRCLE
  5
430
330
1F
100
AcDbEntity
  8
0
  6
Continuous
 62
     7
370
    25
100
AcDbCircle
 10
753.1346837494
 20
892.6142515382
 30
0.0
 40
2.5
  0
CIRCLE
  5
431
330
1F
100
AcDbEntity
  8
0
  6
Continuous
 62
     7
370
    25
100
AcDbCircle
 10
704.1346837494
 20
892.6142515382
 30
0.0
 40
2.5
  0
CIRCLE
  5
432
330
1F
100
AcDbEntity
  8
0
  6
Continuous
 62
     7
370
    25
100
AcDbCircle
 10
527.1346837494
 20
892.6142515382
 30
0.0
 40
2.500000000000114
  0
CIRCLE
  5
433
330
1F
100
AcDbEntity
  8
0
  6
Continuous
 62
     7
370
    25
100
AcDbCircle
 10
527.1346837494
 20
816.6142515382
 30
0.0
 40
2.5
  0
CIRCLE
  5
434
330
1F
100
AcDbEntity
  8
0
  6
Continuous
 62
     7
370
    25
100
AcDbCircle
 10
704.1346837494
 20
816.6142515382
 30
0.0
 40
2.500000000000114
  0
CIRCLE
  5
435
330
1F
100
AcDbEntity
  8
0
  6
Continuous
 62
     7
370
    25
100
AcDbCircle
 10
753.1346837494
 20
816.6142515382
 30
0.0
 40
2.5
  0
CIRCLE
  5
436
330
1F
100
AcDbEntity
  8
0
  6
Continuous
 62
     7
370
    25
100
AcDbCircle
 10
911.1346837494
 20
816.6142515382
 30
0.0
 40
2.5
  0
CIRCLE
  5
437
330
1F
100
AcDbEntity
  8
0
  6
Continuous
 62
     7
370
    25
100
AcDbCircle
 10
960.1346837494
 20
816.6142515382
 30
0.0
 40
2.5
  0
CIRCLE
  5
438
330
1F
100
AcDbEntity
  8
0
  6
Continuous
 62
     7
370
    25
100
AcDbCircle
 10
1137.1346837494
 20
816.6142515382
 30
0.0
 40
2.5
  0
CIRCLE
  5
439
330
1F
100
AcDbEntity
  8
0
  6
Continuous
 62
     7
370
    25
100
AcDbCircle
 10
597.1346837494
 20
819.6142515382
 30
0.0
 40
3.5
  0
CIRCLE
  5
43A
330
1F
100
AcDbEntity
  8
0
  6
Continuous
 62
     7
370
    25
100
AcDbCircle
 10
617.1346837494
 20
829.6142515382
 30
0.0
 40
3.5
  0
CIRCLE
  5
43B
330
1F
100
AcDbEntity
  8
0
  6
Continuous
 62
     7
370
    25
100
AcDbCircle
 10
597.1346837494
 20
839.6142515382
 30
0.0
 40
3.5
  0
CIRCLE
  5
43C
330
1F
100
AcDbEntity
  8
0
  6
Continuous
 62
     7
370
    25
100
AcDbCircle
 10
597.1346837494
 20
859.6142515382
 30
0.0
 40
3.5
  0
CIRCLE
  5
43D
330
1F
100
AcDbEntity
  8
0
  6
Continuous
 62
     7
370
    25
100
AcDbCircle
 10
617.1346837494
 20
849.6142515382
 30
0.0
 40
3.5
  0
CIRCLE
  5
43E
330
1F
100
AcDbEntity
  8
0
  6
Continuous
 62
     7
370
    25
100
AcDbCircle
 10
617.1346837494
 20
869.6142515382
 30
0.0
 40
3.5
  0
CIRCLE
  5
43F
330
1F
100
AcDbEntity
  8
0
  6
Continuous
 62
     7
370
    25
100
AcDbCircle
 10
597.1346837494
 20
879.6142515382
 30
0.0
 40
3.5
  0
CIRCLE
  5
440
330
1F
100
AcDbEntity
  8
0
  6
Continuous
 62
     7
370
    25
100
AcDbCircle
 10
617.1346837494
 20
889.6142515382
 30
0.0
 40
3.5
  0
CIRCLE
  5
441
330
1F
100
AcDbEntity
  8
0
  6
Continuous
 62
     7
370
    25
100
AcDbCircle
 10
822.1346837494
 20
819.6142515382
 30
0.0
 40
3.5
  0
CIRCLE
  5
442
330
1F
100
AcDbEntity
  8
0
  6
Continuous
 62
     7
370
    25
100
AcDbCircle
 10
842.1346837494
 20
829.6142515382
 30
0.0
 40
3.5
  0
CIRCLE
  5
443
330
1F
100
AcDbEntity
  8
0
  6
Continuous
 62
     7
370
    25
100
AcDbCircle
 10
822.1346837494
 20
839.6142515382
 30
0.0
 40
3.5
  0
CIRCLE
  5
444
330
1F
100
AcDbEntity
  8
0
  6
Continuous
 62
     7
370
    25
100
AcDbCircle
 10
842.1346837494
 20
849.6142515382
 30
0.0
 40
3.5
  0
CIRCLE
  5
445
330
1F
100
AcDbEntity
  8
0
  6
Continuous
 62
     7
370
    25
100
AcDbCircle
 10
822.1346837494
 20
859.6142515382
 30
0.0
 40
3.5
  0
CIRCLE
  5
446
330
1F
100
AcDbEntity
  8
0
  6
Continuous
 62
     7
370
    25
100
AcDbCircle
 10
842.1346837494
 20
869.6142515382
 30
0.0
 40
3.5
  0
CIRCLE
  5
447
330
1F
100
AcDbEntity
  8
0
  6
Continuous
 62
     7
370
    25
100
AcDbCircle
 10
822.1346837494
 20
879.6142515382
 30
0.0
 40
3.5
  0
CIRCLE
  5
448
330
1F
100
AcDbEntity
  8
0
  6
Continuous
 62
     7
370
    25
100
AcDbCircle
 10
842.1346837494
 20
889.6142515382
 30
0.0
 40
3.5
  0
CIRCLE
  5
449
330
1F
100
AcDbEntity
  8
0
  6
Continuous
 62
     7
370
    25
100
AcDbCircle
 10
1047.1346837494
 20
819.6142515382
 30
0.0
 40
3.5
  0
CIRCLE
  5
44A
330
1F
100
AcDbEntity
  8
0
  6
Continuous
 62
     7
370
    25
100
AcDbCircle
 10
1047.1346837494
 20
839.6142515382
 30
0.0
 40
3.5
  0
CIRCLE
  5
44B
330
1F
100
AcDbEntity
  8
0
  6
Continuous
 62
     7
370
    25
100
AcDbCircle
 10
1067.1346837494
 20
849.6142515382
 30
0.0
 40
3.5
  0
CIRCLE
  5
44C
330
1F
100
AcDbEntity
  8
0
  6
Continuous
 62
     7
370
    25
100
AcDbCircle
 10
1067.1346837494
 20
829.6142515382
 30
0.0
 40
3.5
  0
CIRCLE
  5
44D
330
1F
100
AcDbEntity
  8
0
  6
Continuous
 62
     7
370
    25
100
AcDbCircle
 10
1047.1346837494
 20
859.6142515382
 30
0.0
 40
3.5
  0
CIRCLE
  5
44E
330
1F
100
AcDbEntity
  8
0
  6
Continuous
 62
     7
370
    25
100
AcDbCircle
 10
1047.1346837494
 20
879.6142515382
 30
0.0
 40
3.5
  0
CIRCLE
  5
44F
330
1F
100
AcDbEntity
  8
0
  6
Continuous
 62
     7
370
    25
100
AcDbCircle
 10
1067.1346837494
 20
869.6142515382
 30
0.0
 40
3.5
  0
CIRCLE
  5
450
330
1F
100
AcDbEntity
  8
0
  6
Continuous
 62
     7
370
    25
100
AcDbCircle
 10
1067.1346837494
 20
889.6142515382
 30
0.0
 40
3.5
  0
LINE
  5
451
330
1F
100
AcDbEntity
  8
0
  6
Continuous
 62
     7
370
    25
100
AcDbLine
 10
496.8389616923
 20
610.6142515222
 30
0.0
 11
496.8389616923
 21
570.6142515222
 31
0.0
  0
LINE
  5
452
330
1F
100
AcDbEntity
  8
0
  6
Continuous
 62
     7
370
    25
100
AcDbLine
 10
500.8824108349
 20
610.6142515222
 30
0.0
 11
500.8824108349
 21
570.6142515222
 31
0.0
  0
LINE
  5
453
330
1F
100
AcDbEntity
  8
0
  6
Continuous
 62
     7
370
    25
100
AcDbLine
 10
500.8824108349
 20
570.6142515222
 30
0.0
 11
497.1266836446
 21
570.6142515222
 31
0.0
  0
LINE
  5
454
330
1F
100
AcDbEntity
  8
0
  6
Continuous
 62
     7
370
    25
100
AcDbLine
 10
500.8824108349
 20
610.6142515222
 30
0.0
 11
497.1266836446
 21
610.6142515222
 31
0.0
  0
LINE
  5
455
330
1F
100
AcDbEntity
  8
0
  6
Continuous
 62
     7
370
    25
100
AcDbLine
 10
519.13468375
 20
610.6142515222
 30
0.0
 11
519.13468375
 21
570.6142515222
 31
0.0
  0
LINE
  5
456
330
1F
100
AcDbEntity
  8
0
  6
Continuous
 62
     7
370
    25
100
AcDbLine
 10
519.13468375
 20
570.6142515222
 30
0.0
 11
500.8824108349
 21
570.6142515222
 31
0.0
  0
LINE
  5
457
330
1F
100
AcDbEntity
  8
0
  6
Continuous
 62
     7
370
    25
100
AcDbLine
 10
519.13468375
 20
610.6142515222
 30
0.0
 11
500.8824108349
 21
610.6142515222
 31
0.0
  0
LINE
  5
458
330
1F
100
AcDbEntity
  8
0
  6
Continuous
 62
     7
370
    25
100
AcDbLine
 10
1482.13468375
 20
470.6142515222
 30
0.0
 11
492.13468375
 21
470.6142515222
 31
0.0
  0
LINE
  5
459
330
1F
100
AcDbEntity
  8
0
  6
Continuous
 62
     7
370
    25
100
AcDbLine
 10
492.13468375
 20
470.6142515222
 30
0.0
 11
492.13468375
 21
540.6142515222
 31
0.0
  0
LINE
  5
45A
330
1F
100
AcDbEntity
  8
0
  6
Continuous
 62
     7
370
    25
100
AcDbLine
 10
492.13468375
 20
640.6142515222
 30
0.0
 11
492.13468375
 21
790.6142515222
 31
0.0
  0
LINE
  5
45B
330
1F
100
AcDbEntity
  8
0
  6
Continuous
 62
     7
370
    25
100
AcDbLine
 10
492.13468375
 20
790.6142515222
 30
0.0
 11
1482.13468375
 21
790.6142515222
 31
0.0
  0
LINE
  5
45C
330
1F
100
AcDbEntity
  8
0
  6
Continuous
 62
     7
370
    25
100
AcDbLine
 10
1482.13468375
 20
790.6142515222
 30
0.0
 11
1482.13468375
 21
470.6142515222
 31
0.0
  0
CIRCLE
  5
45D
330
1F
100
AcDbEntity
  8
0
  6
Continuous
 62
     7
370
    25
100
AcDbCircle
 10
1209.13468375
 20
755.3642515222
 30
0.0
 40
3.25
  0
CIRCLE
  5
45E
330
1F
100
AcDbEntity
  8
0
  6
Continuous
 62
     7
370
    25
100
AcDbCircle
 10
576.13468375
 20
755.3642515222
 30
0.0
 40
3.249999999999886
  0
LINE
  5
45F
330
1F
100
AcDbEntity
  8
0
  6
Continuous
 62
     7
370
    25
100
AcDbLine
 10
477.1501280744
 20
640.6142515222
 30
0.0
 11
477.1501280744
 21
610.6142515222
 31
0.0
  0
LINE
  5
460
330
1F
100
AcDbEntity
  8
0
  6
Continuous
 62
     7
370
    25
100
AcDbLine
 10
499.16468375
 20
640.6142515222
 30
0.0
 11
477.1501280744
 21
640.6142515222
 31
0.0
  0
LINE
  5
461
330
1F
100
AcDbEntity
  8
0
  6
Continuous
 62
     7
370
    25
100
AcDbLine
 10
497.1266836446
 20
610.6142515222
 30
0.0
 11
477.1501280744
 21
610.6142515222
 31
0.0
  0
LINE
  5
462
330
1F
100
AcDbEntity
  8
0
  6
Continuous
 62
     7
370
    25
100
AcDbLine
 10
477.1501280744
 20
570.6142515222
 30
0.0
 11
477.1501280744
 21
540.6142515222
 31
0.0
  0
LINE
  5
463
330
1F
100
AcDbEntity
  8
0
  6
Continuous
 62
     7
370
    25
100
AcDbLine
 10
499.16468375
 20
540.6142515222
 30
0.0
 11
477.1501280744
 21
540.6142515222
 31
0.0
  0
LINE
  5
464
330
1F
100
AcDbEntity
  8
0
  6
Continuous
 62
     7
370
    25
100
AcDbLine
 10
497.1266836446
 20
570.6142515222
 30
0.0
 11
477.1501280744
 21
570.6142515222
 31
0.0
  0
LINE
  5
465
330
1F
100
AcDbEntity
  8
0
  6
Continuous
 62
     7
370
    25
100
AcDbLine
 10
473.38468375
 20
640.6142515222
 30
0.0
 11
473.38468375
 21
610.6142515222
 31
0.0
  0
LINE
  5
466
330
1F
100
AcDbEntity
  8
0
  6
Continuous
 62
     7
370
    25
100
AcDbLine
 10
477.1501280744
 20
610.6142515222
 30
0.0
 11
473.38468375
 21
610.6142515222
 31
0.0
  0
LINE
  5
467
330
1F
100
AcDbEntity
  8
0
  6
Continuous
 62
     7
370
    25
100
AcDbLine
 10
477.1501280744
 20
640.6142515222
 30
0.0
 11
473.38468375
 21
640.6142515222
 31
0.0
  0
LINE
  5
468
330
1F
100
AcDbEntity
  8
0
  6
Continuous
 62
     7
370
    25
100
AcDbLine
 10
473.38468375
 20
570.6142515222
 30
0.0
 11
473.38468375
 21
540.6142515222
 31
0.0
  0
LINE
  5
469
330
1F
100
AcDbEntity
  8
0
  6
Continuous
 62
     7
370
    25
100
AcDbLine
 10
477.1501280744
 20
540.6142515222
 30
0.0
 11
473.38468375
 21
540.6142515222
 31
0.0
  0
LINE
  5
46A
330
1F
100
AcDbEntity
  8
0
  6
Continuous
 62
     7
370
    25
100
AcDbLine
 10
477.1501280744
 20
570.6142515222
 30
0.0
 11
473.38468375
 21
570.6142515222
 31
0.0
  0
LINE
  5
46B
330
1F
100
AcDbEntity
  8
0
  6
Continuous
 62
     7
370
    25
100
AcDbLine
 10
455.13468375
 20
640.6142515222
 30
0.0
 11
455.13468375
 21
610.6142515222
 31
0.0
  0
LINE
  5
46C
330
1F
100
AcDbEntity
  8
0
  6
Continuous
 62
     7
370
    25
100
AcDbLine
 10
473.38468375
 20
610.6142515222
 30
0.0
 11
455.13468375
 21
610.6142515222
 31
0.0
  0
LINE
  5
46D
330
1F
100
AcDbEntity
  8
0
  6
Continuous
 62
     7
370
    25
100
AcDbLine
 10
473.38468375
 20
640.6142515222
 30
0.0
 11
455.13468375
 21
640.6142515222
 31
0.0
  0
LINE
  5
46E
330
1F
100
AcDbEntity
  8
0
  6
Continuous
 62
     7
370
    25
100
AcDbLine
 10
455.13468375
 20
570.6142515222
 30
0.0
 11
455.13468375
 21
540.6142515222
 31
0.0
  0
LINE
  5
46F
330
1F
100
AcDbEntity
  8
0
  6
Continuous
 62
     7
370
    25
100
AcDbLine
 10
473.38468375
 20
540.6142515222
 30
0.0
 11
455.13468375
 21
540.6142515222
 31
0.0
  0
LINE
  5
470
330
1F
100
AcDbEntity
  8
0
  6
Continuous
 62
     7
370
    25
100
AcDbLine
 10
473.38468375
 20
570.6142515222
 30
0.0
 11
455.13468375
 21
570.6142515222
 31
0.0
  0
LINE
  5
471
330
1F
100
AcDbEntity
  8
0
  6
Continuous
 62
     7
370
    25
100
AcDbLine
 10
1587.13468375
 20
970.6142515222
 30
0.0
 11
387.13468375
 21
970.6142515222
 31
0.0
  0
LINE
  5
472
330
1F
100
AcDbEntity
  8
0
  6
Continuous
 62
     7
370
    25
100
AcDbLine
 10
1487.13468375
 20
470.6142515222
 30
0.0
 11
1587.13468375
 21
470.6142515222
 31
0.0
  0
LINE
  5
473
330
1F
100
AcDbEntity
  8
0
  6
Continuous
 62
     7
370
    25
100
AcDbLine
 10
1487.13468375
 20
470.6142515222
 30
0.0
 11
1487.13468375
 21
795.6142515222
 31
0.0
  0
LINE
  5
474
330
1F
100
AcDbEntity
  8
0
  6
Continuous
 62
     7
370
    25
100
AcDbLine
 10
487.13468375
 20
795.6142515222
 30
0.0
 11
487.13468375
 21
640.6142515222
 31
0.0
  0
LINE
  5
475
330
1F
100
AcDbEntity
  8
0
  6
Continuous
 62
     7
370
    25
100
AcDbLine
 10
487.13468375
 20
540.6142515222
 30
0.0
 11
487.13468375
 21
470.6142515222
 31
0.0
  0
LINE
  5
476
330
1F
100
AcDbEntity
  8
0
  6
Continuous
 62
     7
370
    25
100
AcDbLine
 10
387.13468375
 20
470.6142515222
 30
0.0
 11
487.13468375
 21
470.6142515222
 31
0.0
  0
CIRCLE
  5
477
330
1F
100
AcDbEntity
  8
0
  6
Continuous
 62
     7
370
    25
100
AcDbCircle
 10
511.13468375
 20
866.6142515222
 30
0.0
 40
10.0
  0
CIRCLE
  5
478
330
1F
100
AcDbEntity
  8
0
  6
Continuous
 62
     7
370
    25
100
AcDbCircle
 10
1153.13468375
 20
866.6142515222
 30
0.0
 40
10.0
  0
CIRCLE
  5
479
330
1F
100
AcDbEntity
  8
0
  6
Continuous
 62
     7
370
    25
100
AcDbCircle
 10
511.13468375
 20
843.6142515222
 30
0.0
 40
10.0
  0
LINE
  5
47A
330
1F
100
AcDbEntity
  8
0
  6
Continuous
 62
     7
370
    25
100
AcDbLine
 10
1487.13468375
 20
795.6142515222
 30
0.0
 11
487.13468375
 21
795.6142515222
 31
0.0
  0
CIRCLE
  5
47B
330
1F
100
AcDbEntity
  8
0
  6
Continuous
 62
     7
370
    25
100
AcDbCircle
 10
1153.13468375
 20
843.6142515222
 30
0.0
 40
10.0
  0
LINE
  5
47C
330
1F
100
AcDbEntity
  8
0
  6
Continuous
 62
     7
370
    25
100
AcDbLine
 10
387.13468375
 20
970.6142515222
 30
0.0
 11
387.13468375
 21
470.6142515222
 31
0.0
  0
LINE
  5
47D
330
1F
100
AcDbEntity
  8
0
  6
Continuous
 62
     7
370
    25
100
AcDbLine
 10
1587.13468375
 20
470.6142515222
 30
0.0
 11
1587.13468375
 21
970.6142515222
 31
0.0
  0
LINE
  5
47E
330
1F
100
AcDbEntity
  8
0
  6
Continuous
 62
     7
370
    25
100
AcDbLine
 10
1482.13468375
 20
470.6142515222
 30
0.0
 11
1487.13468375
 21
470.6142515222
 31
0.0
  0
LINE
  5
47F
330
1F
100
AcDbEntity
  8
0
  6
Continuous
 62
     7
370
    25
100
AcDbLine
 10
487.13468375
 20
470.6142515222
 30
0.0
 11
492.13468375
 21
470.6142515222
 31
0.0
  0
DIMENSION
  5
480
330
1F
100
AcDbEntity
  8
FORMAT
100
AcDbDimension
  2
_D_21
 10
576.13468375
 20
625.5661332277
 30
0.0
 11
531.63468375
 21
625.5661332277
 31
0.0
 70
   160
  1
<>
 71
     2
 42
-1.0
  3
SLDDIMSTYLE0
100
AcDbAlignedDimension
 13
487.13468375
 23
662.2315075201
 33
0.0
 14
576.13468375
 24
749.6142515222
 34
0.0
100
AcDbRotatedDimension
  0
DIMENSION
  5
489
330
1F
100
AcDbEntity
  8
FORMAT
100
AcDbDimension
  2
_D_22
 10
1209.13468375
 20
625.5661332277
 30
0.0
 11
892.63468375
 21
625.5661332277
 31
0.0
 70
   160
  1
<>
 71
     2
 42
-1.0
  3
SLDDIMSTYLE0
100
AcDbAlignedDimension
 13
576.13468375
 23
749.6142515222
 33
0.0
 14
1209.13468375
 24
749.6142515222
 34
0.0
100
AcDbRotatedDimension
  0
DIMENSION
  5
493
330
1F
100
AcDbEntity
  8
FORMAT
100
AcDbDimension
  2
_D_23
 10
1275.6033073628
 20
790.6142515222
 30
0.0
 11
1275.6033073628
 21
701.9133516448
 31
0.0
 70
   160
  1
<>
 71
     2
 42
-1.0
  3
SLDDIMSTYLE9
100
AcDbAlignedDimension
 13
1214.88468375
 23
755.3642515222
 33
0.0
 14
1482.13468375
 24
790.6142515222
 34
0.0
 50
90.0
100
AcDbRotatedDimension
  0
DIMENSION
  5
49F
330
1F
100
AcDbEntity
  8
FORMAT
100
AcDbDimension
  2
_D_24
 10
1215.9505253275
 20
899.6142515382
 30
0.0
 11
1215.9505253275
 21
854.6142515382
 31
0.0
 70
   160
  1
<>
 71
     2
 42
-1.0
  3
SLDDIMSTYLE0
100
AcDbAlignedDimension
 13
1167.1346837494
 23
809.6142515382
 33
0.0
 14
1167.1346837494
 24
899.6142515382
 34
0.0
 50
90.0
100
AcDbRotatedDimension
  0
DIMENSION
  5
4A9
330
1F
100
AcDbEntity
  8
FORMAT
100
AcDbDimension
  2
_D_25
 10
771.2157962296
 20
819.6142515382
 30
0.0
 11
771.2157962296
 21
745.4726461939
 31
0.0
 70
   160
  1
<>
 71
     2
 42
-1.0
  3
SLDDIMSTYLE1
100
AcDbAlignedDimension
 13
492.13468375
 23
790.6142515222
 33
0.0
 14
813.4346837494
 24
819.6142515382
 34
0.0
 50
90.0
100
AcDbRotatedDimension
  0
DIMENSION
  5
4B4
330
1F
100
AcDbEntity
  8
FORMAT
100
AcDbDimension
  2
_D_26
 10
364.5959526755
 20
809.6142515382
 30
0.0
 11
364.5959526755
 21
745.4726461939
 31
0.0
 70
   160
  1
<>
 71
     2
 42
-1.0
  3
SLDDIMSTYLE1
100
AcDbAlignedDimension
 13
492.13468375
 23
790.6142515222
 33
0.0
 14
497.1346837494
 24
809.6142515382
 34
0.0
 50
90.0
100
AcDbRotatedDimension
  0
DIMENSION
  5
4C0
330
1F
100
AcDbEntity
  8
FORMAT
100
AcDbDimension
  2
_D_27
 10
325.3611775934
 20
843.6142515222
 30
0.0
 11
325.3611775934
 21
745.4726461939
 31
0.0
 70
   160
  1
<>
 71
     2
 42
-1.0
  3
SLDDIMSTYLE1
100
AcDbAlignedDimension
 13
497.1346837494
 23
809.6142515382
 33
0.0
 14
498.63468375
 24
843.6142515222
 34
0.0
 50
90.0
100
AcDbRotatedDimension
  0
DIMENSION
  5
4CD
330
1F
100
AcDbEntity
  8
FORMAT
100
AcDbDimension
  2
_D_28
 10
283.1437462334
 20
866.6142515222
 30
0.0
 11
283.1437462334
 21
745.4726461939
 31
0.0
 70
   160
  1
<>
 71
     2
 42
-1.0
  3
SLDDIMSTYLE1
100
AcDbAlignedDimension
 13
498.63468375
 23
843.6142515222
 33
0.0
 14
498.63468375
 24
866.6142515222
 34
0.0
 50
90.0
100
AcDbRotatedDimension
  0
DIMENSION
  5
4DB
330
1F
100
AcDbEntity
  8
FORMAT
100
AcDbDimension
  2
_D_29
 10
497.1346837494
 20
1008.5306910751
 30
0.0
 11
434.4779299401
 21
1008.5306910751
 31
0.0
 70
   160
  1
<>
 71
     2
 42
-1.0
  3
SLDDIMSTYLE1
100
AcDbAlignedDimension
 13
487.13468375
 23
662.2315075201
 33
0.0
 14
497.1346837494
 24
830.6142515382
 34
0.0
100
AcDbRotatedDimension
  0
DIMENSION
  5
4E7
330
1F
100
AcDbEntity
  8
FORMAT
100
AcDbDimension
  2
_D_30
 10
511.13468375
 20
1053.7098120938
 30
0.0
 11
434.47792994
 21
1053.7098120938
 31
0.0
 70
   160
  1
<>
 71
     2
 42
-1.0
  3
SLDDIMSTYLE1
100
AcDbAlignedDimension
 13
487.13468375
 23
662.2315075201
 33
0.0
 14
511.13468375
 24
856.1142515222
 34
0.0
100
AcDbRotatedDimension
  0
DIMENSION
  5
4F7
330
1F
100
AcDbEntity
  8
FORMAT
100
AcDbDimension
  2
_D_31
 10
597.1346837494
 20
1082.6142515222
 30
0.0
 11
542.1346837497
 21
1082.6142515222
 31
0.0
 70
   160
  1
<>
 71
     2
 42
-1.0
  3
SLDDIMSTYLE0
100
AcDbAlignedDimension
 13
487.13468375
 23
662.2315075201
 33
0.0
 14
597.1346837494
 24
888.3142515382
 34
0.0
100
AcDbRotatedDimension
  0
DIMENSION
  5
501
330
1F
100
AcDbEntity
  8
FORMAT
100
AcDbDimension
  2
_D_32
 10
822.1346837494
 20
1082.6142515222
 30
0.0
 11
709.6346837494
 21
1082.6142515222
 31
0.0
 70
   160
  1
<>
 71
     2
 42
-1.0
  3
SLDDIMSTYLE0
100
AcDbAlignedDimension
 13
597.1346837494
 23
888.3142515382
 33
0.0
 14
822.1346837494
 24
888.3142515382
 34
0.0
100
AcDbRotatedDimension
  0
DIMENSION
  5
50B
330
1F
100
AcDbEntity
  8
FORMAT
100
AcDbDimension
  2
_D_33
 10
1047.1346837494
 20
1082.6142515222
 30
0.0
 11
934.6346837494
 21
1082.6142515222
 31
0.0
 70
   160
  1
<>
 71
     2
 42
-1.0
  3
SLDDIMSTYLE0
100
AcDbAlignedDimension
 13
822.1346837494
 23
888.3142515382
 33
0.0
 14
1047.1346837494
 24
888.3142515382
 34
0.0
100
AcDbRotatedDimension
  0
DIMENSION
  5
515
330
1F
100
AcDbEntity
  8
FORMAT
100
AcDbDimension
  2
_D_34
 10
1153.13468375
 20
1133.2942039137
 30
0.0
 11
820.13468375
 21
1133.2942039137
 31
0.0
 70
   160
  1
<>
 71
     2
 42
-1.0
  3
SLDDIMSTYLE0
100
AcDbAlignedDimension
 13
487.13468375
 23
662.2315075201
 33
0.0
 14
1153.13468375
 24
879.1142515222
 34
0.0
100
AcDbRotatedDimension
  0
DIMENSION
  5
51F
330
1F
100
AcDbEntity
  8
FORMAT
100
AcDbDimension
  2
_D_35
 10
1167.1346837494
 20
1185.7825463668
 30
0.0
 11
827.1346837497
 21
1185.7825463668
 31
0.0
 70
   160
  1
<>
 71
     2
 42
-1.0
  3
SLDDIMSTYLE0
100
AcDbAlignedDimension
 13
487.13468375
 23
662.2315075201
 33
0.0
 14
1167.1346837494
 24
899.6142515382
 34
0.0
100
AcDbRotatedDimension
  0
MTEXT
  5
529
330
1F
100
AcDbEntity
  8
FORMAT
100
AcDbMText
 10
1350.6734683891
 20
913.3580830258
 30
0.0
 40
18.5208333333
 41
0.0
 71
     1
 72
     1
  1
Oberkante Türflügel
  7
SLDTEXTSTYLE0
 73
     1
 44
1.0
  0
LEADER
  5
52A
330
1F
100
AcDbEntity
  8
FORMAT
100
AcDbLeader
  3
SLDDIMSTYLE8
 76
     3
 10
1303.0015142672
 20
790.6142515222
 30
0.0
 10
1302.1364304235
 20
904.4511519711
 30
0.0
 10
1346.5864304235
 20
904.4511519711
 30
0.0
  0
MTEXT
  5
52B
330
1F
100
AcDbEntity
  8
FORMAT
100
AcDbMText
 10
1330.6172669113
 20
1017.6168413661
 30
0.0
 40
18.5208333333
 41
0.0
 71
     1
 72
     1
  1
ø20 (optional)
  7
SLDTEXTSTYLE0
 73
     1
 44
1.0
  0
LEADER
  5
52C
330
1F
100
AcDbEntity
  8
FORMAT
100
AcDbLeader
  3
SLDDIMSTYLE8
 76
     3
 10
1162.6453641409
 20
869.7040668082
 30
0.0
 10
1282.1710025929
 20
1008.5133818761
 30
0.0
 10
1326.6210025929
 20
1008.5133818761
 30
0.0
  0
INSERT
  5
532
102
{ACAD_REACTORS
330
533
102
}
330
1F
100
AcDbEntity
  8
FORMAT
100
AcDbBlockReference
  2
SW_NOTE_0_7
 10
382.0169680158
 20
995.0994035482
 30
0.0
  0
LEADER
  5
533
330
1F
100
AcDbEntity
  8
FORMAT
100
AcDbLeader
  3
SLDDIMSTYLE8
 73
     2
 76
     3
 10
502.1617158267
 20
871.0285291128
 30
0.0
 10
426.4669680158
 20
995.0994035482
 30
0.0
 10
382.0169680158
 20
995.0994035482
 30
0.0
340
532
  0
INSERT
  5
53F
330
1F
100
AcDbEntity
  8
FORMAT
100
AcDbBlockReference
  2
SW_CENTERMARKSYMBOL_0
 10
576.13468375
 20
755.3642515222
 30
0.0
  0
INSERT
  5
54B
330
1F
100
AcDbEntity
  8
FORMAT
100
AcDbBlockReference
  2
SW_CENTERMARKSYMBOL_1
 10
1209.13468375
 20
755.3642515222
 30
0.0
  0
INSERT
  5
557
330
1F
100
AcDbEntity
  8
FORMAT
100
AcDbBlockReference
  2
SW_CENTERMARKSYMBOL_2
 10
1153.13468375
 20
843.6142515222
 30
0.0
  0
INSERT
  5
563
330
1F
100
AcDbEntity
  8
FORMAT
100
AcDbBlockReference
  2
SW_CENTERMARKSYMBOL_3
 10
1153.13468375
 20
866.6142515222
 30
0.0
  0
INSERT
  5
56F
330
1F
100
AcDbEntity
  8
FORMAT
100
AcDbBlockReference
  2
SW_CENTERMARKSYMBOL_4
 10
511.13468375
 20
843.6142515222
 30
0.0
  0
INSERT
  5
57B
330
1F
100
AcDbEntity
  8
FORMAT
100
AcDbBlockReference
  2
SW_CENTERMARKSYMBOL_5
 10
511.13468375
 20
866.6142515222
 30
0.0
  0
INSERT
  5
587
330
1F
100
AcDbEntity
  8
FORMAT
100
AcDbBlockReference
  2
SW_CENTERMARKSYMBOL_6
 10
597.1346837494
 20
819.6142515382
 30
0.0
  0
INSERT
  5
593
330
1F
100
AcDbEntity
  8
FORMAT
100
AcDbBlockReference
  2
SW_CENTERMARKSYMBOL_7
 10
617.1346837494
 20
829.6142515382
 30
0.0
  0
INSERT
  5
59F
330
1F
100
AcDbEntity
  8
FORMAT
100
AcDbBlockReference
  2
SW_CENTERMARKSYMBOL_8
 10
597.1346837494
 20
839.6142515382
 30
0.0
  0
INSERT
  5
5AB
330
1F
100
AcDbEntity
  8
FORMAT
100
AcDbBlockReference
  2
SW_CENTERMARKSYMBOL_9
 10
617.1346837494
 20
849.6142515382
 30
0.0
  0
INSERT
  5
5B7
330
1F
100
AcDbEntity
  8
FORMAT
100
AcDbBlockReference
  2
SW_CENTERMARKSYMBOL_10
 10
597.1346837494
 20
859.6142515382
 30
0.0
  0
INSERT
  5
5C3
330
1F
100
AcDbEntity
  8
FORMAT
100
AcDbBlockReference
  2
SW_CENTERMARKSYMBOL_11
 10
597.1346837494
 20
879.6142515382
 30
0.0
  0
INSERT
  5
5CF
330
1F
100
AcDbEntity
  8
FORMAT
100
AcDbBlockReference
  2
SW_CENTERMARKSYMBOL_12
 10
617.1346837494
 20
889.6142515382
 30
0.0
  0
INSERT
  5
5DB
330
1F
100
AcDbEntity
  8
FORMAT
100
AcDbBlockReference
  2
SW_CENTERMARKSYMBOL_13
 10
617.1346837494
 20
869.6142515382
 30
0.0
  0
INSERT
  5
5E7
330
1F
100
AcDbEntity
  8
FORMAT
100
AcDbBlockReference
  2
SW_CENTERMARKSYMBOL_14
 10
822.1346837494
 20
819.6142515382
 30
0.0
  0
INSERT
  5
5F3
330
1F
100
AcDbEntity
  8
FORMAT
100
AcDbBlockReference
  2
SW_CENTERMARKSYMBOL_15
 10
822.1346837494
 20
839.6142515382
 30
0.0
  0
INSERT
  5
5FF
330
1F
100
AcDbEntity
  8
FORMAT
100
AcDbBlockReference
  2
SW_CENTERMARKSYMBOL_16
 10
822.1346837494
 20
859.6142515382
 30
0.0
  0
INSERT
  5
60B
330
1F
100
AcDbEntity
  8
FORMAT
100
AcDbBlockReference
  2
SW_CENTERMARKSYMBOL_17
 10
822.1346837494
 20
879.6142515382
 30
0.0
  0
INSERT
  5
617
330
1F
100
AcDbEntity
  8
FORMAT
100
AcDbBlockReference
  2
SW_CENTERMARKSYMBOL_18
 10
842.1346837494
 20
889.6142515382
 30
0.0
  0
INSERT
  5
623
330
1F
100
AcDbEntity
  8
FORMAT
100
AcDbBlockReference
  2
SW_CENTERMARKSYMBOL_19
 10
842.1346837494
 20
869.6142515382
 30
0.0
  0
INSERT
  5
62F
330
1F
100
AcDbEntity
  8
FORMAT
100
AcDbBlockReference
  2
SW_CENTERMARKSYMBOL_20
 10
842.1346837494
 20
849.6142515382
 30
0.0
  0
INSERT
  5
63B
330
1F
100
AcDbEntity
  8
FORMAT
100
AcDbBlockReference
  2
SW_CENTERMARKSYMBOL_21
 10
842.1346837494
 20
829.6142515382
 30
0.0
  0
INSERT
  5
647
330
1F
100
AcDbEntity
  8
FORMAT
100
AcDbBlockReference
  2
SW_CENTERMARKSYMBOL_22
 10
1047.1346837494
 20
819.6142515382
 30
0.0
  0
INSERT
  5
653
330
1F
100
AcDbEntity
  8
FORMAT
100
AcDbBlockReference
  2
SW_CENTERMARKSYMBOL_23
 10
1047.1346837494
 20
839.6142515382
 30
0.0
  0
INSERT
  5
65F
330
1F
100
AcDbEntity
  8
FORMAT
100
AcDbBlockReference
  2
SW_CENTERMARKSYMBOL_24
 10
1047.1346837494
 20
859.6142515382
 30
0.0
  0
INSERT
  5
66B
330
1F
100
AcDbEntity
  8
FORMAT
100
AcDbBlockReference
  2
SW_CENTERMARKSYMBOL_25
 10
1047.1346837494
 20
879.6142515382
 30
0.0
  0
INSERT
  5
677
330
1F
100
AcDbEntity
  8
FORMAT
100
AcDbBlockReference
  2
SW_CENTERMARKSYMBOL_26
 10
1067.1346837494
 20
889.6142515382
 30
0.0
  0
INSERT
  5
683
330
1F
100
AcDbEntity
  8
FORMAT
100
AcDbBlockReference
  2
SW_CENTERMARKSYMBOL_27
 10
1067.1346837494
 20
869.6142515382
 30
0.0
  0
INSERT
  5
68F
330
1F
100
AcDbEntity
  8
FORMAT
100
AcDbBlockReference
  2
SW_CENTERMARKSYMBOL_28
 10
1067.1346837494
 20
849.6142515382
 30
0.0
  0
INSERT
  5
69B
330
1F
100
AcDbEntity
  8
FORMAT
100
AcDbBlockReference
  2
SW_CENTERMARKSYMBOL_29
 10
1067.1346837494
 20
829.6142515382
 30
0.0
  0
INSERT
  5
6A7
330
1F
100
AcDbEntity
  8
FORMAT
100
AcDbBlockReference
  2
SW_CENTERMARKSYMBOL_30
 10
1137.1346837494
 20
816.6142515382
 30
0.0
  0
INSERT
  5
6B3
330
1F
100
AcDbEntity
  8
FORMAT
100
AcDbBlockReference
  2
SW_CENTERMARKSYMBOL_31
 10
1137.1346837494
 20
892.6142515382
 30
0.0
  0
INSERT
  5
6BF
330
1F
100
AcDbEntity
  8
FORMAT
100
AcDbBlockReference
  2
SW_CENTERMARKSYMBOL_32
 10
960.1346837494
 20
892.6142515382
 30
0.0
  0
INSERT
  5
6CB
330
1F
100
AcDbEntity
  8
FORMAT
100
AcDbBlockReference
  2
SW_CENTERMARKSYMBOL_33
 10
911.1346837494
 20
892.6142515382
 30
0.0
  0
INSERT
  5
6D7
330
1F
100
AcDbEntity
  8
FORMAT
100
AcDbBlockReference
  2
SW_CENTERMARKSYMBOL_34
 10
911.1346837494
 20
816.6142515382
 30
0.0
  0
INSERT
  5
6E3
330
1F
100
AcDbEntity
  8
FORMAT
100
AcDbBlockReference
  2
SW_CENTERMARKSYMBOL_35
 10
960.1346837494
 20
816.6142515382
 30
0.0
  0
INSERT
  5
6EF
330
1F
100
AcDbEntity
  8
FORMAT
100
AcDbBlockReference
  2
SW_CENTERMARKSYMBOL_36
 10
753.1346837494
 20
816.6142515382
 30
0.0
  0
INSERT
  5
6FB
330
1F
100
AcDbEntity
  8
FORMAT
100
AcDbBlockReference
  2
SW_CENTERMARKSYMBOL_37
 10
753.1346837494
 20
892.6142515382
 30
0.0
  0
INSERT
  5
707
330
1F
100
AcDbEntity
  8
FORMAT
100
AcDbBlockReference
  2
SW_CENTERMARKSYMBOL_38
 10
704.1346837494
 20
892.6142515382
 30
0.0
  0
INSERT
  5
713
330
1F
100
AcDbEntity
  8
FORMAT
100
AcDbBlockReference
  2
SW_CENTERMARKSYMBOL_39
 10
704.1346837494
 20
816.6142515382
 30
0.0
  0
INSERT
  5
71F
330
1F
100
AcDbEntity
  8
FORMAT
100
AcDbBlockReference
  2
SW_CENTERMARKSYMBOL_40
 10
527.1346837494
 20
816.6142515382
 30
0.0
  0
INSERT
  5
72B
330
1F
100
AcDbEntity
  8
FORMAT
100
AcDbBlockReference
  2
SW_CENTERMARKSYMBOL_41
 10
527.1346837494
 20
892.6142515382
 30
0.0
  0
CIRCLE
  5
72C
330
1F
100
AcDbEntity
  8
0
  6
Continuous
 62
     7
370
    18
100
AcDbCircle
 10
831.6131534302
 20
855.3385529149
 30
0.0
 40
52.15720383366045
  0
MTEXT
  5
72D
330
1F
100
AcDbEntity
  8
0
  6
Continuous
 62
     7
370
    18
100
AcDbMText
 10
873.2141140634
 20
954.3631036954
 30
0.0
 40
35.0
 41
0.0
 71
     1
 72
     1
  1
C
  7
SLDTEXTSTYLE0
 73
     1
 44
1.0
  0
LINE
  5
72E
330
1F
100
AcDbEntity
  8
FORMAT
  6
CENTERX2
370
    18
100
AcDbLine
 10
487.13468375
 20
662.2315075201
 30
0.0
 11
487.13468375
 21
529.0321976923
 31
0.0
  0
CIRCLE
  5
72F
330
1F
100
AcDbEntity
  8
0
  6
Continuous
 62
     7
370
    18
100
AcDbCircle
 10
1811.0751169033
 20
267.876471691
 30
0.0
 40
73.02008401683163
  0
LINE
  5
730
330
1F
100
AcDbEntity
  8
0
  6
Continuous
 62
     7
370
    25
100
AcDbLine
 10
1849.6713456469
 20
329.8589766665
 30
0.0
 11
1772.4788454133
 21
329.8589766665
 31
0.0
  0
LINE
  5
731
330
1F
100
AcDbEntity
  8
0
  6
Continuous
 62
     7
370
    25
100
AcDbLine
 10
1775.9447959023
 20
203.8589716597
 30
0.0
 11
1846.2053951579
 21
203.8589716597
 31
0.0
  0
CIRCLE
  5
732
330
1F
100
AcDbEntity
  8
0
  6
Continuous
 62
     7
370
    25
100
AcDbCircle
 10
1825.805247213
 20
231.8589690286
 30
0.0
 40
8.68000477471687
  0
CIRCLE
  5
733
330
1F
100
AcDbEntity
  8
0
  6
Continuous
 62
     7
370
    25
100
AcDbCircle
 10
1797.80523712
 20
217.8589706613
 30
0.0
 40
8.679999710860983
  0
CIRCLE
  5
734
330
1F
100
AcDbEntity
  8
0
  6
Continuous
 62
     7
370
    25
100
AcDbCircle
 10
1797.80523712
 20
245.85896482
 30
0.0
 40
8.679999710860928
  0
CIRCLE
  5
735
330
1F
100
AcDbEntity
  8
0
  6
Continuous
 62
     7
370
    25
100
AcDbCircle
 10
1797.8052407377
 20
273.8589789487
 30
0.0
 40
8.679999710858326
  0
CIRCLE
  5
736
330
1F
100
AcDbEntity
  8
0
  6
Continuous
 62
     7
370
    25
100
AcDbCircle
 10
1797.8052407377
 20
301.8589731074
 30
0.0
 40
8.679999710858326
  0
CIRCLE
  5
737
330
1F
100
AcDbEntity
  8
0
  6
Continuous
 62
     7
370
    25
100
AcDbCircle
 10
1825.8052404513
 20
315.8589688176
 30
0.0
 40
8.680009838568607
  0
CIRCLE
  5
738
330
1F
100
AcDbEntity
  8
0
  6
Continuous
 62
     7
370
    25
100
AcDbCircle
 10
1825.8052467393
 20
287.8589626782
 30
0.0
 40
8.679999710860725
  0
CIRCLE
  5
739
330
1F
100
AcDbEntity
  8
0
  6
Continuous
 62
     7
370
    25
100
AcDbCircle
 10
1825.8052539747
 20
259.8589667361
 30
0.0
 40
8.679999710870877
  0
CIRCLE
  5
73A
330
1F
100
AcDbEntity
  8
0
  6
Continuous
 62
     7
370
    25
100
AcDbCircle
 10
1797.8052391743
 20
217.8589694164
 30
0.0
 40
4.899999134003014
  0
CIRCLE
  5
73B
330
1F
100
AcDbEntity
  8
0
  6
Continuous
 62
     7
370
    25
100
AcDbCircle
 10
1825.8052395337
 20
231.8589692156
 30
0.0
 40
4.899994548182017
  0
CIRCLE
  5
73C
330
1F
100
AcDbEntity
  8
0
  6
Continuous
 62
     7
370
    25
100
AcDbCircle
 10
1797.8052369898
 20
245.8589699383
 30
0.0
 40
4.900003690546528
  0
CIRCLE
  5
73D
330
1F
100
AcDbEntity
  8
0
  6
Continuous
 62
     7
370
    25
100
AcDbCircle
 10
1825.8052395337
 20
259.8589738052
 30
0.0
 40
4.899994548181962
  0
CIRCLE
  5
73E
330
1F
100
AcDbEntity
  8
0
  6
Continuous
 62
     7
370
    25
100
AcDbCircle
 10
1797.8052348053
 20
273.8589704602
 30
0.0
 40
4.900008247092837
  0
CIRCLE
  5
73F
330
1F
100
AcDbEntity
  8
0
  6
Continuous
 62
     7
370
    25
100
AcDbCircle
 10
1825.8052395337
 20
287.8589679639
 30
0.0
 40
4.899994548181909
  0
CIRCLE
  5
740
330
1F
100
AcDbEntity
  8
0
  6
Continuous
 62
     7
370
    25
100
AcDbCircle
 10
1797.8052391743
 20
301.8589727542
 30
0.0
 40
4.899999134003014
  0
CIRCLE
  5
741
330
1F
100
AcDbEntity
  8
0
  6
Continuous
 62
     7
370
    25
100
AcDbCircle
 10
1825.8052351647
 20
315.858974849
 30
0.0
 40
4.900003661284957
  0
DIMENSION
  5
742
330
1F
100
AcDbEntity
  8
FORMAT
100
AcDbDimension
  2
_D_36
 10
1825.8052436659
 20
147.9976005644
 30
0.0
 11
1878.2990984077
 21
147.9976005644
 31
0.0
 70
   160
  1
<>
 71
     2
 42
-1.0
  3
SLDDIMSTYLE4
100
AcDbAlignedDimension
 13
1797.8052436659
 23
205.6789695126
 33
0.0
 14
1825.8052436659
 24
219.6789695126
 34
0.0
100
AcDbRotatedDimension
  0
DIMENSION
  5
74E
330
1F
100
AcDbEntity
  8
FORMAT
100
AcDbDimension
  2
_D_37
 10
1927.5616184558
 20
231.8589695126
 30
0.0
 11
1927.5616184558
 21
278.5697551525
 31
0.0
 70
   160
  1
<>
 71
     2
 42
-1.0
  3
SLDDIMSTYLE4
100
AcDbAlignedDimension
 13
1809.9852436659
 23
217.8589695126
 33
0.0
 14
1837.9852436659
 24
231.8589695126
 34
0.0
 50
90.0
100
AcDbRotatedDimension
  0
DIMENSION
  5
75A
330
1F
100
AcDbEntity
  8
FORMAT
100
AcDbDimension
  2
_D_38
 10
1728.5271944121
 20
217.8589695126
 30
0.0
 11
1728.5271944121
 21
155.0697915849
 31
0.0
 70
   160
  1
<>
 71
     2
 42
-1.0
  3
SLDDIMSTYLE4
100
AcDbAlignedDimension
 13
1775.9447959023
 23
203.8589695126
 33
0.0
 14
1785.6252436659
 24
217.8589695126
 34
0.0
 50
90.0
100
AcDbRotatedDimension
  0
DIMENSION
  5
766
330
1F
100
AcDbEntity
  8
FORMAT
100
AcDbDimension
  2
_D_39
 10
1685.7168622136
 20
245.8589695126
 30
0.0
 11
1685.7168622136
 21
155.0697915849
 31
0.0
 70
   160
  1
<>
 71
     2
 42
-1.0
  3
SLDDIMSTYLE4
100
AcDbAlignedDimension
 13
1785.6252436659
 23
217.8589695126
 33
0.0
 14
1785.6252436659
 24
245.8589695126
 34
0.0
 50
90.0
100
AcDbRotatedDimension
  0
MTEXT
  5
773
330
1F
100
AcDbEntity
  8
FORMAT
100
AcDbMText
 10
1804.3038201141
 20
450.5956541215
 30
0.0
 40
35.0
 41
0.0
 71
     2
 72
     1
  1
C (1 : 5)
  7
SLDTEXTSTYLE0
 73
     1
 44
1.0
  0
INSERT
  5
77F
330
1F
100
AcDbEntity
  8
FORMAT
100
AcDbBlockReference
  2
SW_CENTERMARKSYMBOL_42
 10
1797.8052344876
 20
217.8589687391
 30
0.0
  0
INSERT
  5
78B
330
1F
100
AcDbEntity
  8
FORMAT
100
AcDbBlockReference
  2
SW_CENTERMARKSYMBOL_43
 10
1825.805249508
 20
231.8589658185
 30
0.0
  0
INSERT
  5
797
330
1F
100
AcDbEntity
  8
FORMAT
100
AcDbBlockReference
  2
SW_CENTERMARKSYMBOL_44
 10
1797.8052344876
 20
245.8589733287
 30
0.0
  0
INSERT
  5
7A3
330
1F
100
AcDbEntity
  8
FORMAT
100
AcDbBlockReference
  2
SW_CENTERMARKSYMBOL_45
 10
1825.805249508
 20
259.8589599772
 30
0.0
  0
INSERT
  5
7AF
330
1F
100
AcDbEntity
  8
FORMAT
100
AcDbBlockReference
  2
SW_CENTERMARKSYMBOL_46
 10
1797.8052344876
 20
273.8589674874
 30
0.0
  0
INSERT
  5
7BB
330
1F
100
AcDbEntity
  8
FORMAT
100
AcDbBlockReference
  2
SW_CENTERMARKSYMBOL_47
 10
1825.805249508
 20
287.8589749976
 30
0.0
  0
INSERT
  5
7C7
330
1F
100
AcDbEntity
  8
FORMAT
100
AcDbBlockReference
  2
SW_CENTERMARKSYMBOL_48
 10
1797.8052344876
 20
301.8589616462
 30
0.0
  0
INSERT
  5
7D3
330
1F
100
AcDbEntity
  8
FORMAT
100
AcDbBlockReference
  2
SW_CENTERMARKSYMBOL_49
 10
1825.805249508
 20
315.8589691563
 30
0.0
  0
ENDSEC
  0
SECTION
  2
OBJECTS
  0
DICTIONARY
  5
C
330
0
100
AcDbDictionary
281
     1
  3
ACAD_GROUP
350
D
  3
ACAD_LAYOUT
350
1A
  3
ACAD_MLINESTYLE
350
17
  3
ACAD_PLOTSETTINGS
350
19
  3
ACAD_PLOTSTYLENAME
350
E
  3
ACAD_SCALELIST
350
47
  3
DWGPROPS
350
7D4
  0
DICTIONARY
  5
D
102
{ACAD_REACTORS
330
C
102
}
330
C
100
AcDbDictionary
281
     1
  0
DICTIONARY
  5
1A
102
{ACAD_REACTORS
330
C
102
}
330
C
100
AcDbDictionary
281
     1
  3
Layout1
350
1E
  3
Layout2
350
26
  3
Model
350
22
  0
DICTIONARY
  5
17
102
{ACAD_REACTORS
330
C
102
}
330
C
100
AcDbDictionary
281
     1
  3
Standard
350
18
  0
DICTIONARY
  5
19
102
{ACAD_REACTORS
330
C
102
}
330
C
100
AcDbDictionary
281
     1
  0
ACDBDICTIONARYWDFLT
  5
E
102
{ACAD_REACTORS
330
C
102
}
330
C
100
AcDbDictionary
281
     1
  3
Normal
350
F
100
AcDbDictionaryWithDefault
340
F
  0
DICTIONARY
  5
47
102
{ACAD_REACTORS
330
C
102
}
330
C
100
AcDbDictionary
281
     1
  3
A0
350
48
  3
A1
350
49
  3
A2
350
4A
  3
A3
350
4B
  3
A4
350
4C
  3
A5
350
4D
  3
A6
350
4E
  3
A7
350
4F
  3
A8
350
50
  3
A9
350
51
  3
B0
350
52
  3
B1
350
53
  3
B2
350
54
  3
B3
350
55
  3
B4
350
56
  3
B5
350
57
  3
B6
350
58
  3
B7
350
59
  3
B8
350
5A
  3
B9
350
5B
  3
C0
350
5C
  3
C1
350
5D
  3
C2
350
5E
  3
C3
350
5F
  3
C4
350
60
  3
C5
350
61
  3
C6
350
62
  3
C7
350
63
  3
C8
350
64
  3
C9
350
65
  3
D0
350
66
  3
D1
350
67
  3
D2
350
68
  0
XRECORD
  5
7D4
102
{ACAD_REACTORS
330
C
102
}
330
C
100
AcDbXrecord
280
     1
  1
DWGPROPS COOKIE
  2

  3

  4

  6

  7

  8
l.eckardt
  9

300
=
301
=
302
=
303
=
304
=
305
=
306
=
307
=
308
=
309
=
 40
0.0
 41
2460005.291814433
 42
2460005.291819352
  1

 90
        0
  0
LAYOUT
  5
1E
102
{ACAD_REACTORS
330
1A
102
}
330
1A
100
AcDbPlotSettings
  1

  2
none_device
  4

  6

 40
0.0
 41
0.0
 42
0.0
 43
0.0
 44
0.0
 45
0.0
 46
0.0
 47
0.0
 48
0.0
 49
0.0
140
0.0
141
0.0
142
1.0
143
1.0
 70
   688
 72
     1
 73
     0
 74
     5
  7

 75
    16
147
1.0
148
0.0
149
0.0
100
AcDbLayout
  1
Layout1
 70
     1
 71
     1
 10
0.0
 20
0.0
 11
420.0
 21
297.0
 12
0.0
 22
0.0
 32
0.0
 14
1.0000000000E+20
 24
1.0000000000E+20
 34
1.0000000000E+20
 15
-1.0000000000E+20
 25
-1.0000000000E+20
 35
-1.0000000000E+20
146
0.0
 13
0.0
 23
0.0
 33
0.0
 16
1.0
 26
0.0
 36
0.0
 17
0.0
 27
1.0
 37
0.0
 76
     0
330
1B
  0
LAYOUT
  5
26
102
{ACAD_REACTORS
330
1A
102
}
330
1A
100
AcDbPlotSettings
  1

  2
none_device
  4

  6

 40
0.0
 41
0.0
 42
0.0
 43
0.0
 44
0.0
 45
0.0
 46
0.0
 47
0.0
 48
0.0
 49
0.0
140
0.0
141
0.0
142
1.0
143
1.0
 70
   688
 72
     1
 73
     0
 74
     5
  7

 75
    16
147
1.0
148
0.0
149
0.0
100
AcDbLayout
  1
Layout2
 70
     1
 71
     2
 10
0.0
 20
0.0
 11
0.0
 21
0.0
 12
0.0
 22
0.0
 32
0.0
 14
0.0
 24
0.0
 34
0.0
 15
0.0
 25
0.0
 35
0.0
146
0.0
 13
0.0
 23
0.0
 33
0.0
 16
1.0
 26
0.0
 36
0.0
 17
0.0
 27
1.0
 37
0.0
 76
     0
330
23
  0
LAYOUT
  5
22
102
{ACAD_REACTORS
330
1A
102
}
330
1A
100
AcDbPlotSettings
  1

  2
none_device
  4
Letter_(8.50_x_11.00_Inches)
  6

 40
6.35
 41
6.35
 42
6.35000508
 43
6.35000508
 44
215.9
 45
279.4
 46
0.0
 47
0.0
 48
0.0
 49
0.0
140
0.0
141
0.0
142
1.0
143
1.0
 70
  1712
 72
     1
 73
     0
 74
     0
  7

 75
     0
147
1.0
148
0.0
149
0.0
100
AcDbLayout
  1
Model
 70
     1
 71
     0
 10
0.0
 20
0.0
 11
2940.0
 21
2079.0
 12
0.0
 22
0.0
 32
0.0
 14
0.0
 24
0.0
 34
0.0
 15
2940.0
 25
2079.0
 35
0.0
146
0.0
 13
0.0
 23
0.0
 33
0.0
 16
1.0
 26
0.0
 36
0.0
 17
0.0
 27
1.0
 37
0.0
 76
     0
330
1F
331
29
  0
MLINESTYLE
  5
18
102
{ACAD_REACTORS
330
17
102
}
330
17
100
AcDbMlineStyle
  2
Standard
 70
     0
  3

 62
   256
 51
90.0
 52
90.0
 71
     2
 49
0.5
 62
   256
  6
BYLAYER
 49
-0.5
 62
   256
  6
BYLAYER
  0
ACDBPLACEHOLDER
  5
F
102
{ACAD_REACTORS
330
E
102
}
330
E
  0
SCALE
  5
48
102
{ACAD_REACTORS
330
47
102
}
330
47
100
AcDbScale
 70
     0
300
1:1
140
1.0
141
1.0
290
     1
  0
SCALE
  5
49
102
{ACAD_REACTORS
330
47
102
}
330
47
100
AcDbScale
 70
     0
300
1:2
140
1.0
141
2.0
290
     0
  0
SCALE
  5
4A
102
{ACAD_REACTORS
330
47
102
}
330
47
100
AcDbScale
 70
     0
300
1:4
140
1.0
141
4.0
290
     0
  0
SCALE
  5
4B
102
{ACAD_REACTORS
330
47
102
}
330
47
100
AcDbScale
 70
     0
300
1:5
140
1.0
141
5.0
290
     0
  0
SCALE
  5
4C
102
{ACAD_REACTORS
330
47
102
}
330
47
100
AcDbScale
 70
     0
300
1:8
140
1.0
141
8.0
290
     0
  0
SCALE
  5
4D
102
{ACAD_REACTORS
330
47
102
}
330
47
100
AcDbScale
 70
     0
300
1:10
140
1.0
141
10.0
290
     0
  0
SCALE
  5
4E
102
{ACAD_REACTORS
330
47
102
}
330
47
100
AcDbScale
 70
     0
300
1:16
140
1.0
141
16.0
290
     0
  0
SCALE
  5
4F
102
{ACAD_REACTORS
330
47
102
}
330
47
100
AcDbScale
 70
     0
300
1:20
140
1.0
141
20.0
290
     0
  0
SCALE
  5
50
102
{ACAD_REACTORS
330
47
102
}
330
47
100
AcDbScale
 70
     0
300
1:30
140
1.0
141
30.0
290
     0
  0
SCALE
  5
51
102
{ACAD_REACTORS
330
47
102
}
330
47
100
AcDbScale
 70
     0
300
1:40
140
1.0
141
40.0
290
     0
  0
SCALE
  5
52
102
{ACAD_REACTORS
330
47
102
}
330
47
100
AcDbScale
 70
     0
300
1:50
140
1.0
141
50.0
290
     0
  0
SCALE
  5
53
102
{ACAD_REACTORS
330
47
102
}
330
47
100
AcDbScale
 70
     0
300
1:100
140
1.0
141
100.0
290
     0
  0
SCALE
  5
54
102
{ACAD_REACTORS
330
47
102
}
330
47
100
AcDbScale
 70
     0
300
2:1
140
2.0
141
1.0
290
     0
  0
SCALE
  5
55
102
{ACAD_REACTORS
330
47
102
}
330
47
100
AcDbScale
 70
     0
300
4:1
140
4.0
141
1.0
290
     0
  0
SCALE
  5
56
102
{ACAD_REACTORS
330
47
102
}
330
47
100
AcDbScale
 70
     0
300
8:1
140
8.0
141
1.0
290
     0
  0
SCALE
  5
57
102
{ACAD_REACTORS
330
47
102
}
330
47
100
AcDbScale
 70
     0
300
10:1
140
10.0
141
1.0
290
     0
  0
SCALE
  5
58
102
{ACAD_REACTORS
330
47
102
}
330
47
100
AcDbScale
 70
     0
300
100:1
140
100.0
141
1.0
290
     0
  0
SCALE
  5
59
102
{ACAD_REACTORS
330
47
102
}
330
47
100
AcDbScale
 70
     0
300
1/128" = 1'-0"
140
0.0078125
141
12.0
290
     0
  0
SCALE
  5
5A
102
{ACAD_REACTORS
330
47
102
}
330
47
100
AcDbScale
 70
     0
300
1/64" = 1'-0"
140
0.015625
141
12.0
290
     0
  0
SCALE
  5
5B
102
{ACAD_REACTORS
330
47
102
}
330
47
100
AcDbScale
 70
     0
300
1/32" = 1'-0"
140
0.03125
141
12.0
290
     0
  0
SCALE
  5
5C
102
{ACAD_REACTORS
330
47
102
}
330
47
100
AcDbScale
 70
     0
300
1/16" = 1'-0"
140
0.0625
141
12.0
290
     0
  0
SCALE
  5
5D
102
{ACAD_REACTORS
330
47
102
}
330
47
100
AcDbScale
 70
     0
300
3/32" = 1'-0"
140
0.09375
141
12.0
290
     0
  0
SCALE
  5
5E
102
{ACAD_REACTORS
330
47
102
}
330
47
100
AcDbScale
 70
     0
300
1/8" = 1'-0"
140
0.125
141
12.0
290
     0
  0
SCALE
  5
5F
102
{ACAD_REACTORS
330
47
102
}
330
47
100
AcDbScale
 70
     0
300
3/16" = 1'-0"
140
0.1875
141
12.0
290
     0
  0
SCALE
  5
60
102
{ACAD_REACTORS
330
47
102
}
330
47
100
AcDbScale
 70
     0
300
1/4" = 1'-0"
140
0.25
141
12.0
290
     0
  0
SCALE
  5
61
102
{ACAD_REACTORS
330
47
102
}
330
47
100
AcDbScale
 70
     0
300
3/8" = 1'-0"
140
0.375
141
12.0
290
     0
  0
SCALE
  5
62
102
{ACAD_REACTORS
330
47
102
}
330
47
100
AcDbScale
 70
     0
300
1/2" = 1'-0"
140
0.5
141
12.0
290
     0
  0
SCALE
  5
63
102
{ACAD_REACTORS
330
47
102
}
330
47
100
AcDbScale
 70
     0
300
3/4" = 1'-0"
140
0.75
141
12.0
290
     0
  0
SCALE
  5
64
102
{ACAD_REACTORS
330
47
102
}
330
47
100
AcDbScale
 70
     0
300
1" = 1'-0"
140
1.0
141
12.0
290
     0
  0
SCALE
  5
65
102
{ACAD_REACTORS
330
47
102
}
330
47
100
AcDbScale
 70
     0
300
1-1/2" = 1'-0"
140
1.5
141
12.0
290
     0
  0
SCALE
  5
66
102
{ACAD_REACTORS
330
47
102
}
330
47
100
AcDbScale
 70
     0
300
3" = 1'-0"
140
3.0
141
12.0
290
     0
  0
SCALE
  5
67
102
{ACAD_REACTORS
330
47
102
}
330
47
100
AcDbScale
 70
     0
300
6" = 1'-0"
140
6.0
141
12.0
290
     0
  0
SCALE
  5
68
102
{ACAD_REACTORS
330
47
102
}
330
47
100
AcDbScale
 70
     0
300
1'-0" = 1'-0"
140
12.0
141
12.0
290
     0
  0
ENDSEC
  0
EOF
