  0
SECTION
  2
HEADER
  9
$ACADVER
  1
AC1015
  9
$ACADMAINTVER
 70
     6
  9
$DWGCODEPAGE
  3
ANSI_1252
  9
$INSBASE
 10
0.0
 20
0.0
 30
0.0
  9
$EXTMIN
 10
0.0
 20
0.0
 30
0.0
  9
$EXTMAX
 10
2940.0
 20
2079.0
 30
0.0
  9
$LIMMIN
 10
0.0
 20
0.0
  9
$LIMMAX
 10
2940.0
 20
2079.0
  9
$ORTHOMODE
 70
     0
  9
$REGENMODE
 70
     1
  9
$FILLMODE
 70
     1
  9
$QTEXTMODE
 70
     0
  9
$MIRRTEXT
 70
     1
  9
$LTSCALE
 40
7.0
  9
$ATTMODE
 70
     1
  9
$TEXTSIZE
 40
24.5
  9
$TRACEWID
 40
1.0
  9
$TEXTSTYLE
  7
STANDARD
  9
$CLAYER
  8
0
  9
$CELTYPE
  6
ByLayer
  9
$CECOLOR
 62
   256
  9
$CELTSCALE
 40
1.0
  9
$DISPSILH
 70
     0
  9
$DIMSCALE
 40
1.0
  9
$DIMASZ
 40
23.114
  9
$DIMEXO
 40
7.0
  9
$DIMDLI
 40
3.75
  9
$DIMRND
 40
0.0
  9
$DIMDLE
 40
0.0
  9
$DIMEXE
 40
7.0
  9
$DIMTP
 40
0.0
  9
$DIMTM
 40
0.0
  9
$DIMTXT
 40
24.5
  9
$DIMCEN
 40
2.5
  9
$DIMTSZ
 40
0.0
  9
$DIMTOL
 70
     0
  9
$DIMLIM
 70
     0
  9
$DIMTIH
 70
     1
  9
$DIMTOH
 70
     1
  9
$DIMSE1
 70
     0
  9
$DIMSE2
 70
     0
  9
$DIMTAD
 70
     1
  9
$DIMZIN
 70
     0
  9
$DIMBLK
  1

  9
$DIMASO
 70
     1
  9
$DIMSHO
 70
     1
  9
$DIMPOST
  1

  9
$DIMAPOST
  1

  9
$DIMALT
 70
     0
  9
$DIMALTD
 70
     3
  9
$DIMALTF
 40
0.0393700787
  9
$DIMLFAC
 40
1.0
  9
$DIMTOFL
 70
     1
  9
$DIMTVP
 40
0.0
  9
$DIMTIX
 70
     0
  9
$DIMSOXD
 70
     0
  9
$DIMSAH
 70
     0
  9
$DIMBLK1
  1

  9
$DIMBLK2
  1

  9
$DIMSTYLE
  2
ISO-25
  9
$DIMCLRD
 70
     0
  9
$DIMCLRE
 70
     0
  9
$DIMCLRT
 70
     0
  9
$DIMTFAC
 40
1.0
  9
$DIMGAP
 40
21.0
  9
$DIMJUST
 70
     0
  9
$DIMSD1
 70
     0
  9
$DIMSD2
 70
     0
  9
$DIMTOLJ
 70
     0
  9
$DIMTZIN
 70
     0
  9
$DIMALTZ
 70
     0
  9
$DIMALTTZ
 70
     0
  9
$DIMUPT
 70
     0
  9
$DIMDEC
 70
     2
  9
$DIMTDEC
 70
     2
  9
$DIMALTU
 70
     2
  9
$DIMALTTD
 70
     3
  9
$DIMTXSTY
  7
STANDARD
  9
$DIMAUNIT
 70
     0
  9
$DIMADEC
 70
     2
  9
$DIMALTRND
 40
0.0
  9
$DIMAZIN
 70
     0
  9
$DIMDSEP
 70
    44
  9
$DIMATFIT
 70
     3
  9
$DIMFRAC
 70
     0
  9
$DIMLDRBLK
  1

  9
$DIMLUNIT
 70
     2
  9
$DIMLWD
 70
    -2
  9
$DIMLWE
 70
    -2
  9
$DIMTMOVE
 70
     0
  9
$LUNITS
 70
     2
  9
$LUPREC
 70
     2
  9
$SKETCHINC
 40
1.0
  9
$FILLETRAD
 40
10.0
  9
$AUNITS
 70
     0
  9
$AUPREC
 70
     2
  9
$MENU
  1
.
  9
$ELEVATION
 40
0.0
  9
$PELEVATION
 40
0.0
  9
$THICKNESS
 40
0.0
  9
$LIMCHECK
 70
     0
  9
$CHAMFERA
 40
0.0
  9
$CHAMFERB
 40
0.0
  9
$CHAMFERC
 40
0.0
  9
$CHAMFERD
 40
0.0
  9
$SKPOLY
 70
     0
  9
$TDCREATE
 40
2460077.456613345
  9
$TDUCREATE
 40
2460077.373280012
  9
$TDUPDATE
 40
2460077.456617916
  9
$TDUUPDATE
 40
2460077.373284583
  9
$TDINDWG
 40
0.0000000116
  9
$TDUSRTIMER
 40
0.0000000116
  9
$USRTIMER
 70
     1
  9
$ANGBASE
 50
0.0
  9
$ANGDIR
 70
     0
  9
$PDMODE
 70
     0
  9
$PDSIZE
 40
-1.0
  9
$PLINEWID
 40
0.0
  9
$SPLFRAME
 70
     0
  9
$SPLINETYPE
 70
     6
  9
$SPLINESEGS
 70
     8
  9
$HANDSEED
  5
713
  9
$SURFTAB1
 70
     6
  9
$SURFTAB2
 70
     6
  9
$SURFTYPE
 70
     6
  9
$SURFU
 70
     6
  9
$SURFV
 70
     6
  9
$UCSBASE
  2

  9
$UCSNAME
  2

  9
$UCSORG
 10
0.0
 20
0.0
 30
0.0
  9
$UCSXDIR
 10
1.0
 20
0.0
 30
0.0
  9
$UCSYDIR
 10
0.0
 20
1.0
 30
0.0
  9
$UCSORTHOREF
  2

  9
$UCSORTHOVIEW
 70
     0
  9
$UCSORGTOP
 10
0.0
 20
0.0
 30
0.0
  9
$UCSORGBOTTOM
 10
0.0
 20
0.0
 30
0.0
  9
$UCSORGLEFT
 10
0.0
 20
0.0
 30
0.0
  9
$UCSORGRIGHT
 10
0.0
 20
0.0
 30
0.0
  9
$UCSORGFRONT
 10
0.0
 20
0.0
 30
0.0
  9
$UCSORGBACK
 10
0.0
 20
0.0
 30
0.0
  9
$PUCSBASE
  2

  9
$PUCSNAME
  2

  9
$PUCSORG
 10
0.0
 20
0.0
 30
0.0
  9
$PUCSXDIR
 10
1.0
 20
0.0
 30
0.0
  9
$PUCSYDIR
 10
0.0
 20
1.0
 30
0.0
  9
$PUCSORTHOREF
  2

  9
$PUCSORTHOVIEW
 70
     0
  9
$PUCSORGTOP
 10
0.0
 20
0.0
 30
0.0
  9
$PUCSORGBOTTOM
 10
0.0
 20
0.0
 30
0.0
  9
$PUCSORGLEFT
 10
0.0
 20
0.0
 30
0.0
  9
$PUCSORGRIGHT
 10
0.0
 20
0.0
 30
0.0
  9
$PUCSORGFRONT
 10
0.0
 20
0.0
 30
0.0
  9
$PUCSORGBACK
 10
0.0
 20
0.0
 30
0.0
  9
$USERI1
 70
     0
  9
$USERI2
 70
     0
  9
$USERI3
 70
     0
  9
$USERI4
 70
     0
  9
$USERI5
 70
     0
  9
$USERR1
 40
0.0
  9
$USERR2
 40
0.0
  9
$USERR3
 40
0.0
  9
$USERR4
 40
0.0
  9
$USERR5
 40
0.0
  9
$WORLDVIEW
 70
     1
  9
$SHADEDGE
 70
     3
  9
$SHADEDIF
 70
    70
  9
$TILEMODE
 70
     1
  9
$MAXACTVP
 70
    64
  9
$PINSBASE
 10
0.0
 20
0.0
 30
0.0
  9
$PLIMCHECK
 70
     0
  9
$PEXTMIN
 10
1.0000000000E+20
 20
1.0000000000E+20
 30
1.0000000000E+20
  9
$PEXTMAX
 10
-1.0000000000E+20
 20
-1.0000000000E+20
 30
-1.0000000000E+20
  9
$PLIMMIN
 10
0.0
 20
0.0
  9
$PLIMMAX
 10
420.0
 20
297.0
  9
$UNITMODE
 70
     0
  9
$VISRETAIN
 70
     1
  9
$PLINEGEN
 70
     0
  9
$PSLTSCALE
 70
     1
  9
$TREEDEPTH
 70
  3020
  9
$CMLSTYLE
  2
Standard
  9
$CMLJUST
 70
     0
  9
$CMLSCALE
 40
20.0
  9
$PROXYGRAPHICS
 70
     1
  9
$MEASUREMENT
 70
     1
  9
$CELWEIGHT
370
    -1
  9
$ENDCAPS
280
     0
  9
$JOINSTYLE
280
     0
  9
$LWDISPLAY
290
     1
  9
$INSUNITS
 70
     4
  9
$HYPERLINKBASE
  1

  9
$STYLESHEET
  1

  9
$XEDIT
290
     1
  9
$CEPSNTYPE
380
     0
  9
$PSTYLEMODE
290
     1
  9
$FINGERPRINTGUID
  2
{4624b715-a5c1-4bbf-b21b-1d78713ed063}
  9
$VERSIONGUID
  2
{FAEB1C32-E019-11D5-929B-00C0DF256EC4}
  9
$EXTNAMES
290
     1
  9
$PSVPSCALE
 40
0.0
  9
$OLESTARTUP
290
     0
  0
ENDSEC
  0
SECTION
  2
CLASSES
  0
CLASS
  1
ACDBDICTIONARYWDFLT
  2
AcDbDictionaryWithDefault
  3
ObjectDBX Classes
 90
        0
280
     0
281
     0
  0
CLASS
  1
VISUALSTYLE
  2
AcDbVisualStyle
  3
ObjectDBX Classes
 90
     4095
280
     0
281
     0
  0
CLASS
  1
MATERIAL
  2
AcDbMaterial
  3
ObjectDBX Classes
 90
     1153
280
     0
281
     0
  0
CLASS
  1
SCALE
  2
AcDbScale
  3
ObjectDBX Classes
 90
     1153
280
     0
281
     0
  0
CLASS
  1
TABLESTYLE
  2
AcDbTableStyle
  3
ObjectDBX Classes
 90
     4095
280
     0
281
     0
  0
CLASS
  1
MLEADERSTYLE
  2
AcDbMLeaderStyle
  3
ACDB_MLEADERSTYLE_CLASS
 90
     4095
280
     0
281
     0
  0
CLASS
  1
SUN
  2
AcDbSun
  3
SCENEOE
 90
     1153
280
     0
281
     0
  0
CLASS
  1
ACDBPLACEHOLDER
  2
AcDbPlaceHolder
  3
ObjectDBX Classes
 90
        0
280
     0
281
     0
  0
CLASS
  1
LAYOUT
  2
AcDbLayout
  3
ObjectDBX Classes
 90
        0
280
     0
281
     0
  0
ENDSEC
  0
SECTION
  2
TABLES
  0
TABLE
  2
VPORT
  5
8
330
0
100
AcDbSymbolTable
 70
     1
  0
VPORT
  5
29
330
8
100
AcDbSymbolTableRecord
100
AcDbViewportTableRecord
  2
*Active
 70
     0
 10
0.0
 20
0.0
 11
1.0
 21
1.0
 12
1470.0
 22
1039.5
 13
0.0
 23
0.0
 14
10.0
 24
10.0
 15
10.0
 25
10.0
 16
0.0
 26
0.0
 36
1.0
 17
0.0
 27
0.0
 37
0.0
 40
2079.0
 41
1.4141414141
 42
50.0
 43
0.0
 44
0.0
 50
0.0
 51
0.0
 71
     0
 72
  2000
 73
     1
 74
     3
 75
     0
 76
     0
 77
     0
 78
     0
281
     0
 65
     1
110
0.0
120
0.0
130
0.0
111
1.0
121
0.0
131
0.0
112
0.0
122
1.0
132
0.0
 79
     0
146
0.0
  0
ENDTAB
  0
TABLE
  2
LTYPE
  5
5
330
0
100
AcDbSymbolTable
 70
     6
  0
LTYPE
  5
14
330
5
100
AcDbSymbolTableRecord
100
AcDbLinetypeTableRecord
  2
ByBlock
 70
     0
  3

 72
    65
 73
     0
 40
0.0
  0
LTYPE
  5
15
330
5
100
AcDbSymbolTableRecord
100
AcDbLinetypeTableRecord
  2
ByLayer
 70
     0
  3

 72
    65
 73
     0
 40
0.0
  0
LTYPE
  5
16
330
5
100
AcDbSymbolTableRecord
100
AcDbLinetypeTableRecord
  2
Continuous
 70
     0
  3
Solid line
 72
    65
 73
     0
 40
0.0
  0
LTYPE
  5
6E
330
5
100
AcDbSymbolTableRecord
100
AcDbLinetypeTableRecord
  2
HIDDEN
 70
     0
  3
Hidden __ __ __ __ __ __ __ __ __ __ __ __ __ __
 72
    65
 73
     2
 40
1.905
 49
1.27
 74
     0
 49
-0.635
 74
     0
  0
LTYPE
  5
6F
330
5
100
AcDbSymbolTableRecord
100
AcDbLinetypeTableRecord
  2
PHANTOM
 70
     0
  3
Phantom ______  __  __  ______  __  __  ______
 72
    65
 73
     6
 40
12.7
 49
6.35
 74
     0
 49
-1.27
 74
     0
 49
1.27
 74
     0
 49
-1.27
 74
     0
 49
1.27
 74
     0
 49
-1.27
 74
     0
  0
LTYPE
  5
70
330
5
100
AcDbSymbolTableRecord
100
AcDbLinetypeTableRecord
  2
CENTER
 70
     0
  3
Center ____ _ ____ _ ____ _ ____ _ ____ _ ____
 72
    65
 73
     4
 40
10.16
 49
6.35
 74
     0
 49
-1.27
 74
     0
 49
1.27
 74
     0
 49
-1.27
 74
     0
  0
LTYPE
  5
71
330
5
100
AcDbSymbolTableRecord
100
AcDbLinetypeTableRecord
  2
CENTERX2
 70
     0
  3
Center (2x) ________  __  ________  __  _____
 72
    65
 73
     4
 40
20.32
 49
12.7
 74
     0
 49
-2.54
 74
     0
 49
2.54
 74
     0
 49
-2.54
 74
     0
  0
LTYPE
  5
72
330
5
100
AcDbSymbolTableRecord
100
AcDbLinetypeTableRecord
  2
DOT2
 70
     0
  3
Dot (.5x) ........................................
 72
    65
 73
     2
 40
0.635
 49
0.0
 74
     0
 49
-0.635
 74
     0
  0
ENDTAB
  0
TABLE
  2
LAYER
  5
2
330
0
100
AcDbSymbolTable
 70
     8
  0
LAYER
  5
10
330
2
100
AcDbSymbolTableRecord
100
AcDbLayerTableRecord
  2
0
 70
     0
 62
     7
  6
Continuous
370
    -3
390
F
  0
LAYER
  5
73
330
2
100
AcDbSymbolTableRecord
100
AcDbLayerTableRecord
  2
FORMAT
 70
     0
 62
     7
  6
Continuous
370
    -3
390
F
  0
LAYER
  5
74
330
2
100
AcDbSymbolTableRecord
100
AcDbLayerTableRecord
  2
VORLAGE
 70
     0
 62
     7
  6
Continuous
370
    -3
390
F
  0
LAYER
  5
75
330
2
100
AcDbSymbolTableRecord
100
AcDbLayerTableRecord
  2
1
 70
     0
 62
   179
  6
Continuous
370
    -3
390
F
  0
LAYER
  5
76
330
2
100
AcDbSymbolTableRecord
100
AcDbLayerTableRecord
  2
LAYER0
 70
     0
 62
     7
  6
Continuous
370
    -3
390
F
  0
LAYER
  5
77
330
2
100
AcDbSymbolTableRecord
100
AcDbLayerTableRecord
  2
BEMASSUNG
 70
     0
 62
     1
  6
Continuous
370
    -3
390
F
  0
LAYER
  5
78
330
2
100
AcDbSymbolTableRecord
100
AcDbLayerTableRecord
  2
ÄNDERUNG
 70
     0
 62
     1
  6
Continuous
370
    -3
390
F
  0
LAYER
  5
79
330
2
100
AcDbSymbolTableRecord
100
AcDbLayerTableRecord
  2
KENNZEICHNUNG
 70
     0
 62
     7
  6
Continuous
370
    -3
390
F
  0
ENDTAB
  0
TABLE
  2
STYLE
  5
3
330
0
100
AcDbSymbolTable
 70
     5
  0
STYLE
  5
11
330
3
100
AcDbSymbolTableRecord
100
AcDbTextStyleTableRecord
  2
STANDARD
 70
     0
 40
0.0
 41
1.0
 50
0.0
 71
     0
 42
24.5
  3
ARIAL.TTF
  4

1001
ACAD
1000
ARIAL
1071
       34
  0
STYLE
  5
8B
330
3
100
AcDbSymbolTableRecord
100
AcDbTextStyleTableRecord
  2
SLDTEXTSTYLE0
 70
     0
 40
0.0
 41
0.948
 50
0.0
 71
     0
 42
24.5
  3
ARIAL.TTF
  4

1001
ACAD
1000
Arial
1071
      290
  0
STYLE
  5
B2
330
3
100
AcDbSymbolTableRecord
100
AcDbTextStyleTableRecord
  2
SLDTEXTSTYLE1
 70
     0
 40
0.0
 41
1.0
 50
0.0
 71
     0
 42
24.5
  3
ARIALUNI.TTF
  4

1001
ACAD
1000
Arial Unicode MS
1071
 33554722
  0
STYLE
  5
B8
330
3
100
AcDbSymbolTableRecord
100
AcDbTextStyleTableRecord
  2
SLDTEXTSTYLE2
 70
     0
 40
0.0
 41
0.87
 50
0.0
 71
     0
 42
24.5
  3
ARIALN.TTF
  4

1001
ACAD
1000
Arial Narrow
1071
      290
  0
STYLE
  5
E7
330
3
100
AcDbSymbolTableRecord
100
AcDbTextStyleTableRecord
  2
SLDTEXTSTYLE3
 70
     0
 40
0.0
 41
0.948
 50
0.0
 71
     0
 42
24.5
  3
ARIALBD.TTF
  4

1001
ACAD
1000
Arial
1071
 33554722
  0
ENDTAB
  0
TABLE
  2
VIEW
  5
6
330
0
100
AcDbSymbolTable
 70
     0
  0
ENDTAB
  0
TABLE
  2
UCS
  5
7
330
0
100
AcDbSymbolTable
 70
     0
  0
ENDTAB
  0
TABLE
  2
APPID
  5
9
330
0
100
AcDbSymbolTable
 70
     1
  0
APPID
  5
12
330
9
100
AcDbSymbolTableRecord
100
AcDbRegAppTableRecord
  2
ACAD
 70
     0
  0
ENDTAB
  0
TABLE
  2
DIMSTYLE
  5
A
330
0
100
AcDbSymbolTable
 70
    12
100
AcDbDimStyleTable
  0
DIMSTYLE
105
27
330
A
100
AcDbSymbolTableRecord
100
AcDbDimStyleTableRecord
  2
ISO-25
 70
     0
 41
2.5
 42
0.625
 43
3.75
 44
1.25
 73
     0
 74
     0
 77
     1
 78
     8
140
2.5
141
2.5
143
0.0393700787
147
0.625
171
     3
172
     1
178
     0
271
     2
272
     2
274
     3
278
    44
283
     0
284
     8
340
11
  0
DIMSTYLE
105
22D
102
{ACAD_REACTORS
330
22C
330
237
330
241
330
24B
330
339
330
34F
330
359
330
363
330
36C
330
376
330
380
330
3A1
330
55F
330
568
330
572
102
}
330
A
100
AcDbSymbolTableRecord
100
AcDbDimStyleTableRecord
  2
SLDDIMSTYLE0
 70
     0
 41
23.114
 44
0.0
 45
0.000000001
 73
     0
 74
     0
 77
     1
 78
    12
 79
     3
140
24.5
147
6.125
173
     1
178
     0
271
     2
272
     2
276
     2
284
    12
340
8B
  0
DIMSTYLE
105
256
102
{ACAD_REACTORS
330
255
330
32D
330
343
330
396
330
3C4
330
554
102
}
330
A
100
AcDbSymbolTableRecord
100
AcDbDimStyleTableRecord
  2
SLDDIMSTYLE1
 70
     0
 41
23.114
 44
0.0
 45
0.000000001
 73
     0
 74
     0
 77
     1
 78
    12
 79
     3
140
24.5
147
6.125
172
     1
173
     1
178
     0
271
     2
272
     2
276
     2
284
    12
289
     0
340
8B
  0
DIMSTYLE
105
38B
102
{ACAD_REACTORS
330
38A
330
3AB
330
3B7
102
}
330
A
100
AcDbSymbolTableRecord
100
AcDbDimStyleTableRecord
  2
SLDDIMSTYLE2
 70
     0
 41
23.114
 44
0.0
 45
0.000000001
 73
     0
 74
     0
 77
     1
 78
    12
 79
     3
140
24.5
147
6.125
172
     1
173
     1
178
     0
271
     0
272
     2
276
     2
284
    12
289
     0
340
8B
  0
DIMSTYLE
105
3D3
330
A
100
AcDbSymbolTableRecord
100
AcDbDimStyleTableRecord
  2
SLDDIMSTYLE3
 70
     0
 41
23.114
 44
0.0
 45
0.000000001
146
23.114
147
0.0
173
     1
178
     0
271
     0
272
     0
276
     2
340
11
  0
DIMSTYLE
105
539
102
{ACAD_REACTORS
330
538
330
549
102
}
330
A
100
AcDbSymbolTableRecord
100
AcDbDimStyleTableRecord
  2
SLDDIMSTYLE4
 70
     0
 41
7.112
 44
0.0
 45
0.000000001
 73
     0
 74
     0
 77
     1
 78
    12
 79
     3
140
17.9782307943
147
4.4945576986
173
     1
178
     0
271
     2
272
     2
276
     2
284
    12
340
8B
341
53A
343
53A
  0
DIMSTYLE
105
65E
102
{ACAD_REACTORS
330
65D
330
66C
330
688
330
6B2
330
6E2
102
}
330
A
100
AcDbSymbolTableRecord
100
AcDbDimStyleTableRecord
  2
SLDDIMSTYLE5
 70
     0
 41
23.114
 44
0.0
 45
0.000000001
 73
     0
 74
     0
 77
     1
 78
    12
 79
     3
140
24.5
144
0.7142857143
147
6.125
172
     1
173
     1
178
     0
271
     2
272
     2
276
     2
284
    12
289
     0
340
8B
  0
DIMSTYLE
105
67B
102
{ACAD_REACTORS
330
67A
102
}
330
A
100
AcDbSymbolTableRecord
100
AcDbDimStyleTableRecord
  2
SLDDIMSTYLE6
 70
     0
 41
23.114
 44
0.0
 45
0.000000001
 73
     0
 74
     0
 77
     1
 78
    12
 79
     3
140
24.5
144
0.7142857143
147
6.125
172
     1
173
     1
178
     0
271
     2
272
     2
276
     2
284
    12
289
     0
340
E7
  0
DIMSTYLE
105
697
102
{ACAD_REACTORS
330
696
102
}
330
A
100
AcDbSymbolTableRecord
100
AcDbDimStyleTableRecord
  2
SLDDIMSTYLE7
 70
     0
 41
23.114
 44
0.0
 45
0.000000001
 73
     0
 74
     0
 77
     1
 78
    12
 79
     3
140
24.5
144
0.7142857143
147
6.125
172
     1
173
     1
178
     0
271
     2
272
     2
276
     2
284
    12
289
     0
340
8B
344
53A
  0
DIMSTYLE
105
6A5
102
{ACAD_REACTORS
330
6A4
102
}
330
A
100
AcDbSymbolTableRecord
100
AcDbDimStyleTableRecord
  2
SLDDIMSTYLE8
 70
     0
 41
7.112
 44
0.0
 45
0.000000001
 73
     0
 74
     0
 77
     1
 78
    12
 79
     3
140
24.5
144
0.7142857143
147
6.125
172
     1
173
     1
178
     0
271
     2
272
     2
276
     2
284
    12
289
     0
340
8B
341
53A
343
53A
  0
DIMSTYLE
105
6C2
330
A
100
AcDbSymbolTableRecord
100
AcDbDimStyleTableRecord
  2
SLDDIMSTYLE9
 70
     0
 41
7.112
 44
0.0
 45
0.000000001
146
7.112
147
0.0
173
     1
178
     0
271
     0
272
     0
276
     2
340
11
341
53A
343
53A
344
53A
  0
DIMSTYLE
105
6EF
102
{ACAD_REACTORS
330
6EE
102
}
330
A
100
AcDbSymbolTableRecord
100
AcDbDimStyleTableRecord
  2
SLDDIMSTYLE10
 70
     0
 41
23.114
 44
0.0
 45
0.000000001
 73
     0
 74
     0
 77
     1
 78
    12
 79
     3
140
24.5
144
0.7142857143
147
6.125
173
     1
178
     0
271
     2
272
     2
276
     2
284
    12
340
8B
  0
ENDTAB
  0
TABLE
  2
BLOCK_RECORD
  5
1
330
0
100
AcDbSymbolTable
 70
    61
  0
BLOCK_RECORD
  5
1F
330
1
100
AcDbSymbolTableRecord
100
AcDbBlockTableRecord
  2
*Model_Space
340
22
  0
BLOCK_RECORD
  5
1B
330
1
100
AcDbSymbolTableRecord
100
AcDbBlockTableRecord
  2
*Paper_Space
340
1E
  0
BLOCK_RECORD
  5
23
330
1
100
AcDbSymbolTableRecord
100
AcDbBlockTableRecord
  2
*Paper_Space0
340
26
  0
BLOCK_RECORD
  5
7A
330
1
100
AcDbSymbolTableRecord
100
AcDbBlockTableRecord
  2
Block1_3_1
340
0
102
{BLKREFS
331
D9
102
}
  0
BLOCK_RECORD
  5
88
330
1
100
AcDbSymbolTableRecord
100
AcDbBlockTableRecord
  2
SW_NOTE_0
340
0
102
{BLKREFS
331
8E
102
}
  0
BLOCK_RECORD
  5
8F
330
1
100
AcDbSymbolTableRecord
100
AcDbBlockTableRecord
  2
Block2_3_1
340
0
102
{BLKREFS
331
DA
102
}
  0
BLOCK_RECORD
  5
AF
330
1
100
AcDbSymbolTableRecord
100
AcDbBlockTableRecord
  2
SW_NOTE_0_1
340
0
102
{BLKREFS
331
B4
102
}
  0
BLOCK_RECORD
  5
B5
330
1
100
AcDbSymbolTableRecord
100
AcDbBlockTableRecord
  2
SW_NOTE_0_2
340
0
102
{BLKREFS
331
BC
102
}
  0
BLOCK_RECORD
  5
BD
330
1
100
AcDbSymbolTableRecord
100
AcDbBlockTableRecord
  2
rechtlicher_Hinweis_Katalogzeichnungen_1
340
0
102
{BLKREFS
331
D8
102
}
  0
BLOCK_RECORD
  5
C0
330
1
100
AcDbSymbolTableRecord
100
AcDbBlockTableRecord
  2
SW_NOTE_0_3
340
0
102
{BLKREFS
331
C9
102
}
  0
BLOCK_RECORD
  5
DB
330
1
100
AcDbSymbolTableRecord
100
AcDbBlockTableRecord
  2
SW_NOTE_0_4
340
0
102
{BLKREFS
331
E1
102
}
  0
BLOCK_RECORD
  5
F3
330
1
100
AcDbSymbolTableRecord
100
AcDbBlockTableRecord
  2
SW_TABLEANNOTATION_0
340
0
102
{BLKREFS
331
11B
102
}
  0
BLOCK_RECORD
  5
22E
330
1
100
AcDbSymbolTableRecord
100
AcDbBlockTableRecord
  2
_D
340
0
  0
BLOCK_RECORD
  5
238
330
1
100
AcDbSymbolTableRecord
100
AcDbBlockTableRecord
  2
_D_1
340
0
  0
BLOCK_RECORD
  5
242
330
1
100
AcDbSymbolTableRecord
100
AcDbBlockTableRecord
  2
_D_2
340
0
  0
BLOCK_RECORD
  5
24C
330
1
100
AcDbSymbolTableRecord
100
AcDbBlockTableRecord
  2
_D_3
340
0
  0
BLOCK_RECORD
  5
257
330
1
100
AcDbSymbolTableRecord
100
AcDbBlockTableRecord
  2
_D_4
340
0
  0
BLOCK_RECORD
  5
32E
330
1
100
AcDbSymbolTableRecord
100
AcDbBlockTableRecord
  2
_D_5
340
0
  0
BLOCK_RECORD
  5
33A
330
1
100
AcDbSymbolTableRecord
100
AcDbBlockTableRecord
  2
_D_6
340
0
  0
BLOCK_RECORD
  5
344
330
1
100
AcDbSymbolTableRecord
100
AcDbBlockTableRecord
  2
_D_7
340
0
  0
BLOCK_RECORD
  5
350
330
1
100
AcDbSymbolTableRecord
100
AcDbBlockTableRecord
  2
_D_8
340
0
  0
BLOCK_RECORD
  5
35A
330
1
100
AcDbSymbolTableRecord
100
AcDbBlockTableRecord
  2
_D_9
340
0
  0
BLOCK_RECORD
  5
364
330
1
100
AcDbSymbolTableRecord
100
AcDbBlockTableRecord
  2
_D_10
340
0
  0
BLOCK_RECORD
  5
36D
330
1
100
AcDbSymbolTableRecord
100
AcDbBlockTableRecord
  2
_D_11
340
0
  0
BLOCK_RECORD
  5
377
330
1
100
AcDbSymbolTableRecord
100
AcDbBlockTableRecord
  2
_D_12
340
0
  0
BLOCK_RECORD
  5
381
330
1
100
AcDbSymbolTableRecord
100
AcDbBlockTableRecord
  2
_D_13
340
0
  0
BLOCK_RECORD
  5
38C
330
1
100
AcDbSymbolTableRecord
100
AcDbBlockTableRecord
  2
_D_14
340
0
  0
BLOCK_RECORD
  5
397
330
1
100
AcDbSymbolTableRecord
100
AcDbBlockTableRecord
  2
_D_15
340
0
  0
BLOCK_RECORD
  5
3A2
330
1
100
AcDbSymbolTableRecord
100
AcDbBlockTableRecord
  2
_D_16
340
0
  0
BLOCK_RECORD
  5
3AC
330
1
100
AcDbSymbolTableRecord
100
AcDbBlockTableRecord
  2
_D_17
340
0
  0
BLOCK_RECORD
  5
3B8
330
1
100
AcDbSymbolTableRecord
100
AcDbBlockTableRecord
  2
_D_18
340
0
  0
BLOCK_RECORD
  5
3C5
330
1
100
AcDbSymbolTableRecord
100
AcDbBlockTableRecord
  2
_D_19
340
0
  0
BLOCK_RECORD
  5
3D7
330
1
100
AcDbSymbolTableRecord
100
AcDbBlockTableRecord
  2
SW_NOTE_0_5
340
0
102
{BLKREFS
331
3DC
102
}
  0
BLOCK_RECORD
  5
3DE
330
1
100
AcDbSymbolTableRecord
100
AcDbBlockTableRecord
  2
SW_CENTERMARKSYMBOL_0
340
0
102
{BLKREFS
331
3E9
102
}
  0
BLOCK_RECORD
  5
3EA
330
1
100
AcDbSymbolTableRecord
100
AcDbBlockTableRecord
  2
SW_CENTERMARKSYMBOL_1
340
0
102
{BLKREFS
331
3F5
102
}
  0
BLOCK_RECORD
  5
3F6
330
1
100
AcDbSymbolTableRecord
100
AcDbBlockTableRecord
  2
SW_CENTERMARKSYMBOL_2
340
0
102
{BLKREFS
331
401
102
}
  0
BLOCK_RECORD
  5
402
330
1
100
AcDbSymbolTableRecord
100
AcDbBlockTableRecord
  2
SW_CENTERMARKSYMBOL_3
340
0
102
{BLKREFS
331
40D
102
}
  0
BLOCK_RECORD
  5
40E
330
1
100
AcDbSymbolTableRecord
100
AcDbBlockTableRecord
  2
SW_CENTERMARKSYMBOL_4
340
0
102
{BLKREFS
331
419
102
}
  0
BLOCK_RECORD
  5
41A
330
1
100
AcDbSymbolTableRecord
100
AcDbBlockTableRecord
  2
SW_CENTERMARKSYMBOL_5
340
0
102
{BLKREFS
331
425
102
}
  0
BLOCK_RECORD
  5
426
330
1
100
AcDbSymbolTableRecord
100
AcDbBlockTableRecord
  2
SW_CENTERMARKSYMBOL_6
340
0
102
{BLKREFS
331
431
102
}
  0
BLOCK_RECORD
  5
432
330
1
100
AcDbSymbolTableRecord
100
AcDbBlockTableRecord
  2
SW_CENTERMARKSYMBOL_7
340
0
102
{BLKREFS
331
43D
102
}
  0
BLOCK_RECORD
  5
43E
330
1
100
AcDbSymbolTableRecord
100
AcDbBlockTableRecord
  2
SW_CENTERMARKSYMBOL_8
340
0
102
{BLKREFS
331
449
102
}
  0
BLOCK_RECORD
  5
44A
330
1
100
AcDbSymbolTableRecord
100
AcDbBlockTableRecord
  2
SW_CENTERMARKSYMBOL_9
340
0
102
{BLKREFS
331
455
102
}
  0
BLOCK_RECORD
  5
456
330
1
100
AcDbSymbolTableRecord
100
AcDbBlockTableRecord
  2
SW_CENTERMARKSYMBOL_10
340
0
102
{BLKREFS
331
461
102
}
  0
BLOCK_RECORD
  5
462
330
1
100
AcDbSymbolTableRecord
100
AcDbBlockTableRecord
  2
SW_CENTERMARKSYMBOL_11
340
0
102
{BLKREFS
331
46D
102
}
  0
BLOCK_RECORD
  5
53A
330
1
100
AcDbSymbolTableRecord
100
AcDbBlockTableRecord
  2
_Dot
340
0
102
{BLKREFS
331
542
331
54D
331
69C
331
6A9
102
}
  0
BLOCK_RECORD
  5
53F
330
1
100
AcDbSymbolTableRecord
100
AcDbBlockTableRecord
  2
_D_20
340
0
  0
BLOCK_RECORD
  5
54A
330
1
100
AcDbSymbolTableRecord
100
AcDbBlockTableRecord
  2
_D_21
340
0
  0
BLOCK_RECORD
  5
555
330
1
100
AcDbSymbolTableRecord
100
AcDbBlockTableRecord
  2
_D_22
340
0
  0
BLOCK_RECORD
  5
560
330
1
100
AcDbSymbolTableRecord
100
AcDbBlockTableRecord
  2
_D_23
340
0
  0
BLOCK_RECORD
  5
569
330
1
100
AcDbSymbolTableRecord
100
AcDbBlockTableRecord
  2
_D_24
340
0
  0
BLOCK_RECORD
  5
573
330
1
100
AcDbSymbolTableRecord
100
AcDbBlockTableRecord
  2
_D_25
340
0
  0
BLOCK_RECORD
  5
65F
330
1
100
AcDbSymbolTableRecord
100
AcDbBlockTableRecord
  2
_D_26
340
0
  0
BLOCK_RECORD
  5
66D
330
1
100
AcDbSymbolTableRecord
100
AcDbBlockTableRecord
  2
_D_27
340
0
  0
BLOCK_RECORD
  5
67C
330
1
100
AcDbSymbolTableRecord
100
AcDbBlockTableRecord
  2
_D_28
340
0
  0
BLOCK_RECORD
  5
689
330
1
100
AcDbSymbolTableRecord
100
AcDbBlockTableRecord
  2
_D_29
340
0
  0
BLOCK_RECORD
  5
698
330
1
100
AcDbSymbolTableRecord
100
AcDbBlockTableRecord
  2
_D_30
340
0
  0
BLOCK_RECORD
  5
6A6
330
1
100
AcDbSymbolTableRecord
100
AcDbBlockTableRecord
  2
_D_31
340
0
  0
BLOCK_RECORD
  5
6B3
330
1
100
AcDbSymbolTableRecord
100
AcDbBlockTableRecord
  2
_D_32
340
0
  0
BLOCK_RECORD
  5
6E3
330
1
100
AcDbSymbolTableRecord
100
AcDbBlockTableRecord
  2
_D_33
340
0
  0
BLOCK_RECORD
  5
6F0
330
1
100
AcDbSymbolTableRecord
100
AcDbBlockTableRecord
  2
_D_34
340
0
  0
BLOCK_RECORD
  5
6FA
330
1
100
AcDbSymbolTableRecord
100
AcDbBlockTableRecord
  2
SW_CENTERMARKSYMBOL_12
340
0
102
{BLKREFS
331
705
102
}
  0
BLOCK_RECORD
  5
706
330
1
100
AcDbSymbolTableRecord
100
AcDbBlockTableRecord
  2
SW_CENTERMARKSYMBOL_13
340
0
102
{BLKREFS
331
711
102
}
  0
ENDTAB
  0
ENDSEC
  0
SECTION
  2
BLOCKS
  0
BLOCK
  5
20
330
1F
100
AcDbEntity
  8
0
100
AcDbBlockBegin
  2
*Model_Space
 70
     0
 10
0.0
 20
0.0
 30
0.0
  3
*Model_Space
  1

  0
ENDBLK
  5
21
330
1F
100
AcDbEntity
  8
0
100
AcDbBlockEnd
  0
BLOCK
  5
1C
330
1B
100
AcDbEntity
 67
     1
  8
0
100
AcDbBlockBegin
  2
*Paper_Space
 70
     0
 10
0.0
 20
0.0
 30
0.0
  3
*Paper_Space
  1

  0
ENDBLK
  5
1D
330
1B
100
AcDbEntity
 67
     1
  8
0
100
AcDbBlockEnd
  0
BLOCK
  5
24
330
23
100
AcDbEntity
  8
0
100
AcDbBlockBegin
  2
*Paper_Space0
 70
     0
 10
0.0
 20
0.0
 30
0.0
  3
*Paper_Space0
  1

  0
ENDBLK
  5
25
330
23
100
AcDbEntity
  8
0
100
AcDbBlockEnd
  0
BLOCK
  5
7B
330
7A
100
AcDbEntity
  8
0
100
AcDbBlockBegin
  2
Block1_3_1
 70
     0
 10
0.0
 20
0.0
 30
0.0
  3
Block1_3_1
  1

  0
CIRCLE
  5
7D
330
7A
100
AcDbEntity
  8
0
  6
Continuous
 62
     7
370
    18
100
AcDbCircle
 10
81.2962813747
 20
63.6276108944
 30
0.0
 40
8.79136307741128
  0
CIRCLE
  5
7E
330
7A
100
AcDbEntity
  8
0
  6
Continuous
 62
     7
370
    18
100
AcDbCircle
 10
81.2962813747
 20
63.6276108944
 30
0.0
 40
15.51210404558959
  0
LINE
  5
7F
330
7A
100
AcDbEntity
  8
0
  6
CENTERX2
 62
     7
370
    18
100
AcDbLine
 10
81.2962813747
 20
63.6276108944
 30
0.0
 11
55.2841773291
 21
63.6276108944
 31
0.0
  0
LINE
  5
80
330
7A
100
AcDbEntity
  8
0
  6
Continuous
 62
     7
370
    18
100
AcDbLine
 10
57.1602751158
 20
48.1155068489
 30
0.0
 11
57.1602751158
 21
79.150109214
 31
0.0
  0
LINE
  5
81
330
7A
100
AcDbEntity
  8
0
  6
Continuous
 62
     7
370
    18
100
AcDbLine
 10
18.7580035265
 20
72.4189739719
 30
0.0
 11
18.7580035265
 21
54.836247817
 31
0.0
  0
LINE
  5
82
330
7A
100
AcDbEntity
  8
0
  6
Continuous
 62
     7
370
    18
100
AcDbLine
 10
18.7580035265
 20
54.836247817
 30
0.0
 11
57.1602751158
 21
48.1155068489
 31
0.0
  0
LINE
  5
83
330
7A
100
AcDbEntity
  8
0
  6
CENTERX2
 62
     7
370
    18
100
AcDbLine
 10
67.6602751158
 20
63.6276108944
 30
0.0
 11
8.2580035265
 21
63.6276108944
 31
0.0
  0
LINE
  5
84
330
7A
100
AcDbEntity
  8
0
  6
Continuous
 62
     7
370
    18
100
AcDbLine
 10
57.1602751158
 20
79.150109214
 30
0.0
 11
18.7580035265
 21
72.4189739719
 31
0.0
  0
LINE
  5
85
330
7A
100
AcDbEntity
  8
0
  6
CENTERX2
 62
     7
370
    18
100
AcDbLine
 10
81.2962813747
 20
63.6276108944
 30
0.0
 11
81.2962813747
 21
37.6155068489
 31
0.0
  0
LINE
  5
86
330
7A
100
AcDbEntity
  8
0
  6
CENTERX2
 62
     7
370
    18
100
AcDbLine
 10
81.2962813747
 20
63.6276108944
 30
0.0
 11
81.2962813747
 21
89.63971494
 31
0.0
  0
LINE
  5
87
330
7A
100
AcDbEntity
  8
0
  6
CENTERX2
 62
     7
370
    18
100
AcDbLine
 10
81.2962813747
 20
63.6276108944
 30
0.0
 11
107.3083854203
 21
63.6276108944
 31
0.0
  0
INSERT
  5
8E
330
7A
100
AcDbEntity
  8
0
  6
Continuous
 62
     7
370
     0
100
AcDbBlockReference
  2
SW_NOTE_0
 10
14.7222830224
 20
16.6281309378
 30
0.0
  0
ENDBLK
  5
7C
330
7A
100
AcDbEntity
  8
0
100
AcDbBlockEnd
  0
BLOCK
  5
89
330
88
100
AcDbEntity
  8
0
100
AcDbBlockBegin
  2
SW_NOTE_0
 70
     0
 10
0.0
 20
0.0
 30
0.0
  3
SW_NOTE_0
  1

  0
MTEXT
  5
8C
330
88
100
AcDbEntity
  8
0
  6
Continuous
 62
     0
370
     0
100
AcDbMText
 10
46.134375
 20
17.144600939
 30
0.0
 40
13.3
 41
0.0
 71
     2
 72
     1
  1
DIN 6  T1 - 
  7
SLDTEXTSTYLE0
 73
     1
 44
1.0
  0
MTEXT
  5
8D
330
88
100
AcDbEntity
  8
0
  6
Continuous
 62
     0
370
     0
100
AcDbMText
 10
46.5984838367
 20
0.0023782104
 30
0.0
 40
13.3
 41
0.0
 71
     2
 72
     1
  1
Proj.methode 1
  7
SLDTEXTSTYLE0
 73
     1
 44
1.0
  0
ENDBLK
  5
8A
330
88
100
AcDbEntity
  8
0
100
AcDbBlockEnd
  0
BLOCK
  5
90
330
8F
100
AcDbEntity
  8
0
100
AcDbBlockBegin
  2
Block2_3_1
 70
     0
 10
0.0
 20
0.0
 30
0.0
  3
Block2_3_1
  1

  0
ARC
  5
92
330
8F
100
AcDbEntity
  8
FORMAT
100
AcDbCircle
 10
1657.2474557671
 20
399.6934206979
 30
0.0
 40
26.25000000000006
100
AcDbArc
 50
93.8225537293
 51
266.1774462707
  0
ARC
  5
93
330
8F
100
AcDbEntity
  8
FORMAT
100
AcDbCircle
 10
1657.2474557671
 20
399.6934206979
 30
0.0
 40
21.0000000000001
100
AcDbArc
 50
94.7801918472
 51
265.2198081528
  0
ARC
  5
94
330
8F
100
AcDbEntity
  8
FORMAT
100
AcDbCircle
 10
1657.2474557671
 20
399.6934206979
 30
0.0
 40
26.25000000000006
100
AcDbArc
 50
273.8225537293
 51
86.1774462707
  0
ARC
  5
95
330
8F
100
AcDbEntity
  8
FORMAT
100
AcDbCircle
 10
1657.2474557671
 20
399.6934206979
 30
0.0
 40
21.0000000000001
100
AcDbArc
 50
274.7801918472
 51
85.2198081528
  0
ARC
  5
96
330
8F
100
AcDbEntity
  8
FORMAT
100
AcDbCircle
 10
1657.2474557671
 20
407.6242915053
 30
0.0
 40
6.022819479648172
100
AcDbArc
 50
304.8395134495
 51
73.1084194601
  0
ARC
  5
97
330
8F
100
AcDbEntity
  8
FORMAT
100
AcDbCircle
 10
1657.2474557671
 20
407.6242915053
 30
0.0
 40
9.81620102162464
100
AcDbArc
 50
313.8988153445
 51
79.7306010333
  0
ARC
  5
98
330
8F
100
AcDbEntity
  8
FORMAT
100
AcDbCircle
 10
1657.2474557671
 20
388.4857005791
 30
0.0
 40
3.440714680707612
100
AcDbArc
 50
300.5716370086
 51
0.0
  0
ARC
  5
99
330
8F
100
AcDbEntity
  8
FORMAT
100
AcDbCircle
 10
1657.2474557671
 20
407.6242915053
 30
0.0
 40
9.81620102162464
100
AcDbArc
 50
100.2693989667
 51
226.1011846555
  0
ARC
  5
9A
330
8F
100
AcDbEntity
  8
FORMAT
100
AcDbCircle
 10
1657.2474557671
 20
388.4857005791
 30
0.0
 40
6.806425489791309
100
AcDbArc
 50
180.0
 51
255.1013518888
  0
ARC
  5
9B
330
8F
100
AcDbEntity
  8
FORMAT
100
AcDbCircle
 10
1657.2474557671
 20
388.4857005791
 30
0.0
 40
6.806425489791309
100
AcDbArc
 50
284.8986481112
 51
0.0
  0
ARC
  5
9C
330
8F
100
AcDbEntity
  8
FORMAT
100
AcDbCircle
 10
1657.2474557671
 20
388.4857005791
 30
0.0
 40
3.440714680707612
100
AcDbArc
 50
180.0
 51
239.4283629914
  0
ARC
  5
9D
330
8F
100
AcDbEntity
  8
FORMAT
100
AcDbCircle
 10
1657.2474557671
 20
407.6242915053
 30
0.0
 40
6.022819479648172
100
AcDbArc
 50
106.8915805399
 51
235.1604865505
  0
LINE
  5
9E
330
8F
100
AcDbEntity
  8
FORMAT
100
AcDbLine
 10
1627.7186808898
 20
370.1646458206
 30
0.0
 11
1686.7762306444
 21
370.1646458206
 31
0.0
  0
LINE
  5
9F
330
8F
100
AcDbEntity
  8
FORMAT
100
AcDbLine
 10
1627.7186808898
 20
429.2221955752
 30
0.0
 11
1686.7762306444
 21
429.2221955752
 31
0.0
  0
LINE
  5
A0
330
8F
100
AcDbEntity
  8
FORMAT
100
AcDbLine
 10
1627.7186808898
 20
429.2221955752
 30
0.0
 11
1627.7186808898
 21
370.1646458206
 31
0.0
  0
LINE
  5
A1
330
8F
100
AcDbEntity
  8
FORMAT
100
AcDbLine
 10
1686.7762306444
 20
429.2221955752
 30
0.0
 11
1686.7762306444
 21
370.1646458206
 31
0.0
  0
LINE
  5
A2
330
8F
100
AcDbEntity
  8
FORMAT
100
AcDbLine
 10
1655.4974557671
 20
425.8850224053
 30
0.0
 11
1655.4974557671
 21
420.6203769983
 31
0.0
  0
LINE
  5
A3
330
8F
100
AcDbEntity
  8
FORMAT
100
AcDbLine
 10
1658.9974557671
 20
425.8850224053
 30
0.0
 11
1658.9974557671
 21
420.6203769983
 31
0.0
  0
LINE
  5
A4
330
8F
100
AcDbEntity
  8
FORMAT
100
AcDbLine
 10
1655.4974557671
 20
378.7664643974
 30
0.0
 11
1655.4974557671
 21
373.5018189904
 31
0.0
  0
LINE
  5
A5
330
8F
100
AcDbEntity
  8
FORMAT
100
AcDbLine
 10
1658.9974557671
 20
378.7664643974
 30
0.0
 11
1658.9974557671
 21
373.5018189904
 31
0.0
  0
LINE
  5
A6
330
8F
100
AcDbEntity
  8
FORMAT
100
AcDbLine
 10
1658.9974557671
 20
417.2832408527
 30
0.0
 11
1658.9974557671
 21
413.3872642177
 31
0.0
  0
LINE
  5
A7
330
8F
100
AcDbEntity
  8
FORMAT
100
AcDbLine
 10
1655.4974557671
 20
417.2832408527
 30
0.0
 11
1655.4974557671
 21
413.3872642177
 31
0.0
  0
LINE
  5
A8
330
8F
100
AcDbEntity
  8
FORMAT
100
AcDbLine
 10
1650.4410302773
 20
388.4857005791
 30
0.0
 11
1650.4410302773
 21
400.5510762146
 31
0.0
  0
LINE
  5
A9
330
8F
100
AcDbEntity
  8
FORMAT
100
AcDbLine
 10
1664.0538812569
 20
388.4857005791
 30
0.0
 11
1664.0538812569
 21
400.5510762146
 31
0.0
  0
LINE
  5
AA
330
8F
100
AcDbEntity
  8
FORMAT
100
AcDbLine
 10
1660.6881704478
 20
388.4857005791
 30
0.0
 11
1660.6881704478
 21
402.6810297309
 31
0.0
  0
LINE
  5
AB
330
8F
100
AcDbEntity
  8
FORMAT
100
AcDbLine
 10
1653.8067410864
 20
388.4857005791
 30
0.0
 11
1653.8067410864
 21
402.6810297309
 31
0.0
  0
LINE
  5
AC
330
8F
100
AcDbEntity
  8
FORMAT
100
AcDbLine
 10
1655.4974557671
 20
385.5232661892
 30
0.0
 11
1655.4974557671
 21
381.9080925071
 31
0.0
  0
LINE
  5
AD
330
8F
100
AcDbEntity
  8
FORMAT
100
AcDbLine
 10
1658.9974557671
 20
385.5232661892
 30
0.0
 11
1658.9974557671
 21
381.9080925071
 31
0.0
  0
HATCH
  5
AE
330
8F
100
AcDbEntity
  8
FORMAT
100
AcDbHatch
 10
0.0
 20
0.0
 30
0.0
210
0.0
220
0.0
230
1.0
  2
SOLID
 70
     1
 71
     0
 91
        5
 92
        0
 93
        4
 72
     1
 10
1686.776230644441
 20
429.2221955751519
 11
1686.776230644441
 21
370.1646458205502
 72
     1
 10
1686.776230644441
 20
370.1646458205502
 11
1627.718680889839
 21
370.1646458205502
 72
     1
 10
1627.718680889839
 20
370.1646458205502
 11
1627.718680889839
 21
429.2221955751519
 72
     1
 10
1627.718680889839
 20
429.2221955751519
 11
1686.776230644441
 21
429.2221955751519
 97
        0
 92
        0
 93
        4
 72
     2
 10
1657.24745576714
 20
399.693420697851
 40
21.00000000000007
 50
94.78019184719915
 51
265.2198081528017
 73
     0
 72
     1
 10
1655.49745576714
 20
420.6203769982786
 11
1655.49745576714
 21
425.8850224052687
 72
     2
 10
1657.24745576714
 20
399.693420697851
 40
26.25000000000005
 50
93.82255372927435
 51
266.1774462707265
 73
     1
 72
     1
 10
1655.49745576714
 20
373.5018189904334
 11
1655.49745576714
 21
378.7664643974235
 97
        0
 92
        0
 93
        8
 72
     1
 10
1664.053881256931
 20
388.4857005790521
 11
1664.053881256931
 21
400.5510762145541
 72
     2
 10
1657.24745576714
 20
407.6242915052733
 40
9.816201021624591
 50
313.8988153445118
 51
439.730601033339
 73
     1
 72
     1
 10
1658.99745576714
 20
417.2832408527408
 11
1658.99745576714
 21
413.3872642177221
 72
     2
 10
1657.24745576714
 20
407.6242915052733
 40
6.022819479648148
 50
286.8915805399267
 51
415.1604865505418
 73
     0
 72
     1
 10
1660.688170447847
 20
402.6810297308583
 11
1660.688170447847
 21
388.4857005790521
 72
     2
 10
1657.24745576714
 20
388.4857005790521
 40
3.440714680707529
 50
0.0
 51
59.42836299135161
 73
     0
 72
     1
 10
1658.99745576714
 20
385.523266189224
 11
1658.99745576714
 21
381.9080925071099
 72
     2
 10
1657.24745576714
 20
388.4857005790521
 40
6.806425489791268
 50
284.8986481111874
 51
360.0000000000008
 73
     1
 97
        0
 92
        0
 93
        8
 72
     2
 10
1657.24745576714
 20
388.4857005790521
 40
3.440714680707529
 50
120.5716370086479
 51
180.0
 73
     0
 72
     1
 10
1653.806741086432
 20
388.4857005790521
 11
1653.806741086432
 21
402.6810297308583
 72
     2
 10
1657.24745576714
 20
407.6242915052733
 40
6.022819479648148
 50
124.839513449459
 51
253.1084194600749
 73
     0
 72
     1
 10
1655.49745576714
 20
413.3872642177221
 11
1655.49745576714
 21
417.2832408527408
 72
     2
 10
1657.24745576714
 20
407.6242915052733
 40
9.816201021624591
 50
100.2693989666618
 51
226.1011846554899
 73
     1
 72
     1
 10
1650.441030277349
 20
400.5510762145541
 11
1650.441030277349
 21
388.4857005790521
 72
     2
 10
1657.24745576714
 20
388.4857005790521
 40
6.806425489791268
 50
180.0
 51
255.1013518888142
 73
     1
 72
     1
 10
1655.49745576714
 20
381.9080925071099
 11
1655.49745576714
 21
385.5232661892239
 97
        0
 92
        0
 93
        4
 72
     2
 10
1657.24745576714
 20
399.693420697851
 40
21.00000000000007
 50
274.7801918471999
 51
445.2198081528016
 73
     0
 72
     1
 10
1658.99745576714
 20
378.7664643974235
 11
1658.99745576714
 21
373.5018189904334
 72
     2
 10
1657.24745576714
 20
399.693420697851
 40
26.25000000000005
 50
273.8225537292751
 51
446.1774462707265
 73
     1
 72
     1
 10
1658.99745576714
 20
425.8850224052687
 11
1658.99745576714
 21
420.6203769982786
 97
        0
 75
     0
 76
     1
 98
        1
 10
0.0
 20
0.0
  0
INSERT
  5
B4
330
8F
100
AcDbEntity
  8
FORMAT
 62
     7
100
AcDbBlockReference
  2
SW_NOTE_0_1
 10
1625.7602656139
 20
334.0630571774
 30
0.0
  0
INSERT
  5
BC
330
8F
100
AcDbEntity
  8
0
  6
Continuous
 62
     7
370
     0
100
AcDbBlockReference
  2
SW_NOTE_0_2
 10
1708.506124485
 20
399.8232127904
 30
0.0
  0
ENDBLK
  5
91
330
8F
100
AcDbEntity
  8
0
100
AcDbBlockEnd
  0
BLOCK
  5
B0
330
AF
100
AcDbEntity
  8
0
100
AcDbBlockBegin
  2
SW_NOTE_0_1
 70
     0
 10
0.0
 20
0.0
 30
0.0
  3
SW_NOTE_0_1
  1

  0
MTEXT
  5
B3
330
AF
100
AcDbEntity
  8
FORMAT
 62
     0
100
AcDbMText
 10
0.0
 20
27.0563380282
 30
0.0
 40
21.0
 41
0.0
 71
     1
 72
     1
  1
ECO
  7
SLDTEXTSTYLE1
 73
     1
 44
1.0
  0
ENDBLK
  5
B1
330
AF
100
AcDbEntity
  8
0
100
AcDbBlockEnd
  0
BLOCK
  5
B6
330
B5
100
AcDbEntity
  8
0
100
AcDbBlockBegin
  2
SW_NOTE_0_2
 70
     0
 10
0.0
 20
0.0
 30
0.0
  3
SW_NOTE_0_2
  1

  0
MTEXT
  5
B9
330
B5
100
AcDbEntity
  8
0
  6
Continuous
 62
     0
370
     0
100
AcDbMText
 10
0.0
 20
22.558685446
 30
0.0
 40
17.5
 41
0.0
 71
     1
 72
     1
  1
ECO Schulte GmbH & Co. KG
  7
SLDTEXTSTYLE2
 73
     1
 44
1.0
  0
MTEXT
  5
BA
330
B5
100
AcDbEntity
  8
0
  6
Continuous
 62
     0
370
     0
100
AcDbMText
 10
0.0
 20
-1.9413153102
 30
0.0
 40
17.5
 41
0.0
 71
     1
 72
     1
  1
Postfach 206
  7
SLDTEXTSTYLE2
 73
     1
 44
1.0
  0
MTEXT
  5
BB
330
B5
100
AcDbEntity
  8
0
  6
Continuous
 62
     0
370
     0
100
AcDbMText
 10
0.0
 20
-26.4413160665
 30
0.0
 40
17.5
 41
0.0
 71
     1
 72
     1
  1
58682 Menden
  7
SLDTEXTSTYLE2
 73
     1
 44
1.0
  0
ENDBLK
  5
B7
330
B5
100
AcDbEntity
  8
0
100
AcDbBlockEnd
  0
BLOCK
  5
BE
330
BD
100
AcDbEntity
  8
0
100
AcDbBlockBegin
  2
rechtlicher_Hinweis_Katalogzeichnungen_1
 70
     0
 10
0.0
 20
0.0
 30
0.0
  3
rechtlicher_Hinweis_Katalogzeichnungen_1
  1

  0
INSERT
  5
C9
330
BD
100
AcDbEntity
  8
0
  6
Continuous
 62
     7
370
     0
100
AcDbBlockReference
  2
SW_NOTE_0_3
 10
2.1768074632
 20
401.5030406501
 30
0.0
  0
ENDBLK
  5
BF
330
BD
100
AcDbEntity
  8
0
100
AcDbBlockEnd
  0
BLOCK
  5
C1
330
C0
100
AcDbEntity
  8
0
100
AcDbBlockBegin
  2
SW_NOTE_0_3
 70
     0
 10
0.0
 20
0.0
 30
0.0
  3
SW_NOTE_0_3
  1

  0
MTEXT
  5
C3
330
C0
100
AcDbEntity
  8
0
  6
Continuous
 62
     0
370
     0
100
AcDbMText
 10
0.0
 20
45.117370892
 30
0.0
 40
35.0
 41
0.0
 71
     1
 72
     1
  1
Technische Änderungen und Irrtümer vorbehalten. Aus dem Gebrauch der Zeichnung können keinerlei Ansprüche (inkl. 
  7
SLDTEXTSTYLE0
 73
     1
 44
1.0
  0
MTEXT
  5
C4
330
C0
100
AcDbEntity
  8
0
  6
Continuous
 62
     0
370
     0
100
AcDbMText
 10
0.0
 20
-3.8826306204
 30
0.0
 40
35.0
 41
0.0
 71
     1
 72
     1
  1
Schadenersatzansprüche) erhoben und gegen ECO Schulte geltend gemacht werden. Die Zeichnung bleibt unser 
  7
SLDTEXTSTYLE0
 73
     1
 44
1.0
  0
MTEXT
  5
C5
330
C0
100
AcDbEntity
  8
0
  6
Continuous
 62
     0
370
     0
100
AcDbMText
 10
0.0
 20
-52.8826321329
 30
0.0
 40
35.0
 41
0.0
 71
     1
 72
     1
  1
Eigentum. Sämtliche sich aus der Zeichnung ergebenden Ansprüche stehen ausschließlich ECO Schulte zu.
  7
SLDTEXTSTYLE0
 73
     1
 44
1.0
  0
MTEXT
  5
C6
330
C0
100
AcDbEntity
  8
0
  6
Continuous
 62
     0
370
     0
100
AcDbMText
 10
0.0
 20
-150.8826351579
 30
0.0
 40
35.0
 41
0.0
 71
     1
 72
     1
  1
Technical changes and errors excepted. No claims (including compensation claims) may be raised against ECO Schulte by 
  7
SLDTEXTSTYLE0
 73
     1
 44
1.0
  0
MTEXT
  5
C7
330
C0
100
AcDbEntity
  8
0
  6
Continuous
 62
     0
370
     0
100
AcDbMText
 10
0.0
 20
-199.8826366703
 30
0.0
 40
35.0
 41
0.0
 71
     1
 72
     1
  1
using of this drawing. The drawing remains the property of ECO Schulte. All claims resulting from this drawing are solely 
  7
SLDTEXTSTYLE0
 73
     1
 44
1.0
  0
MTEXT
  5
C8
330
C0
100
AcDbEntity
  8
0
  6
Continuous
 62
     0
370
     0
100
AcDbMText
 10
0.0
 20
-248.8826381828
 30
0.0
 40
35.0
 41
0.0
 71
     1
 72
     1
  1
entitled to ECO Schulte.
  7
SLDTEXTSTYLE0
 73
     1
 44
1.0
  0
ENDBLK
  5
C2
330
C0
100
AcDbEntity
  8
0
100
AcDbBlockEnd
  0
BLOCK
  5
DC
330
DB
100
AcDbEntity
  8
0
100
AcDbBlockBegin
  2
SW_NOTE_0_4
 70
     0
 10
0.0
 20
0.0
 30
0.0
  3
SW_NOTE_0_4
  1

  0
MTEXT
  5
DE
330
DB
100
AcDbEntity
  8
FORMAT
 62
     0
100
AcDbMText
 10
0.0
 20
23.8746087637
 30
0.0
 40
18.5208333333
 41
0.0
 71
     1
 72
     1
  1
\LBefestigungsmittel:
  7
SLDTEXTSTYLE0
 73
     1
 44
1.0
  0
MTEXT
  5
DF
330
DB
100
AcDbEntity
  8
FORMAT
 62
     0
100
AcDbMText
 10
0.0
 20
-9.7180977825
 30
0.0
 40
18.5208333333
 41
0.0
 71
     1
 72
     1
  1
1. Montageplatte: Stahl/Alu-Tür: 6x M6 (Einnietmutter M6) ; Holztür: 6x Senkschraube ø6x60
  7
SLDTEXTSTYLE0
 73
     1
 44
1.0
  0
MTEXT
  5
E0
330
DB
100
AcDbEntity
  8
FORMAT
 62
     0
100
AcDbMText
 10
0.0
 20
-41.4125430759
 30
0.0
 40
18.5208333333
 41
0.0
 71
     1
 72
     1
  1
2. Gleitschiene: Stahl/Alu-Tür: 2x M6 (Einnietmutter M6) ; Holztür: 2x Senkschraube ø4x30
  7
SLDTEXTSTYLE0
 73
     1
 44
1.0
  0
ENDBLK
  5
DD
330
DB
100
AcDbEntity
  8
0
100
AcDbBlockEnd
  0
BLOCK
  5
F4
330
F3
100
AcDbEntity
  8
0
100
AcDbBlockBegin
  2
SW_TABLEANNOTATION_0
 70
     0
 10
0.0
 20
0.0
 30
0.0
  3
SW_TABLEANNOTATION_0
  1

  0
LINE
  5
F6
330
F3
100
AcDbEntity
  8
FORMAT
 62
     0
100
AcDbLine
 10
0.0
 20
0.0
 30
0.0
 11
0.0
 21
-70.2916688919
 31
0.0
  0
LINE
  5
F7
330
F3
100
AcDbEntity
  8
FORMAT
 62
     0
100
AcDbLine
 10
273.0109550141
 20
0.0
 30
0.0
 11
273.0109550141
 21
-70.2916688919
 31
0.0
  0
LINE
  5
F8
330
F3
100
AcDbEntity
  8
FORMAT
 62
     0
100
AcDbLine
 10
0.0
 20
-70.2916688919
 30
0.0
 11
0.0
 21
-108.9375033379
 31
0.0
  0
LINE
  5
F9
330
F3
100
AcDbEntity
  8
FORMAT
 62
     0
100
AcDbLine
 10
273.0109550141
 20
-70.2916688919
 30
0.0
 11
273.0109550141
 21
-108.9375033379
 31
0.0
  0
LINE
  5
FA
330
F3
100
AcDbEntity
  8
FORMAT
 62
     0
100
AcDbLine
 10
0.0
 20
-108.9375033379
 30
0.0
 11
0.0
 21
-147.5833377838
 31
0.0
  0
LINE
  5
FB
330
F3
100
AcDbEntity
  8
FORMAT
 62
     0
100
AcDbLine
 10
273.0109550141
 20
-108.9375033379
 30
0.0
 11
273.0109550141
 21
-147.5833377838
 31
0.0
  0
LINE
  5
FC
330
F3
100
AcDbEntity
  8
FORMAT
 62
     0
100
AcDbLine
 10
0.0
 20
-147.5833377838
 30
0.0
 11
0.0
 21
-186.2291722298
 31
0.0
  0
LINE
  5
FD
330
F3
100
AcDbEntity
  8
FORMAT
 62
     0
100
AcDbLine
 10
273.0109550141
 20
-147.5833377838
 30
0.0
 11
273.0109550141
 21
-186.2291722298
 31
0.0
  0
LINE
  5
FE
330
F3
100
AcDbEntity
  8
FORMAT
 62
     0
100
AcDbLine
 10
0.0
 20
-186.2291722298
 30
0.0
 11
0.0
 21
-224.8750066757
 31
0.0
  0
LINE
  5
FF
330
F3
100
AcDbEntity
  8
FORMAT
 62
     0
100
AcDbLine
 10
273.0109550141
 20
-186.2291722298
 30
0.0
 11
273.0109550141
 21
-224.8750066757
 31
0.0
  0
LINE
  5
100
330
F3
100
AcDbEntity
  8
FORMAT
 62
     0
100
AcDbLine
 10
460.0930183031
 20
0.0
 30
0.0
 11
460.0930183031
 21
-70.2916688919
 31
0.0
  0
LINE
  5
101
330
F3
100
AcDbEntity
  8
FORMAT
 62
     0
100
AcDbLine
 10
460.0930183031
 20
-70.2916688919
 30
0.0
 11
460.0930183031
 21
-108.9375033379
 31
0.0
  0
LINE
  5
102
330
F3
100
AcDbEntity
  8
FORMAT
 62
     0
100
AcDbLine
 10
460.0930183031
 20
-108.9375033379
 30
0.0
 11
460.0930183031
 21
-147.5833377838
 31
0.0
  0
LINE
  5
103
330
F3
100
AcDbEntity
  8
FORMAT
 62
     0
100
AcDbLine
 10
460.0930183031
 20
-147.5833377838
 30
0.0
 11
460.0930183031
 21
-186.2291722298
 31
0.0
  0
LINE
  5
104
330
F3
100
AcDbEntity
  8
FORMAT
 62
     0
100
AcDbLine
 10
460.0930183031
 20
-186.2291722298
 30
0.0
 11
460.0930183031
 21
-224.8750066757
 31
0.0
  0
LINE
  5
105
330
F3
100
AcDbEntity
  8
FORMAT
 62
     0
100
AcDbLine
 10
0.0
 20
0.0
 30
0.0
 11
273.0109550141
 21
0.0
 31
0.0
  0
LINE
  5
106
330
F3
100
AcDbEntity
  8
FORMAT
 62
     0
100
AcDbLine
 10
0.0
 20
-70.2916688919
 30
0.0
 11
273.0109550141
 21
-70.2916688919
 31
0.0
  0
LINE
  5
107
330
F3
100
AcDbEntity
  8
FORMAT
 62
     0
100
AcDbLine
 10
273.0109550141
 20
0.0
 30
0.0
 11
460.0930183031
 21
0.0
 31
0.0
  0
LINE
  5
108
330
F3
100
AcDbEntity
  8
FORMAT
 62
     0
100
AcDbLine
 10
273.0109550141
 20
-70.2916688919
 30
0.0
 11
460.0930183031
 21
-70.2916688919
 31
0.0
  0
LINE
  5
109
330
F3
100
AcDbEntity
  8
FORMAT
 62
     0
100
AcDbLine
 10
0.0
 20
-108.9375033379
 30
0.0
 11
273.0109550141
 21
-108.9375033379
 31
0.0
  0
LINE
  5
10A
330
F3
100
AcDbEntity
  8
FORMAT
 62
     0
100
AcDbLine
 10
273.0109550141
 20
-108.9375033379
 30
0.0
 11
460.0930183031
 21
-108.9375033379
 31
0.0
  0
LINE
  5
10B
330
F3
100
AcDbEntity
  8
FORMAT
 62
     0
100
AcDbLine
 10
0.0
 20
-147.5833377838
 30
0.0
 11
273.0109550141
 21
-147.5833377838
 31
0.0
  0
LINE
  5
10C
330
F3
100
AcDbEntity
  8
FORMAT
 62
     0
100
AcDbLine
 10
273.0109550141
 20
-147.5833377838
 30
0.0
 11
460.0930183031
 21
-147.5833377838
 31
0.0
  0
LINE
  5
10D
330
F3
100
AcDbEntity
  8
FORMAT
 62
     0
100
AcDbLine
 10
0.0
 20
-186.2291722298
 30
0.0
 11
273.0109550141
 21
-186.2291722298
 31
0.0
  0
LINE
  5
10E
330
F3
100
AcDbEntity
  8
FORMAT
 62
     0
100
AcDbLine
 10
273.0109550141
 20
-186.2291722298
 30
0.0
 11
460.0930183031
 21
-186.2291722298
 31
0.0
  0
LINE
  5
10F
330
F3
100
AcDbEntity
  8
FORMAT
 62
     0
100
AcDbLine
 10
0.0
 20
-224.8750066757
 30
0.0
 11
273.0109550141
 21
-224.8750066757
 31
0.0
  0
LINE
  5
110
330
F3
100
AcDbEntity
  8
FORMAT
 62
     0
100
AcDbLine
 10
273.0109550141
 20
-224.8750066757
 30
0.0
 11
460.0930183031
 21
-224.8750066757
 31
0.0
  0
MTEXT
  5
111
330
F3
100
AcDbEntity
  8
FORMAT
 62
     0
100
AcDbMText
 10
14.0565227758
 20
-22.5233900328
 30
0.0
 40
24.5
 41
0.0
 71
     1
 72
     1
  1
Sturztiefe (mm)
  7
SLDTEXTSTYLE0
 73
     1
 44
1.0
  0
MTEXT
  5
112
330
F3
100
AcDbEntity
  8
FORMAT
 62
     0
100
AcDbMText
 10
308.6196889595
 20
-22.5233900328
 30
0.0
 40
24.5
 41
0.0
 71
     1
 72
     1
  1
D (mm)
  7
SLDTEXTSTYLE0
 73
     1
 44
1.0
  0
MTEXT
  5
113
330
F3
100
AcDbEntity
  8
FORMAT
 62
     0
100
AcDbMText
 10
60.2492274758
 20
-76.9921417017
 30
0.0
 40
24.5
 41
0.0
 71
     1
 72
     1
  1
-30 ... +30
  7
SLDTEXTSTYLE0
 73
     1
 44
1.0
  0
MTEXT
  5
114
330
F3
100
AcDbEntity
  8
FORMAT
 62
     0
100
AcDbMText
 10
347.8367093444
 20
-76.9921417017
 30
0.0
 40
24.5
 41
0.0
 71
     1
 72
     1
  1
89
  7
SLDTEXTSTYLE0
 73
     1
 44
1.0
  0
MTEXT
  5
115
330
F3
100
AcDbEntity
  8
FORMAT
 62
     0
100
AcDbMText
 10
56.0127724003
 20
-115.6379761477
 30
0.0
 40
24.5
 41
0.0
 71
     1
 72
     1
  1
+31 ... +80
  7
SLDTEXTSTYLE0
 73
     1
 44
1.0
  0
MTEXT
  5
116
330
F3
100
AcDbEntity
  8
FORMAT
 62
     0
100
AcDbMText
 10
347.8367093444
 20
-115.6379761477
 30
0.0
 40
24.5
 41
0.0
 71
     1
 72
     1
  1
99
  7
SLDTEXTSTYLE0
 73
     1
 44
1.0
  0
MTEXT
  5
117
330
F3
100
AcDbEntity
  8
FORMAT
 62
     0
100
AcDbMText
 10
46.6551337432
 20
-154.2838105936
 30
0.0
 40
24.5
 41
0.0
 71
     1
 72
     1
  1
+81 ... +100
  7
SLDTEXTSTYLE0
 73
     1
 44
1.0
  0
MTEXT
  5
118
330
F3
100
AcDbEntity
  8
FORMAT
 62
     0
100
AcDbMText
 10
338.4790706873
 20
-154.2838105936
 30
0.0
 40
24.5
 41
0.0
 71
     1
 72
     1
  1
109
  7
SLDTEXTSTYLE0
 73
     1
 44
1.0
  0
MTEXT
  5
119
330
F3
100
AcDbEntity
  8
FORMAT
 62
     0
100
AcDbMText
 10
37.2974950861
 20
-192.9296450396
 30
0.0
 40
24.5
 41
0.0
 71
     1
 72
     1
  1
+101 ... +120
  7
SLDTEXTSTYLE0
 73
     1
 44
1.0
  0
MTEXT
  5
11A
330
F3
100
AcDbEntity
  8
FORMAT
 62
     0
100
AcDbMText
 10
338.4790706873
 20
-192.9296450396
 30
0.0
 40
24.5
 41
0.0
 71
     1
 72
     1
  1
119
  7
SLDTEXTSTYLE0
 73
     1
 44
1.0
  0
ENDBLK
  5
F5
330
F3
100
AcDbEntity
  8
0
100
AcDbBlockEnd
  0
BLOCK
  5
22F
330
22E
100
AcDbEntity
  8
0
100
AcDbBlockBegin
  2
_D
 70
     0
 10
0.0
 20
0.0
 30
0.0
  3
_D
  1

  0
SOLID
  5
231
330
22E
100
AcDbEntity
  8
FORMAT
100
AcDbTrace
 10
512.784243788
 20
1429.6164573116
 30
0.0
 11
535.898243788
 21
1426.0604573116
 31
0.0
 12
535.898243788
 22
1433.1724573116
 32
0.0
 13
535.898243788
 23
1433.1724573116
 33
0.0
  0
SOLID
  5
232
330
22E
100
AcDbEntity
  8
FORMAT
100
AcDbTrace
 10
792.7842437868
 20
1429.6164573116
 30
0.0
 11
769.6702437868
 21
1433.1724573116
 31
0.0
 12
769.6702437868
 22
1426.0604573116
 32
0.0
 13
769.6702437868
 23
1426.0604573116
 33
0.0
  0
LINE
  5
233
330
22E
100
AcDbEntity
  8
FORMAT
100
AcDbLine
 10
792.7842437868
 20
1620.3738952097
 30
0.0
 11
792.7842437868
 21
1478.1221656093
 31
0.0
  0
LINE
  5
234
330
22E
100
AcDbEntity
  8
FORMAT
100
AcDbLine
 10
792.7842437868
 20
1457.1221656093
 30
0.0
 11
792.7842437868
 21
1422.6164573116
 31
0.0
  0
LINE
  5
235
330
22E
100
AcDbEntity
  8
FORMAT
100
AcDbLine
 10
512.784243788
 20
1429.6164573116
 30
0.0
 11
792.7842437868
 21
1429.6164573116
 31
0.0
  0
MTEXT
  5
236
330
22E
100
AcDbEntity
  8
FORMAT
100
AcDbMText
 10
624.7113278161
 20
1461.1986185658
 30
0.0
 40
24.5
 41
0.0
 71
     1
 72
     1
  1
280
  7
SLDTEXTSTYLE0
 73
     1
 44
1.0
  0
ENDBLK
  5
230
330
22E
100
AcDbEntity
  8
0
100
AcDbBlockEnd
  0
BLOCK
  5
239
330
238
100
AcDbEntity
  8
0
100
AcDbBlockBegin
  2
_D_1
 70
     0
 10
0.0
 20
0.0
 30
0.0
  3
_D_1
  1

  0
SOLID
  5
23B
330
238
100
AcDbEntity
  8
FORMAT
100
AcDbTrace
 10
591.7842436647
 20
1467.6221656093
 30
0.0
 11
614.8982436647
 21
1464.0661656093
 31
0.0
 12
614.8982436647
 22
1471.1781656093
 32
0.0
 13
614.8982436647
 23
1471.1781656093
 33
0.0
  0
SOLID
  5
23C
330
238
100
AcDbEntity
  8
FORMAT
100
AcDbTrace
 10
1244.7842436647
 20
1467.6221656093
 30
0.0
 11
1221.6702436647
 21
1471.1781656093
 31
0.0
 12
1221.6702436647
 22
1464.0661656093
 32
0.0
 13
1221.6702436647
 23
1464.0661656093
 33
0.0
  0
LINE
  5
23D
330
238
100
AcDbEntity
  8
FORMAT
100
AcDbLine
 10
591.7842436647
 20
1581.8738952158
 30
0.0
 11
591.7842436647
 21
1460.6221656093
 31
0.0
  0
LINE
  5
23E
330
238
100
AcDbEntity
  8
FORMAT
100
AcDbLine
 10
1244.7842436647
 20
1581.8738952158
 30
0.0
 11
1244.7842436647
 21
1460.6221656093
 31
0.0
  0
LINE
  5
23F
330
238
100
AcDbEntity
  8
FORMAT
100
AcDbLine
 10
591.7842436647
 20
1467.6221656093
 30
0.0
 11
1244.7842436647
 21
1467.6221656093
 31
0.0
  0
MTEXT
  5
240
330
238
100
AcDbEntity
  8
FORMAT
100
AcDbMText
 10
890.2113276934
 20
1499.2043268636
 30
0.0
 40
24.5
 41
0.0
 71
     1
 72
     1
  1
653
  7
SLDTEXTSTYLE0
 73
     1
 44
1.0
  0
ENDBLK
  5
23A
330
238
100
AcDbEntity
  8
0
100
AcDbBlockEnd
  0
BLOCK
  5
243
330
242
100
AcDbEntity
  8
0
100
AcDbBlockBegin
  2
_D_2
 70
     0
 10
0.0
 20
0.0
 30
0.0
  3
_D_2
  1

  0
SOLID
  5
245
330
242
100
AcDbEntity
  8
FORMAT
100
AcDbTrace
 10
483.3170118294
 20
1755.3738952096
 30
0.0
 11
479.7610118294
 21
1732.2598952096
 31
0.0
 12
486.8730118294
 22
1732.2598952096
 32
0.0
 13
486.8730118294
 23
1732.2598952096
 33
0.0
  0
SOLID
  5
246
330
242
100
AcDbEntity
  8
FORMAT
100
AcDbTrace
 10
483.3170118294
 20
1660.3738952096
 30
0.0
 11
486.8730118294
 21
1683.4878952096
 31
0.0
 12
479.7610118294
 22
1683.4878952096
 32
0.0
 13
479.7610118294
 23
1683.4878952096
 33
0.0
  0
LINE
  5
247
330
242
100
AcDbEntity
  8
FORMAT
100
AcDbLine
 10
515.784243788
 20
1755.3738952096
 30
0.0
 11
476.3170118294
 21
1755.3738952096
 31
0.0
  0
LINE
  5
248
330
242
100
AcDbEntity
  8
FORMAT
100
AcDbLine
 10
515.784243788
 20
1660.3738952096
 30
0.0
 11
476.3170118294
 21
1660.3738952096
 31
0.0
  0
LINE
  5
249
330
242
100
AcDbEntity
  8
FORMAT
100
AcDbLine
 10
483.3170118294
 20
1755.3738952096
 30
0.0
 11
483.3170118294
 21
1660.3738952096
 31
0.0
  0
MTEXT
  5
24A
330
242
100
AcDbEntity
  8
FORMAT
100
AcDbMText
 10
451.7348505751
 20
1689.1586178954
 30
0.0
 40
24.5
 41
0.0
 71
     1
 72
     1
  1
95
  7
SLDTEXTSTYLE0
 11
-6.156016597943509E-15
 21
1.0
 31
0.0
 73
     1
 44
1.0
  0
ENDBLK
  5
244
330
242
100
AcDbEntity
  8
0
100
AcDbBlockEnd
  0
BLOCK
  5
24D
330
24C
100
AcDbEntity
  8
0
100
AcDbBlockBegin
  2
_D_3
 70
     0
 10
0.0
 20
0.0
 30
0.0
  3
_D_3
  1

  0
SOLID
  5
24F
330
24C
100
AcDbEntity
  8
FORMAT
100
AcDbTrace
 10
513.284243788
 20
1923.8738952095
 30
0.0
 11
536.398243788
 21
1920.3178952095
 31
0.0
 12
536.398243788
 22
1927.4298952095
 32
0.0
 13
536.398243788
 23
1927.4298952095
 33
0.0
  0
SOLID
  5
250
330
24C
100
AcDbEntity
  8
FORMAT
100
AcDbTrace
 10
1202.284243788
 20
1923.8738952095
 30
0.0
 11
1179.170243788
 21
1927.4298952095
 31
0.0
 12
1179.170243788
 22
1920.3178952095
 32
0.0
 13
1179.170243788
 23
1920.3178952095
 33
0.0
  0
LINE
  5
251
330
24C
100
AcDbEntity
  8
FORMAT
100
AcDbLine
 10
513.284243788
 20
1757.3738952096
 30
0.0
 11
513.284243788
 21
1930.8738952095
 31
0.0
  0
LINE
  5
252
330
24C
100
AcDbEntity
  8
FORMAT
100
AcDbLine
 10
1202.284243788
 20
1757.3738952096
 30
0.0
 11
1202.284243788
 21
1930.8738952095
 31
0.0
  0
LINE
  5
253
330
24C
100
AcDbEntity
  8
FORMAT
100
AcDbLine
 10
513.284243788
 20
1923.8738952095
 30
0.0
 11
1202.284243788
 21
1923.8738952095
 31
0.0
  0
MTEXT
  5
254
330
24C
100
AcDbEntity
  8
FORMAT
100
AcDbMText
 10
829.7113278167
 20
1955.4560564638
 30
0.0
 40
24.5
 41
0.0
 71
     1
 72
     1
  1
689
  7
SLDTEXTSTYLE0
 73
     1
 44
1.0
  0
ENDBLK
  5
24E
330
24C
100
AcDbEntity
  8
0
100
AcDbBlockEnd
  0
BLOCK
  5
258
330
257
100
AcDbEntity
  8
0
100
AcDbBlockBegin
  2
_D_4
 70
     0
 10
0.0
 20
0.0
 30
0.0
  3
_D_4
  1

  0
SOLID
  5
25A
330
257
100
AcDbEntity
  8
FORMAT
100
AcDbTrace
 10
1284.5925229962
 20
1588.3738952158
 30
0.0
 11
1281.0365229962
 21
1565.2598952158
 31
0.0
 12
1288.1485229962
 22
1565.2598952158
 32
0.0
 13
1288.1485229962
 23
1565.2598952158
 33
0.0
  0
SOLID
  5
25B
330
257
100
AcDbEntity
  8
FORMAT
100
AcDbTrace
 10
1284.5925229962
 20
1605.3738952158
 30
0.0
 11
1288.1485229962
 21
1628.4878952158
 31
0.0
 12
1281.0365229962
 22
1628.4878952158
 32
0.0
 13
1281.0365229962
 23
1628.4878952158
 33
0.0
  0
LINE
  5
25C
330
257
100
AcDbEntity
  8
FORMAT
100
AcDbLine
 10
1251.2842436647
 20
1588.3738952158
 30
0.0
 11
1291.5925229962
 21
1588.3738952158
 31
0.0
  0
LINE
  5
25D
330
257
100
AcDbEntity
  8
FORMAT
100
AcDbLine
 10
1251.2842436647
 20
1605.3738952158
 30
0.0
 11
1291.5925229962
 21
1605.3738952158
 31
0.0
  0
LINE
  5
25E
330
257
100
AcDbEntity
  8
FORMAT
100
AcDbLine
 10
1284.5925229962
 20
1588.3738952158
 30
0.0
 11
1284.5925229962
 21
1530.5407960611
 31
0.0
  0
LINE
  5
25F
330
257
100
AcDbEntity
  8
FORMAT
100
AcDbLine
 10
1284.5925229962
 20
1588.3738952158
 30
0.0
 11
1284.5925229962
 21
1605.3738952158
 31
0.0
  0
LINE
  5
260
330
257
100
AcDbEntity
  8
FORMAT
100
AcDbLine
 10
1284.5925229962
 20
1605.3738952158
 30
0.0
 11
1284.5925229962
 21
1649.8238952158
 31
0.0
  0
MTEXT
  5
261
330
257
100
AcDbEntity
  8
FORMAT
100
AcDbMText
 10
1253.0103617419
 20
1530.5407960611
 30
0.0
 40
24.5
 41
0.0
 71
     1
 72
     1
  1
17
  7
SLDTEXTSTYLE0
 11
-3.269436733918102E-15
 21
1.0
 31
0.0
 73
     1
 44
1.0
  0
ENDBLK
  5
259
330
257
100
AcDbEntity
  8
0
100
AcDbBlockEnd
  0
BLOCK
  5
32F
330
32E
100
AcDbEntity
  8
0
100
AcDbBlockBegin
  2
_D_5
 70
     0
 10
0.0
 20
0.0
 30
0.0
  3
_D_5
  1

  0
SOLID
  5
331
330
32E
100
AcDbEntity
  8
FORMAT
100
AcDbTrace
 10
512.784243788
 20
978.0511161876
 30
0.0
 11
489.670243788
 21
981.6071161876
 31
0.0
 12
489.670243788
 22
974.4951161876
 32
0.0
 13
489.670243788
 23
974.4951161876
 33
0.0
  0
SOLID
  5
332
330
32E
100
AcDbEntity
  8
FORMAT
100
AcDbTrace
 10
522.784243788
 20
978.0511161876
 30
0.0
 11
545.898243788
 21
974.4951161876
 31
0.0
 12
545.898243788
 22
981.6071161876
 32
0.0
 13
545.898243788
 23
981.6071161876
 33
0.0
  0
LINE
  5
333
330
32E
100
AcDbEntity
  8
FORMAT
100
AcDbLine
 10
512.784243788
 20
642.1057400725
 30
0.0
 11
512.784243788
 21
985.0511161876
 31
0.0
  0
LINE
  5
334
330
32E
100
AcDbEntity
  8
FORMAT
100
AcDbLine
 10
522.784243788
 20
836.9463585717
 30
0.0
 11
522.784243788
 21
985.0511161876
 31
0.0
  0
LINE
  5
335
330
32E
100
AcDbEntity
  8
FORMAT
100
AcDbLine
 10
512.784243788
 20
978.0511161876
 30
0.0
 11
453.1548740854
 21
978.0511161876
 31
0.0
  0
LINE
  5
336
330
32E
100
AcDbEntity
  8
FORMAT
100
AcDbLine
 10
512.784243788
 20
978.0511161876
 30
0.0
 11
522.784243788
 21
978.0511161876
 31
0.0
  0
LINE
  5
337
330
32E
100
AcDbEntity
  8
FORMAT
100
AcDbLine
 10
522.784243788
 20
978.0511161876
 30
0.0
 11
567.234243788
 21
978.0511161876
 31
0.0
  0
MTEXT
  5
338
330
32E
100
AcDbEntity
  8
FORMAT
100
AcDbMText
 10
453.1548740854
 20
1009.6332774418
 30
0.0
 40
24.5
 41
0.0
 71
     1
 72
     1
  1
10
  7
SLDTEXTSTYLE0
 73
     1
 44
1.0
  0
ENDBLK
  5
330
330
32E
100
AcDbEntity
  8
0
100
AcDbBlockEnd
  0
BLOCK
  5
33B
330
33A
100
AcDbEntity
  8
0
100
AcDbBlockBegin
  2
_D_6
 70
     0
 10
0.0
 20
0.0
 30
0.0
  3
_D_6
  1

  0
SOLID
  5
33D
330
33A
100
AcDbEntity
  8
FORMAT
100
AcDbTrace
 10
729.784243788
 20
1041.4463585722
 30
0.0
 11
706.670243788
 21
1045.0023585722
 31
0.0
 12
706.670243788
 22
1037.8903585722
 32
0.0
 13
706.670243788
 23
1037.8903585722
 33
0.0
  0
SOLID
  5
33E
330
33A
100
AcDbEntity
  8
FORMAT
100
AcDbTrace
 10
512.784243788
 20
1041.4463585722
 30
0.0
 11
535.898243788
 21
1037.8903585722
 31
0.0
 12
535.898243788
 22
1045.0023585722
 32
0.0
 13
535.898243788
 23
1045.0023585722
 33
0.0
  0
LINE
  5
33F
330
33A
100
AcDbEntity
  8
FORMAT
100
AcDbLine
 10
729.784243788
 20
902.4463585717
 30
0.0
 11
729.784243788
 21
1048.4463585722
 31
0.0
  0
LINE
  5
340
330
33A
100
AcDbEntity
  8
FORMAT
100
AcDbLine
 10
512.784243788
 20
642.1057400725
 30
0.0
 11
512.784243788
 21
1048.4463585722
 31
0.0
  0
LINE
  5
341
330
33A
100
AcDbEntity
  8
FORMAT
100
AcDbLine
 10
729.784243788
 20
1041.4463585722
 30
0.0
 11
512.784243788
 21
1041.4463585722
 31
0.0
  0
MTEXT
  5
342
330
33A
100
AcDbEntity
  8
FORMAT
100
AcDbMText
 10
593.2113278167
 20
1073.0285198264
 30
0.0
 40
24.5
 41
0.0
 71
     1
 72
     1
  1
217
  7
SLDTEXTSTYLE0
 73
     1
 44
1.0
  0
ENDBLK
  5
33C
330
33A
100
AcDbEntity
  8
0
100
AcDbBlockEnd
  0
BLOCK
  5
345
330
344
100
AcDbEntity
  8
0
100
AcDbBlockBegin
  2
_D_7
 70
     0
 10
0.0
 20
0.0
 30
0.0
  3
_D_7
  1

  0
SOLID
  5
347
330
344
100
AcDbEntity
  8
FORMAT
100
AcDbTrace
 10
536.784243788
 20
1011.4463585722
 30
0.0
 11
559.898243788
 21
1007.8903585722
 31
0.0
 12
559.898243788
 22
1015.0023585722
 32
0.0
 13
559.898243788
 23
1015.0023585722
 33
0.0
  0
SOLID
  5
348
330
344
100
AcDbEntity
  8
FORMAT
100
AcDbTrace
 10
512.784243788
 20
1011.4463585722
 30
0.0
 11
489.670243788
 21
1015.0023585722
 31
0.0
 12
489.670243788
 22
1007.8903585722
 32
0.0
 13
489.670243788
 23
1007.8903585722
 33
0.0
  0
LINE
  5
349
330
344
100
AcDbEntity
  8
FORMAT
100
AcDbLine
 10
536.784243788
 20
853.4463585722
 30
0.0
 11
536.784243788
 21
1018.4463585722
 31
0.0
  0
LINE
  5
34A
330
344
100
AcDbEntity
  8
FORMAT
100
AcDbLine
 10
512.784243788
 20
642.1057400725
 30
0.0
 11
512.784243788
 21
1018.4463585722
 31
0.0
  0
LINE
  5
34B
330
344
100
AcDbEntity
  8
FORMAT
100
AcDbLine
 10
536.784243788
 20
1011.4463585722
 30
0.0
 11
581.234243788
 21
1011.4463585722
 31
0.0
  0
LINE
  5
34C
330
344
100
AcDbEntity
  8
FORMAT
100
AcDbLine
 10
536.784243788
 20
1011.4463585722
 30
0.0
 11
512.784243788
 21
1011.4463585722
 31
0.0
  0
LINE
  5
34D
330
344
100
AcDbEntity
  8
FORMAT
100
AcDbLine
 10
512.784243788
 20
1011.4463585722
 30
0.0
 11
453.1548740854
 21
1011.4463585722
 31
0.0
  0
MTEXT
  5
34E
330
344
100
AcDbEntity
  8
FORMAT
100
AcDbMText
 10
453.1548740854
 20
1043.0285198264
 30
0.0
 40
24.5
 41
0.0
 71
     1
 72
     1
  1
24
  7
SLDTEXTSTYLE0
 73
     1
 44
1.0
  0
ENDBLK
  5
346
330
344
100
AcDbEntity
  8
0
100
AcDbBlockEnd
  0
BLOCK
  5
351
330
350
100
AcDbEntity
  8
0
100
AcDbBlockBegin
  2
_D_8
 70
     0
 10
0.0
 20
0.0
 30
0.0
  3
_D_8
  1

  0
SOLID
  5
353
330
350
100
AcDbEntity
  8
FORMAT
100
AcDbTrace
 10
1178.784243788
 20
1083.710055917
 30
0.0
 11
1155.670243788
 21
1087.266055917
 31
0.0
 12
1155.670243788
 22
1080.154055917
 32
0.0
 13
1155.670243788
 23
1080.154055917
 33
0.0
  0
SOLID
  5
354
330
350
100
AcDbEntity
  8
FORMAT
100
AcDbTrace
 10
512.784243788
 20
1083.710055917
 30
0.0
 11
535.898243788
 21
1080.154055917
 31
0.0
 12
535.898243788
 22
1087.266055917
 32
0.0
 13
535.898243788
 23
1087.266055917
 33
0.0
  0
LINE
  5
355
330
350
100
AcDbEntity
  8
FORMAT
100
AcDbLine
 10
1178.784243788
 20
876.4463585722
 30
0.0
 11
1178.784243788
 21
1090.710055917
 31
0.0
  0
LINE
  5
356
330
350
100
AcDbEntity
  8
FORMAT
100
AcDbLine
 10
512.784243788
 20
642.1057400725
 30
0.0
 11
512.784243788
 21
1090.710055917
 31
0.0
  0
LINE
  5
357
330
350
100
AcDbEntity
  8
FORMAT
100
AcDbLine
 10
1178.784243788
 20
1083.710055917
 30
0.0
 11
512.784243788
 21
1083.710055917
 31
0.0
  0
MTEXT
  5
358
330
350
100
AcDbEntity
  8
FORMAT
100
AcDbMText
 10
817.7113278167
 20
1115.2922171713
 30
0.0
 40
24.5
 41
0.0
 71
     1
 72
     1
  1
666
  7
SLDTEXTSTYLE0
 73
     1
 44
1.0
  0
ENDBLK
  5
352
330
350
100
AcDbEntity
  8
0
100
AcDbBlockEnd
  0
BLOCK
  5
35B
330
35A
100
AcDbEntity
  8
0
100
AcDbBlockBegin
  2
_D_9
 70
     0
 10
0.0
 20
0.0
 30
0.0
  3
_D_9
  1

  0
SOLID
  5
35D
330
35A
100
AcDbEntity
  8
FORMAT
100
AcDbTrace
 10
512.784243788
 20
1122.5101792017
 30
0.0
 11
535.898243788
 21
1118.9541792017
 31
0.0
 12
535.898243788
 22
1126.0661792017
 32
0.0
 13
535.898243788
 23
1126.0661792017
 33
0.0
  0
SOLID
  5
35E
330
35A
100
AcDbEntity
  8
FORMAT
100
AcDbTrace
 10
1192.784243788
 20
1122.5101792017
 30
0.0
 11
1169.670243788
 21
1126.0661792017
 31
0.0
 12
1169.670243788
 22
1118.9541792017
 32
0.0
 13
1169.670243788
 23
1118.9541792017
 33
0.0
  0
LINE
  5
35F
330
35A
100
AcDbEntity
  8
FORMAT
100
AcDbLine
 10
512.784243788
 20
642.1057400725
 30
0.0
 11
512.784243788
 21
1129.5101792017
 31
0.0
  0
LINE
  5
360
330
35A
100
AcDbEntity
  8
FORMAT
100
AcDbLine
 10
1192.784243788
 20
902.4463585717
 30
0.0
 11
1192.784243788
 21
1129.5101792017
 31
0.0
  0
LINE
  5
361
330
35A
100
AcDbEntity
  8
FORMAT
100
AcDbLine
 10
512.784243788
 20
1122.5101792017
 30
0.0
 11
1192.784243788
 21
1122.5101792017
 31
0.0
  0
MTEXT
  5
362
330
35A
100
AcDbEntity
  8
FORMAT
100
AcDbMText
 10
824.7113278167
 20
1154.0923404559
 30
0.0
 40
24.5
 41
0.0
 71
     1
 72
     1
  1
680
  7
SLDTEXTSTYLE0
 73
     1
 44
1.0
  0
ENDBLK
  5
35C
330
35A
100
AcDbEntity
  8
0
100
AcDbBlockEnd
  0
BLOCK
  5
365
330
364
100
AcDbEntity
  8
0
100
AcDbBlockBegin
  2
_D_10
 70
     0
 10
0.0
 20
0.0
 30
0.0
  3
_D_10
  1

  0
SOLID
  5
367
330
364
100
AcDbEntity
  8
FORMAT
100
AcDbTrace
 10
601.784243788
 20
612.9505149411
 30
0.0
 11
578.670243788
 21
616.5065149411
 31
0.0
 12
578.670243788
 22
609.3945149411
 32
0.0
 13
578.670243788
 23
609.3945149411
 33
0.0
  0
SOLID
  5
368
330
364
100
AcDbEntity
  8
FORMAT
100
AcDbTrace
 10
512.784243788
 20
612.9505149411
 30
0.0
 11
535.898243788
 21
609.3945149411
 31
0.0
 12
535.898243788
 22
616.5065149411
 32
0.0
 13
535.898243788
 23
616.5065149411
 33
0.0
  0
LINE
  5
369
330
364
100
AcDbEntity
  8
FORMAT
100
AcDbLine
 10
601.784243788
 20
739.1963585722
 30
0.0
 11
601.784243788
 21
605.9505149411
 31
0.0
  0
LINE
  5
36A
330
364
100
AcDbEntity
  8
FORMAT
100
AcDbLine
 10
601.784243788
 20
612.9505149411
 30
0.0
 11
512.784243788
 21
612.9505149411
 31
0.0
  0
MTEXT
  5
36B
330
364
100
AcDbEntity
  8
FORMAT
100
AcDbMText
 10
545.1363268414
 20
644.5326761953
 30
0.0
 40
24.5
 41
0.0
 71
     1
 72
     1
  1
D
  7
SLDTEXTSTYLE0
 73
     1
 44
1.0
  0
ENDBLK
  5
366
330
364
100
AcDbEntity
  8
0
100
AcDbBlockEnd
  0
BLOCK
  5
36E
330
36D
100
AcDbEntity
  8
0
100
AcDbBlockBegin
  2
_D_11
 70
     0
 10
0.0
 20
0.0
 30
0.0
  3
_D_11
  1

  0
SOLID
  5
370
330
36D
100
AcDbEntity
  8
FORMAT
100
AcDbTrace
 10
1233.2967976285
 20
811.9463585717
 30
0.0
 11
1236.8527976285
 21
835.0603585717
 31
0.0
 12
1229.7407976285
 22
835.0603585717
 32
0.0
 13
1229.7407976285
 23
835.0603585717
 33
0.0
  0
SOLID
  5
371
330
36D
100
AcDbEntity
  8
FORMAT
100
AcDbTrace
 10
1233.2967976285
 20
902.9463585717
 30
0.0
 11
1229.7407976285
 21
879.8323585717
 31
0.0
 12
1236.8527976285
 22
879.8323585717
 32
0.0
 13
1236.8527976285
 23
879.8323585717
 33
0.0
  0
LINE
  5
372
330
36D
100
AcDbEntity
  8
FORMAT
100
AcDbLine
 10
1199.784243788
 20
811.9463585717
 30
0.0
 11
1240.2967976285
 21
811.9463585717
 31
0.0
  0
LINE
  5
373
330
36D
100
AcDbEntity
  8
FORMAT
100
AcDbLine
 10
1199.784243788
 20
902.9463585717
 30
0.0
 11
1240.2967976285
 21
902.9463585717
 31
0.0
  0
LINE
  5
374
330
36D
100
AcDbEntity
  8
FORMAT
100
AcDbLine
 10
1233.2967976285
 20
811.9463585717
 30
0.0
 11
1233.2967976285
 21
902.9463585717
 31
0.0
  0
MTEXT
  5
375
330
36D
100
AcDbEntity
  8
FORMAT
100
AcDbMText
 10
1201.7146363743
 20
838.7310812576
 30
0.0
 40
24.5
 41
0.0
 71
     1
 72
     1
  1
91
  7
SLDTEXTSTYLE0
 11
7.273661547324616E-16
 21
1.0
 31
0.0
 73
     1
 44
1.0
  0
ENDBLK
  5
36F
330
36D
100
AcDbEntity
  8
0
100
AcDbBlockEnd
  0
BLOCK
  5
378
330
377
100
AcDbEntity
  8
0
100
AcDbBlockBegin
  2
_D_12
 70
     0
 10
0.0
 20
0.0
 30
0.0
  3
_D_12
  1

  0
SOLID
  5
37A
330
377
100
AcDbEntity
  8
FORMAT
100
AcDbTrace
 10
729.784243788
 20
1041.4463585722
 30
0.0
 11
752.898243788
 21
1037.8903585722
 31
0.0
 12
752.898243788
 22
1045.0023585722
 32
0.0
 13
752.898243788
 23
1045.0023585722
 33
0.0
  0
SOLID
  5
37B
330
377
100
AcDbEntity
  8
FORMAT
100
AcDbTrace
 10
936.784243788
 20
1041.4463585722
 30
0.0
 11
913.670243788
 21
1045.0023585722
 31
0.0
 12
913.670243788
 22
1037.8903585722
 32
0.0
 13
913.670243788
 23
1037.8903585722
 33
0.0
  0
LINE
  5
37C
330
377
100
AcDbEntity
  8
FORMAT
100
AcDbLine
 10
729.784243788
 20
908.1963585717
 30
0.0
 11
729.784243788
 21
1048.4463585722
 31
0.0
  0
LINE
  5
37D
330
377
100
AcDbEntity
  8
FORMAT
100
AcDbLine
 10
936.784243788
 20
908.1963585717
 30
0.0
 11
936.784243788
 21
1048.4463585722
 31
0.0
  0
LINE
  5
37E
330
377
100
AcDbEntity
  8
FORMAT
100
AcDbLine
 10
729.784243788
 20
1041.4463585722
 30
0.0
 11
936.784243788
 21
1041.4463585722
 31
0.0
  0
MTEXT
  5
37F
330
377
100
AcDbEntity
  8
FORMAT
100
AcDbMText
 10
805.2113278167
 20
1073.0285198264
 30
0.0
 40
24.5
 41
0.0
 71
     1
 72
     1
  1
207
  7
SLDTEXTSTYLE0
 73
     1
 44
1.0
  0
ENDBLK
  5
379
330
377
100
AcDbEntity
  8
0
100
AcDbBlockEnd
  0
BLOCK
  5
382
330
381
100
AcDbEntity
  8
0
100
AcDbBlockBegin
  2
_D_13
 70
     0
 10
0.0
 20
0.0
 30
0.0
  3
_D_13
  1

  0
SOLID
  5
384
330
381
100
AcDbEntity
  8
FORMAT
100
AcDbTrace
 10
936.784243788
 20
1041.4463585722
 30
0.0
 11
959.898243788
 21
1037.8903585722
 31
0.0
 12
959.898243788
 22
1045.0023585722
 32
0.0
 13
959.898243788
 23
1045.0023585722
 33
0.0
  0
SOLID
  5
385
330
381
100
AcDbEntity
  8
FORMAT
100
AcDbTrace
 10
1162.784243788
 20
1041.4463585722
 30
0.0
 11
1139.670243788
 21
1045.0023585722
 31
0.0
 12
1139.670243788
 22
1037.8903585722
 32
0.0
 13
1139.670243788
 23
1037.8903585722
 33
0.0
  0
LINE
  5
386
330
381
100
AcDbEntity
  8
FORMAT
100
AcDbLine
 10
936.784243788
 20
908.1963585717
 30
0.0
 11
936.784243788
 21
1048.4463585722
 31
0.0
  0
LINE
  5
387
330
381
100
AcDbEntity
  8
FORMAT
100
AcDbLine
 10
1162.784243788
 20
908.1963585717
 30
0.0
 11
1162.784243788
 21
1048.4463585722
 31
0.0
  0
LINE
  5
388
330
381
100
AcDbEntity
  8
FORMAT
100
AcDbLine
 10
936.784243788
 20
1041.4463585722
 30
0.0
 11
1162.784243788
 21
1041.4463585722
 31
0.0
  0
MTEXT
  5
389
330
381
100
AcDbEntity
  8
FORMAT
100
AcDbMText
 10
1021.7113278167
 20
1073.0285198264
 30
0.0
 40
24.5
 41
0.0
 71
     1
 72
     1
  1
226
  7
SLDTEXTSTYLE0
 73
     1
 44
1.0
  0
ENDBLK
  5
383
330
381
100
AcDbEntity
  8
0
100
AcDbBlockEnd
  0
BLOCK
  5
38D
330
38C
100
AcDbEntity
  8
0
100
AcDbBlockBegin
  2
_D_14
 70
     0
 10
0.0
 20
0.0
 30
0.0
  3
_D_14
  1

  0
SOLID
  5
38F
330
38C
100
AcDbEntity
  8
FORMAT
100
AcDbTrace
 10
1274.3689769731
 20
746.1963585722
 30
0.0
 11
1270.8129769731
 21
723.0823585722
 31
0.0
 12
1277.9249769731
 22
723.0823585722
 32
0.0
 13
1277.9249769731
 23
723.0823585722
 33
0.0
  0
SOLID
  5
390
330
38C
100
AcDbEntity
  8
FORMAT
100
AcDbTrace
 10
1274.3689769731
 20
781.4463585722
 30
0.0
 11
1277.9249769731
 21
804.5603585722
 31
0.0
 12
1270.8129769731
 22
804.5603585722
 32
0.0
 13
1270.8129769731
 23
804.5603585722
 33
0.0
  0
LINE
  5
391
330
38C
100
AcDbEntity
  8
FORMAT
100
AcDbLine
 10
1247.534243788
 20
746.1963585722
 30
0.0
 11
1281.3689769731
 21
746.1963585722
 31
0.0
  0
LINE
  5
392
330
38C
100
AcDbEntity
  8
FORMAT
100
AcDbLine
 10
1274.3689769731
 20
746.1963585722
 30
0.0
 11
1274.3689769731
 21
692.4090233916
 31
0.0
  0
LINE
  5
393
330
38C
100
AcDbEntity
  8
FORMAT
100
AcDbLine
 10
1274.3689769731
 20
746.1963585722
 30
0.0
 11
1274.3689769731
 21
781.4463585722
 31
0.0
  0
LINE
  5
394
330
38C
100
AcDbEntity
  8
FORMAT
100
AcDbLine
 10
1274.3689769731
 20
781.4463585722
 30
0.0
 11
1274.3689769731
 21
825.8963585722
 31
0.0
  0
MTEXT
  5
395
330
38C
100
AcDbEntity
  8
FORMAT
100
AcDbMText
 10
1242.7868157189
 20
692.4090233916
 30
0.0
 40
24.5
 41
0.0
 71
     1
 72
     1
  1
35
  7
SLDTEXTSTYLE0
 11
6.123233995736766E-17
 21
1.0
 31
0.0
 73
     1
 44
1.0
  0
ENDBLK
  5
38E
330
38C
100
AcDbEntity
  8
0
100
AcDbBlockEnd
  0
BLOCK
  5
398
330
397
100
AcDbEntity
  8
0
100
AcDbBlockBegin
  2
_D_15
 70
     0
 10
0.0
 20
0.0
 30
0.0
  3
_D_15
  1

  0
SOLID
  5
39A
330
397
100
AcDbEntity
  8
FORMAT
100
AcDbTrace
 10
718.2147645629
 20
781.4463585722
 30
0.0
 11
714.6587645629
 21
758.3323585722
 31
0.0
 12
721.7707645629
 22
758.3323585722
 32
0.0
 13
721.7707645629
 23
758.3323585722
 33
0.0
  0
SOLID
  5
39B
330
397
100
AcDbEntity
  8
FORMAT
100
AcDbTrace
 10
718.2147645629
 20
819.4463585717
 30
0.0
 11
721.7707645629
 21
842.5603585717
 31
0.0
 12
714.6587645629
 22
842.5603585717
 32
0.0
 13
714.6587645629
 23
842.5603585717
 33
0.0
  0
LINE
  5
39C
330
397
100
AcDbEntity
  8
FORMAT
100
AcDbLine
 10
717.034243788
 20
819.4463585717
 30
0.0
 11
711.2147645629
 21
819.4463585717
 31
0.0
  0
LINE
  5
39D
330
397
100
AcDbEntity
  8
FORMAT
100
AcDbLine
 10
718.2147645629
 20
781.4463585722
 30
0.0
 11
718.2147645629
 21
731.7885425101
 31
0.0
  0
LINE
  5
39E
330
397
100
AcDbEntity
  8
FORMAT
100
AcDbLine
 10
718.2147645629
 20
781.4463585722
 30
0.0
 11
718.2147645629
 21
819.4463585717
 31
0.0
  0
LINE
  5
39F
330
397
100
AcDbEntity
  8
FORMAT
100
AcDbLine
 10
718.2147645629
 20
819.4463585717
 30
0.0
 11
718.2147645629
 21
863.8963585717
 31
0.0
  0
MTEXT
  5
3A0
330
397
100
AcDbEntity
  8
FORMAT
100
AcDbMText
 10
686.6326033087
 20
731.7885425101
 30
0.0
 40
24.5
 41
0.0
 71
     1
 72
     1
  1
38
  7
SLDTEXTSTYLE0
 11
6.123233995736766E-17
 21
1.0
 31
0.0
 73
     1
 44
1.0
  0
ENDBLK
  5
399
330
397
100
AcDbEntity
  8
0
100
AcDbBlockEnd
  0
BLOCK
  5
3A3
330
3A2
100
AcDbEntity
  8
0
100
AcDbBlockBegin
  2
_D_16
 70
     0
 10
0.0
 20
0.0
 30
0.0
  3
_D_16
  1

  0
SOLID
  5
3A5
330
3A2
100
AcDbEntity
  8
FORMAT
100
AcDbTrace
 10
601.784243788
 20
612.9505149411
 30
0.0
 11
624.898243788
 21
609.3945149411
 31
0.0
 12
624.898243788
 22
616.5065149411
 32
0.0
 13
624.898243788
 23
616.5065149411
 33
0.0
  0
SOLID
  5
3A6
330
3A2
100
AcDbEntity
  8
FORMAT
100
AcDbTrace
 10
1234.784243788
 20
612.9505149411
 30
0.0
 11
1211.670243788
 21
616.5065149411
 31
0.0
 12
1211.670243788
 22
609.3945149411
 32
0.0
 13
1211.670243788
 23
609.3945149411
 33
0.0
  0
LINE
  5
3A7
330
3A2
100
AcDbEntity
  8
FORMAT
100
AcDbLine
 10
601.784243788
 20
733.4463585722
 30
0.0
 11
601.784243788
 21
605.9505149411
 31
0.0
  0
LINE
  5
3A8
330
3A2
100
AcDbEntity
  8
FORMAT
100
AcDbLine
 10
1234.784243788
 20
733.4463585722
 30
0.0
 11
1234.784243788
 21
605.9505149411
 31
0.0
  0
LINE
  5
3A9
330
3A2
100
AcDbEntity
  8
FORMAT
100
AcDbLine
 10
601.784243788
 20
612.9505149411
 30
0.0
 11
1234.784243788
 21
612.9505149411
 31
0.0
  0
MTEXT
  5
3AA
330
3A2
100
AcDbEntity
  8
FORMAT
100
AcDbMText
 10
890.2113278167
 20
644.5326761953
 30
0.0
 40
24.5
 41
0.0
 71
     1
 72
     1
  1
633
  7
SLDTEXTSTYLE0
 73
     1
 44
1.0
  0
ENDBLK
  5
3A4
330
3A2
100
AcDbEntity
  8
0
100
AcDbBlockEnd
  0
BLOCK
  5
3AD
330
3AC
100
AcDbEntity
  8
0
100
AcDbBlockBegin
  2
_D_17
 70
     0
 10
0.0
 20
0.0
 30
0.0
  3
_D_17
  1

  0
SOLID
  5
3AF
330
3AC
100
AcDbEntity
  8
FORMAT
100
AcDbTrace
 10
373.2671901798
 20
781.4463585722
 30
0.0
 11
369.7111901798
 21
758.3323585722
 31
0.0
 12
376.8231901798
 22
758.3323585722
 32
0.0
 13
376.8231901798
 23
758.3323585722
 33
0.0
  0
SOLID
  5
3B0
330
3AC
100
AcDbEntity
  8
FORMAT
100
AcDbTrace
 10
373.2671901798
 20
811.9463585717
 30
0.0
 11
376.8231901798
 21
835.0603585717
 31
0.0
 12
369.7111901798
 22
835.0603585717
 32
0.0
 13
369.7111901798
 23
835.0603585717
 33
0.0
  0
LINE
  5
3B1
330
3AC
100
AcDbEntity
  8
FORMAT
100
AcDbLine
 10
510.784243788
 20
781.4463585722
 30
0.0
 11
366.2671901798
 21
781.4463585722
 31
0.0
  0
LINE
  5
3B2
330
3AC
100
AcDbEntity
  8
FORMAT
100
AcDbLine
 10
515.784243788
 20
811.9463585717
 30
0.0
 11
366.2671901798
 21
811.9463585717
 31
0.0
  0
LINE
  5
3B3
330
3AC
100
AcDbEntity
  8
FORMAT
100
AcDbLine
 10
373.2671901798
 20
781.4463585722
 30
0.0
 11
373.2671901798
 21
699.6217571604
 31
0.0
  0
LINE
  5
3B4
330
3AC
100
AcDbEntity
  8
FORMAT
100
AcDbLine
 10
373.2671901798
 20
781.4463585722
 30
0.0
 11
373.2671901798
 21
811.9463585717
 31
0.0
  0
LINE
  5
3B5
330
3AC
100
AcDbEntity
  8
FORMAT
100
AcDbLine
 10
373.2671901798
 20
811.9463585717
 30
0.0
 11
373.2671901798
 21
856.3963585717
 31
0.0
  0
MTEXT
  5
3B6
330
3AC
100
AcDbEntity
  8
FORMAT
100
AcDbMText
 10
341.6850289256
 20
699.6217571604
 30
0.0
 40
24.5
 41
0.0
 71
     1
 72
     1
  1
31
  7
SLDTEXTSTYLE0
 11
6.123233995736766E-17
 21
1.0
 31
0.0
 73
     1
 44
1.0
  0
ENDBLK
  5
3AE
330
3AC
100
AcDbEntity
  8
0
100
AcDbBlockEnd
  0
BLOCK
  5
3B9
330
3B8
100
AcDbEntity
  8
0
100
AcDbBlockBegin
  2
_D_18
 70
     0
 10
0.0
 20
0.0
 30
0.0
  3
_D_18
  1

  0
SOLID
  5
3BB
330
3B8
100
AcDbEntity
  8
FORMAT
100
AcDbTrace
 10
329.5843296907
 20
811.9463585717
 30
0.0
 11
326.0283296907
 21
788.8323585717
 31
0.0
 12
333.1403296907
 22
788.8323585717
 32
0.0
 13
333.1403296907
 23
788.8323585717
 33
0.0
  0
SOLID
  5
3BC
330
3B8
100
AcDbEntity
  8
FORMAT
100
AcDbTrace
 10
329.5843296907
 20
846.4463585722
 30
0.0
 11
333.1403296907
 21
869.5603585722
 31
0.0
 12
326.0283296907
 22
869.5603585722
 32
0.0
 13
326.0283296907
 23
869.5603585722
 33
0.0
  0
LINE
  5
3BD
330
3B8
100
AcDbEntity
  8
FORMAT
100
AcDbLine
 10
502.284243788
 20
811.9463585717
 30
0.0
 11
322.5843296907
 21
811.9463585717
 31
0.0
  0
LINE
  5
3BE
330
3B8
100
AcDbEntity
  8
FORMAT
100
AcDbLine
 10
502.284243788
 20
846.4463585722
 30
0.0
 11
383.7671901798
 21
846.4463585722
 31
0.0
  0
LINE
  5
3BF
330
3B8
100
AcDbEntity
  8
FORMAT
100
AcDbLine
 10
362.7671901798
 20
846.4463585722
 30
0.0
 11
322.5843296907
 21
846.4463585722
 31
0.0
  0
LINE
  5
3C0
330
3B8
100
AcDbEntity
  8
FORMAT
100
AcDbLine
 10
329.5843296907
 20
811.9463585717
 30
0.0
 11
329.5843296907
 21
699.6217571603
 31
0.0
  0
LINE
  5
3C1
330
3B8
100
AcDbEntity
  8
FORMAT
100
AcDbLine
 10
329.5843296907
 20
811.9463585717
 30
0.0
 11
329.5843296907
 21
846.4463585722
 31
0.0
  0
LINE
  5
3C2
330
3B8
100
AcDbEntity
  8
FORMAT
100
AcDbLine
 10
329.5843296907
 20
846.4463585722
 30
0.0
 11
329.5843296907
 21
890.8963585722
 31
0.0
  0
MTEXT
  5
3C3
330
3B8
100
AcDbEntity
  8
FORMAT
100
AcDbMText
 10
298.0021684365
 20
699.6217571603
 30
0.0
 40
24.5
 41
0.0
 71
     1
 72
     1
  1
35
  7
SLDTEXTSTYLE0
 11
7.273661547324616E-16
 21
1.0
 31
0.0
 73
     1
 44
1.0
  0
ENDBLK
  5
3BA
330
3B8
100
AcDbEntity
  8
0
100
AcDbBlockEnd
  0
BLOCK
  5
3C6
330
3C5
100
AcDbEntity
  8
0
100
AcDbBlockBegin
  2
_D_19
 70
     0
 10
0.0
 20
0.0
 30
0.0
  3
_D_19
  1

  0
SOLID
  5
3C8
330
3C5
100
AcDbEntity
  8
FORMAT
100
AcDbTrace
 10
284.1974766272
 20
846.4463585722
 30
0.0
 11
280.6414766272
 21
823.3323585722
 31
0.0
 12
287.7534766272
 22
823.3323585722
 32
0.0
 13
287.7534766272
 23
823.3323585722
 33
0.0
  0
SOLID
  5
3C9
330
3C5
100
AcDbEntity
  8
FORMAT
100
AcDbTrace
 10
284.1974766272
 20
869.4463585722
 30
0.0
 11
287.7534766272
 21
892.5603585722
 31
0.0
 12
280.6414766272
 22
892.5603585722
 32
0.0
 13
280.6414766272
 23
892.5603585722
 33
0.0
  0
LINE
  5
3CA
330
3C5
100
AcDbEntity
  8
FORMAT
100
AcDbLine
 10
502.284243788
 20
846.4463585722
 30
0.0
 11
383.7671901798
 21
846.4463585722
 31
0.0
  0
LINE
  5
3CB
330
3C5
100
AcDbEntity
  8
FORMAT
100
AcDbLine
 10
362.7671901798
 20
846.4463585722
 30
0.0
 11
277.1974766272
 21
846.4463585722
 31
0.0
  0
LINE
  5
3CC
330
3C5
100
AcDbEntity
  8
FORMAT
100
AcDbLine
 10
502.284243788
 20
869.4463585722
 30
0.0
 11
340.0843296907
 21
869.4463585722
 31
0.0
  0
LINE
  5
3CD
330
3C5
100
AcDbEntity
  8
FORMAT
100
AcDbLine
 10
319.0843296907
 20
869.4463585722
 30
0.0
 11
277.1974766272
 21
869.4463585722
 31
0.0
  0
LINE
  5
3CE
330
3C5
100
AcDbEntity
  8
FORMAT
100
AcDbLine
 10
284.1974766272
 20
846.4463585722
 30
0.0
 11
284.1974766272
 21
699.6217571603
 31
0.0
  0
LINE
  5
3CF
330
3C5
100
AcDbEntity
  8
FORMAT
100
AcDbLine
 10
284.1974766272
 20
846.4463585722
 30
0.0
 11
284.1974766272
 21
869.4463585722
 31
0.0
  0
LINE
  5
3D0
330
3C5
100
AcDbEntity
  8
FORMAT
100
AcDbLine
 10
284.1974766272
 20
869.4463585722
 30
0.0
 11
284.1974766272
 21
913.8963585722
 31
0.0
  0
MTEXT
  5
3D1
330
3C5
100
AcDbEntity
  8
FORMAT
100
AcDbMText
 10
252.615315373
 20
699.6217571603
 30
0.0
 40
24.5
 41
0.0
 71
     1
 72
     1
  1
23
  7
SLDTEXTSTYLE0
 11
6.123233995736766E-17
 21
1.0
 31
0.0
 73
     1
 44
1.0
  0
ENDBLK
  5
3C7
330
3C5
100
AcDbEntity
  8
0
100
AcDbBlockEnd
  0
BLOCK
  5
3D8
330
3D7
100
AcDbEntity
  8
0
100
AcDbBlockBegin
  2
SW_NOTE_0_5
 70
     0
 10
0.0
 20
0.0
 30
0.0
  3
SW_NOTE_0_5
  1

  0
MTEXT
  5
3DA
330
3D7
100
AcDbEntity
  8
FORMAT
 62
     0
100
AcDbMText
 10
-306.6393012543
 20
37.4180400918
 30
0.0
 40
18.5208333333
 41
0.0
 71
     1
 72
     1
  1
ø20
  7
SLDTEXTSTYLE0
 73
     1
 44
1.0
  0
MTEXT
  5
3DB
330
3D7
100
AcDbEntity
  8
FORMAT
 62
     0
100
AcDbMText
 10
-306.6393012543
 20
5.7235947984
 30
0.0
 40
18.5208333333
 41
0.0
 71
     1
 72
     1
  1
(verdeckte Kabelzuführung)
  7
SLDTEXTSTYLE0
 73
     1
 44
1.0
  0
ENDBLK
  5
3D9
330
3D7
100
AcDbEntity
  8
0
100
AcDbBlockEnd
  0
BLOCK
  5
3DF
330
3DE
100
AcDbEntity
  8
0
100
AcDbBlockBegin
  2
SW_CENTERMARKSYMBOL_0
 70
     0
 10
0.0
 20
0.0
 30
0.0
  3
SW_CENTERMARKSYMBOL_0
  1

  0
LINE
  5
3E1
330
3DE
100
AcDbEntity
  8
FORMAT
 62
     0
100
AcDbLine
 10
0.0
 20
0.0
 30
0.0
 11
0.0
 21
2.5
 31
0.0
  0
LINE
  5
3E2
330
3DE
100
AcDbEntity
  8
FORMAT
 62
     0
100
AcDbLine
 10
0.0
 20
0.0
 30
0.0
 11
-2.5
 21
0.0
 31
0.0
  0
LINE
  5
3E3
330
3DE
100
AcDbEntity
  8
FORMAT
 62
     0
100
AcDbLine
 10
0.0
 20
0.0
 30
0.0
 11
0.0
 21
-2.5
 31
0.0
  0
LINE
  5
3E4
330
3DE
100
AcDbEntity
  8
FORMAT
 62
     0
100
AcDbLine
 10
0.0
 20
0.0
 30
0.0
 11
2.5
 21
0.0
 31
0.0
  0
LINE
  5
3E5
330
3DE
100
AcDbEntity
  8
FORMAT
 62
     0
100
AcDbLine
 10
0.0
 20
5.0
 30
0.0
 11
0.0
 21
5.75
 31
0.0
  0
LINE
  5
3E6
330
3DE
100
AcDbEntity
  8
FORMAT
 62
     0
100
AcDbLine
 10
-5.0
 20
0.0
 30
0.0
 11
-5.75
 21
0.0
 31
0.0
  0
LINE
  5
3E7
330
3DE
100
AcDbEntity
  8
FORMAT
 62
     0
100
AcDbLine
 10
0.0
 20
-5.0
 30
0.0
 11
0.0
 21
-5.75
 31
0.0
  0
LINE
  5
3E8
330
3DE
100
AcDbEntity
  8
FORMAT
 62
     0
100
AcDbLine
 10
5.0
 20
0.0
 30
0.0
 11
5.75
 21
0.0
 31
0.0
  0
ENDBLK
  5
3E0
330
3DE
100
AcDbEntity
  8
0
100
AcDbBlockEnd
  0
BLOCK
  5
3EB
330
3EA
100
AcDbEntity
  8
0
100
AcDbBlockBegin
  2
SW_CENTERMARKSYMBOL_1
 70
     0
 10
0.0
 20
0.0
 30
0.0
  3
SW_CENTERMARKSYMBOL_1
  1

  0
LINE
  5
3ED
330
3EA
100
AcDbEntity
  8
FORMAT
 62
     0
100
AcDbLine
 10
0.0
 20
0.0
 30
0.0
 11
0.0
 21
2.5
 31
0.0
  0
LINE
  5
3EE
330
3EA
100
AcDbEntity
  8
FORMAT
 62
     0
100
AcDbLine
 10
0.0
 20
0.0
 30
0.0
 11
-2.5
 21
0.0
 31
0.0
  0
LINE
  5
3EF
330
3EA
100
AcDbEntity
  8
FORMAT
 62
     0
100
AcDbLine
 10
0.0
 20
0.0
 30
0.0
 11
0.0
 21
-2.5
 31
0.0
  0
LINE
  5
3F0
330
3EA
100
AcDbEntity
  8
FORMAT
 62
     0
100
AcDbLine
 10
0.0
 20
0.0
 30
0.0
 11
2.5
 21
0.0
 31
0.0
  0
LINE
  5
3F1
330
3EA
100
AcDbEntity
  8
FORMAT
 62
     0
100
AcDbLine
 10
0.0
 20
5.0
 30
0.0
 11
0.0
 21
5.75
 31
0.0
  0
LINE
  5
3F2
330
3EA
100
AcDbEntity
  8
FORMAT
 62
     0
100
AcDbLine
 10
-5.0
 20
0.0
 30
0.0
 11
-5.75
 21
0.0
 31
0.0
  0
LINE
  5
3F3
330
3EA
100
AcDbEntity
  8
FORMAT
 62
     0
100
AcDbLine
 10
0.0
 20
-5.0
 30
0.0
 11
0.0
 21
-5.75
 31
0.0
  0
LINE
  5
3F4
330
3EA
100
AcDbEntity
  8
FORMAT
 62
     0
100
AcDbLine
 10
5.0
 20
0.0
 30
0.0
 11
5.75
 21
0.0
 31
0.0
  0
ENDBLK
  5
3EC
330
3EA
100
AcDbEntity
  8
0
100
AcDbBlockEnd
  0
BLOCK
  5
3F7
330
3F6
100
AcDbEntity
  8
0
100
AcDbBlockBegin
  2
SW_CENTERMARKSYMBOL_2
 70
     0
 10
0.0
 20
0.0
 30
0.0
  3
SW_CENTERMARKSYMBOL_2
  1

  0
LINE
  5
3F9
330
3F6
100
AcDbEntity
  8
FORMAT
 62
     0
100
AcDbLine
 10
0.0
 20
0.0
 30
0.0
 11
0.0
 21
2.5
 31
0.0
  0
LINE
  5
3FA
330
3F6
100
AcDbEntity
  8
FORMAT
 62
     0
100
AcDbLine
 10
0.0
 20
0.0
 30
0.0
 11
-2.5
 21
0.0
 31
0.0
  0
LINE
  5
3FB
330
3F6
100
AcDbEntity
  8
FORMAT
 62
     0
100
AcDbLine
 10
0.0
 20
0.0
 30
0.0
 11
0.0
 21
-2.5
 31
0.0
  0
LINE
  5
3FC
330
3F6
100
AcDbEntity
  8
FORMAT
 62
     0
100
AcDbLine
 10
0.0
 20
0.0
 30
0.0
 11
2.5
 21
0.0
 31
0.0
  0
LINE
  5
3FD
330
3F6
100
AcDbEntity
  8
FORMAT
 62
     0
100
AcDbLine
 10
0.0
 20
5.0
 30
0.0
 11
0.0
 21
5.75
 31
0.0
  0
LINE
  5
3FE
330
3F6
100
AcDbEntity
  8
FORMAT
 62
     0
100
AcDbLine
 10
-5.0
 20
0.0
 30
0.0
 11
-5.75
 21
0.0
 31
0.0
  0
LINE
  5
3FF
330
3F6
100
AcDbEntity
  8
FORMAT
 62
     0
100
AcDbLine
 10
0.0
 20
-5.0
 30
0.0
 11
0.0
 21
-5.75
 31
0.0
  0
LINE
  5
400
330
3F6
100
AcDbEntity
  8
FORMAT
 62
     0
100
AcDbLine
 10
5.0
 20
0.0
 30
0.0
 11
5.75
 21
0.0
 31
0.0
  0
ENDBLK
  5
3F8
330
3F6
100
AcDbEntity
  8
0
100
AcDbBlockEnd
  0
BLOCK
  5
403
330
402
100
AcDbEntity
  8
0
100
AcDbBlockBegin
  2
SW_CENTERMARKSYMBOL_3
 70
     0
 10
0.0
 20
0.0
 30
0.0
  3
SW_CENTERMARKSYMBOL_3
  1

  0
LINE
  5
405
330
402
100
AcDbEntity
  8
FORMAT
 62
     0
100
AcDbLine
 10
0.0
 20
0.0
 30
0.0
 11
0.0
 21
2.5
 31
0.0
  0
LINE
  5
406
330
402
100
AcDbEntity
  8
FORMAT
 62
     0
100
AcDbLine
 10
0.0
 20
0.0
 30
0.0
 11
-2.5
 21
0.0
 31
0.0
  0
LINE
  5
407
330
402
100
AcDbEntity
  8
FORMAT
 62
     0
100
AcDbLine
 10
0.0
 20
0.0
 30
0.0
 11
0.0
 21
-2.5
 31
0.0
  0
LINE
  5
408
330
402
100
AcDbEntity
  8
FORMAT
 62
     0
100
AcDbLine
 10
0.0
 20
0.0
 30
0.0
 11
2.5
 21
0.0
 31
0.0
  0
LINE
  5
409
330
402
100
AcDbEntity
  8
FORMAT
 62
     0
100
AcDbLine
 10
0.0
 20
5.0
 30
0.0
 11
0.0
 21
5.75
 31
0.0
  0
LINE
  5
40A
330
402
100
AcDbEntity
  8
FORMAT
 62
     0
100
AcDbLine
 10
-5.0
 20
0.0
 30
0.0
 11
-5.75
 21
0.0
 31
0.0
  0
LINE
  5
40B
330
402
100
AcDbEntity
  8
FORMAT
 62
     0
100
AcDbLine
 10
0.0
 20
-5.0
 30
0.0
 11
0.0
 21
-5.75
 31
0.0
  0
LINE
  5
40C
330
402
100
AcDbEntity
  8
FORMAT
 62
     0
100
AcDbLine
 10
5.0
 20
0.0
 30
0.0
 11
5.75
 21
0.0
 31
0.0
  0
ENDBLK
  5
404
330
402
100
AcDbEntity
  8
0
100
AcDbBlockEnd
  0
BLOCK
  5
40F
330
40E
100
AcDbEntity
  8
0
100
AcDbBlockBegin
  2
SW_CENTERMARKSYMBOL_4
 70
     0
 10
0.0
 20
0.0
 30
0.0
  3
SW_CENTERMARKSYMBOL_4
  1

  0
LINE
  5
411
330
40E
100
AcDbEntity
  8
FORMAT
 62
     0
100
AcDbLine
 10
0.0
 20
0.0
 30
0.0
 11
0.0
 21
2.5
 31
0.0
  0
LINE
  5
412
330
40E
100
AcDbEntity
  8
FORMAT
 62
     0
100
AcDbLine
 10
0.0
 20
0.0
 30
0.0
 11
-2.5
 21
0.0
 31
0.0
  0
LINE
  5
413
330
40E
100
AcDbEntity
  8
FORMAT
 62
     0
100
AcDbLine
 10
0.0
 20
0.0
 30
0.0
 11
0.0
 21
-2.5
 31
0.0
  0
LINE
  5
414
330
40E
100
AcDbEntity
  8
FORMAT
 62
     0
100
AcDbLine
 10
0.0
 20
0.0
 30
0.0
 11
2.5
 21
0.0
 31
0.0
  0
LINE
  5
415
330
40E
100
AcDbEntity
  8
FORMAT
 62
     0
100
AcDbLine
 10
0.0
 20
5.0
 30
0.0
 11
0.0
 21
5.75
 31
0.0
  0
LINE
  5
416
330
40E
100
AcDbEntity
  8
FORMAT
 62
     0
100
AcDbLine
 10
-5.0
 20
0.0
 30
0.0
 11
-5.75
 21
0.0
 31
0.0
  0
LINE
  5
417
330
40E
100
AcDbEntity
  8
FORMAT
 62
     0
100
AcDbLine
 10
0.0
 20
-5.0
 30
0.0
 11
0.0
 21
-5.75
 31
0.0
  0
LINE
  5
418
330
40E
100
AcDbEntity
  8
FORMAT
 62
     0
100
AcDbLine
 10
5.0
 20
0.0
 30
0.0
 11
5.75
 21
0.0
 31
0.0
  0
ENDBLK
  5
410
330
40E
100
AcDbEntity
  8
0
100
AcDbBlockEnd
  0
BLOCK
  5
41B
330
41A
100
AcDbEntity
  8
0
100
AcDbBlockBegin
  2
SW_CENTERMARKSYMBOL_5
 70
     0
 10
0.0
 20
0.0
 30
0.0
  3
SW_CENTERMARKSYMBOL_5
  1

  0
LINE
  5
41D
330
41A
100
AcDbEntity
  8
FORMAT
 62
     0
100
AcDbLine
 10
0.0
 20
0.0
 30
0.0
 11
0.0
 21
2.5
 31
0.0
  0
LINE
  5
41E
330
41A
100
AcDbEntity
  8
FORMAT
 62
     0
100
AcDbLine
 10
0.0
 20
0.0
 30
0.0
 11
-2.5
 21
0.0
 31
0.0
  0
LINE
  5
41F
330
41A
100
AcDbEntity
  8
FORMAT
 62
     0
100
AcDbLine
 10
0.0
 20
0.0
 30
0.0
 11
0.0
 21
-2.5
 31
0.0
  0
LINE
  5
420
330
41A
100
AcDbEntity
  8
FORMAT
 62
     0
100
AcDbLine
 10
0.0
 20
0.0
 30
0.0
 11
2.5
 21
0.0
 31
0.0
  0
LINE
  5
421
330
41A
100
AcDbEntity
  8
FORMAT
 62
     0
100
AcDbLine
 10
0.0
 20
5.0
 30
0.0
 11
0.0
 21
5.75
 31
0.0
  0
LINE
  5
422
330
41A
100
AcDbEntity
  8
FORMAT
 62
     0
100
AcDbLine
 10
-5.0
 20
0.0
 30
0.0
 11
-5.75
 21
0.0
 31
0.0
  0
LINE
  5
423
330
41A
100
AcDbEntity
  8
FORMAT
 62
     0
100
AcDbLine
 10
0.0
 20
-5.0
 30
0.0
 11
0.0
 21
-5.75
 31
0.0
  0
LINE
  5
424
330
41A
100
AcDbEntity
  8
FORMAT
 62
     0
100
AcDbLine
 10
5.0
 20
0.0
 30
0.0
 11
5.75
 21
0.0
 31
0.0
  0
ENDBLK
  5
41C
330
41A
100
AcDbEntity
  8
0
100
AcDbBlockEnd
  0
BLOCK
  5
427
330
426
100
AcDbEntity
  8
0
100
AcDbBlockBegin
  2
SW_CENTERMARKSYMBOL_6
 70
     0
 10
0.0
 20
0.0
 30
0.0
  3
SW_CENTERMARKSYMBOL_6
  1

  0
LINE
  5
429
330
426
100
AcDbEntity
  8
FORMAT
 62
     0
100
AcDbLine
 10
0.0
 20
0.0
 30
0.0
 11
0.0
 21
2.5
 31
0.0
  0
LINE
  5
42A
330
426
100
AcDbEntity
  8
FORMAT
 62
     0
100
AcDbLine
 10
0.0
 20
0.0
 30
0.0
 11
-2.5
 21
0.0
 31
0.0
  0
LINE
  5
42B
330
426
100
AcDbEntity
  8
FORMAT
 62
     0
100
AcDbLine
 10
0.0
 20
0.0
 30
0.0
 11
0.0
 21
-2.5
 31
0.0
  0
LINE
  5
42C
330
426
100
AcDbEntity
  8
FORMAT
 62
     0
100
AcDbLine
 10
0.0
 20
0.0
 30
0.0
 11
2.5
 21
0.0
 31
0.0
  0
LINE
  5
42D
330
426
100
AcDbEntity
  8
FORMAT
 62
     0
100
AcDbLine
 10
0.0
 20
5.0
 30
0.0
 11
0.0
 21
5.75
 31
0.0
  0
LINE
  5
42E
330
426
100
AcDbEntity
  8
FORMAT
 62
     0
100
AcDbLine
 10
-5.0
 20
0.0
 30
0.0
 11
-5.75
 21
0.0
 31
0.0
  0
LINE
  5
42F
330
426
100
AcDbEntity
  8
FORMAT
 62
     0
100
AcDbLine
 10
0.0
 20
-5.0
 30
0.0
 11
0.0
 21
-5.75
 31
0.0
  0
LINE
  5
430
330
426
100
AcDbEntity
  8
FORMAT
 62
     0
100
AcDbLine
 10
5.0
 20
0.0
 30
0.0
 11
5.75
 21
0.0
 31
0.0
  0
ENDBLK
  5
428
330
426
100
AcDbEntity
  8
0
100
AcDbBlockEnd
  0
BLOCK
  5
433
330
432
100
AcDbEntity
  8
0
100
AcDbBlockBegin
  2
SW_CENTERMARKSYMBOL_7
 70
     0
 10
0.0
 20
0.0
 30
0.0
  3
SW_CENTERMARKSYMBOL_7
  1

  0
LINE
  5
435
330
432
100
AcDbEntity
  8
FORMAT
 62
     0
100
AcDbLine
 10
0.0
 20
0.0
 30
0.0
 11
0.0
 21
2.5
 31
0.0
  0
LINE
  5
436
330
432
100
AcDbEntity
  8
FORMAT
 62
     0
100
AcDbLine
 10
0.0
 20
0.0
 30
0.0
 11
-2.5
 21
0.0
 31
0.0
  0
LINE
  5
437
330
432
100
AcDbEntity
  8
FORMAT
 62
     0
100
AcDbLine
 10
0.0
 20
0.0
 30
0.0
 11
0.0
 21
-2.5
 31
0.0
  0
LINE
  5
438
330
432
100
AcDbEntity
  8
FORMAT
 62
     0
100
AcDbLine
 10
0.0
 20
0.0
 30
0.0
 11
2.5
 21
0.0
 31
0.0
  0
LINE
  5
439
330
432
100
AcDbEntity
  8
FORMAT
 62
     0
100
AcDbLine
 10
0.0
 20
5.0
 30
0.0
 11
0.0
 21
5.75
 31
0.0
  0
LINE
  5
43A
330
432
100
AcDbEntity
  8
FORMAT
 62
     0
100
AcDbLine
 10
-5.0
 20
0.0
 30
0.0
 11
-5.75
 21
0.0
 31
0.0
  0
LINE
  5
43B
330
432
100
AcDbEntity
  8
FORMAT
 62
     0
100
AcDbLine
 10
0.0
 20
-5.0
 30
0.0
 11
0.0
 21
-5.75
 31
0.0
  0
LINE
  5
43C
330
432
100
AcDbEntity
  8
FORMAT
 62
     0
100
AcDbLine
 10
5.0
 20
0.0
 30
0.0
 11
5.75
 21
0.0
 31
0.0
  0
ENDBLK
  5
434
330
432
100
AcDbEntity
  8
0
100
AcDbBlockEnd
  0
BLOCK
  5
43F
330
43E
100
AcDbEntity
  8
0
100
AcDbBlockBegin
  2
SW_CENTERMARKSYMBOL_8
 70
     0
 10
0.0
 20
0.0
 30
0.0
  3
SW_CENTERMARKSYMBOL_8
  1

  0
LINE
  5
441
330
43E
100
AcDbEntity
  8
FORMAT
 62
     0
100
AcDbLine
 10
0.0
 20
0.0
 30
0.0
 11
0.0
 21
2.5
 31
0.0
  0
LINE
  5
442
330
43E
100
AcDbEntity
  8
FORMAT
 62
     0
100
AcDbLine
 10
0.0
 20
0.0
 30
0.0
 11
-2.5
 21
0.0
 31
0.0
  0
LINE
  5
443
330
43E
100
AcDbEntity
  8
FORMAT
 62
     0
100
AcDbLine
 10
0.0
 20
0.0
 30
0.0
 11
0.0
 21
-2.5
 31
0.0
  0
LINE
  5
444
330
43E
100
AcDbEntity
  8
FORMAT
 62
     0
100
AcDbLine
 10
0.0
 20
0.0
 30
0.0
 11
2.5
 21
0.0
 31
0.0
  0
LINE
  5
445
330
43E
100
AcDbEntity
  8
FORMAT
 62
     0
100
AcDbLine
 10
0.0
 20
5.0
 30
0.0
 11
0.0
 21
12.5
 31
0.0
  0
LINE
  5
446
330
43E
100
AcDbEntity
  8
FORMAT
 62
     0
100
AcDbLine
 10
-5.0
 20
0.0
 30
0.0
 11
-12.5
 21
0.0
 31
0.0
  0
LINE
  5
447
330
43E
100
AcDbEntity
  8
FORMAT
 62
     0
100
AcDbLine
 10
0.0
 20
-5.0
 30
0.0
 11
0.0
 21
-12.5
 31
0.0
  0
LINE
  5
448
330
43E
100
AcDbEntity
  8
FORMAT
 62
     0
100
AcDbLine
 10
5.0
 20
0.0
 30
0.0
 11
12.5
 21
0.0
 31
0.0
  0
ENDBLK
  5
440
330
43E
100
AcDbEntity
  8
0
100
AcDbBlockEnd
  0
BLOCK
  5
44B
330
44A
100
AcDbEntity
  8
0
100
AcDbBlockBegin
  2
SW_CENTERMARKSYMBOL_9
 70
     0
 10
0.0
 20
0.0
 30
0.0
  3
SW_CENTERMARKSYMBOL_9
  1

  0
LINE
  5
44D
330
44A
100
AcDbEntity
  8
FORMAT
 62
     0
100
AcDbLine
 10
0.0
 20
0.0
 30
0.0
 11
0.0
 21
2.5
 31
0.0
  0
LINE
  5
44E
330
44A
100
AcDbEntity
  8
FORMAT
 62
     0
100
AcDbLine
 10
0.0
 20
0.0
 30
0.0
 11
-2.5
 21
0.0
 31
0.0
  0
LINE
  5
44F
330
44A
100
AcDbEntity
  8
FORMAT
 62
     0
100
AcDbLine
 10
0.0
 20
0.0
 30
0.0
 11
0.0
 21
-2.5
 31
0.0
  0
LINE
  5
450
330
44A
100
AcDbEntity
  8
FORMAT
 62
     0
100
AcDbLine
 10
0.0
 20
0.0
 30
0.0
 11
2.5
 21
0.0
 31
0.0
  0
LINE
  5
451
330
44A
100
AcDbEntity
  8
FORMAT
 62
     0
100
AcDbLine
 10
0.0
 20
5.0
 30
0.0
 11
0.0
 21
12.5
 31
0.0
  0
LINE
  5
452
330
44A
100
AcDbEntity
  8
FORMAT
 62
     0
100
AcDbLine
 10
-5.0
 20
0.0
 30
0.0
 11
-12.5
 21
0.0
 31
0.0
  0
LINE
  5
453
330
44A
100
AcDbEntity
  8
FORMAT
 62
     0
100
AcDbLine
 10
0.0
 20
-5.0
 30
0.0
 11
0.0
 21
-12.5
 31
0.0
  0
LINE
  5
454
330
44A
100
AcDbEntity
  8
FORMAT
 62
     0
100
AcDbLine
 10
5.0
 20
0.0
 30
0.0
 11
12.5
 21
0.0
 31
0.0
  0
ENDBLK
  5
44C
330
44A
100
AcDbEntity
  8
0
100
AcDbBlockEnd
  0
BLOCK
  5
457
330
456
100
AcDbEntity
  8
0
100
AcDbBlockBegin
  2
SW_CENTERMARKSYMBOL_10
 70
     0
 10
0.0
 20
0.0
 30
0.0
  3
SW_CENTERMARKSYMBOL_10
  1

  0
LINE
  5
459
330
456
100
AcDbEntity
  8
FORMAT
 62
     0
100
AcDbLine
 10
0.0
 20
0.0
 30
0.0
 11
0.0
 21
2.5
 31
0.0
  0
LINE
  5
45A
330
456
100
AcDbEntity
  8
FORMAT
 62
     0
100
AcDbLine
 10
0.0
 20
0.0
 30
0.0
 11
-2.5
 21
0.0
 31
0.0
  0
LINE
  5
45B
330
456
100
AcDbEntity
  8
FORMAT
 62
     0
100
AcDbLine
 10
0.0
 20
0.0
 30
0.0
 11
0.0
 21
-2.5
 31
0.0
  0
LINE
  5
45C
330
456
100
AcDbEntity
  8
FORMAT
 62
     0
100
AcDbLine
 10
0.0
 20
0.0
 30
0.0
 11
2.5
 21
0.0
 31
0.0
  0
LINE
  5
45D
330
456
100
AcDbEntity
  8
FORMAT
 62
     0
100
AcDbLine
 10
0.0
 20
5.0
 30
0.0
 11
0.0
 21
12.5
 31
0.0
  0
LINE
  5
45E
330
456
100
AcDbEntity
  8
FORMAT
 62
     0
100
AcDbLine
 10
-5.0
 20
0.0
 30
0.0
 11
-12.5
 21
0.0
 31
0.0
  0
LINE
  5
45F
330
456
100
AcDbEntity
  8
FORMAT
 62
     0
100
AcDbLine
 10
0.0
 20
-5.0
 30
0.0
 11
0.0
 21
-12.5
 31
0.0
  0
LINE
  5
460
330
456
100
AcDbEntity
  8
FORMAT
 62
     0
100
AcDbLine
 10
5.0
 20
0.0
 30
0.0
 11
12.5
 21
0.0
 31
0.0
  0
ENDBLK
  5
458
330
456
100
AcDbEntity
  8
0
100
AcDbBlockEnd
  0
BLOCK
  5
463
330
462
100
AcDbEntity
  8
0
100
AcDbBlockBegin
  2
SW_CENTERMARKSYMBOL_11
 70
     0
 10
0.0
 20
0.0
 30
0.0
  3
SW_CENTERMARKSYMBOL_11
  1

  0
LINE
  5
465
330
462
100
AcDbEntity
  8
FORMAT
 62
     0
100
AcDbLine
 10
0.0
 20
0.0
 30
0.0
 11
0.0
 21
2.5
 31
0.0
  0
LINE
  5
466
330
462
100
AcDbEntity
  8
FORMAT
 62
     0
100
AcDbLine
 10
0.0
 20
0.0
 30
0.0
 11
-2.5
 21
0.0
 31
0.0
  0
LINE
  5
467
330
462
100
AcDbEntity
  8
FORMAT
 62
     0
100
AcDbLine
 10
0.0
 20
0.0
 30
0.0
 11
0.0
 21
-2.5
 31
0.0
  0
LINE
  5
468
330
462
100
AcDbEntity
  8
FORMAT
 62
     0
100
AcDbLine
 10
0.0
 20
0.0
 30
0.0
 11
2.5
 21
0.0
 31
0.0
  0
LINE
  5
469
330
462
100
AcDbEntity
  8
FORMAT
 62
     0
100
AcDbLine
 10
0.0
 20
5.0
 30
0.0
 11
0.0
 21
12.5
 31
0.0
  0
LINE
  5
46A
330
462
100
AcDbEntity
  8
FORMAT
 62
     0
100
AcDbLine
 10
-5.0
 20
0.0
 30
0.0
 11
-12.5
 21
0.0
 31
0.0
  0
LINE
  5
46B
330
462
100
AcDbEntity
  8
FORMAT
 62
     0
100
AcDbLine
 10
0.0
 20
-5.0
 30
0.0
 11
0.0
 21
-12.5
 31
0.0
  0
LINE
  5
46C
330
462
100
AcDbEntity
  8
FORMAT
 62
     0
100
AcDbLine
 10
5.0
 20
0.0
 30
0.0
 11
12.5
 21
0.0
 31
0.0
  0
ENDBLK
  5
464
330
462
100
AcDbEntity
  8
0
100
AcDbBlockEnd
  0
BLOCK
  5
53B
330
53A
100
AcDbEntity
  8
0
100
AcDbBlockBegin
  2
_Dot
 70
     0
 10
0.0
 20
0.0
 30
0.0
  3
_Dot
  1

  0
LWPOLYLINE
  5
53D
330
53A
100
AcDbEntity
  8
0
  6
ByBlock
 62
     0
100
AcDbPolyline
 90
        2
 70
     1
 43
0.5
 10
-0.25
 20
0.0
 42
1.0
 10
0.25
 20
0.0
 42
1.0
  0
LINE
  5
53E
330
53A
100
AcDbEntity
  8
0
  6
ByBlock
 62
     0
370
    -2
100
AcDbLine
 10
-0.5
 20
0.0
 30
0.0
 11
-1.0
 21
0.0
 31
0.0
  0
ENDBLK
  5
53C
330
53A
100
AcDbEntity
  8
0
100
AcDbBlockEnd
  0
BLOCK
  5
540
330
53F
100
AcDbEntity
  8
0
100
AcDbBlockBegin
  2
_D_20
 70
     0
 10
0.0
 20
0.0
 30
0.0
  3
_D_20
  1

  0
INSERT
  5
542
330
53F
100
AcDbEntity
  8
FORMAT
100
AcDbBlockReference
  2
_Dot
 10
2401.1260147983
 20
1885.7067843805
 30
0.0
 41
7.112
 42
7.112
 50
180.0
  0
SOLID
  5
543
330
53F
100
AcDbEntity
  8
FORMAT
100
AcDbTrace
 10
2521.1260147983
 20
1885.7067843805
 30
0.0
 11
2498.0120147983
 21
1889.2627843805
 31
0.0
 12
2498.0120147983
 22
1882.1507843805
 32
0.0
 13
2498.0120147983
 23
1882.1507843805
 33
0.0
  0
LINE
  5
544
330
53F
100
AcDbEntity
  8
FORMAT
100
AcDbLine
 10
2401.1260147983
 20
1818.8738952096
 30
0.0
 11
2401.1260147983
 21
1892.7067843805
 31
0.0
  0
LINE
  5
545
330
53F
100
AcDbEntity
  8
FORMAT
100
AcDbLine
 10
2401.1260147983
 20
1885.7067843805
 30
0.0
 11
2521.1260147983
 21
1885.7067843805
 31
0.0
  0
LINE
  5
546
330
53F
100
AcDbEntity
  8
FORMAT
100
AcDbLine
 10
2521.1260147983
 20
1885.7067843805
 30
0.0
 11
2645.2338948659
 21
1885.7067843805
 31
0.0
  0
MTEXT
  5
547
330
53F
100
AcDbEntity
  8
FORMAT
100
AcDbMText
 10
2529.3071839772
 20
1909.5813943665
 30
0.0
 40
18.5208333333
 41
0.0
 71
     1
 72
     1
  1
max. +
  7
SLDTEXTSTYLE0
 73
     1
 44
1.0
  0
MTEXT
  5
548
330
53F
100
AcDbEntity
  8
FORMAT
100
AcDbMText
 10
2604.0764760039
 20
1909.5813943665
 30
0.0
 40
18.5208333333
 41
0.0
 71
     1
 72
     1
  1
120
  7
SLDTEXTSTYLE0
 73
     1
 44
1.0
  0
ENDBLK
  5
541
330
53F
100
AcDbEntity
  8
0
100
AcDbBlockEnd
  0
BLOCK
  5
54B
330
54A
100
AcDbEntity
  8
0
100
AcDbBlockBegin
  2
_D_21
 70
     0
 10
0.0
 20
0.0
 30
0.0
  3
_D_21
  1

  0
INSERT
  5
54D
330
54A
100
AcDbEntity
  8
FORMAT
100
AcDbBlockReference
  2
_Dot
 10
2401.1260147983
 20
1885.7067843805
 30
0.0
 41
7.112
 42
7.112
 50
0.0
  0
SOLID
  5
54E
330
54A
100
AcDbEntity
  8
FORMAT
100
AcDbTrace
 10
2371.1260147983
 20
1885.7067843805
 30
0.0
 11
2394.2400147983
 21
1882.1507843805
 31
0.0
 12
2394.2400147983
 22
1889.2627843805
 32
0.0
 13
2394.2400147983
 23
1889.2627843805
 33
0.0
  0
LINE
  5
54F
330
54A
100
AcDbEntity
  8
FORMAT
100
AcDbLine
 10
2401.1260147983
 20
1818.8738952096
 30
0.0
 11
2401.1260147983
 21
1892.7067843805
 31
0.0
  0
LINE
  5
550
330
54A
100
AcDbEntity
  8
FORMAT
100
AcDbLine
 10
2401.1260147983
 20
1885.7067843805
 30
0.0
 11
2371.1260147983
 21
1885.7067843805
 31
0.0
  0
LINE
  5
551
330
54A
100
AcDbEntity
  8
FORMAT
100
AcDbLine
 10
2371.1260147983
 20
1885.7067843805
 30
0.0
 11
2262.6040774776
 21
1885.7067843805
 31
0.0
  0
MTEXT
  5
552
330
54A
100
AcDbEntity
  8
FORMAT
100
AcDbMText
 10
2262.6040774776
 20
1909.5813943666
 30
0.0
 40
18.5208333333
 41
0.0
 71
     1
 72
     1
  1
max. -
  7
SLDTEXTSTYLE0
 73
     1
 44
1.0
  0
MTEXT
  5
553
330
54A
100
AcDbEntity
  8
FORMAT
100
AcDbMText
 10
2331.1997560232
 20
1909.5813943666
 30
0.0
 40
18.5208333333
 41
0.0
 71
     1
 72
     1
  1
30
  7
SLDTEXTSTYLE0
 73
     1
 44
1.0
  0
ENDBLK
  5
54C
330
54A
100
AcDbEntity
  8
0
100
AcDbBlockEnd
  0
BLOCK
  5
556
330
555
100
AcDbEntity
  8
0
100
AcDbBlockBegin
  2
_D_22
 70
     0
 10
0.0
 20
0.0
 30
0.0
  3
_D_22
  1

  0
SOLID
  5
558
330
555
100
AcDbEntity
  8
FORMAT
100
AcDbTrace
 10
2401.1260147983
 20
1513.9312418104
 30
0.0
 11
2378.0120147983
 21
1517.4872418104
 31
0.0
 12
2378.0120147983
 22
1510.3752418104
 32
0.0
 13
2378.0120147983
 23
1510.3752418104
 33
0.0
  0
SOLID
  5
559
330
555
100
AcDbEntity
  8
FORMAT
100
AcDbTrace
 10
2429.1260147961
 20
1513.9312418104
 30
0.0
 11
2452.2400147961
 21
1510.3752418104
 31
0.0
 12
2452.2400147961
 22
1517.4872418104
 32
0.0
 13
2452.2400147961
 23
1517.4872418104
 33
0.0
  0
LINE
  5
55A
330
555
100
AcDbEntity
  8
FORMAT
100
AcDbLine
 10
2429.1260147961
 20
1581.8738952158
 30
0.0
 11
2429.1260147961
 21
1506.9312418104
 31
0.0
  0
LINE
  5
55B
330
555
100
AcDbEntity
  8
FORMAT
100
AcDbLine
 10
2401.1260147983
 20
1513.9312418104
 30
0.0
 11
2356.6760147983
 21
1513.9312418104
 31
0.0
  0
LINE
  5
55C
330
555
100
AcDbEntity
  8
FORMAT
100
AcDbLine
 10
2401.1260147983
 20
1513.9312418104
 30
0.0
 11
2429.1260147961
 21
1513.9312418104
 31
0.0
  0
LINE
  5
55D
330
555
100
AcDbEntity
  8
FORMAT
100
AcDbLine
 10
2429.1260147961
 20
1513.9312418104
 30
0.0
 11
2500.2355023837
 21
1513.9312418104
 31
0.0
  0
MTEXT
  5
55E
330
555
100
AcDbEntity
  8
FORMAT
100
AcDbMText
 10
2462.8049477553
 20
1545.5134030646
 30
0.0
 40
24.5
 41
0.0
 71
     1
 72
     1
  1
28
  7
SLDTEXTSTYLE0
 73
     1
 44
1.0
  0
ENDBLK
  5
557
330
555
100
AcDbEntity
  8
0
100
AcDbBlockEnd
  0
BLOCK
  5
561
330
560
100
AcDbEntity
  8
0
100
AcDbBlockBegin
  2
_D_23
 70
     0
 10
0.0
 20
0.0
 30
0.0
  3
_D_23
  1

  0
SOLID
  5
563
330
560
100
AcDbEntity
  8
FORMAT
100
AcDbTrace
 10
2401.1260147983
 20
1452.8204122204
 30
0.0
 11
2424.2400147983
 21
1449.2644122204
 31
0.0
 12
2424.2400147983
 22
1456.3764122204
 32
0.0
 13
2424.2400147983
 23
1456.3764122204
 33
0.0
  0
SOLID
  5
564
330
560
100
AcDbEntity
  8
FORMAT
100
AcDbTrace
 10
2521.1260147979
 20
1452.8204122204
 30
0.0
 11
2498.0120147979
 21
1456.3764122204
 31
0.0
 12
2498.0120147979
 22
1449.2644122204
 32
0.0
 13
2498.0120147979
 23
1449.2644122204
 33
0.0
  0
LINE
  5
565
330
560
100
AcDbEntity
  8
FORMAT
100
AcDbLine
 10
2521.1260147979
 20
1658.3738952096
 30
0.0
 11
2521.1260147979
 21
1445.8204122204
 31
0.0
  0
LINE
  5
566
330
560
100
AcDbEntity
  8
FORMAT
100
AcDbLine
 10
2401.1260147983
 20
1452.8204122204
 30
0.0
 11
2521.1260147979
 21
1452.8204122204
 31
0.0
  0
MTEXT
  5
567
330
560
100
AcDbEntity
  8
FORMAT
100
AcDbMText
 10
2433.0530988268
 20
1484.4025734747
 30
0.0
 40
24.5
 41
0.0
 71
     1
 72
     1
  1
120
  7
SLDTEXTSTYLE0
 73
     1
 44
1.0
  0
ENDBLK
  5
562
330
560
100
AcDbEntity
  8
0
100
AcDbBlockEnd
  0
BLOCK
  5
56A
330
569
100
AcDbEntity
  8
0
100
AcDbBlockBegin
  2
_D_24
 70
     0
 10
0.0
 20
0.0
 30
0.0
  3
_D_24
  1

  0
SOLID
  5
56C
330
569
100
AcDbEntity
  8
FORMAT
100
AcDbTrace
 10
2284.6247063557
 20
1636.8738952096
 30
0.0
 11
2288.1807063557
 21
1659.9878952096
 31
0.0
 12
2281.0687063557
 22
1659.9878952096
 32
0.0
 13
2281.0687063557
 23
1659.9878952096
 33
0.0
  0
SOLID
  5
56D
330
569
100
AcDbEntity
  8
FORMAT
100
AcDbTrace
 10
2284.6247063557
 20
1756.3738952096
 30
0.0
 11
2281.0687063557
 21
1733.2598952096
 31
0.0
 12
2288.1807063557
 22
1733.2598952096
 32
0.0
 13
2288.1807063557
 23
1733.2598952096
 33
0.0
  0
LINE
  5
56E
330
569
100
AcDbEntity
  8
FORMAT
100
AcDbLine
 10
2354.1260147983
 20
1636.8738952096
 30
0.0
 11
2277.6247063557
 21
1636.8738952096
 31
0.0
  0
LINE
  5
56F
330
569
100
AcDbEntity
  8
FORMAT
100
AcDbLine
 10
2395.1260147979
 20
1756.3738952096
 30
0.0
 11
2277.6247063557
 21
1756.3738952096
 31
0.0
  0
LINE
  5
570
330
569
100
AcDbEntity
  8
FORMAT
100
AcDbLine
 10
2284.6247063557
 20
1636.8738952096
 30
0.0
 11
2284.6247063557
 21
1756.3738952096
 31
0.0
  0
MTEXT
  5
571
330
569
100
AcDbEntity
  8
FORMAT
100
AcDbMText
 10
2253.0425451015
 20
1654.5145212527
 30
0.0
 40
24.5
 41
0.0
 71
     1
 72
     1
  1
119,5
  7
SLDTEXTSTYLE0
 11
-5.489882783168415E-15
 21
1.0
 31
0.0
 73
     1
 44
1.0
  0
ENDBLK
  5
56B
330
569
100
AcDbEntity
  8
0
100
AcDbBlockEnd
  0
BLOCK
  5
574
330
573
100
AcDbEntity
  8
0
100
AcDbBlockBegin
  2
_D_25
 70
     0
 10
0.0
 20
0.0
 30
0.0
  3
_D_25
  1

  0
SOLID
  5
576
330
573
100
AcDbEntity
  8
FORMAT
100
AcDbTrace
 10
2597.9504994706
 20
1588.3738952158
 30
0.0
 11
2601.5064994706
 21
1611.4878952158
 31
0.0
 12
2594.3944994706
 22
1611.4878952158
 32
0.0
 13
2594.3944994706
 23
1611.4878952158
 33
0.0
  0
SOLID
  5
577
330
573
100
AcDbEntity
  8
FORMAT
100
AcDbTrace
 10
2597.9504994706
 20
1755.3738952096
 30
0.0
 11
2594.3944994706
 21
1732.2598952096
 31
0.0
 12
2601.5064994706
 22
1732.2598952096
 32
0.0
 13
2601.5064994706
 23
1732.2598952096
 33
0.0
  0
LINE
  5
578
330
573
100
AcDbEntity
  8
FORMAT
100
AcDbLine
 10
2435.6260147961
 20
1588.3738952158
 30
0.0
 11
2604.9504994706
 21
1588.3738952158
 31
0.0
  0
LINE
  5
579
330
573
100
AcDbEntity
  8
FORMAT
100
AcDbLine
 10
2523.1260147979
 20
1755.3738952096
 30
0.0
 11
2604.9504994706
 21
1755.3738952096
 31
0.0
  0
LINE
  5
57A
330
573
100
AcDbEntity
  8
FORMAT
100
AcDbLine
 10
2597.9504994706
 20
1588.3738952158
 30
0.0
 11
2597.9504994706
 21
1755.3738952096
 31
0.0
  0
MTEXT
  5
57B
330
573
100
AcDbEntity
  8
FORMAT
100
AcDbMText
 10
2566.3683382163
 20
1643.8009792414
 30
0.0
 40
24.5
 41
0.0
 71
     1
 72
     1
  1
167
  7
SLDTEXTSTYLE0
 11
1.837589179357618E-15
 21
1.0
 31
0.0
 73
     1
 44
1.0
  0
ENDBLK
  5
575
330
573
100
AcDbEntity
  8
0
100
AcDbBlockEnd
  0
BLOCK
  5
660
330
65F
100
AcDbEntity
  8
0
100
AcDbBlockBegin
  2
_D_26
 70
     0
 10
0.0
 20
0.0
 30
0.0
  3
_D_26
  1

  0
ARC
  5
662
330
65F
100
AcDbEntity
  8
FORMAT
100
AcDbCircle
 10
2421.665858723
 20
542.4682988047
 30
0.0
 40
42.03885414329039
100
AcDbArc
 50
153.4349488229
 51
206.5650511771
  0
ARC
  5
663
330
65F
100
AcDbEntity
  8
FORMAT
100
AcDbCircle
 10
2383.8950249029
 20
542.4682988047
 30
0.0
 40
42.03885414329039
100
AcDbArc
 50
333.4349488229
 51
26.5650511771
  0
SOLID
  5
664
330
65F
100
AcDbEntity
  8
FORMAT
100
AcDbTrace
 10
2303.2311457143
 20
523.6679516926
 30
0.0
 11
2280.1171457143
 21
527.2239516926
 31
0.0
 12
2280.1171457143
 22
520.1119516926
 32
0.0
 13
2280.1171457143
 23
520.1119516926
 33
0.0
  0
SOLID
  5
665
330
65F
100
AcDbEntity
  8
FORMAT
100
AcDbTrace
 10
2342.4311457111
 20
523.6679516926
 30
0.0
 11
2365.5451457111
 21
520.1119516926
 31
0.0
 12
2365.5451457111
 22
527.2239516926
 32
0.0
 13
2365.5451457111
 23
527.2239516926
 33
0.0
  0
LINE
  5
666
330
65F
100
AcDbEntity
  8
FORMAT
100
AcDbLine
 10
2303.2311457143
 20
547.1587117687
 30
0.0
 11
2303.2311457143
 21
516.6679516926
 31
0.0
  0
LINE
  5
667
330
65F
100
AcDbEntity
  8
FORMAT
100
AcDbLine
 10
2342.4311457111
 20
618.4856598779
 30
0.0
 11
2342.4311457111
 21
516.6679516926
 31
0.0
  0
LINE
  5
668
330
65F
100
AcDbEntity
  8
FORMAT
100
AcDbLine
 10
2303.2311457143
 20
523.6679516926
 30
0.0
 11
2258.7811457143
 21
523.6679516926
 31
0.0
  0
LINE
  5
669
330
65F
100
AcDbEntity
  8
FORMAT
100
AcDbLine
 10
2303.2311457143
 20
523.6679516926
 30
0.0
 11
2342.4311457111
 21
523.6679516926
 31
0.0
  0
LINE
  5
66A
330
65F
100
AcDbEntity
  8
FORMAT
100
AcDbLine
 10
2342.4311457111
 20
523.6679516926
 30
0.0
 11
2425.933877601
 21
523.6679516926
 31
0.0
  0
MTEXT
  5
66B
330
65F
100
AcDbEntity
  8
FORMAT
100
AcDbMText
 10
2384.0651644987
 20
555.2501129468
 30
0.0
 40
24.5
 41
0.0
 71
     1
 72
     1
  1
28
  7
SLDTEXTSTYLE0
 73
     1
 44
1.0
  0
ENDBLK
  5
661
330
65F
100
AcDbEntity
  8
0
100
AcDbBlockEnd
  0
BLOCK
  5
66E
330
66D
100
AcDbEntity
  8
0
100
AcDbBlockBegin
  2
_D_27
 70
     0
 10
0.0
 20
0.0
 30
0.0
  3
_D_27
  1

  0
ARC
  5
670
330
66D
100
AcDbEntity
  8
FORMAT
100
AcDbCircle
 10
2508.5684305961
 20
561.5846615535
 30
0.0
 40
42.03885414329049
100
AcDbArc
 50
243.4349488229
 51
296.5650511771
  0
ARC
  5
671
330
66D
100
AcDbEntity
  8
FORMAT
100
AcDbCircle
 10
2508.5684305961
 20
523.8138277334
 30
0.0
 40
42.03885414329039
100
AcDbArc
 50
63.4349488229
 51
116.5650511771
  0
SOLID
  5
672
330
66D
100
AcDbEntity
  8
FORMAT
100
AcDbTrace
 10
2527.3687777082
 20
624.7856598779
 30
0.0
 11
2523.8127777082
 21
601.6716598779
 31
0.0
 12
2530.9247777082
 22
601.6716598779
 32
0.0
 13
2530.9247777082
 23
601.6716598779
 33
0.0
  0
SOLID
  5
673
330
66D
100
AcDbEntity
  8
FORMAT
100
AcDbTrace
 10
2527.3687777082
 20
648.5856598779
 30
0.0
 11
2530.9247777082
 21
671.6996598779
 31
0.0
 12
2523.8127777082
 22
671.6996598779
 32
0.0
 13
2523.8127777082
 23
671.6996598779
 33
0.0
  0
LINE
  5
674
330
66D
100
AcDbEntity
  8
FORMAT
100
AcDbLine
 10
2348.7311457111
 20
624.7856598779
 30
0.0
 11
2534.3687777082
 21
624.7856598779
 31
0.0
  0
LINE
  5
675
330
66D
100
AcDbEntity
  8
FORMAT
100
AcDbLine
 10
2348.7311457111
 20
648.5856598779
 30
0.0
 11
2534.3687777082
 21
648.5856598779
 31
0.0
  0
LINE
  5
676
330
66D
100
AcDbEntity
  8
FORMAT
100
AcDbLine
 10
2527.3687777082
 20
624.7856598779
 30
0.0
 11
2527.3687777082
 21
519.5458072255
 31
0.0
  0
LINE
  5
677
330
66D
100
AcDbEntity
  8
FORMAT
100
AcDbLine
 10
2527.3687777082
 20
624.7856598779
 30
0.0
 11
2527.3687777082
 21
648.5856598779
 31
0.0
  0
LINE
  5
678
330
66D
100
AcDbEntity
  8
FORMAT
100
AcDbLine
 10
2527.3687777082
 20
648.5856598779
 30
0.0
 11
2527.3687777082
 21
693.0356598779
 31
0.0
  0
MTEXT
  5
679
330
66D
100
AcDbEntity
  8
FORMAT
100
AcDbMText
 10
2495.786616454
 20
523.9839673293
 30
0.0
 40
24.5
 41
0.0
 71
     1
 72
     1
  1
17
  7
SLDTEXTSTYLE0
 11
-1.191767205047844E-13
 21
1.0
 31
0.0
 73
     1
 44
1.0
  0
ENDBLK
  5
66F
330
66D
100
AcDbEntity
  8
0
100
AcDbBlockEnd
  0
BLOCK
  5
67D
330
67C
100
AcDbEntity
  8
0
100
AcDbBlockBegin
  2
_D_28
 70
     0
 10
0.0
 20
0.0
 30
0.0
  3
_D_28
  1

  0
SOLID
  5
67F
330
67C
100
AcDbEntity
  8
FORMAT
100
AcDbTrace
 10
2583.2311440451
 20
685.6856598631
 30
0.0
 11
2579.6751440451
 21
662.5716598631
 31
0.0
 12
2586.7871440451
 22
662.5716598631
 32
0.0
 13
2586.7871440451
 23
662.5716598631
 33
0.0
  0
SOLID
  5
680
330
67C
100
AcDbEntity
  8
FORMAT
100
AcDbTrace
 10
2583.2311440451
 20
691.2856598633
 30
0.0
 11
2586.7871440451
 21
714.3996598633
 31
0.0
 12
2579.6751440451
 22
714.3996598633
 32
0.0
 13
2579.6751440451
 23
714.3996598633
 33
0.0
  0
LINE
  5
681
330
67C
100
AcDbEntity
  8
FORMAT
100
AcDbLine
 10
2310.2311457143
 20
685.6856598631
 30
0.0
 11
2590.2311440451
 21
685.6856598631
 31
0.0
  0
LINE
  5
682
330
67C
100
AcDbEntity
  8
FORMAT
100
AcDbLine
 10
2374.7654717098
 20
691.2856598633
 30
0.0
 11
2590.2311440451
 21
691.2856598633
 31
0.0
  0
LINE
  5
683
330
67C
100
AcDbEntity
  8
FORMAT
100
AcDbLine
 10
2583.2311440451
 20
685.6856598631
 30
0.0
 11
2583.2311440451
 21
629.121001262
 31
0.0
  0
LINE
  5
684
330
67C
100
AcDbEntity
  8
FORMAT
100
AcDbLine
 10
2583.2311440451
 20
685.6856598631
 30
0.0
 11
2583.2311440451
 21
691.2856598633
 31
0.0
  0
LINE
  5
685
330
67C
100
AcDbEntity
  8
FORMAT
100
AcDbLine
 10
2583.2311440451
 20
691.2856598633
 30
0.0
 11
2583.2311440451
 21
735.7356598633
 31
0.0
  0
MTEXT
  5
686
330
67C
100
AcDbEntity
  8
FORMAT
100
AcDbMText
 10
2551.6489827909
 20
629.121001262
 30
0.0
 40
24.5
 41
0.0
 71
     1
 72
     1
  1
4
  7
SLDTEXTSTYLE0
 11
6.123233995736766E-17
 21
1.0
 31
0.0
 73
     1
 44
1.0
  0
MTEXT
  5
687
330
67C
100
AcDbEntity
  8
FORMAT
100
AcDbMText
 10
2551.6489827909
 20
647.8362785762
 30
0.0
 40
24.5
 41
0.0
 71
     1
 72
     1
  1
*
  7
SLDTEXTSTYLE0
 11
6.123233995736766E-17
 21
1.0
 31
0.0
 73
     1
 44
1.0
  0
ENDBLK
  5
67E
330
67C
100
AcDbEntity
  8
0
100
AcDbBlockEnd
  0
BLOCK
  5
68A
330
689
100
AcDbEntity
  8
0
100
AcDbBlockBegin
  2
_D_29
 70
     0
 10
0.0
 20
0.0
 30
0.0
  3
_D_29
  1

  0
SOLID
  5
68C
330
689
100
AcDbEntity
  8
FORMAT
100
AcDbTrace
 10
2625.231145714
 20
691.2856598633
 30
0.0
 11
2621.675145714
 21
668.1716598633
 31
0.0
 12
2628.787145714
 22
668.1716598633
 32
0.0
 13
2628.787145714
 23
668.1716598633
 33
0.0
  0
SOLID
  5
68D
330
689
100
AcDbEntity
  8
FORMAT
100
AcDbTrace
 10
2625.231145714
 20
725.5856598631
 30
0.0
 11
2628.787145714
 21
748.6996598631
 31
0.0
 12
2621.675145714
 22
748.6996598631
 32
0.0
 13
2621.675145714
 23
748.6996598631
 33
0.0
  0
LINE
  5
68E
330
689
100
AcDbEntity
  8
FORMAT
100
AcDbLine
 10
2413.8311457138
 20
691.2856598633
 30
0.0
 11
2516.8687777082
 21
691.2856598633
 31
0.0
  0
LINE
  5
68F
330
689
100
AcDbEntity
  8
FORMAT
100
AcDbLine
 10
2537.8687777082
 20
691.2856598633
 30
0.0
 11
2632.231145714
 21
691.2856598633
 31
0.0
  0
LINE
  5
690
330
689
100
AcDbEntity
  8
FORMAT
100
AcDbLine
 10
2471.2311457138
 20
725.5856598631
 30
0.0
 11
2572.7311440451
 21
725.5856598631
 31
0.0
  0
LINE
  5
691
330
689
100
AcDbEntity
  8
FORMAT
100
AcDbLine
 10
2593.7311440451
 20
725.5856598631
 30
0.0
 11
2632.231145714
 21
725.5856598631
 31
0.0
  0
LINE
  5
692
330
689
100
AcDbEntity
  8
FORMAT
100
AcDbLine
 10
2625.231145714
 20
691.2856598633
 30
0.0
 11
2625.231145714
 21
646.8356598633
 31
0.0
  0
LINE
  5
693
330
689
100
AcDbEntity
  8
FORMAT
100
AcDbLine
 10
2625.231145714
 20
691.2856598633
 30
0.0
 11
2625.231145714
 21
725.5856598631
 31
0.0
  0
LINE
  5
694
330
689
100
AcDbEntity
  8
FORMAT
100
AcDbLine
 10
2625.231145714
 20
725.5856598631
 30
0.0
 11
2625.231145714
 21
826.1831601588
 31
0.0
  0
MTEXT
  5
695
330
689
100
AcDbEntity
  8
FORMAT
100
AcDbMText
 10
2593.6489844597
 20
760.6796895592
 30
0.0
 40
24.5
 41
0.0
 71
     1
 72
     1
  1
24,5
  7
SLDTEXTSTYLE0
 11
-3.935570548693196E-15
 21
1.0
 31
0.0
 73
     1
 44
1.0
  0
ENDBLK
  5
68B
330
689
100
AcDbEntity
  8
0
100
AcDbBlockEnd
  0
BLOCK
  5
699
330
698
100
AcDbEntity
  8
0
100
AcDbBlockBegin
  2
_D_30
 70
     0
 10
0.0
 20
0.0
 30
0.0
  3
_D_30
  1

  0
SOLID
  5
69B
330
698
100
AcDbEntity
  8
FORMAT
100
AcDbTrace
 10
2127.3334743905
 20
648.5856598779
 30
0.0
 11
2123.7774743905
 21
625.4716598779
 31
0.0
 12
2130.8894743905
 22
625.4716598779
 32
0.0
 13
2130.8894743905
 23
625.4716598779
 33
0.0
  0
INSERT
  5
69C
330
698
100
AcDbEntity
  8
FORMAT
100
AcDbBlockReference
  2
_Dot
 10
2127.3334743905
 20
685.6856598631
 30
998.5448486993
 41
7.112
 42
7.112
 50
270.0
  0
LINE
  5
69D
330
698
100
AcDbEntity
  8
FORMAT
100
AcDbLine
 10
2296.9311457111
 20
648.5856598779
 30
0.0
 11
2120.3334743905
 21
648.5856598779
 31
0.0
  0
LINE
  5
69E
330
698
100
AcDbEntity
  8
FORMAT
100
AcDbLine
 10
2240.2311457143
 20
685.6856598631
 30
0.0
 11
2188.6601975668
 21
685.6856598631
 31
0.0
  0
LINE
  5
69F
330
698
100
AcDbEntity
  8
FORMAT
100
AcDbLine
 10
2167.6601975668
 20
685.6856598631
 30
0.0
 11
2120.3334743905
 21
685.6856598631
 31
0.0
  0
LINE
  5
6A0
330
698
100
AcDbEntity
  8
FORMAT
100
AcDbLine
 10
2127.3334743905
 20
648.5856598779
 30
0.0
 11
2127.3334743905
 21
553.9063316083
 31
0.0
  0
LINE
  5
6A1
330
698
100
AcDbEntity
  8
FORMAT
100
AcDbLine
 10
2127.3334743905
 20
648.5856598779
 30
0.0
 11
2127.3334743905
 21
685.6856598631
 31
0.0
  0
LINE
  5
6A2
330
698
100
AcDbEntity
  8
FORMAT
100
AcDbLine
 10
2127.3334743905
 20
685.6856598631
 30
0.0
 11
2127.3334743905
 21
730.1356598631
 31
0.0
  0
MTEXT
  5
6A3
330
698
100
AcDbEntity
  8
FORMAT
100
AcDbMText
 10
2095.7513131363
 20
553.9063316083
 30
0.0
 40
24.5
 41
0.0
 71
     1
 72
     1
  1
26,5
  7
SLDTEXTSTYLE0
 11
6.123233995736766E-17
 21
1.0
 31
0.0
 73
     1
 44
1.0
  0
ENDBLK
  5
69A
330
698
100
AcDbEntity
  8
0
100
AcDbBlockEnd
  0
BLOCK
  5
6A7
330
6A6
100
AcDbEntity
  8
0
100
AcDbBlockBegin
  2
_D_31
 70
     0
 10
0.0
 20
0.0
 30
0.0
  3
_D_31
  1

  0
INSERT
  5
6A9
330
6A6
100
AcDbEntity
  8
FORMAT
100
AcDbBlockReference
  2
_Dot
 10
2127.3334743904
 20
685.6856598631
 30
998.5448486993
 41
7.112
 42
7.112
 50
90.0
  0
SOLID
  5
6AA
330
6A6
100
AcDbEntity
  8
FORMAT
100
AcDbTrace
 10
2127.3334743904
 20
725.5856598631
 30
0.0
 11
2130.8894743904
 21
748.6996598631
 31
0.0
 12
2123.7774743904
 22
748.6996598631
 32
0.0
 13
2123.7774743904
 23
748.6996598631
 33
0.0
  0
LINE
  5
6AB
330
6A6
100
AcDbEntity
  8
FORMAT
100
AcDbLine
 10
2240.2311457143
 20
685.6856598631
 30
0.0
 11
2188.6601975668
 21
685.6856598631
 31
0.0
  0
LINE
  5
6AC
330
6A6
100
AcDbEntity
  8
FORMAT
100
AcDbLine
 10
2167.6601975668
 20
685.6856598631
 30
0.0
 11
2120.3334743904
 21
685.6856598631
 31
0.0
  0
LINE
  5
6AD
330
6A6
100
AcDbEntity
  8
FORMAT
100
AcDbLine
 10
2296.2311457138
 20
725.5856598631
 30
0.0
 11
2137.8334743905
 21
725.5856598631
 31
0.0
  0
LINE
  5
6AE
330
6A6
100
AcDbEntity
  8
FORMAT
100
AcDbLine
 10
2127.3334743904
 20
685.6856598631
 30
0.0
 11
2127.3334743904
 21
659.0856598779
 31
0.0
  0
LINE
  5
6AF
330
6A6
100
AcDbEntity
  8
FORMAT
100
AcDbLine
 10
2127.3334743904
 20
685.6856598631
 30
0.0
 11
2127.3334743904
 21
725.5856598631
 31
0.0
  0
LINE
  5
6B0
330
6A6
100
AcDbEntity
  8
FORMAT
100
AcDbLine
 10
2127.3334743904
 20
725.5856598631
 30
0.0
 11
2127.3334743904
 21
829.1354532934
 31
0.0
  0
MTEXT
  5
6B1
330
6A6
100
AcDbEntity
  8
FORMAT
100
AcDbMText
 10
2095.7513131362
 20
763.6319826937
 30
0.0
 40
24.5
 41
0.0
 71
     1
 72
     1
  1
28,5
  7
SLDTEXTSTYLE0
 11
-3.935570548693196E-15
 21
1.0
 31
0.0
 73
     1
 44
1.0
  0
ENDBLK
  5
6A8
330
6A6
100
AcDbEntity
  8
0
100
AcDbBlockEnd
  0
BLOCK
  5
6B4
330
6B3
100
AcDbEntity
  8
0
100
AcDbBlockBegin
  2
_D_32
 70
     0
 10
0.0
 20
0.0
 30
0.0
  3
_D_32
  1

  0
SOLID
  5
6B6
330
6B3
100
AcDbEntity
  8
FORMAT
100
AcDbTrace
 10
2178.1601975668
 20
701.0856598632
 30
0.0
 11
2174.6041975668
 21
677.9716598632
 31
0.0
 12
2181.7161975668
 22
677.9716598632
 32
0.0
 13
2181.7161975668
 23
677.9716598632
 33
0.0
  0
SOLID
  5
6B7
330
6B3
100
AcDbEntity
  8
FORMAT
100
AcDbTrace
 10
2178.1601975668
 20
725.5856598631
 30
0.0
 11
2181.7161975668
 21
748.6996598631
 31
0.0
 12
2174.6041975668
 22
748.6996598631
 32
0.0
 13
2174.6041975668
 23
748.6996598631
 33
0.0
  0
LINE
  5
6B8
330
6B3
100
AcDbEntity
  8
FORMAT
100
AcDbLine
 10
2326.3271078608
 20
701.0856598632
 30
0.0
 11
2171.1601975668
 21
701.0856598632
 31
0.0
  0
LINE
  5
6B9
330
6B3
100
AcDbEntity
  8
FORMAT
100
AcDbLine
 10
2296.2311457138
 20
725.5856598631
 30
0.0
 11
2171.1601975668
 21
725.5856598631
 31
0.0
  0
LINE
  5
6BA
330
6B3
100
AcDbEntity
  8
FORMAT
100
AcDbLine
 10
2178.1601975668
 20
701.0856598632
 30
0.0
 11
2178.1601975668
 21
656.6356598632
 31
0.0
  0
LINE
  5
6BB
330
6B3
100
AcDbEntity
  8
FORMAT
100
AcDbLine
 10
2178.1601975668
 20
701.0856598632
 30
0.0
 11
2178.1601975668
 21
725.5856598631
 31
0.0
  0
LINE
  5
6BC
330
6B3
100
AcDbEntity
  8
FORMAT
100
AcDbLine
 10
2178.1601975668
 20
725.5856598631
 30
0.0
 11
2178.1601975668
 21
821.9607569292
 31
0.0
  0
MTEXT
  5
6BD
330
6B3
100
AcDbEntity
  8
FORMAT
100
AcDbMText
 10
2146.5780363126
 20
756.4572863295
 30
0.0
 40
24.5
 41
0.0
 71
     1
 72
     1
  1
17,5
  7
SLDTEXTSTYLE0
 11
-3.935570548693196E-15
 21
1.0
 31
0.0
 73
     1
 44
1.0
  0
ENDBLK
  5
6B5
330
6B3
100
AcDbEntity
  8
0
100
AcDbBlockEnd
  0
BLOCK
  5
6E4
330
6E3
100
AcDbEntity
  8
0
100
AcDbBlockBegin
  2
_D_33
 70
     0
 10
0.0
 20
0.0
 30
0.0
  3
_D_33
  1

  0
SOLID
  5
6E6
330
6E3
100
AcDbEntity
  8
FORMAT
100
AcDbTrace
 10
1731.5467111489
 20
190.0457888983
 30
0.0
 11
1727.9907111489
 21
166.9317888983
 31
0.0
 12
1735.1027111489
 22
166.9317888983
 32
0.0
 13
1735.1027111489
 23
166.9317888983
 33
0.0
  0
SOLID
  5
6E7
330
6E3
100
AcDbEntity
  8
FORMAT
100
AcDbTrace
 10
1731.5467111489
 20
200.5457888983
 30
0.0
 11
1735.1027111489
 21
223.6597888983
 31
0.0
 12
1727.9907111489
 22
223.6597888983
 32
0.0
 13
1727.9907111489
 23
223.6597888983
 33
0.0
  0
LINE
  5
6E8
330
6E3
100
AcDbEntity
  8
FORMAT
100
AcDbLine
 10
1772.8686106807
 20
190.0457888983
 30
0.0
 11
1724.5467111489
 21
190.0457888983
 31
0.0
  0
LINE
  5
6E9
330
6E3
100
AcDbEntity
  8
FORMAT
100
AcDbLine
 10
1803.3138896114
 20
200.5457888983
 30
0.0
 11
1724.5467111489
 21
200.5457888983
 31
0.0
  0
LINE
  5
6EA
330
6E3
100
AcDbEntity
  8
FORMAT
100
AcDbLine
 10
1731.5467111489
 20
190.0457888983
 30
0.0
 11
1731.5467111489
 21
114.9271986492
 31
0.0
  0
LINE
  5
6EB
330
6E3
100
AcDbEntity
  8
FORMAT
100
AcDbLine
 10
1731.5467111489
 20
190.0457888983
 30
0.0
 11
1731.5467111489
 21
200.5457888983
 31
0.0
  0
LINE
  5
6EC
330
6E3
100
AcDbEntity
  8
FORMAT
100
AcDbLine
 10
1731.5467111489
 20
200.5457888983
 30
0.0
 11
1731.5467111489
 21
244.9957888983
 31
0.0
  0
MTEXT
  5
6ED
330
6E3
100
AcDbEntity
  8
FORMAT
100
AcDbMText
 10
1699.9645498947
 20
114.9271986492
 30
0.0
 40
24.5
 41
0.0
 71
     1
 72
     1
  1
7,5
  7
SLDTEXTSTYLE0
 11
7.273661547324616E-16
 21
1.0
 31
0.0
 73
     1
 44
1.0
  0
ENDBLK
  5
6E5
330
6E3
100
AcDbEntity
  8
0
100
AcDbBlockEnd
  0
BLOCK
  5
6F1
330
6F0
100
AcDbEntity
  8
0
100
AcDbBlockBegin
  2
_D_34
 70
     0
 10
0.0
 20
0.0
 30
0.0
  3
_D_34
  1

  0
SOLID
  5
6F3
330
6F0
100
AcDbEntity
  8
FORMAT
100
AcDbTrace
 10
1690.2174182915
 20
200.5457888983
 30
0.0
 11
1693.7734182915
 21
223.6597888983
 31
0.0
 12
1686.6614182915
 22
223.6597888983
 32
0.0
 13
1686.6614182915
 23
223.6597888983
 33
0.0
  0
SOLID
  5
6F4
330
6F0
100
AcDbEntity
  8
FORMAT
100
AcDbTrace
 10
1690.2174182915
 20
306.9457888983
 30
0.0
 11
1686.6614182915
 21
283.8317888983
 31
0.0
 12
1693.7734182915
 22
283.8317888983
 32
0.0
 13
1693.7734182915
 23
283.8317888983
 33
0.0
  0
LINE
  5
6F5
330
6F0
100
AcDbEntity
  8
FORMAT
100
AcDbLine
 10
1803.3138896114
 20
200.5457888983
 30
0.0
 11
1683.2174182915
 21
200.5457888983
 31
0.0
  0
LINE
  5
6F6
330
6F0
100
AcDbEntity
  8
FORMAT
100
AcDbLine
 10
1795.2638896114
 20
306.9457888983
 30
0.0
 11
1683.2174182915
 21
306.9457888983
 31
0.0
  0
LINE
  5
6F7
330
6F0
100
AcDbEntity
  8
FORMAT
100
AcDbLine
 10
1690.2174182915
 20
200.5457888983
 30
0.0
 11
1690.2174182915
 21
306.9457888983
 31
0.0
  0
MTEXT
  5
6F8
330
6F0
100
AcDbEntity
  8
FORMAT
100
AcDbMText
 10
1658.6352570373
 20
235.0305115841
 30
0.0
 40
24.5
 41
0.0
 71
     1
 72
     1
  1
76
  7
SLDTEXTSTYLE0
 11
6.123233995736766E-17
 21
1.0
 31
0.0
 73
     1
 44
1.0
  0
ENDBLK
  5
6F2
330
6F0
100
AcDbEntity
  8
0
100
AcDbBlockEnd
  0
BLOCK
  5
6FB
330
6FA
100
AcDbEntity
  8
0
100
AcDbBlockBegin
  2
SW_CENTERMARKSYMBOL_12
 70
     0
 10
0.0
 20
0.0
 30
0.0
  3
SW_CENTERMARKSYMBOL_12
  1

  0
LINE
  5
6FD
330
6FA
100
AcDbEntity
  8
FORMAT
 62
     0
100
AcDbLine
 10
0.0
 20
0.0
 30
0.0
 11
0.0
 21
3.4999966621
 31
0.0
  0
LINE
  5
6FE
330
6FA
100
AcDbEntity
  8
FORMAT
 62
     0
100
AcDbLine
 10
0.0
 20
0.0
 30
0.0
 11
-3.4999966621
 21
0.0
 31
0.0
  0
LINE
  5
6FF
330
6FA
100
AcDbEntity
  8
FORMAT
 62
     0
100
AcDbLine
 10
0.0
 20
0.0
 30
0.0
 11
0.0
 21
-3.500007093
 31
0.0
  0
LINE
  5
700
330
6FA
100
AcDbEntity
  8
FORMAT
 62
     0
100
AcDbLine
 10
0.0
 20
0.0
 30
0.0
 11
3.4999966621
 21
0.0
 31
0.0
  0
LINE
  5
701
330
6FA
100
AcDbEntity
  8
FORMAT
 62
     0
100
AcDbLine
 10
0.0
 20
6.9999933243
 30
0.0
 11
0.0
 21
8.0500006676
 31
0.0
  0
LINE
  5
702
330
6FA
100
AcDbEntity
  8
FORMAT
 62
     0
100
AcDbLine
 10
-6.9999933243
 20
0.0
 30
0.0
 11
-8.0500006676
 21
0.0
 31
0.0
  0
LINE
  5
703
330
6FA
100
AcDbEntity
  8
FORMAT
 62
     0
100
AcDbLine
 10
0.0
 20
-7.0000037551
 30
0.0
 11
0.0
 21
-8.0500006676
 31
0.0
  0
LINE
  5
704
330
6FA
100
AcDbEntity
  8
FORMAT
 62
     0
100
AcDbLine
 10
6.9999933243
 20
0.0
 30
0.0
 11
8.0500006676
 21
0.0
 31
0.0
  0
ENDBLK
  5
6FC
330
6FA
100
AcDbEntity
  8
0
100
AcDbBlockEnd
  0
BLOCK
  5
707
330
706
100
AcDbEntity
  8
0
100
AcDbBlockBegin
  2
SW_CENTERMARKSYMBOL_13
 70
     0
 10
0.0
 20
0.0
 30
0.0
  3
SW_CENTERMARKSYMBOL_13
  1

  0
LINE
  5
709
330
706
100
AcDbEntity
  8
FORMAT
 62
     0
100
AcDbLine
 10
0.0
 20
0.0
 30
0.0
 11
0.0
 21
3.4999966621
 31
0.0
  0
LINE
  5
70A
330
706
100
AcDbEntity
  8
FORMAT
 62
     0
100
AcDbLine
 10
0.0
 20
0.0
 30
0.0
 11
-3.4999966621
 21
0.0
 31
0.0
  0
LINE
  5
70B
330
706
100
AcDbEntity
  8
FORMAT
 62
     0
100
AcDbLine
 10
0.0
 20
0.0
 30
0.0
 11
0.0
 21
-3.4999966621
 31
0.0
  0
LINE
  5
70C
330
706
100
AcDbEntity
  8
FORMAT
 62
     0
100
AcDbLine
 10
0.0
 20
0.0
 30
0.0
 11
3.4999966621
 21
0.0
 31
0.0
  0
LINE
  5
70D
330
706
100
AcDbEntity
  8
FORMAT
 62
     0
100
AcDbLine
 10
0.0
 20
6.9999933243
 30
0.0
 11
0.0
 21
8.0500006676
 31
0.0
  0
LINE
  5
70E
330
706
100
AcDbEntity
  8
FORMAT
 62
     0
100
AcDbLine
 10
-6.9999933243
 20
0.0
 30
0.0
 11
-8.0500006676
 21
0.0
 31
0.0
  0
LINE
  5
70F
330
706
100
AcDbEntity
  8
FORMAT
 62
     0
100
AcDbLine
 10
0.0
 20
-6.9999933243
 30
0.0
 11
0.0
 21
-8.0500006676
 31
0.0
  0
LINE
  5
710
330
706
100
AcDbEntity
  8
FORMAT
 62
     0
100
AcDbLine
 10
6.9999933243
 20
0.0
 30
0.0
 11
8.0500006676
 21
0.0
 31
0.0
  0
ENDBLK
  5
708
330
706
100
AcDbEntity
  8
0
100
AcDbBlockEnd
  0
ENDSEC
  0
SECTION
  2
ENTITIES
  0
LINE
  5
CA
330
1F
100
AcDbEntity
  8
FORMAT
  6
Continuous
 62
     7
370
    18
100
AcDbLine
 10
2648.7467156628
 20
249.0548071362
 30
0.0
 11
2121.8704816337
 21
249.0548071362
 31
0.0
  0
LINE
  5
CB
330
1F
100
AcDbEntity
  8
FORMAT
  6
Continuous
 62
     7
370
    18
100
AcDbLine
 10
2648.7467156628
 20
341.1944719343
 30
0.0
 11
2869.6070185003
 21
341.1944719343
 31
0.0
  0
LINE
  5
CC
330
1F
100
AcDbEntity
  8
0
  6
Continuous
 62
     7
370
    18
100
AcDbLine
 10
2552.9704263625
 20
249.0548071362
 30
0.0
 11
2552.9704263625
 21
181.3583509723
 31
0.0
  0
LINE
  5
CD
330
1F
100
AcDbEntity
  8
FORMAT
100
AcDbLine
 10
2869.6070185003
 20
2009.0
 30
0.0
 11
69.6070185003
 21
2009.0
 31
0.0
  0
LINE
  5
CE
330
1F
100
AcDbEntity
  8
FORMAT
100
AcDbLine
 10
69.6070185003
 20
2009.0
 30
0.0
 11
69.6070185003
 21
70.0
 31
0.0
  0
LINE
  5
CF
330
1F
100
AcDbEntity
  8
BEMASSUNG
  6
Continuous
 62
     7
370
    18
100
AcDbLine
 10
2648.7467156628
 20
283.9466531596
 30
0.0
 11
2869.6070185003
 21
283.9466531596
 31
0.0
  0
LINE
  5
D0
330
1F
100
AcDbEntity
  8
FORMAT
100
AcDbLine
 10
69.6070185003
 20
70.0
 30
0.0
 11
2869.6070185003
 21
70.0
 31
0.0
  0
LINE
  5
D1
330
1F
100
AcDbEntity
  8
FORMAT
100
AcDbLine
 10
2869.6070185003
 20
70.0
 30
0.0
 11
2869.6070185003
 21
2009.0
 31
0.0
  0
LINE
  5
D2
330
1F
100
AcDbEntity
  8
0
  6
Continuous
 62
     7
370
    18
100
AcDbLine
 10
2121.8704816337
 20
368.7467824209
 30
0.0
 11
2121.8704816337
 21
70.0000160588
 31
0.0
  0
LINE
  5
D3
330
1F
100
AcDbEntity
  8
0
  6
Continuous
 62
     7
370
    18
100
AcDbLine
 10
2766.39523512
 20
70.0
 30
0.0
 11
2766.39523512
 21
135.4292810523
 31
0.0
  0
LINE
  5
D4
330
1F
100
AcDbEntity
  8
0
  6
Continuous
 62
     7
370
    18
100
AcDbLine
 10
2121.8704816337
 20
181.3583509723
 30
0.0
 11
2869.6070185003
 21
181.3583509723
 31
0.0
  0
LINE
  5
D5
330
1F
100
AcDbEntity
  8
0
  6
Continuous
 62
     7
370
    18
100
AcDbLine
 10
2648.7467156628
 20
135.4292810523
 30
0.0
 11
2869.6070185003
 21
135.4292810523
 31
0.0
  0
LINE
  5
D6
330
1F
100
AcDbEntity
  8
0
  6
Continuous
 62
     7
370
    18
100
AcDbLine
 10
2121.8704816337
 20
368.7467824209
 30
0.0
 11
2869.7006917056
 21
368.7467824209
 31
0.0
  0
LINE
  5
D7
330
1F
100
AcDbEntity
  8
0
  6
Continuous
 62
     7
370
    18
100
AcDbLine
 10
2648.7467156628
 20
70.0
 30
0.0
 11
2648.7467156628
 21
368.7467824209
 31
0.0
  0
INSERT
  5
D8
330
1F
100
AcDbEntity
  8
FORMAT
100
AcDbBlockReference
  2
rechtlicher_Hinweis_Katalogzeichnungen_1
 10
86.2294908427
 20
31.5549972483
 30
0.0
 41
0.5
 42
0.5
 43
0.5
  0
INSERT
  5
D9
330
1F
100
AcDbEntity
  8
0
  6
Continuous
 62
     7
100
AcDbBlockReference
  2
Block1_3_1
 10
2700.6135347481
 20
189.6696797211
 30
0.0
  0
INSERT
  5
DA
330
1F
100
AcDbEntity
  8
0
  6
Continuous
 62
     7
100
AcDbBlockReference
  2
Block2_3_1
 10
509.1807851128
 20
-261.5944962483
 30
0.0
  0
INSERT
  5
E1
330
1F
100
AcDbEntity
  8
FORMAT
100
AcDbBlockReference
  2
SW_NOTE_0_4
 10
92.6258355624
 20
353.4889101976
 30
0.0
  0
MTEXT
  5
E2
330
1F
100
AcDbEntity
  8
0
  6
Continuous
 62
     7
370
     0
100
AcDbMText
 10
2655.2495495755
 20
165.0094332157
 30
0.0
 40
14.0
 41
0.0
 71
     1
 72
     1
  1
Maßstab:
  7
SLDTEXTSTYLE0
 73
     1
 44
1.0
  0
MTEXT
  5
E3
330
1F
100
AcDbEntity
  8
0
  6
Continuous
 62
     7
370
     0
100
AcDbMText
 10
2785.9502817651
 20
125.2286542559
 30
0.0
 40
14.0
 41
0.0
 71
     1
 72
     1
  1
Format
  7
SLDTEXTSTYLE0
 73
     1
 44
1.0
  0
MTEXT
  5
E4
330
1F
100
AcDbEntity
  8
0
  6
Continuous
 62
     7
370
     0
100
AcDbMText
 10
2135.8123898948
 20
356.9818853041
 30
0.0
 40
14.0
 41
0.0
 71
     1
 72
     1
  1
Benennung:
  7
SLDTEXTSTYLE0
 73
     1
 44
1.0
  0
MTEXT
  5
E5
330
1F
100
AcDbEntity
  8
0
  6
Continuous
 62
     7
370
     0
100
AcDbMText
 10
2664.5005395913
 20
125.2286542559
 30
0.0
 40
14.0
 41
0.0
 71
     1
 72
     1
  1
Blatt / von
  7
SLDTEXTSTYLE0
 73
     1
 44
1.0
  0
MTEXT
  5
E6
330
1F
100
AcDbEntity
  8
0
  6
Continuous
 62
     7
370
     0
100
AcDbMText
 10
2706.4725907482
 20
100.6974422258
 30
0.0
 40
17.5
 41
0.0
 71
     2
 72
     1
  1
/
  7
SLDTEXTSTYLE0
 73
     1
 44
1.0
  0
MTEXT
  5
E8
330
1F
100
AcDbEntity
  8
0
  6
Continuous
 62
     7
370
     0
100
AcDbMText
 10
2134.2541581219
 20
214.7882486886
 30
0.0
 40
22.225
 41
0.0
 71
     1
 72
     1
  1
D052-49466
  7
SLDTEXTSTYLE3
 73
     1
 44
1.0
  0
MTEXT
  5
E9
330
1F
100
AcDbEntity
  8
0
  6
Continuous
 62
     7
370
     0
100
AcDbMText
 10
2752.495267605
 20
165.9085614452
 30
0.0
 40
14.8166666667
 41
0.0
 71
     1
 72
     1
  1
1:7
  7
SLDTEXTSTYLE0
 73
     1
 44
1.0
  0
MTEXT
  5
EA
330
1F
100
AcDbEntity
  8
0
  6
Continuous
 62
     7
370
     0
100
AcDbMText
 10
2803.7489693293
 20
99.2074950551
 30
0.0
 40
14.8166666667
 41
0.0
 71
     1
 72
     1
  1
A3
  7
SLDTEXTSTYLE0
 73
     1
 44
1.0
  0
MTEXT
  5
EB
330
1F
100
AcDbEntity
  8
0
  6
Continuous
 62
     7
370
     0
100
AcDbMText
 10
2680.0334055091
 20
99.9642475618
 30
0.0
 40
14.8166666667
 41
0.0
 71
     1
 72
     1
  1
1
  7
SLDTEXTSTYLE0
 73
     1
 44
1.0
  0
MTEXT
  5
EC
330
1F
100
AcDbEntity
  8
0
  6
Continuous
 62
     7
370
     0
100
AcDbMText
 10
2722.5410575592
 20
99.9642475618
 30
0.0
 40
14.8166666667
 41
0.0
 71
     1
 72
     1
  1
1
  7
SLDTEXTSTYLE0
 73
     1
 44
1.0
  0
MTEXT
  5
ED
330
1F
100
AcDbEntity
  8
FORMAT
100
AcDbMText
 10
2137.971220638
 20
240.9301481691
 30
0.0
 40
14.0
 41
0.0
 71
     1
 72
     1
  1
Zeichnungsnummer:
  7
SLDTEXTSTYLE0
 73
     1
 44
1.0
  0
MTEXT
  5
EE
330
1F
100
AcDbEntity
  8
FORMAT
100
AcDbMText
 10
2666.6233339517
 20
361.2067203863
 30
0.0
 40
12.6
 41
0.0
 71
     1
 72
     1
  1
KATALOGZEICHNUNG
  7
SLDTEXTSTYLE3
 73
     1
 44
1.0
  0
MTEXT
  5
EF
330
1F
100
AcDbEntity
  8
FORMAT
100
AcDbMText
 10
2573.4610565193
 20
241.0417881835
 30
0.0
 40
14.0
 41
0.0
 71
     1
 72
     1
  1
Index:
  7
SLDTEXTSTYLE0
 73
     1
 44
1.0
  0
MTEXT
  5
F0
330
1F
100
AcDbEntity
  8
BEMASSUNG
 62
     7
100
AcDbMText
 10
2654.3752871088
 20
335.5547520888
 30
0.0
 40
14.0
 41
0.0
 71
     1
 72
     1
  1
Ausführung:
  7
SLDTEXTSTYLE0
 73
     1
 44
1.0
  0
MTEXT
  5
F1
330
1F
100
AcDbEntity
  8
FORMAT
100
AcDbMText
 10
2134.4508235056
 20
277.1473496808
 30
0.0
 40
17.5
 41
0.0
 71
     1
 72
     1
  1
Bandseite DIN Links
  7
SLDTEXTSTYLE3
 73
     1
 44
1.0
  0
MTEXT
  5
F2
330
1F
100
AcDbEntity
  8
FORMAT
100
AcDbMText
 10
2134.4508235056
 20
333.2914097385
 30
0.0
 40
24.5
 41
0.0
 71
     1
 72
     1
  1
ETS 73 (GSZ - GB 46 - AV 12)
  7
SLDTEXTSTYLE3
 73
     1
 44
1.0
  0
INSERT
  5
11B
330
1F
100
AcDbEntity
  8
FORMAT
100
AcDbBlockReference
  2
SW_TABLEANNOTATION_0
 10
1719.533490572
 20
1562.2368144453
 30
0.0
  0
LINE
  5
11C
330
1F
100
AcDbEntity
  8
0
  6
Continuous
 62
     7
370
    25
100
AcDbLine
 10
807.784243788
 20
1658.6178792406
 30
0.0
 11
807.784243788
 21
1660.3738952096
 31
0.0
  0
LINE
  5
11D
330
1F
100
AcDbEntity
  8
0
  6
Continuous
 62
     7
370
    25
100
AcDbLine
 10
777.784243788
 20
1660.3738952096
 30
0.0
 11
777.784243788
 21
1658.6178792406
 31
0.0
  0
LINE
  5
11E
330
1F
100
AcDbEntity
  8
0
  6
Continuous
 62
     7
370
    25
100
AcDbLine
 10
1183.0428969319
 20
1635.3738952096
 30
0.0
 11
1183.0428969319
 21
1605.3738952138
 31
0.0
  0
LINE
  5
11F
330
1F
100
AcDbEntity
  8
0
  6
Continuous
 62
     7
370
    25
100
AcDbLine
 10
1197.0428969319
 20
1605.3738952138
 30
0.0
 11
1197.0428969319
 21
1635.3738952096
 31
0.0
  0
LINE
  5
120
330
1F
100
AcDbEntity
  8
0
  6
Continuous
 62
     7
370
    25
100
AcDbLine
 10
1195.0428969319
 20
1635.3738952096
 30
0.0
 11
1195.0428969319
 21
1635.8738952096
 31
0.0
  0
LINE
  5
121
330
1F
100
AcDbEntity
  8
0
  6
Continuous
 62
     7
370
    25
100
AcDbLine
 10
1185.0428969319
 20
1635.8738952096
 30
0.0
 11
1185.0428969319
 21
1635.3738952096
 31
0.0
  0
ARC
  5
122
330
1F
100
AcDbEntity
  8
0
  6
Continuous
 62
     7
370
    25
100
AcDbCircle
 10
810.7842437867
 20
1645.8738952097
 30
0.0
 40
3.0
100
AcDbArc
 50
179.9999999999
 51
270.0
  0
LINE
  5
123
330
1F
100
AcDbEntity
  8
0
  6
Continuous
 62
     7
370
    25
100
AcDbLine
 10
777.7842437868
 20
1656.6738952097
 30
0.0
 11
777.7842437868
 21
1636.8738952097
 31
0.0
  0
LINE
  5
124
330
1F
100
AcDbEntity
  8
0
  6
Continuous
 62
     7
370
    25
100
AcDbLine
 10
807.7842437867
 20
1645.8738952097
 30
0.0
 11
807.7842437867
 21
1656.6738952097
 31
0.0
  0
LINE
  5
125
330
1F
100
AcDbEntity
  8
0
  6
Continuous
 62
     7
370
    25
100
AcDbLine
 10
777.7842437868
 20
1636.8738952097
 30
0.0
 11
778.7842437868
 21
1635.8738952097
 31
0.0
  0
LINE
  5
126
330
1F
100
AcDbEntity
  8
0
  6
Continuous
 62
     7
370
    25
100
AcDbLine
 10
807.7842437867
 20
1656.6738952097
 30
0.0
 11
807.5842437867
 21
1656.8738952097
 31
0.0
  0
LINE
  5
127
330
1F
100
AcDbEntity
  8
0
  6
Continuous
 62
     7
370
    25
100
AcDbLine
 10
777.9842437869
 20
1656.8738952097
 30
0.0
 11
777.7842437869
 21
1656.6738952097
 31
0.0
  0
LWPOLYLINE
  5
128
330
1F
100
AcDbEntity
  8
0
  6
Continuous
 62
     7
370
    25
100
AcDbPolyline
 90
       12
 70
   128
 43
0.0
 10
784.1985342431
 20
1657.6818762687
 10
784.0885586075
 20
1657.3828296105
 10
783.9039362592
 20
1657.1466170503
 10
783.7929718613
 20
1657.056263774
 10
783.6791286157
 20
1656.9868691145
 10
783.5728087972
 20
1656.938020566
 10
783.4842168321
 20
1656.90658402
 10
783.4230758577
 20
1656.8882975343
 10
783.3986530962
 20
1656.8789595545
 10
783.4194834011
 20
1656.8750582684
 10
783.4923667629
 20
1656.8739692174
 10
783.5779440886
 20
1656.8739197353
  0
LINE
  5
129
330
1F
100
AcDbEntity
  8
0
  6
Continuous
 62
     7
370
    25
100
AcDbLine
 10
784.3815250657
 20
1658.6178792406
 30
0.0
 11
784.1854012996
 21
1657.614703164
 31
0.0
  0
LWPOLYLINE
  5
12A
330
1F
100
AcDbEntity
  8
0
  6
Continuous
 62
     7
370
    25
100
AcDbPolyline
 90
        4
 70
   128
 43
0.0
 10
803.0145376875
 20
1656.8739179454
 10
803.0541462625
 20
1656.8739406305
 10
803.0797757594
 20
1656.8749919543
 10
803.0790472136
 20
1656.8751508189
  0
ARC
  5
12B
330
1F
100
AcDbEntity
  8
0
  6
Continuous
 62
     7
370
    25
100
AcDbCircle
 10
803.2055589251
 20
1657.8850746685
 30
0.0
 40
1.016334646529865
100
AcDbArc
 50
192.6141786487
 51
261.8326251793
  0
LINE
  5
12C
330
1F
100
AcDbEntity
  8
0
  6
Continuous
 62
     7
370
    25
100
AcDbLine
 10
802.2137565292
 20
1657.6631207846
 30
0.0
 11
802.0079686626
 21
1658.6178792406
 31
0.0
  0
LINE
  5
12D
330
1F
100
AcDbEntity
  8
0
  6
Continuous
 62
     7
370
    25
100
AcDbLine
 10
783.560518911
 20
1658.6178792406
 30
0.0
 11
783.3444775035
 21
1657.6155492004
 31
0.0
  0
ARC
  5
12E
330
1F
100
AcDbEntity
  8
0
  6
Continuous
 62
     7
370
    25
100
AcDbCircle
 10
782.3887444655
 20
1657.8596550907
 30
0.0
 40
0.9857770834023357
100
AcDbArc
 50
269.5440885489
 51
348.4999965655
  0
LINE
  5
12F
330
1F
100
AcDbEntity
  8
0
  6
Continuous
 62
     7
370
    25
100
AcDbLine
 10
1201.0428969318
 20
1641.8738952096
 30
0.0
 11
1200.0428969318
 21
1642.8738952096
 31
0.0
  0
LINE
  5
130
330
1F
100
AcDbEntity
  8
0
  6
Continuous
 62
     7
370
    25
100
AcDbLine
 10
1200.0428969318
 20
1635.8738952096
 30
0.0
 11
1201.0428969318
 21
1636.8738952096
 31
0.0
  0
LINE
  5
131
330
1F
100
AcDbEntity
  8
0
  6
Continuous
 62
     7
370
    25
100
AcDbLine
 10
1201.0428969318
 20
1636.8738952096
 30
0.0
 11
1201.0428969318
 21
1641.8738952096
 31
0.0
  0
LINE
  5
132
330
1F
100
AcDbEntity
  8
0
  6
Continuous
 62
     7
370
    25
100
AcDbLine
 10
500.784243788
 20
1451.8738952096
 30
0.0
 11
500.784243788
 21
1411.8738952096
 31
0.0
  0
LINE
  5
133
330
1F
100
AcDbEntity
  8
0
  6
Continuous
 62
     7
370
    25
100
AcDbLine
 10
524.814243788
 20
1451.8738952096
 30
0.0
 11
524.814243788
 21
1481.8738952096
 31
0.0
  0
LINE
  5
134
330
1F
100
AcDbEntity
  8
0
  6
Continuous
 62
     7
370
    25
100
AcDbLine
 10
524.814243788
 20
1381.8738952096
 30
0.0
 11
524.814243788
 21
1411.8738952096
 31
0.0
  0
LINE
  5
135
330
1F
100
AcDbEntity
  8
0
  6
Continuous
 62
     7
370
    25
100
AcDbLine
 10
788.9452599661
 20
1658.6178792406
 30
0.0
 11
807.784243788
 21
1658.6178792406
 31
0.0
  0
LINE
  5
136
330
1F
100
AcDbEntity
  8
0
  6
Continuous
 62
     7
370
    25
100
AcDbLine
 10
777.784243788
 20
1658.6178792406
 30
0.0
 11
788.9452599661
 21
1658.6178792406
 31
0.0
  0
LINE
  5
137
330
1F
100
AcDbEntity
  8
0
  6
Continuous
 62
     7
370
    25
100
AcDbLine
 10
1197.0428969319
 20
1635.3738952096
 30
0.0
 11
1183.0428969319
 21
1635.3738952096
 31
0.0
  0
LWPOLYLINE
  5
138
330
1F
100
AcDbEntity
  8
0
  6
Continuous
 62
     7
370
    25
100
AcDbPolyline
 90
       16
 70
   128
 43
0.0
 10
805.6566652878
 20
1642.8738952097
 10
803.8506647369
 20
1643.0101530108
 10
801.9995094302
 20
1643.3695114296
 10
800.0996861661
 20
1643.8952095551
 10
798.7920814793
 20
1644.3195273556
 10
797.323926389
 20
1644.836162664
 10
796.9861525368
 20
1644.9591875736
 10
796.6417743751
 20
1645.0858312472
 10
796.2906490365
 20
1645.2159218542
 10
795.9326067287
 20
1645.3492631308
 10
794.902930279
 20
1645.7367967151
 10
794.6372086127
 20
1645.836954401
 10
794.5665460389
 20
1645.8633322073
 10
794.5467709865
 20
1645.87059066
 10
794.5407732159
 20
1645.872737175
 10
794.5373687868
 20
1645.8738952097
  0
LINE
  5
139
330
1F
100
AcDbEntity
  8
0
  6
Continuous
 62
     7
370
    25
100
AcDbLine
 10
805.7735402878
 20
1641.8738952097
 30
0.0
 11
805.6566652878
 21
1642.8738952097
 31
0.0
  0
LWPOLYLINE
  5
13A
330
1F
100
AcDbEntity
  8
0
  6
Continuous
 62
     7
370
    25
100
AcDbPolyline
 90
       16
 70
   128
 43
0.0
 10
805.7735402878
 20
1641.8738952097
 10
803.7888003078
 20
1642.0531633058
 10
801.8156699458
 20
1642.5320325992
 10
799.8673333742
 20
1643.2356552475
 10
799.0277869227
 20
1643.5963249405
 10
798.1254431688
 20
1644.0145236404
 10
797.1603021125
 20
1644.4902513473
 10
795.8434587337
 20
1645.1743844872
 10
795.6047304627
 20
1645.3010610403
 10
795.3868503405
 20
1645.4174417822
 10
795.1898183673
 20
1645.5235267126
 10
794.7144610327
 20
1645.780013484
 10
794.5886317737
 20
1645.8472799775
 10
794.5536794962
 20
1645.8656690013
 10
794.5431939455
 20
1645.8710524574
 10
794.5373687868
 20
1645.8738952097
  0
LINE
  5
13B
330
1F
100
AcDbEntity
  8
0
  6
Continuous
 62
     7
370
    25
100
AcDbLine
 10
794.5373687868
 20
1636.8738952097
 30
0.0
 11
794.5373687868
 21
1645.8738952097
 31
0.0
  0
LINE
  5
13C
330
1F
100
AcDbEntity
  8
0
  6
Continuous
 62
     7
370
    25
100
AcDbLine
 10
794.5373687868
 20
1636.8738952097
 30
0.0
 11
777.7842437868
 21
1636.8738952097
 31
0.0
  0
LINE
  5
13D
330
1F
100
AcDbEntity
  8
0
  6
Continuous
 62
     7
370
    25
100
AcDbLine
 10
794.5373687868
 20
1656.6738952097
 30
0.0
 11
777.7842437868
 21
1656.6738952097
 31
0.0
  0
LINE
  5
13E
330
1F
100
AcDbEntity
  8
0
  6
Continuous
 62
     7
370
    25
100
AcDbLine
 10
807.7842437867
 20
1656.6738952097
 30
0.0
 11
794.5373687868
 21
1656.6738952097
 31
0.0
  0
LINE
  5
13F
330
1F
100
AcDbEntity
  8
0
  6
Continuous
 62
     7
370
    25
100
AcDbLine
 10
794.4204937868
 20
1635.8738952097
 30
0.0
 11
794.5373687868
 21
1636.8738952097
 31
0.0
  0
LINE
  5
140
330
1F
100
AcDbEntity
  8
0
  6
Continuous
 62
     7
370
    25
100
AcDbLine
 10
794.4204937868
 20
1635.8738952097
 30
0.0
 11
778.7842437868
 21
1635.8738952097
 31
0.0
  0
LINE
  5
141
330
1F
100
AcDbEntity
  8
0
  6
Continuous
 62
     7
370
    25
100
AcDbLine
 10
794.5139937868
 20
1656.8738952097
 30
0.0
 11
777.9842437869
 21
1656.8738952097
 31
0.0
  0
LINE
  5
142
330
1F
100
AcDbEntity
  8
0
  6
Continuous
 62
     7
370
    25
100
AcDbLine
 10
807.5842437867
 20
1656.8738952097
 30
0.0
 11
794.5139937868
 21
1656.8738952097
 31
0.0
  0
LINE
  5
143
330
1F
100
AcDbEntity
  8
0
  6
Continuous
 62
     7
370
    25
100
AcDbLine
 10
1003.5662158297
 20
1636.8738952096
 30
0.0
 11
1003.5662158297
 21
1641.8738952096
 31
0.0
  0
LINE
  5
144
330
1F
100
AcDbEntity
  8
0
  6
Continuous
 62
     7
370
    25
100
AcDbLine
 10
1003.5662158297
 20
1636.8738952096
 30
0.0
 11
794.5373687868
 21
1636.8738952097
 31
0.0
  0
LINE
  5
145
330
1F
100
AcDbEntity
  8
0
  6
Continuous
 62
     7
370
    25
100
AcDbLine
 10
1003.5662158297
 20
1641.8738952096
 30
0.0
 11
805.7735402878
 21
1641.8738952097
 31
0.0
  0
LINE
  5
146
330
1F
100
AcDbEntity
  8
0
  6
Continuous
 62
     7
370
    25
100
AcDbLine
 10
1003.5662158297
 20
1636.8738952096
 30
0.0
 11
1003.4493408297
 21
1635.8738952096
 31
0.0
  0
LINE
  5
147
330
1F
100
AcDbEntity
  8
0
  6
Continuous
 62
     7
370
    25
100
AcDbLine
 10
1003.4493408297
 20
1635.8738952096
 30
0.0
 11
794.4204937868
 21
1635.8738952097
 31
0.0
  0
LINE
  5
148
330
1F
100
AcDbEntity
  8
0
  6
Continuous
 62
     7
370
    25
100
AcDbLine
 10
805.6566652878
 20
1642.8738952097
 30
0.0
 11
1003.4493408297
 21
1642.8738952096
 31
0.0
  0
LINE
  5
149
330
1F
100
AcDbEntity
  8
0
  6
Continuous
 62
     7
370
    25
100
AcDbLine
 10
1003.5662158297
 20
1641.8738952096
 30
0.0
 11
1003.4493408297
 21
1642.8738952096
 31
0.0
  0
LWPOLYLINE
  5
14A
330
1F
100
AcDbEntity
  8
0
  6
Continuous
 62
     7
370
    25
100
AcDbPolyline
 90
        9
 70
   128
 43
0.0
 10
790.9080932914
 20
1656.8738952097
 10
790.8222978186
 20
1656.8894686416
 10
790.7391746057
 20
1656.9357038738
 10
790.6613126802
 20
1657.0111608237
 10
790.5911371967
 20
1657.1134892441
 10
790.5308339015
 20
1657.2395019255
 10
790.4822810532
 20
1657.3852739682
 10
790.4469909207
 20
1657.5462650301
 10
790.4260626809
 20
1657.7174607447
  0
ARC
  5
14B
330
1F
100
AcDbEntity
  8
0
  6
Continuous
 62
     7
370
    25
100
AcDbCircle
 10
788.9722532553
 20
1657.7914520757
 30
0.0
 40
0.9191498472623635
100
AcDbArc
 50
273.3737472447
 51
355.3827081635
  0
ARC
  5
14C
330
1F
100
AcDbEntity
  8
0
  6
Continuous
 62
     7
370
    25
100
AcDbCircle
 10
790.157241394
 20
1658.251424873
 30
0.0
 40
0.5978148330896561
100
AcDbArc
 50
243.2772849694
 51
296.7227163649
  0
LWPOLYLINE
  5
14D
330
1F
100
AcDbEntity
  8
0
  6
Continuous
 62
     7
370
    25
100
AcDbPolyline
 90
        3
 70
   128
 43
0.0
 10
793.588026346
 20
1657.1134892441
 10
793.6825012296
 20
1656.9357038738
 10
793.7978573897
 20
1656.8738952097
  0
LINE
  5
14E
330
1F
100
AcDbEntity
  8
0
  6
Continuous
 62
     7
370
    25
100
AcDbLine
 10
790.4260626809
 20
1657.7174607447
 30
0.0
 11
793.5300768813
 21
1657.7174607447
 31
0.0
  0
LWPOLYLINE
  5
14F
330
1F
100
AcDbEntity
  8
0
  6
Continuous
 62
     7
370
    25
100
AcDbPolyline
 90
        3
 70
   128
 43
0.0
 10
793.5300768813
 20
1657.7174607447
 10
793.5327327281
 20
1657.3852739682
 10
793.588026346
 20
1657.1134892441
  0
LWPOLYLINE
  5
150
330
1F
100
AcDbEntity
  8
0
  6
Continuous
 62
     7
370
    25
100
AcDbPolyline
 90
        3
 70
   128
 43
0.0
 10
793.856456836
 20
1657.1134892421
 10
793.8580922977
 20
1657.3852739668
 10
793.8303821481
 20
1657.7174607446
  0
LINE
  5
151
330
1F
100
AcDbEntity
  8
0
  6
Continuous
 62
     7
370
    25
100
AcDbLine
 10
793.8303821481
 20
1657.7174607446
 30
0.0
 11
797.2525152573
 21
1657.7174607446
 31
0.0
  0
LWPOLYLINE
  5
152
330
1F
100
AcDbEntity
  8
0
  6
Continuous
 62
     7
370
    25
100
AcDbPolyline
 90
        9
 70
   128
 43
0.0
 10
797.2525152573
 20
1657.7174607446
 10
797.2408477422
 20
1657.5462650301
 10
797.2211734574
 20
1657.3852739682
 10
797.1941051949
 20
1657.2395019255
 10
797.1604860464
 20
1657.1134892441
 10
797.1213631428
 20
1657.0111608237
 10
797.0779550399
 20
1656.9357038738
 10
797.031613764
 20
1656.8894686416
 10
796.9837827004
 20
1656.8738952097
  0
LWPOLYLINE
  5
153
330
1F
100
AcDbEntity
  8
0
  6
Continuous
 62
     7
370
    25
100
AcDbPolyline
 90
        3
 70
   128
 43
0.0
 10
793.7978573897
 20
1656.8738952097
 10
793.8329777793
 20
1656.9357038732
 10
793.856456836
 20
1657.1134892421
  0
LWPOLYLINE
  5
154
330
1F
100
AcDbEntity
  8
0
  6
Continuous
 62
     7
370
    25
100
AcDbPolyline
 90
        3
 70
   128
 43
0.0
 10
787.9174829078
 20
1657.1134892421
 10
788.0822144698
 20
1657.3852739668
 10
788.1528072987
 20
1657.7174607446
  0
LINE
  5
155
330
1F
100
AcDbEntity
  8
0
  6
Continuous
 62
     7
370
    25
100
AcDbLine
 10
788.1528072987
 20
1657.7174607446
 30
0.0
 11
789.8884201204
 21
1657.7174607446
 31
0.0
  0
LWPOLYLINE
  5
156
330
1F
100
AcDbEntity
  8
0
  6
Continuous
 62
     7
370
    25
100
AcDbPolyline
 90
        3
 70
   128
 43
0.0
 10
787.4105296316
 20
1656.8738952097
 10
787.6826785732
 20
1656.9357038732
 10
787.9174829078
 20
1657.1134892421
  0
ARC
  5
157
330
1F
100
AcDbEntity
  8
0
  6
Continuous
 62
     7
370
    25
100
AcDbCircle
 10
798.7058548112
 20
1657.8482712747
 30
0.0
 40
0.9744953823075188
100
AcDbArc
 50
187.7143350978
 51
269.1033892401
  0
ARC
  5
158
330
1F
100
AcDbEntity
  8
0
  6
Continuous
 62
     7
370
    25
100
AcDbCircle
 10
797.4963471017
 20
1658.1318331379
 30
0.0
 40
0.4807894070804404
100
AcDbArc
 50
239.525891122
 51
300.474110349
  0
LWPOLYLINE
  5
159
330
1F
100
AcDbEntity
  8
0
  6
Continuous
 62
     7
370
    25
100
AcDbPolyline
 90
        3
 70
   128
 43
0.0
 10
798.9998708934
 20
1657.1134892441
 10
799.275061511
 20
1656.9357038738
 10
799.5914240462
 20
1656.8738952097
  0
LINE
  5
15A
330
1F
100
AcDbEntity
  8
0
  6
Continuous
 62
     7
370
    25
100
AcDbLine
 10
797.740178957
 20
1657.7174607447
 30
0.0
 11
798.7077848644
 21
1657.7174607447
 31
0.0
  0
LWPOLYLINE
  5
15B
330
1F
100
AcDbEntity
  8
0
  6
Continuous
 62
     7
370
    25
100
AcDbPolyline
 90
        3
 70
   128
 43
0.0
 10
798.7077848644
 20
1657.7174607447
 10
798.8019345484
 20
1657.3852739682
 10
798.9998708934
 20
1657.1134892441
  0
ARC
  5
15C
330
1F
100
AcDbEntity
  8
0
  6
Continuous
 62
     7
370
    25
100
AcDbCircle
 10
792.2895286634
 20
1658.1653961969
 30
0.0
 40
1.67110875443522
100
AcDbArc
 50
320.9892283154
 51
327.6243106453
  0
ARC
  5
15D
330
1F
100
AcDbEntity
  8
0
  6
Continuous
 62
     7
370
    25
100
AcDbCircle
 10
794.5592730518
 20
1657.9652024706
 30
0.0
 40
1.104249091851291
100
AcDbArc
 50
218.980366801
 51
230.471252979
  0
LINE
  5
15E
330
1F
100
AcDbEntity
  8
0
  6
Continuous
 62
     7
370
    25
100
AcDbLine
 10
793.6769945162
 20
1657.7049262037
 30
0.0
 11
793.5300768813
 21
1657.7174607447
 31
0.0
  0
ARC
  5
15F
330
1F
100
AcDbEntity
  8
0
  6
Continuous
 62
     7
370
    25
100
AcDbCircle
 10
800.0340241943
 20
1657.8365544853
 30
0.0
 40
6.358392235782554
100
AcDbArc
 50
181.1861930225
 51
185.1068718155
  0
LINE
  5
160
330
1F
100
AcDbEntity
  8
0
  6
Continuous
 62
     7
370
    25
100
AcDbLine
 10
793.8303821481
 20
1657.7174607446
 30
0.0
 11
793.6769945162
 21
1657.7049262037
 31
0.0
  0
LWPOLYLINE
  5
161
330
1F
100
AcDbEntity
  8
0
  6
Continuous
 62
     7
370
    25
100
AcDbPolyline
 90
        3
 70
   128
 43
0.0
 10
787.7053368767
 20
1657.1134892441
 10
787.5637539206
 20
1656.9357038738
 10
787.4105296316
 20
1656.8738952097
  0
LWPOLYLINE
  5
162
330
1F
100
AcDbEntity
  8
0
  6
Continuous
 62
     7
370
    25
100
AcDbPolyline
 90
        9
 70
   128
 43
0.0
 10
784.2246043573
 20
1656.8738952097
 10
784.2724354208
 20
1656.8894686416
 10
784.3187766967
 20
1656.9357038738
 10
784.3621847996
 20
1657.0111608237
 10
784.4013077032
 20
1657.1134892441
 10
784.4349268518
 20
1657.2395019255
 10
784.4619951142
 20
1657.3852739682
 10
784.4816693991
 20
1657.5462650302
 10
784.4933369141
 20
1657.7174607447
  0
LINE
  5
163
330
1F
100
AcDbEntity
  8
0
  6
Continuous
 62
     7
370
    25
100
AcDbLine
 10
784.4933369141
 20
1657.7174607447
 30
0.0
 11
787.9154699867
 21
1657.7174607447
 31
0.0
  0
LWPOLYLINE
  5
164
330
1F
100
AcDbEntity
  8
0
  6
Continuous
 62
     7
370
    25
100
AcDbPolyline
 90
        3
 70
   128
 43
0.0
 10
787.9154699867
 20
1657.7174607447
 10
787.8250762373
 20
1657.3852739682
 10
787.7053368767
 20
1657.1134892441
  0
ARC
  5
165
330
1F
100
AcDbEntity
  8
0
  6
Continuous
 62
     7
370
    25
100
AcDbCircle
 10
787.2272604479
 20
1658.0128339855
 30
0.0
 40
1.018517567650705
100
AcDbArc
 50
297.9943549484
 51
313.2167180076
  0
ARC
  5
166
330
1F
100
AcDbEntity
  8
0
  6
Continuous
 62
     7
370
    25
100
AcDbCircle
 10
787.4588922542
 20
1657.2132663747
 30
0.0
 40
0.4693195752955444
100
AcDbArc
 50
347.7252635685
 51
7.0132914395
  0
ARC
  5
167
330
1F
100
AcDbEntity
  8
0
  6
Continuous
 62
     7
370
    25
100
AcDbCircle
 10
786.7071766239
 20
1657.861642052
 30
0.0
 40
1.353414193743524
100
AcDbArc
 50
334.104790299
 51
353.3506380247
  0
LINE
  5
168
330
1F
100
AcDbEntity
  8
0
  6
Continuous
 62
     7
370
    25
100
AcDbLine
 10
788.1528072987
 20
1657.7174607446
 30
0.0
 11
788.0514871147
 21
1657.7049262037
 31
0.0
  0
LINE
  5
169
330
1F
100
AcDbEntity
  8
0
  6
Continuous
 62
     7
370
    25
100
AcDbLine
 10
788.0514871147
 20
1657.7049262037
 30
0.0
 11
787.9154699867
 21
1657.7174607447
 31
0.0
  0
LINE
  5
16A
330
1F
100
AcDbEntity
  8
0
  6
Continuous
 62
     7
370
    25
100
AcDbLine
 10
783.4109129399
 20
1656.8846395509
 30
0.0
 11
783.2702324294
 21
1656.8738952097
 31
0.0
  0
LWPOLYLINE
  5
16B
330
1F
100
AcDbEntity
  8
0
  6
Continuous
 62
     7
370
    25
100
AcDbPolyline
 90
        8
 70
   128
 43
0.0
 10
784.2206592121
 20
1657.7174607384
 10
784.1987269223
 20
1657.6725900704
 10
784.2124102579
 20
1657.6597312869
 10
784.2436024869
 20
1657.6554091127
 10
784.2906880401
 20
1657.6598058291
 10
784.3464694858
 20
1657.6715670978
 10
784.4144328509
 20
1657.6907746035
 10
784.4933369141
 20
1657.7174607447
  0
LWPOLYLINE
  5
16C
330
1F
100
AcDbEntity
  8
0
  6
Continuous
 62
     7
370
    25
100
AcDbPolyline
 90
        3
 70
   128
 43
0.0
 10
799.1673429018
 20
1657.113489242
 10
799.0049242319
 20
1657.3852739668
 10
798.8951433335
 20
1657.7174607446
  0
LINE
  5
16D
330
1F
100
AcDbEntity
  8
0
  6
Continuous
 62
     7
370
    25
100
AcDbLine
 10
798.8951433335
 20
1657.7174607446
 30
0.0
 11
801.9991575671
 21
1657.7174607446
 31
0.0
  0
LWPOLYLINE
  5
16E
330
1F
100
AcDbEntity
  8
0
  6
Continuous
 62
     7
370
    25
100
AcDbPolyline
 90
        9
 70
   128
 43
0.0
 10
801.9991575671
 20
1657.7174607446
 10
802.0200858069
 20
1657.5462650301
 10
802.0553759394
 20
1657.3852739682
 10
802.1039287877
 20
1657.2395019255
 10
802.1642320829
 20
1657.1134892441
 10
802.2344075664
 20
1657.0111608237
 10
802.3122694919
 20
1656.9357038738
 10
802.3953927048
 20
1656.8894686416
 10
802.4811881776
 20
1656.8738952097
  0
LWPOLYLINE
  5
16F
330
1F
100
AcDbEntity
  8
0
  6
Continuous
 62
     7
370
    25
100
AcDbPolyline
 90
        3
 70
   128
 43
0.0
 10
799.5914240462
 20
1656.8738952097
 10
799.3689428359
 20
1656.9357038732
 10
799.1673429018
 20
1657.113489242
  0
ARC
  5
170
330
1F
100
AcDbEntity
  8
0
  6
Continuous
 62
     7
370
    25
100
AcDbCircle
 10
799.2927927142
 20
1657.3148709006
 30
0.0
 40
0.355468373692547
100
AcDbArc
 50
187.1591901883
 51
214.5082446725
  0
ARC
  5
171
330
1F
100
AcDbEntity
  8
0
  6
Continuous
 62
     7
370
    25
100
AcDbCircle
 10
799.5818096356
 20
1657.9560124313
 30
0.0
 40
0.9389504767895264
100
AcDbArc
 50
226.8871512525
 51
243.8058075803
  0
LINE
  5
172
330
1F
100
AcDbEntity
  8
0
  6
Continuous
 62
     7
370
    25
100
AcDbLine
 10
798.7795406482
 20
1657.7049262037
 30
0.0
 11
798.7077848644
 21
1657.7174607447
 31
0.0
  0
ARC
  5
173
330
1F
100
AcDbEntity
  8
0
  6
Continuous
 62
     7
370
    25
100
AcDbCircle
 10
799.9129364621
 20
1657.8770212103
 30
0.0
 40
1.146386562266993
100
AcDbArc
 50
188.6338504036
 51
211.9386567672
  0
LINE
  5
174
330
1F
100
AcDbEntity
  8
0
  6
Continuous
 62
     7
370
    25
100
AcDbLine
 10
798.8951433335
 20
1657.7174607446
 30
0.0
 11
798.7795406482
 21
1657.7049262037
 31
0.0
  0
LWPOLYLINE
  5
175
330
1F
100
AcDbEntity
  8
0
  6
Continuous
 62
     7
370
    25
100
AcDbPolyline
 90
        9
 70
   128
 43
0.0
 10
801.9991575676
 20
1657.7174607384
 10
802.071388713
 20
1657.6903328733
 10
802.1297207688
 20
1657.6709556298
 10
802.1729872628
 20
1657.6592603762
 10
802.2006987057
 20
1657.6553217396
 10
802.213160177
 20
1657.6592540545
 10
802.2097248114
 20
1657.670947885
 10
802.1892571627
 20
1657.6903275541
 10
802.1511756247
 20
1657.7174607447
  0
ARC
  5
176
330
1F
100
AcDbEntity
  8
0
  6
Continuous
 62
     7
370
    25
100
AcDbCircle
 10
782.5011450839
 20
1657.7914520757
 30
0.0
 40
0.9191498472666435
100
AcDbArc
 50
273.3737472448
 51
355.3827081651
  0
LINE
  5
177
330
1F
100
AcDbEntity
  8
0
  6
Continuous
 62
     7
370
    25
100
AcDbLine
 10
1004.4771264742
 20
1635.8738952096
 30
0.0
 11
1004.6149766915
 21
1636.8738952096
 31
0.0
  0
LINE
  5
178
330
1F
100
AcDbEntity
  8
0
  6
Continuous
 62
     7
370
    25
100
AcDbLine
 10
1003.5662158297
 20
1636.8738952096
 30
0.0
 11
1004.6149766915
 21
1636.8738952096
 31
0.0
  0
LINE
  5
179
330
1F
100
AcDbEntity
  8
0
  6
Continuous
 62
     7
370
    25
100
AcDbLine
 10
1004.4771264742
 20
1635.8738952096
 30
0.0
 11
1003.4493408297
 21
1635.8738952096
 31
0.0
  0
LINE
  5
17A
330
1F
100
AcDbEntity
  8
0
  6
Continuous
 62
     7
370
    25
100
AcDbLine
 10
1004.6149766915
 20
1641.8738952096
 30
0.0
 11
1003.5662158297
 21
1641.8738952096
 31
0.0
  0
LINE
  5
17B
330
1F
100
AcDbEntity
  8
0
  6
Continuous
 62
     7
370
    25
100
AcDbLine
 10
1004.6149766915
 20
1641.8738952096
 30
0.0
 11
1004.6149766915
 21
1636.8738952096
 31
0.0
  0
LINE
  5
17C
330
1F
100
AcDbEntity
  8
0
  6
Continuous
 62
     7
370
    25
100
AcDbLine
 10
1004.4771264742
 20
1642.8738952096
 30
0.0
 11
1004.6149766915
 21
1641.8738952096
 31
0.0
  0
LINE
  5
17D
330
1F
100
AcDbEntity
  8
0
  6
Continuous
 62
     7
370
    25
100
AcDbLine
 10
1003.4493408297
 20
1642.8738952096
 30
0.0
 11
1004.4771264742
 21
1642.8738952096
 31
0.0
  0
LINE
  5
17E
330
1F
100
AcDbEntity
  8
0
  6
Continuous
 62
     7
370
    25
100
AcDbLine
 10
1191.4213991042
 20
1635.8738952096
 30
0.0
 11
1191.5592493215
 21
1636.8738952096
 31
0.0
  0
LINE
  5
17F
330
1F
100
AcDbEntity
  8
0
  6
Continuous
 62
     7
370
    25
100
AcDbLine
 10
1191.5592493215
 20
1636.8738952096
 30
0.0
 11
1004.6149766915
 21
1636.8738952096
 31
0.0
  0
LINE
  5
180
330
1F
100
AcDbEntity
  8
0
  6
Continuous
 62
     7
370
    25
100
AcDbLine
 10
1191.4213991042
 20
1635.8738952096
 30
0.0
 11
1004.4771264742
 21
1635.8738952096
 31
0.0
  0
LINE
  5
181
330
1F
100
AcDbEntity
  8
0
  6
Continuous
 62
     7
370
    25
100
AcDbLine
 10
1191.5592493215
 20
1641.8738952096
 30
0.0
 11
1191.4213991042
 21
1642.8738952096
 31
0.0
  0
LINE
  5
182
330
1F
100
AcDbEntity
  8
0
  6
Continuous
 62
     7
370
    25
100
AcDbLine
 10
1191.5592493215
 20
1641.8738952096
 30
0.0
 11
1004.6149766915
 21
1641.8738952096
 31
0.0
  0
LINE
  5
183
330
1F
100
AcDbEntity
  8
0
  6
Continuous
 62
     7
370
    25
100
AcDbLine
 10
1004.4771264742
 20
1642.8738952096
 30
0.0
 11
1191.4213991042
 21
1642.8738952096
 31
0.0
  0
LINE
  5
184
330
1F
100
AcDbEntity
  8
0
  6
Continuous
 62
     7
370
    25
100
AcDbLine
 10
1191.5592493215
 20
1636.8738952096
 30
0.0
 11
1191.5592493215
 21
1641.8738952096
 31
0.0
  0
LINE
  5
185
330
1F
100
AcDbEntity
  8
0
  6
Continuous
 62
     7
370
    25
100
AcDbLine
 10
1201.0428969318
 20
1641.8738952096
 30
0.0
 11
1191.5592493215
 21
1641.8738952096
 31
0.0
  0
LINE
  5
186
330
1F
100
AcDbEntity
  8
0
  6
Continuous
 62
     7
370
    25
100
AcDbLine
 10
1191.4213991042
 20
1642.8738952096
 30
0.0
 11
1200.0428969318
 21
1642.8738952096
 31
0.0
  0
LINE
  5
187
330
1F
100
AcDbEntity
  8
0
  6
Continuous
 62
     7
370
    25
100
AcDbLine
 10
1201.0428969318
 20
1636.8738952096
 30
0.0
 11
1191.5592493215
 21
1636.8738952096
 31
0.0
  0
LINE
  5
188
330
1F
100
AcDbEntity
  8
0
  6
Continuous
 62
     7
370
    25
100
AcDbLine
 10
1200.0428969318
 20
1635.8738952096
 30
0.0
 11
1191.4213991042
 21
1635.8738952096
 31
0.0
  0
LINE
  5
189
330
1F
100
AcDbEntity
  8
0
  6
Continuous
 62
     7
370
    25
100
AcDbLine
 10
1244.7842436647
 20
1604.8738952158
 30
0.0
 11
1244.7842436647
 21
1588.8738952158
 31
0.0
  0
LINE
  5
18A
330
1F
100
AcDbEntity
  8
0
  6
Continuous
 62
     7
370
    25
100
AcDbLine
 10
1244.2842436647
 20
1588.8738952158
 30
0.0
 11
1244.7842436647
 21
1588.8738952158
 31
0.0
  0
LINE
  5
18B
330
1F
100
AcDbEntity
  8
0
  6
Continuous
 62
     7
370
    25
100
AcDbLine
 10
1244.2842436647
 20
1604.8738952158
 30
0.0
 11
1244.2842436647
 21
1588.8738952158
 31
0.0
  0
LINE
  5
18C
330
1F
100
AcDbEntity
  8
0
  6
Continuous
 62
     7
370
    25
100
AcDbLine
 10
1244.7842436647
 20
1604.8738952158
 30
0.0
 11
1244.2842436647
 21
1604.8738952158
 31
0.0
  0
LINE
  5
18D
330
1F
100
AcDbEntity
  8
0
  6
Continuous
 62
     7
370
    25
100
AcDbLine
 10
1226.7842436652
 20
1588.8738952158
 30
0.0
 11
1244.2842436647
 21
1588.8738952158
 31
0.0
  0
LINE
  5
18E
330
1F
100
AcDbEntity
  8
0
  6
Continuous
 62
     7
370
    25
100
AcDbLine
 10
1226.7842436653
 20
1604.8738952158
 30
0.0
 11
1226.7842436652
 21
1588.8738952158
 31
0.0
  0
LINE
  5
18F
330
1F
100
AcDbEntity
  8
0
  6
Continuous
 62
     7
370
    25
100
AcDbLine
 10
1244.2842436647
 20
1604.8738952158
 30
0.0
 11
1226.7842436653
 21
1604.8738952158
 31
0.0
  0
LINE
  5
190
330
1F
100
AcDbEntity
  8
0
  6
Continuous
 62
     7
370
    25
100
AcDbLine
 10
1226.284243665
 20
1588.8738952158
 30
0.0
 11
1226.7842436652
 21
1588.8738952158
 31
0.0
  0
LINE
  5
191
330
1F
100
AcDbEntity
  8
0
  6
Continuous
 62
     7
370
    25
100
AcDbLine
 10
1226.2842436653
 20
1604.8738952158
 30
0.0
 11
1226.284243665
 21
1588.8738952158
 31
0.0
  0
LINE
  5
192
330
1F
100
AcDbEntity
  8
0
  6
Continuous
 62
     7
370
    25
100
AcDbLine
 10
1226.7842436653
 20
1604.8738952158
 30
0.0
 11
1226.2842436653
 21
1604.8738952158
 31
0.0
  0
LINE
  5
193
330
1F
100
AcDbEntity
  8
0
  6
Continuous
 62
     7
370
    25
100
AcDbLine
 10
1226.7842436653
 20
1605.3738952158
 30
0.0
 11
1226.7842436653
 21
1604.8738952158
 31
0.0
  0
LINE
  5
194
330
1F
100
AcDbEntity
  8
0
  6
Continuous
 62
     7
370
    25
100
AcDbLine
 10
1226.7842436653
 20
1605.3738952158
 30
0.0
 11
1244.2842436647
 21
1605.3738952158
 31
0.0
  0
LINE
  5
195
330
1F
100
AcDbEntity
  8
0
  6
Continuous
 62
     7
370
    25
100
AcDbLine
 10
1244.2842436647
 20
1605.3738952158
 30
0.0
 11
1244.2842436647
 21
1604.8738952158
 31
0.0
  0
ARC
  5
196
330
1F
100
AcDbEntity
  8
0
  6
Continuous
 62
     7
370
    25
100
AcDbCircle
 10
1244.2842436647
 20
1604.8738952158
 30
0.0
 40
0.5000000000002274
100
AcDbArc
 50
0.0000000002
 51
90.0
  0
ARC
  5
197
330
1F
100
AcDbEntity
  8
0
  6
Continuous
 62
     7
370
    25
100
AcDbCircle
 10
1226.7842436653
 20
1604.8738952158
 30
0.0
 40
0.5000000000002274
100
AcDbArc
 50
90.0
 51
179.9999999989
  0
ARC
  5
198
330
1F
100
AcDbEntity
  8
0
  6
Continuous
 62
     7
370
    25
100
AcDbCircle
 10
1244.2842436647
 20
1588.8738952158
 30
0.0
 40
0.5000000000002274
100
AcDbArc
 50
270.0
 51
0.0
  0
LINE
  5
199
330
1F
100
AcDbEntity
  8
0
  6
Continuous
 62
     7
370
    25
100
AcDbLine
 10
1244.2842436647
 20
1588.8738952158
 30
0.0
 11
1244.2842436647
 21
1588.3738952158
 31
0.0
  0
LINE
  5
19A
330
1F
100
AcDbEntity
  8
0
  6
Continuous
 62
     7
370
    25
100
AcDbLine
 10
1244.2842436647
 20
1588.3738952158
 30
0.0
 11
1226.784243665
 21
1588.3738952158
 31
0.0
  0
LINE
  5
19B
330
1F
100
AcDbEntity
  8
0
  6
Continuous
 62
     7
370
    25
100
AcDbLine
 10
1226.7842436652
 20
1588.8738952158
 30
0.0
 11
1226.784243665
 21
1588.3738952158
 31
0.0
  0
ARC
  5
19C
330
1F
100
AcDbEntity
  8
0
  6
Continuous
 62
     7
370
    25
100
AcDbCircle
 10
1226.784243665
 20
1588.8738952158
 30
0.0
 40
0.5
100
AcDbArc
 50
179.9999999989
 51
270.0
  0
LINE
  5
19D
330
1F
100
AcDbEntity
  8
0
  6
Continuous
 62
     7
370
    25
100
AcDbLine
 10
610.2842436641
 20
1604.8738952158
 30
0.0
 11
609.7842436641
 21
1604.8738952158
 31
0.0
  0
LINE
  5
19E
330
1F
100
AcDbEntity
  8
0
  6
Continuous
 62
     7
370
    25
100
AcDbLine
 10
610.2842436644
 20
1588.8738952158
 30
0.0
 11
610.2842436641
 21
1604.8738952158
 31
0.0
  0
LINE
  5
19F
330
1F
100
AcDbEntity
  8
0
  6
Continuous
 62
     7
370
    25
100
AcDbLine
 10
609.7842436644
 20
1588.8738952158
 30
0.0
 11
610.2842436644
 21
1588.8738952158
 31
0.0
  0
LINE
  5
1A0
330
1F
100
AcDbEntity
  8
0
  6
Continuous
 62
     7
370
    25
100
AcDbLine
 10
609.7842436644
 20
1588.8738952158
 30
0.0
 11
609.7842436641
 21
1604.8738952158
 31
0.0
  0
LINE
  5
1A1
330
1F
100
AcDbEntity
  8
0
  6
Continuous
 62
     7
370
    25
100
AcDbLine
 10
592.2842436647
 20
1588.8738952158
 30
0.0
 11
592.2842436647
 21
1604.8738952158
 31
0.0
  0
LINE
  5
1A2
330
1F
100
AcDbEntity
  8
0
  6
Continuous
 62
     7
370
    25
100
AcDbLine
 10
609.7842436641
 20
1604.8738952158
 30
0.0
 11
592.2842436647
 21
1604.8738952158
 31
0.0
  0
LINE
  5
1A3
330
1F
100
AcDbEntity
  8
0
  6
Continuous
 62
     7
370
    25
100
AcDbLine
 10
592.2842436647
 20
1588.8738952158
 30
0.0
 11
609.7842436644
 21
1588.8738952158
 31
0.0
  0
LINE
  5
1A4
330
1F
100
AcDbEntity
  8
0
  6
Continuous
 62
     7
370
    25
100
AcDbLine
 10
592.2842436647
 20
1588.8738952158
 30
0.0
 11
592.2842436647
 21
1588.3738952158
 31
0.0
  0
LINE
  5
1A5
330
1F
100
AcDbEntity
  8
0
  6
Continuous
 62
     7
370
    25
100
AcDbLine
 10
609.7842436644
 20
1588.3738952158
 30
0.0
 11
609.7842436644
 21
1588.8738952158
 31
0.0
  0
LINE
  5
1A6
330
1F
100
AcDbEntity
  8
0
  6
Continuous
 62
     7
370
    25
100
AcDbLine
 10
609.7842436644
 20
1588.3738952158
 30
0.0
 11
592.2842436647
 21
1588.3738952158
 31
0.0
  0
LINE
  5
1A7
330
1F
100
AcDbEntity
  8
0
  6
Continuous
 62
     7
370
    25
100
AcDbLine
 10
592.2842436647
 20
1604.8738952158
 30
0.0
 11
592.2842436648
 21
1605.3738952158
 31
0.0
  0
LINE
  5
1A8
330
1F
100
AcDbEntity
  8
0
  6
Continuous
 62
     7
370
    25
100
AcDbLine
 10
592.2842436648
 20
1605.3738952158
 30
0.0
 11
609.7842436641
 21
1605.3738952158
 31
0.0
  0
LINE
  5
1A9
330
1F
100
AcDbEntity
  8
0
  6
Continuous
 62
     7
370
    25
100
AcDbLine
 10
609.7842436641
 20
1604.8738952158
 30
0.0
 11
609.7842436641
 21
1605.3738952158
 31
0.0
  0
LINE
  5
1AA
330
1F
100
AcDbEntity
  8
0
  6
Continuous
 62
     7
370
    25
100
AcDbLine
 10
592.2842436647
 20
1604.8738952158
 30
0.0
 11
591.7842436647
 21
1604.8738952158
 31
0.0
  0
ARC
  5
1AB
330
1F
100
AcDbEntity
  8
0
  6
Continuous
 62
     7
370
    25
100
AcDbCircle
 10
592.2842436647
 20
1604.8738952158
 30
0.0
 40
0.5
100
AcDbArc
 50
89.9999999939
 51
180.0
  0
ARC
  5
1AC
330
1F
100
AcDbEntity
  8
0
  6
Continuous
 62
     7
370
    25
100
AcDbCircle
 10
609.7842436641
 20
1604.8738952158
 30
0.0
 40
0.5000000000001137
100
AcDbArc
 50
0.000000003
 51
90.0
  0
LINE
  5
1AD
330
1F
100
AcDbEntity
  8
0
  6
Continuous
 62
     7
370
    25
100
AcDbLine
 10
591.7842436647
 20
1588.8738952158
 30
0.0
 11
592.2842436647
 21
1588.8738952158
 31
0.0
  0
LINE
  5
1AE
330
1F
100
AcDbEntity
  8
0
  6
Continuous
 62
     7
370
    25
100
AcDbLine
 10
591.7842436647
 20
1588.8738952158
 30
0.0
 11
591.7842436647
 21
1604.8738952158
 31
0.0
  0
ARC
  5
1AF
330
1F
100
AcDbEntity
  8
0
  6
Continuous
 62
     7
370
    25
100
AcDbCircle
 10
592.2842436647
 20
1588.8738952158
 30
0.0
 40
0.5
100
AcDbArc
 50
180.0
 51
270.0
  0
ARC
  5
1B0
330
1F
100
AcDbEntity
  8
0
  6
Continuous
 62
     7
370
    25
100
AcDbCircle
 10
609.7842436644
 20
1588.8738952158
 30
0.0
 40
0.5000000000004547
100
AcDbArc
 50
270.0
 51
0.0000000011
  0
LINE
  5
1B1
330
1F
100
AcDbEntity
  8
0
  6
Continuous
 62
     7
370
    25
100
AcDbLine
 10
609.7842436641
 20
1605.3738952138
 30
0.0
 11
1226.7842436653
 21
1605.3738952138
 31
0.0
  0
LINE
  5
1B2
330
1F
100
AcDbEntity
  8
0
  6
Continuous
 62
     7
370
    25
100
AcDbLine
 10
1226.784243665
 20
1588.3738952158
 30
0.0
 11
609.7842436644
 21
1588.3738952158
 31
0.0
  0
LINE
  5
1B3
330
1F
100
AcDbEntity
  8
0
  6
Continuous
 62
     7
370
    25
100
AcDbLine
 10
769.784243788
 20
1756.3738952096
 30
0.0
 11
769.784243788
 21
1755.3738952096
 31
0.0
  0
LINE
  5
1B4
330
1F
100
AcDbEntity
  8
0
  6
Continuous
 62
     7
370
    25
100
AcDbLine
 10
769.784243788
 20
1756.3738952096
 30
0.0
 11
815.784243788
 21
1756.3738952096
 31
0.0
  0
LINE
  5
1B5
330
1F
100
AcDbEntity
  8
0
  6
Continuous
 62
     7
370
    25
100
AcDbLine
 10
815.784243788
 20
1756.3738952096
 30
0.0
 11
815.784243788
 21
1755.3738952096
 31
0.0
  0
LINE
  5
1B6
330
1F
100
AcDbEntity
  8
0
  6
Continuous
 62
     7
370
    25
100
AcDbLine
 10
773.0105238547
 20
1659.3738952096
 30
0.0
 11
773.0105238547
 21
1660.3738952096
 31
0.0
  0
LINE
  5
1B7
330
1F
100
AcDbEntity
  8
0
  6
Continuous
 62
     7
370
    25
100
AcDbLine
 10
769.784243788
 20
1660.3738952096
 30
0.0
 11
769.784243788
 21
1659.3738952096
 31
0.0
  0
LINE
  5
1B8
330
1F
100
AcDbEntity
  8
0
  6
Continuous
 62
     7
370
    25
100
AcDbLine
 10
773.0105238547
 20
1659.3738952096
 30
0.0
 11
769.784243788
 21
1659.3738952096
 31
0.0
  0
LINE
  5
1B9
330
1F
100
AcDbEntity
  8
0
  6
Continuous
 62
     7
370
    25
100
AcDbLine
 10
812.5579637213
 20
1660.3738952096
 30
0.0
 11
812.5579637213
 21
1659.3738952096
 31
0.0
  0
LINE
  5
1BA
330
1F
100
AcDbEntity
  8
0
  6
Continuous
 62
     7
370
    25
100
AcDbLine
 10
815.784243788
 20
1659.3738952096
 30
0.0
 11
812.5579637213
 21
1659.3738952096
 31
0.0
  0
LINE
  5
1BB
330
1F
100
AcDbEntity
  8
0
  6
Continuous
 62
     7
370
    25
100
AcDbLine
 10
815.784243788
 20
1659.3738952096
 30
0.0
 11
815.784243788
 21
1660.3738952096
 31
0.0
  0
LINE
  5
1BC
330
1F
100
AcDbEntity
  8
0
  6
Continuous
 62
     7
370
    25
100
AcDbLine
 10
812.5579637213
 20
1659.3738952096
 30
0.0
 11
807.784243788
 21
1659.3738952096
 31
0.0
  0
LINE
  5
1BD
330
1F
100
AcDbEntity
  8
0
  6
Continuous
 62
     7
370
    25
100
AcDbLine
 10
777.784243788
 20
1659.3738952096
 30
0.0
 11
773.0105238547
 21
1659.3738952096
 31
0.0
  0
LINE
  5
1BE
330
1F
100
AcDbEntity
  8
0
  6
Continuous
 62
     7
370
    25
100
AcDbLine
 10
1194.784243788
 20
1665.3738952096
 30
0.0
 11
1194.784243788
 21
1750.3738952096
 31
0.0
  0
LINE
  5
1BF
330
1F
100
AcDbEntity
  8
0
  6
Continuous
 62
     7
370
    25
100
AcDbLine
 10
1192.784243788
 20
1665.3738952096
 30
0.0
 11
1194.784243788
 21
1665.3738952096
 31
0.0
  0
LINE
  5
1C0
330
1F
100
AcDbEntity
  8
0
  6
Continuous
 62
     7
370
    25
100
AcDbLine
 10
1192.784243788
 20
1665.3738952096
 30
0.0
 11
1192.784243788
 21
1750.3738952096
 31
0.0
  0
LINE
  5
1C1
330
1F
100
AcDbEntity
  8
0
  6
Continuous
 62
     7
370
    25
100
AcDbLine
 10
1192.784243788
 20
1750.3738952096
 30
0.0
 11
1194.784243788
 21
1750.3738952096
 31
0.0
  0
LINE
  5
1C2
330
1F
100
AcDbEntity
  8
0
  6
Continuous
 62
     7
370
    25
100
AcDbLine
 10
1192.784243788
 20
1660.3738952096
 30
0.0
 11
1194.784243788
 21
1660.3738952096
 31
0.0
  0
LINE
  5
1C3
330
1F
100
AcDbEntity
  8
0
  6
Continuous
 62
     7
370
    25
100
AcDbLine
 10
1192.784243788
 20
1660.3738952096
 30
0.0
 11
1192.784243788
 21
1665.3738952096
 31
0.0
  0
LINE
  5
1C4
330
1F
100
AcDbEntity
  8
0
  6
Continuous
 62
     7
370
    25
100
AcDbLine
 10
1194.784243788
 20
1660.3738952096
 30
0.0
 11
1194.784243788
 21
1665.3738952096
 31
0.0
  0
LINE
  5
1C5
330
1F
100
AcDbEntity
  8
0
  6
Continuous
 62
     7
370
    25
100
AcDbLine
 10
1192.784243788
 20
1755.3738952096
 30
0.0
 11
1194.784243788
 21
1755.3738952096
 31
0.0
  0
LINE
  5
1C6
330
1F
100
AcDbEntity
  8
0
  6
Continuous
 62
     7
370
    25
100
AcDbLine
 10
1192.784243788
 20
1750.3738952096
 30
0.0
 11
1192.784243788
 21
1755.3738952096
 31
0.0
  0
LINE
  5
1C7
330
1F
100
AcDbEntity
  8
0
  6
Continuous
 62
     7
370
    25
100
AcDbLine
 10
1194.784243788
 20
1750.3738952096
 30
0.0
 11
1194.784243788
 21
1755.3738952096
 31
0.0
  0
LINE
  5
1C8
330
1F
100
AcDbEntity
  8
0
  6
Continuous
 62
     7
370
    25
100
AcDbLine
 10
1199.284243788
 20
1750.3738952096
 30
0.0
 11
1199.284243788
 21
1665.3738952049
 31
0.0
  0
LINE
  5
1C9
330
1F
100
AcDbEntity
  8
0
  6
Continuous
 62
     7
370
    25
100
AcDbLine
 10
1194.784243788
 20
1665.3738952096
 30
0.0
 11
1199.284243788
 21
1665.3738952096
 31
0.0
  0
LINE
  5
1CA
330
1F
100
AcDbEntity
  8
0
  6
Continuous
 62
     7
370
    25
100
AcDbLine
 10
1199.284243788
 20
1750.3738952096
 30
0.0
 11
1194.784243788
 21
1750.3738952096
 31
0.0
  0
LINE
  5
1CB
330
1F
100
AcDbEntity
  8
0
  6
Continuous
 62
     7
370
    25
100
AcDbLine
 10
1199.284243788
 20
1665.3738952001
 30
0.0
 11
1199.284243788
 21
1662.3738952096
 31
0.0
  0
LINE
  5
1CC
330
1F
100
AcDbEntity
  8
0
  6
Continuous
 62
     7
370
    25
100
AcDbLine
 10
1199.284243788
 20
1662.3738952096
 30
0.0
 11
1194.784243788
 21
1662.3738952096
 31
0.0
  0
LINE
  5
1CD
330
1F
100
AcDbEntity
  8
0
  6
Continuous
 62
     7
370
    25
100
AcDbLine
 10
1202.284243788
 20
1750.3738952096
 30
0.0
 11
1199.284243788
 21
1750.3738952096
 31
0.0
  0
LINE
  5
1CE
330
1F
100
AcDbEntity
  8
0
  6
Continuous
 62
     7
370
    25
100
AcDbLine
 10
1202.284243788
 20
1750.3738952096
 30
0.0
 11
1202.284243788
 21
1665.3738952096
 31
0.0
  0
LINE
  5
1CF
330
1F
100
AcDbEntity
  8
0
  6
Continuous
 62
     7
370
    25
100
AcDbLine
 10
1199.284243788
 20
1665.3738952096
 30
0.0
 11
1202.284243788
 21
1665.3738952096
 31
0.0
  0
LINE
  5
1D0
330
1F
100
AcDbEntity
  8
0
  6
Continuous
 62
     7
370
    25
100
AcDbLine
 10
1194.784243788
 20
1753.3738952096
 30
0.0
 11
1199.284243788
 21
1753.3738952096
 31
0.0
  0
LINE
  5
1D1
330
1F
100
AcDbEntity
  8
0
  6
Continuous
 62
     7
370
    25
100
AcDbLine
 10
1199.284243788
 20
1753.3738952096
 30
0.0
 11
1199.284243788
 21
1750.3738952096
 31
0.0
  0
ARC
  5
1D2
330
1F
100
AcDbEntity
  8
0
  6
Continuous
 62
     7
370
    25
100
AcDbCircle
 10
1199.284243788
 20
1750.3738952096
 30
0.0
 40
3.000000000000227
100
AcDbArc
 50
0.0
 51
90.0
  0
ARC
  5
1D3
330
1F
100
AcDbEntity
  8
0
  6
Continuous
 62
     7
370
    25
100
AcDbCircle
 10
1199.284243788
 20
1665.3738952096
 30
0.0
 40
3.0
100
AcDbArc
 50
270.0
 51
0.0
  0
LINE
  5
1D4
330
1F
100
AcDbEntity
  8
0
  6
Continuous
 62
     7
370
    25
100
AcDbLine
 10
520.784243788
 20
1665.3738952096
 30
0.0
 11
520.784243788
 21
1660.3738952096
 31
0.0
  0
LINE
  5
1D5
330
1F
100
AcDbEntity
  8
0
  6
Continuous
 62
     7
370
    25
100
AcDbLine
 10
522.784243788
 20
1665.3738952096
 30
0.0
 11
520.784243788
 21
1665.3738952096
 31
0.0
  0
LINE
  5
1D6
330
1F
100
AcDbEntity
  8
0
  6
Continuous
 62
     7
370
    25
100
AcDbLine
 10
522.784243788
 20
1665.3738952096
 30
0.0
 11
522.784243788
 21
1660.3738952096
 31
0.0
  0
LINE
  5
1D7
330
1F
100
AcDbEntity
  8
0
  6
Continuous
 62
     7
370
    25
100
AcDbLine
 10
522.784243788
 20
1660.3738952096
 30
0.0
 11
520.784243788
 21
1660.3738952096
 31
0.0
  0
LINE
  5
1D8
330
1F
100
AcDbEntity
  8
0
  6
Continuous
 62
     7
370
    25
100
AcDbLine
 10
522.784243788
 20
1750.3738952096
 30
0.0
 11
520.784243788
 21
1750.3738952096
 31
0.0
  0
LINE
  5
1D9
330
1F
100
AcDbEntity
  8
0
  6
Continuous
 62
     7
370
    25
100
AcDbLine
 10
522.784243788
 20
1750.3738952096
 30
0.0
 11
522.784243788
 21
1665.3738952096
 31
0.0
  0
LINE
  5
1DA
330
1F
100
AcDbEntity
  8
0
  6
Continuous
 62
     7
370
    25
100
AcDbLine
 10
520.784243788
 20
1750.3738952096
 30
0.0
 11
520.784243788
 21
1665.3738952096
 31
0.0
  0
LINE
  5
1DB
330
1F
100
AcDbEntity
  8
0
  6
Continuous
 62
     7
370
    25
100
AcDbLine
 10
522.784243788
 20
1755.3738952096
 30
0.0
 11
520.784243788
 21
1755.3738952096
 31
0.0
  0
LINE
  5
1DC
330
1F
100
AcDbEntity
  8
0
  6
Continuous
 62
     7
370
    25
100
AcDbLine
 10
522.784243788
 20
1755.3738952096
 30
0.0
 11
522.784243788
 21
1750.3738952096
 31
0.0
  0
LINE
  5
1DD
330
1F
100
AcDbEntity
  8
0
  6
Continuous
 62
     7
370
    25
100
AcDbLine
 10
520.784243788
 20
1755.3738952096
 30
0.0
 11
520.784243788
 21
1750.3738952096
 31
0.0
  0
LINE
  5
1DE
330
1F
100
AcDbEntity
  8
0
  6
Continuous
 62
     7
370
    25
100
AcDbLine
 10
516.284243788
 20
1665.3738952096
 30
0.0
 11
516.284243788
 21
1750.3738952143
 31
0.0
  0
LINE
  5
1DF
330
1F
100
AcDbEntity
  8
0
  6
Continuous
 62
     7
370
    25
100
AcDbLine
 10
513.284243788
 20
1665.3738952096
 30
0.0
 11
516.284243788
 21
1665.3738952096
 31
0.0
  0
LINE
  5
1E0
330
1F
100
AcDbEntity
  8
0
  6
Continuous
 62
     7
370
    25
100
AcDbLine
 10
513.284243788
 20
1665.3738952096
 30
0.0
 11
513.284243788
 21
1750.3738952096
 31
0.0
  0
LINE
  5
1E1
330
1F
100
AcDbEntity
  8
0
  6
Continuous
 62
     7
370
    25
100
AcDbLine
 10
516.284243788
 20
1750.3738952096
 30
0.0
 11
513.284243788
 21
1750.3738952096
 31
0.0
  0
LINE
  5
1E2
330
1F
100
AcDbEntity
  8
0
  6
Continuous
 62
     7
370
    25
100
AcDbLine
 10
520.784243788
 20
1750.3738952096
 30
0.0
 11
516.284243788
 21
1750.3738952096
 31
0.0
  0
LINE
  5
1E3
330
1F
100
AcDbEntity
  8
0
  6
Continuous
 62
     7
370
    25
100
AcDbLine
 10
516.284243788
 20
1750.373895219
 30
0.0
 11
516.284243788
 21
1753.3738952096
 31
0.0
  0
LINE
  5
1E4
330
1F
100
AcDbEntity
  8
0
  6
Continuous
 62
     7
370
    25
100
AcDbLine
 10
516.284243788
 20
1753.3738952096
 30
0.0
 11
520.784243788
 21
1753.3738952096
 31
0.0
  0
LINE
  5
1E5
330
1F
100
AcDbEntity
  8
0
  6
Continuous
 62
     7
370
    25
100
AcDbLine
 10
516.284243788
 20
1665.3738952096
 30
0.0
 11
520.784243788
 21
1665.3738952096
 31
0.0
  0
LINE
  5
1E6
330
1F
100
AcDbEntity
  8
0
  6
Continuous
 62
     7
370
    25
100
AcDbLine
 10
520.784243788
 20
1662.3738952096
 30
0.0
 11
516.284243788
 21
1662.3738952096
 31
0.0
  0
LINE
  5
1E7
330
1F
100
AcDbEntity
  8
0
  6
Continuous
 62
     7
370
    25
100
AcDbLine
 10
516.284243788
 20
1662.3738952096
 30
0.0
 11
516.284243788
 21
1665.3738952096
 31
0.0
  0
ARC
  5
1E8
330
1F
100
AcDbEntity
  8
0
  6
Continuous
 62
     7
370
    25
100
AcDbCircle
 10
516.284243788
 20
1665.3738952096
 30
0.0
 40
3.000000000000114
100
AcDbArc
 50
180.0
 51
270.0
  0
ARC
  5
1E9
330
1F
100
AcDbEntity
  8
0
  6
Continuous
 62
     7
370
    25
100
AcDbCircle
 10
516.284243788
 20
1750.3738952096
 30
0.0
 40
3.000000000000114
100
AcDbArc
 50
90.0
 51
180.0
  0
LINE
  5
1EA
330
1F
100
AcDbEntity
  8
0
  6
Continuous
 62
     7
370
    25
100
AcDbLine
 10
522.784243788
 20
1750.3738952096
 30
0.0
 11
1192.784243788
 21
1750.3738952096
 31
0.0
  0
LINE
  5
1EB
330
1F
100
AcDbEntity
  8
0
  6
Continuous
 62
     7
370
    25
100
AcDbLine
 10
522.784243788
 20
1665.3738952096
 30
0.0
 11
1192.784243788
 21
1665.3738952096
 31
0.0
  0
LINE
  5
1EC
330
1F
100
AcDbEntity
  8
0
  6
Continuous
 62
     7
370
    25
100
AcDbLine
 10
522.784243788
 20
1660.3738952096
 30
0.0
 11
1192.784243788
 21
1660.3738952096
 31
0.0
  0
LINE
  5
1ED
330
1F
100
AcDbEntity
  8
0
  6
Continuous
 62
     7
370
    25
100
AcDbLine
 10
522.784243788
 20
1755.3738952096
 30
0.0
 11
1192.784243788
 21
1755.3738952096
 31
0.0
  0
LINE
  5
1EE
330
1F
100
AcDbEntity
  8
0
  6
Continuous
 62
     7
370
    25
100
AcDbLine
 10
522.4885217302
 20
1451.8738952096
 30
0.0
 11
522.4885217302
 21
1411.8738952096
 31
0.0
  0
LINE
  5
1EF
330
1F
100
AcDbEntity
  8
0
  6
Continuous
 62
     7
370
    25
100
AcDbLine
 10
526.5319708729
 20
1451.8738952096
 30
0.0
 11
526.5319708729
 21
1411.8738952096
 31
0.0
  0
LINE
  5
1F0
330
1F
100
AcDbEntity
  8
0
  6
Continuous
 62
     7
370
    25
100
AcDbLine
 10
526.5319708729
 20
1411.8738952096
 30
0.0
 11
522.7762436826
 21
1411.8738952096
 31
0.0
  0
LINE
  5
1F1
330
1F
100
AcDbEntity
  8
0
  6
Continuous
 62
     7
370
    25
100
AcDbLine
 10
526.5319708729
 20
1451.8738952096
 30
0.0
 11
522.7762436826
 21
1451.8738952096
 31
0.0
  0
LINE
  5
1F2
330
1F
100
AcDbEntity
  8
0
  6
Continuous
 62
     7
370
    25
100
AcDbLine
 10
544.784243788
 20
1451.8738952096
 30
0.0
 11
544.784243788
 21
1411.8738952096
 31
0.0
  0
LINE
  5
1F3
330
1F
100
AcDbEntity
  8
0
  6
Continuous
 62
     7
370
    25
100
AcDbLine
 10
544.784243788
 20
1411.8738952096
 30
0.0
 11
526.5319708729
 21
1411.8738952096
 31
0.0
  0
LINE
  5
1F4
330
1F
100
AcDbEntity
  8
0
  6
Continuous
 62
     7
370
    25
100
AcDbLine
 10
544.784243788
 20
1451.8738952096
 30
0.0
 11
526.5319708729
 21
1451.8738952096
 31
0.0
  0
LINE
  5
1F5
330
1F
100
AcDbEntity
  8
0
  6
Continuous
 62
     7
370
    25
100
AcDbLine
 10
1507.784243788
 20
1311.8738952096
 30
0.0
 11
517.784243788
 21
1311.8738952096
 31
0.0
  0
LINE
  5
1F6
330
1F
100
AcDbEntity
  8
0
  6
Continuous
 62
     7
370
    25
100
AcDbLine
 10
517.784243788
 20
1311.8738952096
 30
0.0
 11
517.784243788
 21
1381.8738952096
 31
0.0
  0
LINE
  5
1F7
330
1F
100
AcDbEntity
  8
0
  6
Continuous
 62
     7
370
    25
100
AcDbLine
 10
517.784243788
 20
1481.8738952096
 30
0.0
 11
517.784243788
 21
1631.8738952096
 31
0.0
  0
LINE
  5
1F8
330
1F
100
AcDbEntity
  8
0
  6
Continuous
 62
     7
370
    25
100
AcDbLine
 10
517.784243788
 20
1631.8738952096
 30
0.0
 11
1183.0428969319
 21
1631.8738952096
 31
0.0
  0
LINE
  5
1F9
330
1F
100
AcDbEntity
  8
0
  6
Continuous
 62
     7
370
    25
100
AcDbLine
 10
1197.0428969319
 20
1631.8738952096
 30
0.0
 11
1507.784243788
 21
1631.8738952096
 31
0.0
  0
LINE
  5
1FA
330
1F
100
AcDbEntity
  8
0
  6
Continuous
 62
     7
370
    25
100
AcDbLine
 10
1507.784243788
 20
1631.8738952096
 30
0.0
 11
1507.784243788
 21
1311.8738952096
 31
0.0
  0
LINE
  5
1FB
330
1F
100
AcDbEntity
  8
0
  6
Continuous
 62
     7
370
    25
100
AcDbLine
 10
502.7996881123
 20
1481.8738952096
 30
0.0
 11
502.7996881123
 21
1451.8738952096
 31
0.0
  0
LINE
  5
1FC
330
1F
100
AcDbEntity
  8
0
  6
Continuous
 62
     7
370
    25
100
AcDbLine
 10
524.814243788
 20
1481.8738952096
 30
0.0
 11
502.7996881123
 21
1481.8738952096
 31
0.0
  0
LINE
  5
1FD
330
1F
100
AcDbEntity
  8
0
  6
Continuous
 62
     7
370
    25
100
AcDbLine
 10
522.7762436826
 20
1451.8738952096
 30
0.0
 11
502.7996881123
 21
1451.8738952096
 31
0.0
  0
LINE
  5
1FE
330
1F
100
AcDbEntity
  8
0
  6
Continuous
 62
     7
370
    25
100
AcDbLine
 10
502.7996881123
 20
1411.8738952096
 30
0.0
 11
502.7996881123
 21
1381.8738952096
 31
0.0
  0
LINE
  5
1FF
330
1F
100
AcDbEntity
  8
0
  6
Continuous
 62
     7
370
    25
100
AcDbLine
 10
524.814243788
 20
1381.8738952096
 30
0.0
 11
502.7996881123
 21
1381.8738952096
 31
0.0
  0
LINE
  5
200
330
1F
100
AcDbEntity
  8
0
  6
Continuous
 62
     7
370
    25
100
AcDbLine
 10
522.7762436826
 20
1411.8738952096
 30
0.0
 11
502.7996881123
 21
1411.8738952096
 31
0.0
  0
LINE
  5
201
330
1F
100
AcDbEntity
  8
0
  6
Continuous
 62
     7
370
    25
100
AcDbLine
 10
499.034243788
 20
1411.8738952096
 30
0.0
 11
499.034243788
 21
1381.8738952096
 31
0.0
  0
LINE
  5
202
330
1F
100
AcDbEntity
  8
0
  6
Continuous
 62
     7
370
    25
100
AcDbLine
 10
502.7996881123
 20
1381.8738952096
 30
0.0
 11
499.034243788
 21
1381.8738952096
 31
0.0
  0
LINE
  5
203
330
1F
100
AcDbEntity
  8
0
  6
Continuous
 62
     7
370
    25
100
AcDbLine
 10
502.7996881123
 20
1411.8738952096
 30
0.0
 11
499.034243788
 21
1411.8738952096
 31
0.0
  0
LINE
  5
204
330
1F
100
AcDbEntity
  8
0
  6
Continuous
 62
     7
370
    25
100
AcDbLine
 10
499.034243788
 20
1481.8738952096
 30
0.0
 11
499.034243788
 21
1451.8738952096
 31
0.0
  0
LINE
  5
205
330
1F
100
AcDbEntity
  8
0
  6
Continuous
 62
     7
370
    25
100
AcDbLine
 10
502.7996881123
 20
1481.8738952096
 30
0.0
 11
499.034243788
 21
1481.8738952096
 31
0.0
  0
LINE
  5
206
330
1F
100
AcDbEntity
  8
0
  6
Continuous
 62
     7
370
    25
100
AcDbLine
 10
502.7996881123
 20
1451.8738952096
 30
0.0
 11
499.034243788
 21
1451.8738952096
 31
0.0
  0
LINE
  5
207
330
1F
100
AcDbEntity
  8
0
  6
Continuous
 62
     7
370
    25
100
AcDbLine
 10
480.784243788
 20
1481.8738952096
 30
0.0
 11
480.784243788
 21
1451.8738952096
 31
0.0
  0
LINE
  5
208
330
1F
100
AcDbEntity
  8
0
  6
Continuous
 62
     7
370
    25
100
AcDbLine
 10
499.034243788
 20
1481.8738952096
 30
0.0
 11
480.784243788
 21
1481.8738952096
 31
0.0
  0
LINE
  5
209
330
1F
100
AcDbEntity
  8
0
  6
Continuous
 62
     7
370
    25
100
AcDbLine
 10
499.034243788
 20
1451.8738952096
 30
0.0
 11
480.784243788
 21
1451.8738952096
 31
0.0
  0
LINE
  5
20A
330
1F
100
AcDbEntity
  8
0
  6
Continuous
 62
     7
370
    25
100
AcDbLine
 10
480.784243788
 20
1411.8738952096
 30
0.0
 11
480.784243788
 21
1381.8738952096
 31
0.0
  0
LINE
  5
20B
330
1F
100
AcDbEntity
  8
0
  6
Continuous
 62
     7
370
    25
100
AcDbLine
 10
499.034243788
 20
1381.8738952096
 30
0.0
 11
480.784243788
 21
1381.8738952096
 31
0.0
  0
LINE
  5
20C
330
1F
100
AcDbEntity
  8
0
  6
Continuous
 62
     7
370
    25
100
AcDbLine
 10
499.034243788
 20
1411.8738952096
 30
0.0
 11
480.784243788
 21
1411.8738952096
 31
0.0
  0
LINE
  5
20D
330
1F
100
AcDbEntity
  8
0
  6
Continuous
 62
     7
370
    25
100
AcDbLine
 10
412.784243788
 20
1811.8738952096
 30
0.0
 11
412.784243788
 21
1311.8738952096
 31
0.0
  0
LINE
  5
20E
330
1F
100
AcDbEntity
  8
0
  6
Continuous
 62
     7
370
    25
100
AcDbLine
 10
1612.784243788
 20
1311.8738952096
 30
0.0
 11
1612.784243788
 21
1811.8738952096
 31
0.0
  0
LINE
  5
20F
330
1F
100
AcDbEntity
  8
0
  6
Continuous
 62
     7
370
    25
100
AcDbLine
 10
1512.784243788
 20
1636.8738952096
 30
0.0
 11
1201.0428969318
 21
1636.8738952096
 31
0.0
  0
LINE
  5
210
330
1F
100
AcDbEntity
  8
0
  6
Continuous
 62
     7
370
    25
100
AcDbLine
 10
777.784243787
 20
1636.8738952096
 30
0.0
 11
512.784243788
 21
1636.8738952096
 31
0.0
  0
LINE
  5
211
330
1F
100
AcDbEntity
  8
0
  6
Continuous
 62
     7
370
    25
100
AcDbLine
 10
1612.784243788
 20
1811.8738952096
 30
0.0
 11
412.784243788
 21
1811.8738952096
 31
0.0
  0
LINE
  5
212
330
1F
100
AcDbEntity
  8
0
  6
Continuous
 62
     7
370
    25
100
AcDbLine
 10
1512.784243788
 20
1311.8738952096
 30
0.0
 11
1512.784243788
 21
1636.8738952096
 31
0.0
  0
LINE
  5
213
330
1F
100
AcDbEntity
  8
0
  6
Continuous
 62
     7
370
    25
100
AcDbLine
 10
412.784243788
 20
1311.8738952096
 30
0.0
 11
512.784243788
 21
1311.8738952096
 31
0.0
  0
LINE
  5
214
330
1F
100
AcDbEntity
  8
0
  6
Continuous
 62
     7
370
    25
100
AcDbLine
 10
512.784243788
 20
1636.8738952096
 30
0.0
 11
512.784243788
 21
1481.8738952096
 31
0.0
  0
LINE
  5
215
330
1F
100
AcDbEntity
  8
0
  6
Continuous
 62
     7
370
    25
100
AcDbLine
 10
512.784243788
 20
1381.8738952096
 30
0.0
 11
512.784243788
 21
1311.8738952096
 31
0.0
  0
LINE
  5
216
330
1F
100
AcDbEntity
  8
0
  6
Continuous
 62
     7
370
    25
100
AcDbLine
 10
1512.784243788
 20
1311.8738952096
 30
0.0
 11
1612.784243788
 21
1311.8738952096
 31
0.0
  0
LINE
  5
217
330
1F
100
AcDbEntity
  8
0
  6
Continuous
 62
     7
370
    25
100
AcDbLine
 10
512.784243788
 20
1311.8738952096
 30
0.0
 11
517.784243788
 21
1311.8738952096
 31
0.0
  0
LINE
  5
218
330
1F
100
AcDbEntity
  8
0
  6
Continuous
 62
     7
370
    25
100
AcDbLine
 10
1507.784243788
 20
1311.8738952096
 30
0.0
 11
1512.784243788
 21
1311.8738952096
 31
0.0
  0
LINE
  5
219
330
1F
100
AcDbEntity
  8
0
  6
Continuous
 62
     7
370
    25
100
AcDbLine
 10
794.5373687868
 20
1645.8738952097
 30
0.0
 11
807.7842437867
 21
1645.8738952097
 31
0.0
  0
LINE
  5
21A
330
1F
100
AcDbEntity
  8
0
  6
Continuous
 62
     7
370
    25
100
AcDbLine
 10
790.4809373958
 20
1658.6178792406
 30
0.0
 11
790.4260626809
 21
1657.7174607447
 31
0.0
  0
LINE
  5
21B
330
1F
100
AcDbEntity
  8
0
  6
Continuous
 62
     7
370
    25
100
AcDbLine
 10
789.8884201199
 20
1657.7174607446
 30
0.0
 11
789.9432948329
 21
1658.6178792406
 31
0.0
  0
LINE
  5
21C
330
1F
100
AcDbEntity
  8
0
  6
Continuous
 62
     7
370
    25
100
AcDbLine
 10
788.2484529724
 20
1658.6178792406
 30
0.0
 11
788.1528072987
 21
1657.7174607446
 31
0.0
  0
LINE
  5
21D
330
1F
100
AcDbEntity
  8
0
  6
Continuous
 62
     7
370
    25
100
AcDbLine
 10
793.5300768813
 20
1657.7174607447
 30
0.0
 11
793.5120357736
 21
1658.6178792406
 31
0.0
  0
LINE
  5
21E
330
1F
100
AcDbEntity
  8
0
  6
Continuous
 62
     7
370
    25
100
AcDbLine
 10
797.2525152563
 20
1657.7174607446
 30
0.0
 11
797.1540854509
 21
1658.6178792406
 31
0.0
  0
LINE
  5
21F
330
1F
100
AcDbEntity
  8
0
  6
Continuous
 62
     7
370
    25
100
AcDbLine
 10
793.8123410404
 20
1658.6178792406
 30
0.0
 11
793.8303821481
 21
1657.7174607446
 31
0.0
  0
LINE
  5
220
330
1F
100
AcDbEntity
  8
0
  6
Continuous
 62
     7
370
    25
100
AcDbLine
 10
797.6417491552
 20
1658.6178792406
 30
0.0
 11
797.740178957
 21
1657.7174607447
 31
0.0
  0
LINE
  5
221
330
1F
100
AcDbEntity
  8
0
  6
Continuous
 62
     7
370
    25
100
AcDbLine
 10
798.7077848644
 20
1657.7174607447
 30
0.0
 11
798.5866252114
 21
1658.6178792406
 31
0.0
  0
LINE
  5
222
330
1F
100
AcDbEntity
  8
0
  6
Continuous
 62
     7
370
    25
100
AcDbLine
 10
787.9154699867
 20
1657.7174607447
 30
0.0
 11
788.0111156604
 21
1658.6178792406
 31
0.0
  0
LINE
  5
223
330
1F
100
AcDbEntity
  8
0
  6
Continuous
 62
     7
370
    25
100
AcDbLine
 10
784.6693712819
 20
1658.6178792406
 30
0.0
 11
784.4933369141
 21
1657.7174607447
 31
0.0
  0
LINE
  5
224
330
1F
100
AcDbEntity
  8
0
  6
Continuous
 62
     7
370
    25
100
AcDbLine
 10
798.7739836806
 20
1658.6178792406
 30
0.0
 11
798.8951433335
 21
1657.7174607446
 31
0.0
  0
LINE
  5
225
330
1F
100
AcDbEntity
  8
0
  6
Continuous
 62
     7
370
    25
100
AcDbLine
 10
801.9991575662
 20
1657.7174607446
 30
0.0
 11
801.8050820874
 21
1658.6178792406
 31
0.0
  0
LINE
  5
226
330
1F
100
AcDbEntity
  8
0
  6
Continuous
 62
     7
370
    25
100
AcDbLine
 10
783.4173119489
 20
1657.7174607447
 30
0.0
 11
784.2054906979
 21
1657.7174607447
 31
0.0
  0
LINE
  5
227
330
1F
100
AcDbEntity
  8
0
  6
Continuous
 62
     7
370
    25
100
AcDbLine
 10
783.6113874245
 20
1658.6178792406
 30
0.0
 11
783.4173119489
 21
1657.7174607447
 31
0.0
  0
LWPOLYLINE
  5
228
330
1F
100
AcDbEntity
  8
0
  6
Continuous
 62
     7
370
    25
100
AcDbPolyline
 90
        3
 70
   128
 43
0.0
 10
783.3568092208
 20
1657.6641535407
 10
783.3602634488
 20
1657.6725760889
 10
783.4173119489
 20
1657.7174607447
  0
LINE
  5
229
330
1F
100
AcDbEntity
  8
0
  6
Continuous
 62
     7
370
    25
100
AcDbLine
 10
1226.2842436653
 20
1604.8738952138
 30
0.0
 11
610.2842436641
 21
1604.8738952138
 31
0.0
  0
LINE
  5
22A
330
1F
100
AcDbEntity
  8
0
  6
Continuous
 62
     7
370
    25
100
AcDbLine
 10
1226.284243665
 20
1588.8738952158
 30
0.0
 11
610.2842436644
 21
1588.8738952158
 31
0.0
  0
LINE
  5
22B
330
1F
100
AcDbEntity
  8
FORMAT
370
    25
100
AcDbLine
 10
512.784243788
 20
1485.8927192742
 30
0.0
 11
512.784243788
 21
1379.8255585145
 31
0.0
  0
DIMENSION
  5
22C
330
1F
100
AcDbEntity
  8
FORMAT
100
AcDbDimension
  2
_D
 10
792.7842437868
 20
1429.6164573116
 30
0.0
 11
652.7842437874
 21
1429.6164573116
 31
0.0
 70
   160
  1
<>
 71
     2
 42
-1.0
  3
SLDDIMSTYLE0
100
AcDbAlignedDimension
 13
512.784243788
 23
1379.8255585145
 33
0.0
 14
792.7842437868
 24
1627.3738952097
 34
0.0
100
AcDbRotatedDimension
  0
DIMENSION
  5
237
330
1F
100
AcDbEntity
  8
FORMAT
100
AcDbDimension
  2
_D_1
 10
1244.7842436647
 20
1467.6221656093
 30
0.0
 11
918.2842436647
 21
1467.6221656093
 31
0.0
 70
   160
  1
<>
 71
     2
 42
-1.0
  3
SLDDIMSTYLE0
100
AcDbAlignedDimension
 13
591.7842436647
 23
1588.8738952158
 33
0.0
 14
1244.7842436647
 24
1588.8738952158
 34
0.0
 50
0.0
100
AcDbRotatedDimension
  0
DIMENSION
  5
241
330
1F
100
AcDbEntity
  8
FORMAT
100
AcDbDimension
  2
_D_2
 10
483.3170118294
 20
1660.3738952096
 30
0.0
 11
483.3170118294
 21
1707.8738952096
 31
0.0
 70
   160
  1
<>
 71
     2
 42
-1.0
  3
SLDDIMSTYLE0
100
AcDbAlignedDimension
 13
522.784243788
 23
1755.3738952096
 33
0.0
 14
522.784243788
 24
1660.3738952096
 34
0.0
 50
90.0
100
AcDbRotatedDimension
  0
DIMENSION
  5
24B
330
1F
100
AcDbEntity
  8
FORMAT
100
AcDbDimension
  2
_D_3
 10
1202.284243788
 20
1923.8738952096
 30
0.0
 11
857.784243788
 21
1923.8738952096
 31
0.0
 70
   160
  1
<>
 71
     2
 42
-1.0
  3
SLDDIMSTYLE0
100
AcDbAlignedDimension
 13
513.284243788
 23
1750.3738952096
 33
0.0
 14
1202.284243788
 24
1750.3738952096
 34
0.0
 50
0.0
100
AcDbRotatedDimension
  0
DIMENSION
  5
255
330
1F
100
AcDbEntity
  8
FORMAT
100
AcDbDimension
  2
_D_4
 10
1284.5925229962
 20
1605.3738952158
 30
0.0
 11
1284.5925229962
 21
1549.2560733753
 31
0.0
 70
   160
  1
<>
 71
     2
 42
-1.0
  3
SLDDIMSTYLE1
100
AcDbAlignedDimension
 13
1244.2842436647
 23
1588.3738952158
 33
0.0
 14
1244.2842436647
 24
1605.3738952158
 34
0.0
 50
90.0
100
AcDbRotatedDimension
  0
LINE
  5
262
330
1F
100
AcDbEntity
  8
0
  6
CENTER
 62
     7
370
    18
100
AcDbLine
 10
639.2769097869
 20
1871.8738952096
 30
0.0
 11
639.2769097869
 21
1251.8738952096
 31
0.0
  0
LINE
  5
263
330
1F
100
AcDbEntity
  8
0
  6
Continuous
 62
     7
370
    18
100
AcDbLine
 10
550.3769097869
 20
1857.8738952096
 30
0.0
 11
639.2769097869
 21
1857.8738952096
 31
0.0
  0
SOLID
  5
264
330
1F
100
AcDbEntity
  8
0
  6
Continuous
 62
     7
370
    18
100
AcDbTrace
 10
639.2769097869
 20
1857.8738952096
 30
0.0
 11
594.8269097869
 21
1864.9858952096
 31
0.0
 12
594.8269097869
 22
1850.7618952096
 32
0.0
 13
594.8269097869
 23
1850.7618952096
 33
0.0
  0
LINE
  5
265
330
1F
100
AcDbEntity
  8
0
  6
Continuous
 62
     7
370
    18
100
AcDbLine
 10
550.3769097869
 20
1265.8738952096
 30
0.0
 11
639.2769097869
 21
1265.8738952096
 31
0.0
  0
SOLID
  5
266
330
1F
100
AcDbEntity
  8
0
  6
Continuous
 62
     7
370
    18
100
AcDbTrace
 10
639.2769097869
 20
1265.8738952096
 30
0.0
 11
594.8269097869
 21
1272.9858952096
 31
0.0
 12
594.8269097869
 22
1258.7618952096
 32
0.0
 13
594.8269097869
 23
1258.7618952096
 33
0.0
  0
MTEXT
  5
267
330
1F
100
AcDbEntity
  8
0
  6
Continuous
 62
     7
100
AcDbMText
 10
550.3769097869
 20
1911.5625468268
 30
0.0
 40
35.0
 41
0.0
 71
     1
 72
     1
  1
A
  7
SLDTEXTSTYLE0
 73
     1
 44
1.0
  0
MTEXT
  5
268
330
1F
100
AcDbEntity
  8
0
  6
Continuous
 62
     7
100
AcDbMText
 10
550.3769097869
 20
1247.995574221
 30
0.0
 40
35.0
 41
0.0
 71
     1
 72
     1
  1
A
  7
SLDTEXTSTYLE0
 73
     1
 44
1.0
  0
LINE
  5
269
330
1F
100
AcDbEntity
  8
FORMAT
  6
CENTERX2
370
    18
100
AcDbLine
 10
792.7842437868
 20
1627.3738952097
 30
0.0
 11
792.7842437868
 21
1670.6738952097
 31
0.0
  0
LINE
  5
26A
330
1F
100
AcDbEntity
  8
0
  6
Continuous
 62
     7
370
    25
100
AcDbLine
 10
500.784243788
 20
601.4463585722
 30
0.0
 11
500.784243788
 21
561.4463585722
 31
0.0
  0
LINE
  5
26B
330
1F
100
AcDbEntity
  8
0
  6
Continuous
 62
     7
370
    25
100
AcDbLine
 10
524.814243788
 20
531.4463585722
 30
0.0
 11
524.814243788
 21
561.4463585722
 31
0.0
  0
LINE
  5
26C
330
1F
100
AcDbEntity
  8
0
  6
Continuous
 62
     7
370
    25
100
AcDbLine
 10
524.814243788
 20
601.4463585722
 30
0.0
 11
524.814243788
 21
631.4463585722
 31
0.0
  0
ARC
  5
26D
330
1F
100
AcDbEntity
  8
0
  6
Continuous
 62
     7
370
    25
100
AcDbCircle
 10
1182.284243788
 20
895.4463585717
 30
0.0
 40
2.000000000000086
100
AcDbArc
 50
14.4775121862
 51
165.5224878125
  0
ARC
  5
26E
330
1F
100
AcDbEntity
  8
0
  6
Continuous
 62
     7
370
    25
100
AcDbCircle
 10
1162.784243788
 20
895.4463585717
 30
0.0
 40
3.250000000000625
100
AcDbArc
 50
8.8498831004
 51
171.1501169005
  0
ARC
  5
26F
330
1F
100
AcDbEntity
  8
0
  6
Continuous
 62
     7
370
    25
100
AcDbCircle
 10
936.784243788
 20
895.4463585717
 30
0.0
 40
3.24999999999626
100
AcDbArc
 50
8.8498830993
 51
171.1501169007
  0
ARC
  5
270
330
1F
100
AcDbEntity
  8
0
  6
Continuous
 62
     7
370
    25
100
AcDbCircle
 10
869.784243788
 20
895.4463585717
 30
0.0
 40
3.000000000000471
100
AcDbArc
 50
9.5940682278
 51
170.4059317722
  0
ARC
  5
271
330
1F
100
AcDbEntity
  8
0
  6
Continuous
 62
     7
370
    25
100
AcDbCircle
 10
745.784243788
 20
895.4463585717
 30
0.0
 40
3.000000000000476
100
AcDbArc
 50
9.594068228
 51
170.4059317719
  0
ARC
  5
272
330
1F
100
AcDbEntity
  8
0
  6
Continuous
 62
     7
370
    25
100
AcDbCircle
 10
729.784243788
 20
895.4463585717
 30
0.0
 40
3.249999999996296
100
AcDbArc
 50
8.8498830994
 51
171.1501169005
  0
ARC
  5
273
330
1F
100
AcDbEntity
  8
0
  6
Continuous
 62
     7
370
    25
100
AcDbCircle
 10
562.784243788
 20
895.4463585717
 30
0.0
 40
2.00000000000071
100
AcDbArc
 50
14.4775121877
 51
165.5224878124
  0
ARC
  5
274
330
1F
100
AcDbEntity
  8
0
  6
Continuous
 62
     7
370
    25
100
AcDbCircle
 10
533.284243788
 20
895.4463585717
 30
0.0
 40
2.00000000000057
100
AcDbArc
 50
14.4775121876
 51
165.5224878126
  0
LINE
  5
275
330
1F
100
AcDbEntity
  8
0
  6
Continuous
 62
     7
370
    25
100
AcDbLine
 10
1192.784243788
 20
901.9463585717
 30
0.0
 11
1192.784243788
 21
895.9463585717
 31
0.0
  0
LINE
  5
276
330
1F
100
AcDbEntity
  8
0
  6
Continuous
 62
     7
370
    25
100
AcDbLine
 10
522.784243788
 20
895.9463585717
 30
0.0
 11
522.784243788
 21
901.9463585717
 31
0.0
  0
ARC
  5
277
330
1F
100
AcDbEntity
  8
0
  6
Continuous
 62
     7
370
    25
100
AcDbCircle
 10
533.284243788
 20
895.4463585717
 30
0.0
 40
2.000000000000655
100
AcDbArc
 50
165.5224878126
 51
180.0000000001
  0
LINE
  5
278
330
1F
100
AcDbEntity
  8
0
  6
Continuous
 62
     7
370
    25
100
AcDbLine
 10
522.784243788
 20
895.9463585717
 30
0.0
 11
522.784243788
 21
895.4463585717
 31
0.0
  0
ARC
  5
279
330
1F
100
AcDbEntity
  8
0
  6
Continuous
 62
     7
370
    25
100
AcDbCircle
 10
729.784243788
 20
819.4463585717
 30
0.0
 40
3.249999999996315
100
AcDbArc
 50
8.8498830984
 51
171.1501169016
  0
ARC
  5
27A
330
1F
100
AcDbEntity
  8
0
  6
Continuous
 62
     7
370
    25
100
AcDbCircle
 10
562.784243788
 20
819.4463585717
 30
0.0
 40
1.999999999999976
100
AcDbArc
 50
14.4775121861
 51
165.5224878138
  0
ARC
  5
27B
330
1F
100
AcDbEntity
  8
0
  6
Continuous
 62
     7
370
    25
100
AcDbCircle
 10
533.284243788
 20
819.4463585717
 30
0.0
 40
1.999999999999976
100
AcDbArc
 50
14.4775121862
 51
165.5224878138
  0
LINE
  5
27C
330
1F
100
AcDbEntity
  8
0
  6
Continuous
 62
     7
370
    25
100
AcDbLine
 10
522.784243788
 20
819.9463585717
 30
0.0
 11
522.784243788
 21
829.6463585717
 31
0.0
  0
ARC
  5
27D
330
1F
100
AcDbEntity
  8
0
  6
Continuous
 62
     7
370
    25
100
AcDbCircle
 10
1182.284243788
 20
819.4463585717
 30
0.0
 40
2.000000000000774
100
AcDbArc
 50
14.4775121862
 51
165.5224878136
  0
ARC
  5
27E
330
1F
100
AcDbEntity
  8
0
  6
Continuous
 62
     7
370
    25
100
AcDbCircle
 10
1162.784243788
 20
819.4463585717
 30
0.0
 40
3.250000000000196
100
AcDbArc
 50
8.8498830987
 51
171.1501169013
  0
ARC
  5
27F
330
1F
100
AcDbEntity
  8
0
  6
Continuous
 62
     7
370
    25
100
AcDbCircle
 10
936.784243788
 20
819.4463585717
 30
0.0
 40
3.249999999995926
100
AcDbArc
 50
8.8498830985
 51
171.1501169015
  0
ARC
  5
280
330
1F
100
AcDbEntity
  8
0
  6
Continuous
 62
     7
370
    25
100
AcDbCircle
 10
869.784243788
 20
819.4463585717
 30
0.0
 40
3.000000000000036
100
AcDbArc
 50
9.5940682269
 51
170.4059317731
  0
ARC
  5
281
330
1F
100
AcDbEntity
  8
0
  6
Continuous
 62
     7
370
    25
100
AcDbCircle
 10
745.784243788
 20
819.4463585717
 30
0.0
 40
3.000000000000302
100
AcDbArc
 50
9.5940682272
 51
170.4059317729
  0
LINE
  5
282
330
1F
100
AcDbEntity
  8
0
  6
Continuous
 62
     7
370
    25
100
AcDbLine
 10
1192.784243788
 20
829.6463585717
 30
0.0
 11
1192.784243788
 21
819.9463585717
 31
0.0
  0
ARC
  5
283
330
1F
100
AcDbEntity
  8
0
  6
Continuous
 62
     7
370
    25
100
AcDbCircle
 10
533.284243788
 20
895.4463585717
 30
0.0
 40
1.999999999999964
100
AcDbArc
 50
194.4775121861
 51
345.5224878139
  0
ARC
  5
284
330
1F
100
AcDbEntity
  8
0
  6
Continuous
 62
     7
370
    25
100
AcDbCircle
 10
562.784243788
 20
895.4463585717
 30
0.0
 40
2.000000000000202
100
AcDbArc
 50
194.4775121861
 51
345.5224878141
  0
ARC
  5
285
330
1F
100
AcDbEntity
  8
0
  6
Continuous
 62
     7
370
    25
100
AcDbCircle
 10
729.784243788
 20
895.4463585717
 30
0.0
 40
3.249999999995996
100
AcDbArc
 50
188.8498830984
 51
351.1501169016
  0
ARC
  5
286
330
1F
100
AcDbEntity
  8
0
  6
Continuous
 62
     7
370
    25
100
AcDbCircle
 10
745.784243788
 20
895.4463585717
 30
0.0
 40
3.000000000000107
100
AcDbArc
 50
189.5940682267
 51
350.4059317733
  0
ARC
  5
287
330
1F
100
AcDbEntity
  8
0
  6
Continuous
 62
     7
370
    25
100
AcDbCircle
 10
869.784243788
 20
895.4463585717
 30
0.0
 40
3.000000000000223
100
AcDbArc
 50
189.5940682269
 51
350.4059317731
  0
ARC
  5
288
330
1F
100
AcDbEntity
  8
0
  6
Continuous
 62
     7
370
    25
100
AcDbCircle
 10
936.784243788
 20
895.4463585717
 30
0.0
 40
3.249999999995996
100
AcDbArc
 50
188.8498830984
 51
351.1501169016
  0
ARC
  5
289
330
1F
100
AcDbEntity
  8
0
  6
Continuous
 62
     7
370
    25
100
AcDbCircle
 10
1162.784243788
 20
895.4463585717
 30
0.0
 40
3.250000000000393
100
AcDbArc
 50
188.8498830983
 51
351.1501169018
  0
ARC
  5
28A
330
1F
100
AcDbEntity
  8
0
  6
Continuous
 62
     7
370
    25
100
AcDbCircle
 10
1182.284243788
 20
895.4463585717
 30
0.0
 40
2.000000000000204
100
AcDbArc
 50
194.4775121856
 51
345.5224878144
  0
LINE
  5
28B
330
1F
100
AcDbEntity
  8
0
  6
Continuous
 62
     7
370
    25
100
AcDbLine
 10
1192.784243788
 20
894.9463585717
 30
0.0
 11
1192.784243788
 21
883.4463585717
 31
0.0
  0
LINE
  5
28C
330
1F
100
AcDbEntity
  8
0
  6
Continuous
 62
     7
370
    25
100
AcDbLine
 10
522.784243788
 20
883.4463585717
 30
0.0
 11
522.784243788
 21
894.9463585717
 31
0.0
  0
ARC
  5
28D
330
1F
100
AcDbEntity
  8
0
  6
Continuous
 62
     7
370
    25
100
AcDbCircle
 10
533.284243788
 20
895.4463585717
 30
0.0
 40
2.0
100
AcDbArc
 50
180.0000000001
 51
194.4775121861
  0
LINE
  5
28E
330
1F
100
AcDbEntity
  8
0
  6
Continuous
 62
     7
370
    25
100
AcDbLine
 10
522.784243788
 20
895.4463585717
 30
0.0
 11
522.784243788
 21
894.9463585717
 31
0.0
  0
ARC
  5
28F
330
1F
100
AcDbEntity
  8
0
  6
Continuous
 62
     7
370
    25
100
AcDbCircle
 10
1182.284243788
 20
819.4463585717
 30
0.0
 40
2.000000000000774
100
AcDbArc
 50
0.0000000001
 51
14.4775121862
  0
LINE
  5
290
330
1F
100
AcDbEntity
  8
0
  6
Continuous
 62
     7
370
    25
100
AcDbLine
 10
1192.784243788
 20
819.4463585717
 30
0.0
 11
1192.784243788
 21
819.9463585717
 31
0.0
  0
ARC
  5
291
330
1F
100
AcDbEntity
  8
0
  6
Continuous
 62
     7
370
    25
100
AcDbCircle
 10
1182.284243788
 20
895.4463585717
 30
0.0
 40
2.000000000000227
100
AcDbArc
 50
345.5224878144
 51
0.0000000003
  0
LINE
  5
292
330
1F
100
AcDbEntity
  8
0
  6
Continuous
 62
     7
370
    25
100
AcDbLine
 10
1192.784243788
 20
894.9463585717
 30
0.0
 11
1192.784243788
 21
895.4463585717
 31
0.0
  0
ARC
  5
293
330
1F
100
AcDbEntity
  8
0
  6
Continuous
 62
     7
370
    25
100
AcDbCircle
 10
1182.284243788
 20
895.4463585717
 30
0.0
 40
2.000000000000228
100
AcDbArc
 50
0.0000000003
 51
14.4775121862
  0
LINE
  5
294
330
1F
100
AcDbEntity
  8
0
  6
Continuous
 62
     7
370
    25
100
AcDbLine
 10
1192.784243788
 20
895.4463585717
 30
0.0
 11
1192.784243788
 21
895.9463585717
 31
0.0
  0
LINE
  5
295
330
1F
100
AcDbEntity
  8
0
  6
Continuous
 62
     7
370
    25
100
AcDbLine
 10
1192.784243788
 20
883.4463585717
 30
0.0
 11
1192.784243788
 21
882.9463585717
 31
0.0
  0
LINE
  5
296
330
1F
100
AcDbEntity
  8
0
  6
Continuous
 62
     7
370
    25
100
AcDbLine
 10
522.784243788
 20
882.9463585717
 30
0.0
 11
522.784243788
 21
883.4463585717
 31
0.0
  0
ARC
  5
297
330
1F
100
AcDbEntity
  8
0
  6
Continuous
 62
     7
370
    25
100
AcDbCircle
 10
936.784243788
 20
819.4463585717
 30
0.0
 40
3.249999999995866
100
AcDbArc
 50
188.8498830984
 51
351.1501169016
  0
ARC
  5
298
330
1F
100
AcDbEntity
  8
0
  6
Continuous
 62
     7
370
    25
100
AcDbCircle
 10
1162.784243788
 20
819.4463585717
 30
0.0
 40
3.250000000000168
100
AcDbArc
 50
188.8498830983
 51
351.1501169018
  0
ARC
  5
299
330
1F
100
AcDbEntity
  8
0
  6
Continuous
 62
     7
370
    25
100
AcDbCircle
 10
1182.284243788
 20
819.4463585717
 30
0.0
 40
2.000000000000147
100
AcDbArc
 50
194.4775121873
 51
345.5224878127
  0
ARC
  5
29A
330
1F
100
AcDbEntity
  8
0
  6
Continuous
 62
     7
370
    25
100
AcDbCircle
 10
533.284243788
 20
819.4463585717
 30
0.0
 40
2.000000000000134
100
AcDbArc
 50
194.4775121859
 51
345.5224878142
  0
ARC
  5
29B
330
1F
100
AcDbEntity
  8
0
  6
Continuous
 62
     7
370
    25
100
AcDbCircle
 10
562.784243788
 20
819.4463585717
 30
0.0
 40
2.000000000000024
100
AcDbArc
 50
194.4775121858
 51
345.5224878144
  0
ARC
  5
29C
330
1F
100
AcDbEntity
  8
0
  6
Continuous
 62
     7
370
    25
100
AcDbCircle
 10
729.784243788
 20
819.4463585717
 30
0.0
 40
3.249999999995978
100
AcDbArc
 50
188.8498830984
 51
351.1501169015
  0
ARC
  5
29D
330
1F
100
AcDbEntity
  8
0
  6
Continuous
 62
     7
370
    25
100
AcDbCircle
 10
745.784243788
 20
819.4463585717
 30
0.0
 40
3.000000000000126
100
AcDbArc
 50
189.5940682268
 51
350.4059317733
  0
ARC
  5
29E
330
1F
100
AcDbEntity
  8
0
  6
Continuous
 62
     7
370
    25
100
AcDbCircle
 10
869.784243788
 20
819.4463585717
 30
0.0
 40
3.00000000000013
100
AcDbArc
 50
189.5940682269
 51
350.4059317731
  0
LINE
  5
29F
330
1F
100
AcDbEntity
  8
0
  6
Continuous
 62
     7
370
    25
100
AcDbLine
 10
522.784243788
 20
812.9463585717
 30
0.0
 11
522.784243788
 21
818.9463585717
 31
0.0
  0
LINE
  5
2A0
330
1F
100
AcDbEntity
  8
0
  6
Continuous
 62
     7
370
    25
100
AcDbLine
 10
1192.784243788
 20
818.9463585717
 30
0.0
 11
1192.784243788
 21
812.9463585717
 31
0.0
  0
ARC
  5
2A1
330
1F
100
AcDbEntity
  8
0
  6
Continuous
 62
     7
370
    25
100
AcDbCircle
 10
1182.284243788
 20
819.4463585717
 30
0.0
 40
2.0
100
AcDbArc
 50
345.5224878127
 51
0.0000000001
  0
LINE
  5
2A2
330
1F
100
AcDbEntity
  8
0
  6
Continuous
 62
     7
370
    25
100
AcDbLine
 10
1192.784243788
 20
818.9463585717
 30
0.0
 11
1192.784243788
 21
819.4463585717
 31
0.0
  0
ARC
  5
2A3
330
1F
100
AcDbEntity
  8
0
  6
Continuous
 62
     7
370
    25
100
AcDbCircle
 10
533.284243788
 20
819.4463585717
 30
0.0
 40
1.999999999999925
100
AcDbArc
 50
179.9999999998
 51
194.4775121859
  0
LINE
  5
2A4
330
1F
100
AcDbEntity
  8
0
  6
Continuous
 62
     7
370
    25
100
AcDbLine
 10
522.784243788
 20
819.4463585717
 30
0.0
 11
522.784243788
 21
818.9463585717
 31
0.0
  0
ARC
  5
2A5
330
1F
100
AcDbEntity
  8
0
  6
Continuous
 62
     7
370
    25
100
AcDbCircle
 10
533.284243788
 20
819.4463585717
 30
0.0
 40
1.999999999999976
100
AcDbArc
 50
165.5224878138
 51
179.9999999998
  0
LINE
  5
2A6
330
1F
100
AcDbEntity
  8
0
  6
Continuous
 62
     7
370
    25
100
AcDbLine
 10
522.784243788
 20
819.9463585717
 30
0.0
 11
522.784243788
 21
819.4463585717
 31
0.0
  0
LINE
  5
2A7
330
1F
100
AcDbEntity
  8
0
  6
Continuous
 62
     7
370
    25
100
AcDbLine
 10
1192.784243788
 20
902.9463585717
 30
0.0
 11
522.784243788
 21
902.9463585717
 31
0.0
  0
LINE
  5
2A8
330
1F
100
AcDbEntity
  8
0
  6
Continuous
 62
     7
370
    25
100
AcDbLine
 10
1192.784243788
 20
901.9463585717
 30
0.0
 11
1192.784243788
 21
902.9463585717
 31
0.0
  0
LINE
  5
2A9
330
1F
100
AcDbEntity
  8
0
  6
Continuous
 62
     7
370
    25
100
AcDbLine
 10
522.784243788
 20
902.9463585717
 30
0.0
 11
522.784243788
 21
901.9463585717
 31
0.0
  0
LINE
  5
2AA
330
1F
100
AcDbEntity
  8
0
  6
Continuous
 62
     7
370
    25
100
AcDbLine
 10
522.784243788
 20
811.9463585717
 30
0.0
 11
1192.784243788
 21
811.9463585717
 31
0.0
  0
LINE
  5
2AB
330
1F
100
AcDbEntity
  8
0
  6
Continuous
 62
     7
370
    25
100
AcDbLine
 10
522.784243788
 20
812.9463585717
 30
0.0
 11
522.784243788
 21
811.9463585717
 31
0.0
  0
LINE
  5
2AC
330
1F
100
AcDbEntity
  8
0
  6
Continuous
 62
     7
370
    25
100
AcDbLine
 10
1192.784243788
 20
811.9463585717
 30
0.0
 11
1192.784243788
 21
812.9463585717
 31
0.0
  0
ARC
  5
2AD
330
1F
100
AcDbEntity
  8
0
  6
Continuous
 62
     7
370
    25
100
AcDbCircle
 10
936.784243788
 20
895.4463585717
 30
0.0
 40
3.24999999999612
100
AcDbArc
 50
359.9999999999
 51
8.8498830993
  0
ARC
  5
2AE
330
1F
100
AcDbEntity
  8
0
  6
Continuous
 62
     7
370
    25
100
AcDbCircle
 10
1162.784243788
 20
895.4463585717
 30
0.0
 40
3.250000000000572
100
AcDbArc
 50
171.1501169005
 51
179.9999999999
  0
ARC
  5
2AF
330
1F
100
AcDbEntity
  8
0
  6
Continuous
 62
     7
370
    25
100
AcDbCircle
 10
1182.284243788
 20
895.4463585717
 30
0.0
 40
2.000000000000007
100
AcDbArc
 50
165.5224878124
 51
179.9999999991
  0
ARC
  5
2B0
330
1F
100
AcDbEntity
  8
0
  6
Continuous
 62
     7
370
    25
100
AcDbCircle
 10
1162.784243788
 20
895.4463585717
 30
0.0
 40
3.249999999999773
100
AcDbArc
 50
0.0000000005
 51
8.8498831004
  0
ARC
  5
2B1
330
1F
100
AcDbEntity
  8
0
  6
Continuous
 62
     7
370
    25
100
AcDbCircle
 10
869.784243788
 20
895.4463585717
 30
0.0
 40
3.000000000000434
100
AcDbArc
 50
170.4059317722
 51
180.0000000001
  0
ARC
  5
2B2
330
1F
100
AcDbEntity
  8
0
  6
Continuous
 62
     7
370
    25
100
AcDbCircle
 10
745.784243788
 20
895.4463585717
 30
0.0
 40
3.000000000000476
100
AcDbArc
 50
0.0000000001
 51
9.594068228
  0
ARC
  5
2B3
330
1F
100
AcDbEntity
  8
0
  6
Continuous
 62
     7
370
    25
100
AcDbCircle
 10
869.784243788
 20
895.4463585717
 30
0.0
 40
3.000000000000547
100
AcDbArc
 50
360.0
 51
9.5940682278
  0
ARC
  5
2B4
330
1F
100
AcDbEntity
  8
0
  6
Continuous
 62
     7
370
    25
100
AcDbCircle
 10
936.784243788
 20
895.4463585717
 30
0.0
 40
3.24999999999612
100
AcDbArc
 50
171.1501169007
 51
180.0000000001
  0
ARC
  5
2B5
330
1F
100
AcDbEntity
  8
0
  6
Continuous
 62
     7
370
    25
100
AcDbCircle
 10
562.784243788
 20
895.4463585717
 30
0.0
 40
2.000000000000795
100
AcDbArc
 50
0.0
 51
14.4775121877
  0
ARC
  5
2B6
330
1F
100
AcDbEntity
  8
0
  6
Continuous
 62
     7
370
    25
100
AcDbCircle
 10
729.784243788
 20
895.4463585717
 30
0.0
 40
3.249999999996086
100
AcDbArc
 50
171.1501169005
 51
180.0
  0
ARC
  5
2B7
330
1F
100
AcDbEntity
  8
0
  6
Continuous
 62
     7
370
    25
100
AcDbCircle
 10
745.784243788
 20
895.4463585717
 30
0.0
 40
2.999999999999886
100
AcDbArc
 50
170.4059317719
 51
179.9999999999
  0
ARC
  5
2B8
330
1F
100
AcDbEntity
  8
0
  6
Continuous
 62
     7
370
    25
100
AcDbCircle
 10
729.784243788
 20
895.4463585717
 30
0.0
 40
3.249999999995907
100
AcDbArc
 50
359.9999999999
 51
8.8498830994
  0
ARC
  5
2B9
330
1F
100
AcDbEntity
  8
0
  6
Continuous
 62
     7
370
    25
100
AcDbCircle
 10
533.284243788
 20
895.4463585717
 30
0.0
 40
2.0
100
AcDbArc
 50
359.9999999999
 51
14.4775121876
  0
ARC
  5
2BA
330
1F
100
AcDbEntity
  8
0
  6
Continuous
 62
     7
370
    25
100
AcDbCircle
 10
562.784243788
 20
895.4463585717
 30
0.0
 40
2.0
100
AcDbArc
 50
165.5224878124
 51
180.0000000001
  0
ARC
  5
2BB
330
1F
100
AcDbEntity
  8
0
  6
Continuous
 62
     7
370
    25
100
AcDbCircle
 10
1162.784243788
 20
819.4463585717
 30
0.0
 40
3.250000000000031
100
AcDbArc
 50
351.1501169017
 51
0.0000000002
  0
ARC
  5
2BC
330
1F
100
AcDbEntity
  8
0
  6
Continuous
 62
     7
370
    25
100
AcDbCircle
 10
1182.284243788
 20
819.4463585717
 30
0.0
 40
2.000000000000147
100
AcDbArc
 50
179.9999999997
 51
194.4775121873
  0
ARC
  5
2BD
330
1F
100
AcDbEntity
  8
0
  6
Continuous
 62
     7
370
    25
100
AcDbCircle
 10
936.784243788
 20
819.4463585717
 30
0.0
 40
3.249999999995794
100
AcDbArc
 50
360.0
 51
8.8498830985
  0
ARC
  5
2BE
330
1F
100
AcDbEntity
  8
0
  6
Continuous
 62
     7
370
    25
100
AcDbCircle
 10
1162.784243788
 20
819.4463585717
 30
0.0
 40
3.250000000000227
100
AcDbArc
 50
171.1501169013
 51
179.9999999998
  0
ARC
  5
2BF
330
1F
100
AcDbEntity
  8
0
  6
Continuous
 62
     7
370
    25
100
AcDbCircle
 10
1162.784243788
 20
819.4463585717
 30
0.0
 40
3.249999999999773
100
AcDbArc
 50
0.0000000002
 51
8.8498830987
  0
ARC
  5
2C0
330
1F
100
AcDbEntity
  8
0
  6
Continuous
 62
     7
370
    25
100
AcDbCircle
 10
1182.284243788
 20
819.4463585717
 30
0.0
 40
2.000000000000072
100
AcDbArc
 50
165.5224878136
 51
179.9999999997
  0
ARC
  5
2C1
330
1F
100
AcDbEntity
  8
0
  6
Continuous
 62
     7
370
    25
100
AcDbCircle
 10
869.784243788
 20
819.4463585717
 30
0.0
 40
3.000000000000036
100
AcDbArc
 50
0.0
 51
9.5940682269
  0
ARC
  5
2C2
330
1F
100
AcDbEntity
  8
0
  6
Continuous
 62
     7
370
    25
100
AcDbCircle
 10
936.784243788
 20
819.4463585717
 30
0.0
 40
3.249999999995907
100
AcDbArc
 50
171.1501169015
 51
180.0
  0
ARC
  5
2C3
330
1F
100
AcDbEntity
  8
0
  6
Continuous
 62
     7
370
    25
100
AcDbCircle
 10
562.784243788
 20
819.4463585717
 30
0.0
 40
1.999999999999964
100
AcDbArc
 50
0.0000000001
 51
14.4775121861
  0
ARC
  5
2C4
330
1F
100
AcDbEntity
  8
0
  6
Continuous
 62
     7
370
    25
100
AcDbCircle
 10
729.784243788
 20
819.4463585717
 30
0.0
 40
3.24999999999621
100
AcDbArc
 50
171.1501169016
 51
180.0000000001
  0
ARC
  5
2C5
330
1F
100
AcDbEntity
  8
0
  6
Continuous
 62
     7
370
    25
100
AcDbCircle
 10
869.784243788
 20
819.4463585717
 30
0.0
 40
2.999999999999924
100
AcDbArc
 50
170.4059317731
 51
180.0
  0
ARC
  5
2C6
330
1F
100
AcDbEntity
  8
0
  6
Continuous
 62
     7
370
    25
100
AcDbCircle
 10
745.784243788
 20
819.4463585717
 30
0.0
 40
3.000000000000165
100
AcDbArc
 50
0.0000000001
 51
9.5940682272
  0
ARC
  5
2C7
330
1F
100
AcDbEntity
  8
0
  6
Continuous
 62
     7
370
    25
100
AcDbCircle
 10
745.784243788
 20
819.4463585717
 30
0.0
 40
3.000000000000322
100
AcDbArc
 50
170.4059317729
 51
180.0
  0
ARC
  5
2C8
330
1F
100
AcDbEntity
  8
0
  6
Continuous
 62
     7
370
    25
100
AcDbCircle
 10
729.784243788
 20
819.4463585717
 30
0.0
 40
3.24999999999621
100
AcDbArc
 50
359.9999999999
 51
8.8498830984
  0
LINE
  5
2C9
330
1F
100
AcDbEntity
  8
0
  6
Continuous
 62
     7
370
    25
100
AcDbLine
 10
522.784243788
 20
829.9463585717
 30
0.0
 11
522.784243788
 21
829.6463585717
 31
0.0
  0
LINE
  5
2CA
330
1F
100
AcDbEntity
  8
0
  6
Continuous
 62
     7
370
    25
100
AcDbLine
 10
1192.784243788
 20
829.6463585717
 30
0.0
 11
1192.784243788
 21
829.9463585717
 31
0.0
  0
ARC
  5
2CB
330
1F
100
AcDbEntity
  8
0
  6
Continuous
 62
     7
370
    25
100
AcDbCircle
 10
936.784243788
 20
895.4463585717
 30
0.0
 40
3.249999999996136
100
AcDbArc
 50
351.1501169015
 51
359.9999999999
  0
ARC
  5
2CC
330
1F
100
AcDbEntity
  8
0
  6
Continuous
 62
     7
370
    25
100
AcDbCircle
 10
1162.784243788
 20
895.4463585717
 30
0.0
 40
3.250000000000445
100
AcDbArc
 50
179.9999999999
 51
188.8498830983
  0
ARC
  5
2CD
330
1F
100
AcDbEntity
  8
0
  6
Continuous
 62
     7
370
    25
100
AcDbCircle
 10
1182.284243788
 20
895.4463585717
 30
0.0
 40
2.000000000000062
100
AcDbArc
 50
179.9999999991
 51
194.4775121856
  0
ARC
  5
2CE
330
1F
100
AcDbEntity
  8
0
  6
Continuous
 62
     7
370
    25
100
AcDbCircle
 10
1162.784243788
 20
895.4463585717
 30
0.0
 40
3.249999999999996
100
AcDbArc
 50
351.1501169017
 51
0.0000000005
  0
ARC
  5
2CF
330
1F
100
AcDbEntity
  8
0
  6
Continuous
 62
     7
370
    25
100
AcDbCircle
 10
869.784243788
 20
895.4463585717
 30
0.0
 40
3.000000000000148
100
AcDbArc
 50
350.4059317731
 51
360.0
  0
ARC
  5
2D0
330
1F
100
AcDbEntity
  8
0
  6
Continuous
 62
     7
370
    25
100
AcDbCircle
 10
936.784243788
 20
895.4463585717
 30
0.0
 40
3.249999999996023
100
AcDbArc
 50
180.0000000001
 51
188.8498830985
  0
ARC
  5
2D1
330
1F
100
AcDbEntity
  8
0
  6
Continuous
 62
     7
370
    25
100
AcDbCircle
 10
745.784243788
 20
895.4463585717
 30
0.0
 40
2.999999999999994
100
AcDbArc
 50
179.9999999999
 51
189.5940682267
  0
ARC
  5
2D2
330
1F
100
AcDbEntity
  8
0
  6
Continuous
 62
     7
370
    25
100
AcDbCircle
 10
729.784243788
 20
895.4463585717
 30
0.0
 40
3.249999999996205
100
AcDbArc
 50
351.1501169015
 51
359.9999999999
  0
ARC
  5
2D3
330
1F
100
AcDbEntity
  8
0
  6
Continuous
 62
     7
370
    25
100
AcDbCircle
 10
562.784243788
 20
895.4463585717
 30
0.0
 40
2.000000000000116
100
AcDbArc
 50
345.5224878141
 51
0.0
  0
ARC
  5
2D4
330
1F
100
AcDbEntity
  8
0
  6
Continuous
 62
     7
370
    25
100
AcDbCircle
 10
729.784243788
 20
895.4463585717
 30
0.0
 40
3.249999999996205
100
AcDbArc
 50
180.0
 51
188.8498830985
  0
ARC
  5
2D5
330
1F
100
AcDbEntity
  8
0
  6
Continuous
 62
     7
370
    25
100
AcDbCircle
 10
869.784243788
 20
895.4463585717
 30
0.0
 40
3.000000000000036
100
AcDbArc
 50
180.0000000001
 51
189.5940682269
  0
ARC
  5
2D6
330
1F
100
AcDbEntity
  8
0
  6
Continuous
 62
     7
370
    25
100
AcDbCircle
 10
745.784243788
 20
895.4463585717
 30
0.0
 40
3.000000000000114
100
AcDbArc
 50
350.4059317733
 51
0.0000000001
  0
ARC
  5
2D7
330
1F
100
AcDbEntity
  8
0
  6
Continuous
 62
     7
370
    25
100
AcDbCircle
 10
533.284243788
 20
895.4463585717
 30
0.0
 40
2.0
100
AcDbArc
 50
345.5224878139
 51
359.9999999999
  0
ARC
  5
2D8
330
1F
100
AcDbEntity
  8
0
  6
Continuous
 62
     7
370
    25
100
AcDbCircle
 10
562.784243788
 20
895.4463585717
 30
0.0
 40
2.0
100
AcDbArc
 50
180.0000000001
 51
194.4775121861
  0
ARC
  5
2D9
330
1F
100
AcDbEntity
  8
0
  6
Continuous
 62
     7
370
    25
100
AcDbCircle
 10
936.784243788
 20
819.4463585717
 30
0.0
 40
3.249999999995971
100
AcDbArc
 50
351.1501169015
 51
360.0
  0
ARC
  5
2DA
330
1F
100
AcDbEntity
  8
0
  6
Continuous
 62
     7
370
    25
100
AcDbCircle
 10
1162.784243788
 20
819.4463585717
 30
0.0
 40
3.250000000000255
100
AcDbArc
 50
179.9999999998
 51
188.8498830983
  0
ARC
  5
2DB
330
1F
100
AcDbEntity
  8
0
  6
Continuous
 62
     7
370
    25
100
AcDbCircle
 10
562.784243788
 20
819.4463585717
 30
0.0
 40
2.000000000000024
100
AcDbArc
 50
179.9999999998
 51
194.4775121858
  0
ARC
  5
2DC
330
1F
100
AcDbEntity
  8
0
  6
Continuous
 62
     7
370
    25
100
AcDbCircle
 10
533.284243788
 20
819.4463585717
 30
0.0
 40
2.000000000000134
100
AcDbArc
 50
345.5224878142
 51
0.0000000002
  0
ARC
  5
2DD
330
1F
100
AcDbEntity
  8
0
  6
Continuous
 62
     7
370
    25
100
AcDbCircle
 10
562.784243788
 20
819.4463585717
 30
0.0
 40
1.999999999999984
100
AcDbArc
 50
345.5224878144
 51
0.0000000001
  0
ARC
  5
2DE
330
1F
100
AcDbEntity
  8
0
  6
Continuous
 62
     7
370
    25
100
AcDbCircle
 10
729.784243788
 20
819.4463585717
 30
0.0
 40
3.249999999996083
100
AcDbArc
 50
180.0000000001
 51
188.8498830985
  0
ARC
  5
2DF
330
1F
100
AcDbEntity
  8
0
  6
Continuous
 62
     7
370
    25
100
AcDbCircle
 10
869.784243788
 20
819.4463585717
 30
0.0
 40
2.999999999999906
100
AcDbArc
 50
180.0
 51
189.5940682269
  0
ARC
  5
2E0
330
1F
100
AcDbEntity
  8
0
  6
Continuous
 62
     7
370
    25
100
AcDbCircle
 10
745.784243788
 20
819.4463585717
 30
0.0
 40
3.000000000000114
100
AcDbArc
 50
350.4059317733
 51
0.0000000001
  0
ARC
  5
2E1
330
1F
100
AcDbEntity
  8
0
  6
Continuous
 62
     7
370
    25
100
AcDbCircle
 10
562.784243788
 20
819.4463585717
 30
0.0
 40
2.0
100
AcDbArc
 50
165.5224878138
 51
179.9999999998
  0
ARC
  5
2E2
330
1F
100
AcDbEntity
  8
0
  6
Continuous
 62
     7
370
    25
100
AcDbCircle
 10
533.284243788
 20
819.4463585717
 30
0.0
 40
2.000000000000114
100
AcDbArc
 50
0.0000000002
 51
14.4775121862
  0
ARC
  5
2E3
330
1F
100
AcDbEntity
  8
0
  6
Continuous
 62
     7
370
    25
100
AcDbCircle
 10
869.784243788
 20
819.4463585717
 30
0.0
 40
3.00000000000013
100
AcDbArc
 50
350.4059317731
 51
0.0
  0
ARC
  5
2E4
330
1F
100
AcDbEntity
  8
0
  6
Continuous
 62
     7
370
    25
100
AcDbCircle
 10
936.784243788
 20
819.4463585717
 30
0.0
 40
3.249999999995971
100
AcDbArc
 50
180.0
 51
188.8498830985
  0
ARC
  5
2E5
330
1F
100
AcDbEntity
  8
0
  6
Continuous
 62
     7
370
    25
100
AcDbCircle
 10
745.784243788
 20
819.4463585717
 30
0.0
 40
2.999999999999913
100
AcDbArc
 50
180.0
 51
189.5940682268
  0
ARC
  5
2E6
330
1F
100
AcDbEntity
  8
0
  6
Continuous
 62
     7
370
    25
100
AcDbCircle
 10
729.784243788
 20
819.4463585717
 30
0.0
 40
3.249999999996066
100
AcDbArc
 50
351.1501169015
 51
359.9999999999
  0
ARC
  5
2E7
330
1F
100
AcDbEntity
  8
0
  6
Continuous
 62
     7
370
    25
100
AcDbCircle
 10
545.784243788
 20
875.9463585717
 30
0.0
 40
5.000000000004661
100
AcDbArc
 50
0.0000000002
 51
90.0
  0
LINE
  5
2E8
330
1F
100
AcDbEntity
  8
0
  6
Continuous
 62
     7
370
    25
100
AcDbLine
 10
522.784243788
 20
880.9463585717
 30
0.0
 11
545.784243788
 21
880.9463585717
 31
0.0
  0
LINE
  5
2E9
330
1F
100
AcDbEntity
  8
0
  6
Continuous
 62
     7
370
    25
100
AcDbLine
 10
1169.784243788
 20
880.9463585717
 30
0.0
 11
1192.784243788
 21
880.9463585717
 31
0.0
  0
ARC
  5
2EA
330
1F
100
AcDbEntity
  8
0
  6
Continuous
 62
     7
370
    25
100
AcDbCircle
 10
1169.784243788
 20
875.9463585717
 30
0.0
 40
5.000000000000227
100
AcDbArc
 50
90.0
 51
180.0000000001
  0
LINE
  5
2EB
330
1F
100
AcDbEntity
  8
0
  6
Continuous
 62
     7
370
    25
100
AcDbLine
 10
1164.784243788
 20
875.9463585717
 30
0.0
 11
1164.784243788
 21
870.1425109944
 31
0.0
  0
LINE
  5
2EC
330
1F
100
AcDbEntity
  8
0
  6
Continuous
 62
     7
370
    25
100
AcDbLine
 10
550.784243788
 20
870.1425109944
 30
0.0
 11
550.784243788
 21
875.9463585717
 31
0.0
  0
LINE
  5
2ED
330
1F
100
AcDbEntity
  8
0
  6
Continuous
 62
     7
370
    25
100
AcDbLine
 10
1192.784243788
 20
880.9463585717
 30
0.0
 11
1192.784243788
 21
882.9463585717
 31
0.0
  0
LINE
  5
2EE
330
1F
100
AcDbEntity
  8
0
  6
Continuous
 62
     7
370
    25
100
AcDbLine
 10
522.784243788
 20
882.9463585717
 30
0.0
 11
522.784243788
 21
880.9463585717
 31
0.0
  0
LINE
  5
2EF
330
1F
100
AcDbEntity
  8
0
  6
Continuous
 62
     7
370
    25
100
AcDbLine
 10
550.784243788
 20
865.8123839755
 30
0.0
 11
550.784243788
 21
870.1425109944
 31
0.0
  0
LINE
  5
2F0
330
1F
100
AcDbEntity
  8
0
  6
Continuous
 62
     7
370
    25
100
AcDbLine
 10
1164.784243788
 20
870.1425109944
 30
0.0
 11
1164.784243788
 21
865.8123839755
 31
0.0
  0
LINE
  5
2F1
330
1F
100
AcDbEntity
  8
0
  6
Continuous
 62
     7
370
    25
100
AcDbLine
 10
550.784243788
 20
863.3586453315
 30
0.0
 11
550.784243788
 21
865.8123839755
 31
0.0
  0
LINE
  5
2F2
330
1F
100
AcDbEntity
  8
0
  6
Continuous
 62
     7
370
    25
100
AcDbLine
 10
1164.784243788
 20
865.8123839755
 30
0.0
 11
1164.784243788
 21
863.3586453315
 31
0.0
  0
LINE
  5
2F3
330
1F
100
AcDbEntity
  8
0
  6
Continuous
 62
     7
370
    25
100
AcDbLine
 10
550.784243788
 20
862.0596072258
 30
0.0
 11
550.784243788
 21
863.3586453315
 31
0.0
  0
LINE
  5
2F4
330
1F
100
AcDbEntity
  8
0
  6
Continuous
 62
     7
370
    25
100
AcDbLine
 10
1164.784243788
 20
863.3586453315
 30
0.0
 11
1164.784243788
 21
862.0596072258
 31
0.0
  0
LINE
  5
2F5
330
1F
100
AcDbEntity
  8
0
  6
Continuous
 62
     7
370
    25
100
AcDbLine
 10
522.784243788
 20
833.9463585717
 30
0.0
 11
545.784243788
 21
833.9463585717
 31
0.0
  0
ARC
  5
2F6
330
1F
100
AcDbEntity
  8
0
  6
Continuous
 62
     7
370
    25
100
AcDbCircle
 10
545.784243788
 20
838.9463585717
 30
0.0
 40
4.999999999999886
100
AcDbArc
 50
270.0
 51
359.9999999999
  0
ARC
  5
2F7
330
1F
100
AcDbEntity
  8
0
  6
Continuous
 62
     7
370
    25
100
AcDbCircle
 10
1169.784243788
 20
838.9463585718
 30
0.0
 40
5.000000000011028
100
AcDbArc
 50
180.0000000003
 51
270.0
  0
LINE
  5
2F8
330
1F
100
AcDbEntity
  8
0
  6
Continuous
 62
     7
370
    25
100
AcDbLine
 10
1169.784243788
 20
833.9463585717
 30
0.0
 11
1192.784243788
 21
833.9463585717
 31
0.0
  0
LINE
  5
2F9
330
1F
100
AcDbEntity
  8
0
  6
Continuous
 62
     7
370
    25
100
AcDbLine
 10
550.784243788
 20
838.9463585717
 30
0.0
 11
550.784243788
 21
862.0596072258
 31
0.0
  0
LINE
  5
2FA
330
1F
100
AcDbEntity
  8
0
  6
Continuous
 62
     7
370
    25
100
AcDbLine
 10
1164.784243788
 20
862.0596072258
 30
0.0
 11
1164.784243788
 21
838.9463585717
 31
0.0
  0
LINE
  5
2FB
330
1F
100
AcDbEntity
  8
0
  6
Continuous
 62
     7
370
    25
100
AcDbLine
 10
522.784243788
 20
829.9463585717
 30
0.0
 11
522.784243788
 21
833.9463585717
 31
0.0
  0
LINE
  5
2FC
330
1F
100
AcDbEntity
  8
0
  6
Continuous
 62
     7
370
    25
100
AcDbLine
 10
1192.784243788
 20
833.9463585717
 30
0.0
 11
1192.784243788
 21
829.9463585717
 31
0.0
  0
LINE
  5
2FD
330
1F
100
AcDbEntity
  8
0
  6
Continuous
 62
     7
370
    25
100
AcDbLine
 10
522.4885217302
 20
601.4463585722
 30
0.0
 11
522.4885217302
 21
561.4463585722
 31
0.0
  0
LINE
  5
2FE
330
1F
100
AcDbEntity
  8
0
  6
Continuous
 62
     7
370
    25
100
AcDbLine
 10
526.5319708729
 20
601.4463585722
 30
0.0
 11
526.5319708729
 21
561.4463585722
 31
0.0
  0
LINE
  5
2FF
330
1F
100
AcDbEntity
  8
0
  6
Continuous
 62
     7
370
    25
100
AcDbLine
 10
526.5319708729
 20
561.4463585722
 30
0.0
 11
522.7762436826
 21
561.4463585722
 31
0.0
  0
LINE
  5
300
330
1F
100
AcDbEntity
  8
0
  6
Continuous
 62
     7
370
    25
100
AcDbLine
 10
526.5319708729
 20
601.4463585722
 30
0.0
 11
522.7762436826
 21
601.4463585722
 31
0.0
  0
LINE
  5
301
330
1F
100
AcDbEntity
  8
0
  6
Continuous
 62
     7
370
    25
100
AcDbLine
 10
544.784243788
 20
601.4463585722
 30
0.0
 11
544.784243788
 21
561.4463585722
 31
0.0
  0
LINE
  5
302
330
1F
100
AcDbEntity
  8
0
  6
Continuous
 62
     7
370
    25
100
AcDbLine
 10
544.784243788
 20
561.4463585722
 30
0.0
 11
526.5319708729
 21
561.4463585722
 31
0.0
  0
LINE
  5
303
330
1F
100
AcDbEntity
  8
0
  6
Continuous
 62
     7
370
    25
100
AcDbLine
 10
544.784243788
 20
601.4463585722
 30
0.0
 11
526.5319708729
 21
601.4463585722
 31
0.0
  0
LINE
  5
304
330
1F
100
AcDbEntity
  8
0
  6
Continuous
 62
     7
370
    25
100
AcDbLine
 10
1507.784243788
 20
461.4463585722
 30
0.0
 11
517.784243788
 21
461.4463585722
 31
0.0
  0
LINE
  5
305
330
1F
100
AcDbEntity
  8
0
  6
Continuous
 62
     7
370
    25
100
AcDbLine
 10
517.784243788
 20
461.4463585722
 30
0.0
 11
517.784243788
 21
531.4463585722
 31
0.0
  0
LINE
  5
306
330
1F
100
AcDbEntity
  8
0
  6
Continuous
 62
     7
370
    25
100
AcDbLine
 10
517.784243788
 20
631.4463585722
 30
0.0
 11
517.784243788
 21
781.4463585722
 31
0.0
  0
LINE
  5
307
330
1F
100
AcDbEntity
  8
0
  6
Continuous
 62
     7
370
    25
100
AcDbLine
 10
517.784243788
 20
781.4463585722
 30
0.0
 11
1507.784243788
 21
781.4463585722
 31
0.0
  0
LINE
  5
308
330
1F
100
AcDbEntity
  8
0
  6
Continuous
 62
     7
370
    25
100
AcDbLine
 10
1507.784243788
 20
781.4463585722
 30
0.0
 11
1507.784243788
 21
461.4463585722
 31
0.0
  0
CIRCLE
  5
309
330
1F
100
AcDbEntity
  8
0
  6
Continuous
 62
     7
370
    25
100
AcDbCircle
 10
1234.784243788
 20
746.1963585722
 30
0.0
 40
3.249999999999773
  0
CIRCLE
  5
30A
330
1F
100
AcDbEntity
  8
0
  6
Continuous
 62
     7
370
    25
100
AcDbCircle
 10
601.784243788
 20
746.1963585722
 30
0.0
 40
3.249999999999886
  0
LINE
  5
30B
330
1F
100
AcDbEntity
  8
0
  6
Continuous
 62
     7
370
    25
100
AcDbLine
 10
502.7996881123
 20
561.4463585722
 30
0.0
 11
502.7996881123
 21
531.4463585722
 31
0.0
  0
LINE
  5
30C
330
1F
100
AcDbEntity
  8
0
  6
Continuous
 62
     7
370
    25
100
AcDbLine
 10
522.7762436826
 20
561.4463585722
 30
0.0
 11
502.7996881123
 21
561.4463585722
 31
0.0
  0
LINE
  5
30D
330
1F
100
AcDbEntity
  8
0
  6
Continuous
 62
     7
370
    25
100
AcDbLine
 10
524.814243788
 20
531.4463585722
 30
0.0
 11
502.7996881123
 21
531.4463585722
 31
0.0
  0
LINE
  5
30E
330
1F
100
AcDbEntity
  8
0
  6
Continuous
 62
     7
370
    25
100
AcDbLine
 10
502.7996881123
 20
631.4463585722
 30
0.0
 11
502.7996881123
 21
601.4463585722
 31
0.0
  0
LINE
  5
30F
330
1F
100
AcDbEntity
  8
0
  6
Continuous
 62
     7
370
    25
100
AcDbLine
 10
522.7762436826
 20
601.4463585722
 30
0.0
 11
502.7996881123
 21
601.4463585722
 31
0.0
  0
LINE
  5
310
330
1F
100
AcDbEntity
  8
0
  6
Continuous
 62
     7
370
    25
100
AcDbLine
 10
524.814243788
 20
631.4463585722
 30
0.0
 11
502.7996881123
 21
631.4463585722
 31
0.0
  0
LINE
  5
311
330
1F
100
AcDbEntity
  8
0
  6
Continuous
 62
     7
370
    25
100
AcDbLine
 10
499.034243788
 20
561.4463585722
 30
0.0
 11
499.034243788
 21
531.4463585722
 31
0.0
  0
LINE
  5
312
330
1F
100
AcDbEntity
  8
0
  6
Continuous
 62
     7
370
    25
100
AcDbLine
 10
502.7996881123
 20
531.4463585722
 30
0.0
 11
499.034243788
 21
531.4463585722
 31
0.0
  0
LINE
  5
313
330
1F
100
AcDbEntity
  8
0
  6
Continuous
 62
     7
370
    25
100
AcDbLine
 10
502.7996881123
 20
561.4463585722
 30
0.0
 11
499.034243788
 21
561.4463585722
 31
0.0
  0
LINE
  5
314
330
1F
100
AcDbEntity
  8
0
  6
Continuous
 62
     7
370
    25
100
AcDbLine
 10
499.034243788
 20
631.4463585722
 30
0.0
 11
499.034243788
 21
601.4463585722
 31
0.0
  0
LINE
  5
315
330
1F
100
AcDbEntity
  8
0
  6
Continuous
 62
     7
370
    25
100
AcDbLine
 10
502.7996881123
 20
601.4463585722
 30
0.0
 11
499.034243788
 21
601.4463585722
 31
0.0
  0
LINE
  5
316
330
1F
100
AcDbEntity
  8
0
  6
Continuous
 62
     7
370
    25
100
AcDbLine
 10
502.7996881123
 20
631.4463585722
 30
0.0
 11
499.034243788
 21
631.4463585722
 31
0.0
  0
LINE
  5
317
330
1F
100
AcDbEntity
  8
0
  6
Continuous
 62
     7
370
    25
100
AcDbLine
 10
480.784243788
 20
561.4463585722
 30
0.0
 11
480.784243788
 21
531.4463585722
 31
0.0
  0
LINE
  5
318
330
1F
100
AcDbEntity
  8
0
  6
Continuous
 62
     7
370
    25
100
AcDbLine
 10
499.034243788
 20
531.4463585722
 30
0.0
 11
480.784243788
 21
531.4463585722
 31
0.0
  0
LINE
  5
319
330
1F
100
AcDbEntity
  8
0
  6
Continuous
 62
     7
370
    25
100
AcDbLine
 10
499.034243788
 20
561.4463585722
 30
0.0
 11
480.784243788
 21
561.4463585722
 31
0.0
  0
LINE
  5
31A
330
1F
100
AcDbEntity
  8
0
  6
Continuous
 62
     7
370
    25
100
AcDbLine
 10
480.784243788
 20
631.4463585722
 30
0.0
 11
480.784243788
 21
601.4463585722
 31
0.0
  0
LINE
  5
31B
330
1F
100
AcDbEntity
  8
0
  6
Continuous
 62
     7
370
    25
100
AcDbLine
 10
499.034243788
 20
601.4463585722
 30
0.0
 11
480.784243788
 21
601.4463585722
 31
0.0
  0
LINE
  5
31C
330
1F
100
AcDbEntity
  8
0
  6
Continuous
 62
     7
370
    25
100
AcDbLine
 10
499.034243788
 20
631.4463585722
 30
0.0
 11
480.784243788
 21
631.4463585722
 31
0.0
  0
LINE
  5
31D
330
1F
100
AcDbEntity
  8
0
  6
Continuous
 62
     7
370
    25
100
AcDbLine
 10
512.784243788
 20
786.4463585722
 30
0.0
 11
512.784243788
 21
631.4463585722
 31
0.0
  0
LINE
  5
31E
330
1F
100
AcDbEntity
  8
0
  6
Continuous
 62
     7
370
    25
100
AcDbLine
 10
512.784243788
 20
531.4463585722
 30
0.0
 11
512.784243788
 21
461.4463585722
 31
0.0
  0
LINE
  5
31F
330
1F
100
AcDbEntity
  8
0
  6
Continuous
 62
     7
370
    25
100
AcDbLine
 10
1512.784243788
 20
461.4463585722
 30
0.0
 11
1612.784243788
 21
461.4463585722
 31
0.0
  0
CIRCLE
  5
320
330
1F
100
AcDbEntity
  8
0
  6
Continuous
 62
     7
370
    25
100
AcDbCircle
 10
536.784243788
 20
869.4463585722
 30
0.0
 40
10.0
  0
LINE
  5
321
330
1F
100
AcDbEntity
  8
0
  6
Continuous
 62
     7
370
    25
100
AcDbLine
 10
1512.784243788
 20
461.4463585722
 30
0.0
 11
1512.784243788
 21
786.4463585722
 31
0.0
  0
LINE
  5
322
330
1F
100
AcDbEntity
  8
0
  6
Continuous
 62
     7
370
    25
100
AcDbLine
 10
1512.784243788
 20
786.4463585722
 30
0.0
 11
512.784243788
 21
786.4463585722
 31
0.0
  0
LINE
  5
323
330
1F
100
AcDbEntity
  8
0
  6
Continuous
 62
     7
370
    25
100
AcDbLine
 10
1612.784243788
 20
961.4463585722
 30
0.0
 11
412.784243788
 21
961.4463585722
 31
0.0
  0
LINE
  5
324
330
1F
100
AcDbEntity
  8
0
  6
Continuous
 62
     7
370
    25
100
AcDbLine
 10
1612.784243788
 20
461.4463585722
 30
0.0
 11
1612.784243788
 21
961.4463585722
 31
0.0
  0
CIRCLE
  5
325
330
1F
100
AcDbEntity
  8
0
  6
Continuous
 62
     7
370
    25
100
AcDbCircle
 10
1178.784243788
 20
846.4463585722
 30
0.0
 40
9.999999999999773
  0
LINE
  5
326
330
1F
100
AcDbEntity
  8
0
  6
Continuous
 62
     7
370
    25
100
AcDbLine
 10
412.784243788
 20
961.4463585722
 30
0.0
 11
412.784243788
 21
461.4463585722
 31
0.0
  0
LINE
  5
327
330
1F
100
AcDbEntity
  8
0
  6
Continuous
 62
     7
370
    25
100
AcDbLine
 10
412.784243788
 20
461.4463585722
 30
0.0
 11
512.784243788
 21
461.4463585722
 31
0.0
  0
CIRCLE
  5
328
330
1F
100
AcDbEntity
  8
0
  6
Continuous
 62
     7
370
    25
100
AcDbCircle
 10
536.784243788
 20
846.4463585722
 30
0.0
 40
10.0
  0
CIRCLE
  5
329
330
1F
100
AcDbEntity
  8
0
  6
Continuous
 62
     7
370
    25
100
AcDbCircle
 10
1178.784243788
 20
869.4463585722
 30
0.0
 40
9.999999999999773
  0
LINE
  5
32A
330
1F
100
AcDbEntity
  8
0
  6
Continuous
 62
     7
370
    25
100
AcDbLine
 10
1507.784243788
 20
461.4463585722
 30
0.0
 11
1512.784243788
 21
461.4463585722
 31
0.0
  0
LINE
  5
32B
330
1F
100
AcDbEntity
  8
0
  6
Continuous
 62
     7
370
    25
100
AcDbLine
 10
512.784243788
 20
461.4463585722
 30
0.0
 11
517.784243788
 21
461.4463585722
 31
0.0
  0
LINE
  5
32C
330
1F
100
AcDbEntity
  8
FORMAT
370
    25
100
AcDbLine
 10
512.784243788
 20
635.1057400725
 30
0.0
 11
512.784243788
 21
528.0918379174
 31
0.0
  0
DIMENSION
  5
32D
330
1F
100
AcDbEntity
  8
FORMAT
100
AcDbDimension
  2
_D_5
 10
522.784243788
 20
978.0511161876
 30
0.0
 11
471.8701513996
 21
978.0511161876
 31
0.0
 70
   160
  1
<>
 71
     2
 42
-1.0
  3
SLDDIMSTYLE1
100
AcDbAlignedDimension
 13
512.784243788
 23
635.1057400725
 33
0.0
 14
522.784243788
 24
829.9463585717
 34
0.0
100
AcDbRotatedDimension
  0
DIMENSION
  5
339
330
1F
100
AcDbEntity
  8
FORMAT
100
AcDbDimension
  2
_D_6
 10
512.784243788
 20
1041.4463585722
 30
0.0
 11
621.284243788
 21
1041.4463585722
 31
0.0
 70
   160
  1
<>
 71
     2
 42
-1.0
  3
SLDDIMSTYLE0
100
AcDbAlignedDimension
 13
729.784243788
 23
895.4463585717
 33
0.0
 14
512.784243788
 24
635.1057400725
 34
0.0
100
AcDbRotatedDimension
  0
DIMENSION
  5
343
330
1F
100
AcDbEntity
  8
FORMAT
100
AcDbDimension
  2
_D_7
 10
512.784243788
 20
1011.4463585722
 30
0.0
 11
471.8701513996
 21
1011.4463585722
 31
0.0
 70
   160
  1
<>
 71
     2
 42
-1.0
  3
SLDDIMSTYLE1
100
AcDbAlignedDimension
 13
536.784243788
 23
846.4463585722
 33
0.0
 14
512.784243788
 24
635.1057400725
 34
0.0
100
AcDbRotatedDimension
  0
DIMENSION
  5
34F
330
1F
100
AcDbEntity
  8
FORMAT
100
AcDbDimension
  2
_D_8
 10
512.784243788
 20
1083.710055917
 30
0.0
 11
845.784243788
 21
1083.710055917
 31
0.0
 70
   160
  1
<>
 71
     2
 42
-1.0
  3
SLDDIMSTYLE0
100
AcDbAlignedDimension
 13
1178.784243788
 23
869.4463585722
 33
0.0
 14
512.784243788
 24
635.1057400725
 34
0.0
100
AcDbRotatedDimension
  0
DIMENSION
  5
359
330
1F
100
AcDbEntity
  8
FORMAT
100
AcDbDimension
  2
_D_9
 10
1192.784243788
 20
1122.5101792017
 30
0.0
 11
852.784243788
 21
1122.5101792017
 31
0.0
 70
   160
  1
<>
 71
     2
 42
-1.0
  3
SLDDIMSTYLE0
100
AcDbAlignedDimension
 13
512.784243788
 23
635.1057400725
 33
0.0
 14
1192.784243788
 24
895.4463585717
 34
0.0
100
AcDbRotatedDimension
  0
DIMENSION
  5
363
330
1F
100
AcDbEntity
  8
FORMAT
100
AcDbDimension
  2
_D_10
 10
512.784243788
 20
612.9505149411
 30
0.0
 11
557.284243788
 21
612.9505149411
 31
0.0
 70
   160
  1
<>
 71
     2
 42
-1.0
  3
SLDDIMSTYLE0
100
AcDbAlignedDimension
 13
601.784243788
 23
746.1963585722
 33
0.0
 14
512.784243788
 24
635.1057400725
 34
0.0
100
AcDbRotatedDimension
  0
DIMENSION
  5
36C
330
1F
100
AcDbEntity
  8
FORMAT
100
AcDbDimension
  2
_D_11
 10
1233.2967976285
 20
902.9463585717
 30
0.0
 11
1233.2967976285
 21
857.4463585717
 31
0.0
 70
   160
  1
<>
 71
     2
 42
-1.0
  3
SLDDIMSTYLE0
100
AcDbAlignedDimension
 13
1192.784243788
 23
811.9463585717
 33
0.0
 14
1192.784243788
 24
902.9463585717
 34
0.0
 50
90.0
100
AcDbRotatedDimension
  0
DIMENSION
  5
376
330
1F
100
AcDbEntity
  8
FORMAT
100
AcDbDimension
  2
_D_12
 10
936.784243788
 20
1041.4463585722
 30
0.0
 11
833.284243788
 21
1041.4463585722
 31
0.0
 70
   160
  1
<>
 71
     2
 42
-1.0
  3
SLDDIMSTYLE0
100
AcDbAlignedDimension
 13
729.784243788
 23
901.1963585717
 33
0.0
 14
936.784243788
 24
901.1963585717
 34
0.0
100
AcDbRotatedDimension
  0
DIMENSION
  5
380
330
1F
100
AcDbEntity
  8
FORMAT
100
AcDbDimension
  2
_D_13
 10
1162.784243788
 20
1041.4463585722
 30
0.0
 11
1049.784243788
 21
1041.4463585722
 31
0.0
 70
   160
  1
<>
 71
     2
 42
-1.0
  3
SLDDIMSTYLE0
100
AcDbAlignedDimension
 13
936.784243788
 23
901.1963585717
 33
0.0
 14
1162.784243788
 24
901.1963585717
 34
0.0
100
AcDbRotatedDimension
  0
DIMENSION
  5
38A
330
1F
100
AcDbEntity
  8
FORMAT
100
AcDbDimension
  2
_D_14
 10
1274.3689769731
 20
781.4463585722
 30
0.0
 11
1274.3689769731
 21
711.1243007058
 31
0.0
 70
   160
  1
<>
 71
     2
 42
-1.0
  3
SLDDIMSTYLE2
100
AcDbAlignedDimension
 13
1240.534243788
 23
746.1963585722
 33
0.0
 14
1507.784243788
 24
781.4463585722
 34
0.0
 50
90.0
100
AcDbRotatedDimension
  0
DIMENSION
  5
396
330
1F
100
AcDbEntity
  8
FORMAT
100
AcDbDimension
  2
_D_15
 10
718.2147645629
 20
819.4463585717
 30
0.0
 11
718.2147645629
 21
750.5038198243
 31
0.0
 70
   160
  1
<>
 71
     2
 42
-1.0
  3
SLDDIMSTYLE1
100
AcDbAlignedDimension
 13
517.784243788
 23
781.4463585722
 33
0.0
 14
724.034243788
 24
819.4463585717
 34
0.0
 50
90.0
100
AcDbRotatedDimension
  0
DIMENSION
  5
3A1
330
1F
100
AcDbEntity
  8
FORMAT
100
AcDbDimension
  2
_D_16
 10
1234.784243788
 20
612.9505149411
 30
0.0
 11
918.284243788
 21
612.9505149411
 31
0.0
 70
   160
  1
<>
 71
     2
 42
-1.0
  3
SLDDIMSTYLE0
100
AcDbAlignedDimension
 13
601.784243788
 23
740.4463585722
 33
0.0
 14
1234.784243788
 24
740.4463585722
 34
0.0
100
AcDbRotatedDimension
  0
DIMENSION
  5
3AB
330
1F
100
AcDbEntity
  8
FORMAT
100
AcDbDimension
  2
_D_17
 10
373.2671901798
 20
811.9463585717
 30
0.0
 11
373.2671901798
 21
718.3370344745
 31
0.0
 70
   160
  1
<>
 71
     2
 42
-1.0
  3
SLDDIMSTYLE2
100
AcDbAlignedDimension
 13
517.784243788
 23
781.4463585722
 33
0.0
 14
522.784243788
 24
811.9463585717
 34
0.0
 50
90.0
100
AcDbRotatedDimension
  0
DIMENSION
  5
3B7
330
1F
100
AcDbEntity
  8
FORMAT
100
AcDbDimension
  2
_D_18
 10
329.5843296907
 20
846.4463585722
 30
0.0
 11
329.5843296907
 21
718.3370344745
 31
0.0
 70
   160
  1
<>
 71
     2
 42
-1.0
  3
SLDDIMSTYLE2
100
AcDbAlignedDimension
 13
522.784243788
 23
811.9463585717
 33
0.0
 14
524.284243788
 24
846.4463585722
 34
0.0
 50
90.0
100
AcDbRotatedDimension
  0
DIMENSION
  5
3C4
330
1F
100
AcDbEntity
  8
FORMAT
100
AcDbDimension
  2
_D_19
 10
284.1974766272
 20
869.4463585722
 30
0.0
 11
284.1974766272
 21
718.3370344745
 31
0.0
 70
   160
  1
<>
 71
     2
 42
-1.0
  3
SLDDIMSTYLE1
100
AcDbAlignedDimension
 13
524.284243788
 23
846.4463585722
 33
0.0
 14
524.284243788
 24
869.4463585722
 34
0.0
 50
90.0
100
AcDbRotatedDimension
  0
MTEXT
  5
3D2
330
1F
100
AcDbEntity
  8
FORMAT
100
AcDbMText
 10
1359.832055117
 20
900.2496231
 30
0.0
 40
18.5208333333
 41
0.0
 71
     1
 72
     1
  1
Oberkante Türflügel
  7
SLDTEXTSTYLE0
 73
     1
 44
1.0
  0
LEADER
  5
3D4
330
1F
100
AcDbEntity
  8
FORMAT
100
AcDbLeader
  3
SLDDIMSTYLE3
 76
     3
 10
1311.614153338
 20
781.4463585722
 30
0.0
 10
1311.8572087175
 20
890.9471408895
 30
0.0
 10
1356.3072087175
 20
890.9471408895
 30
0.0
  0
MTEXT
  5
3D5
330
1F
100
AcDbEntity
  8
FORMAT
100
AcDbMText
 10
1397.4572361641
 20
1057.0149102964
 30
0.0
 40
18.5208333333
 41
0.0
 71
     1
 72
     1
  1
ø20 (optional)
  7
SLDTEXTSTYLE0
 73
     1
 44
1.0
  0
LEADER
  5
3D6
330
1F
100
AcDbEntity
  8
FORMAT
100
AcDbLeader
  3
SLDDIMSTYLE3
 76
     3
 10
1187.2591770464
 20
874.7544190716
 30
0.0
 10
1349.409597653
 20
1047.6110134796
 30
0.0
 10
1393.859597653
 20
1047.6110134796
 30
0.0
  0
INSERT
  5
3DC
102
{ACAD_REACTORS
330
3DD
102
}
330
1F
100
AcDbEntity
  8
FORMAT
100
AcDbBlockReference
  2
SW_NOTE_0_5
 10
393.2393753023
 20
973.1039112606
 30
0.0
  0
LEADER
  5
3DD
330
1F
100
AcDbEntity
  8
FORMAT
100
AcDbLeader
  3
SLDDIMSTYLE3
 73
     2
 76
     3
 10
527.5305227296
 20
873.2369583365
 30
0.0
 10
437.6893753023
 20
973.1039112606
 30
0.0
 10
393.2393753023
 20
973.1039112606
 30
0.0
340
3DC
  0
INSERT
  5
3E9
330
1F
100
AcDbEntity
  8
FORMAT
100
AcDbBlockReference
  2
SW_CENTERMARKSYMBOL_0
 10
729.784243788
 20
895.4463585717
 30
0.0
  0
INSERT
  5
3F5
330
1F
100
AcDbEntity
  8
FORMAT
100
AcDbBlockReference
  2
SW_CENTERMARKSYMBOL_1
 10
936.784243788
 20
895.4463585717
 30
0.0
  0
INSERT
  5
401
330
1F
100
AcDbEntity
  8
FORMAT
100
AcDbBlockReference
  2
SW_CENTERMARKSYMBOL_2
 10
1162.784243788
 20
895.4463585717
 30
0.0
  0
INSERT
  5
40D
330
1F
100
AcDbEntity
  8
FORMAT
100
AcDbBlockReference
  2
SW_CENTERMARKSYMBOL_3
 10
601.784243788
 20
746.1963585722
 30
0.0
  0
INSERT
  5
419
330
1F
100
AcDbEntity
  8
FORMAT
100
AcDbBlockReference
  2
SW_CENTERMARKSYMBOL_4
 10
1234.784243788
 20
746.1963585722
 30
0.0
  0
INSERT
  5
425
330
1F
100
AcDbEntity
  8
FORMAT
100
AcDbBlockReference
  2
SW_CENTERMARKSYMBOL_5
 10
729.784243788
 20
819.4463585717
 30
0.0
  0
INSERT
  5
431
330
1F
100
AcDbEntity
  8
FORMAT
100
AcDbBlockReference
  2
SW_CENTERMARKSYMBOL_6
 10
936.784243788
 20
819.4463585717
 30
0.0
  0
INSERT
  5
43D
330
1F
100
AcDbEntity
  8
FORMAT
100
AcDbBlockReference
  2
SW_CENTERMARKSYMBOL_7
 10
1162.784243788
 20
819.4463585717
 30
0.0
  0
INSERT
  5
449
330
1F
100
AcDbEntity
  8
FORMAT
100
AcDbBlockReference
  2
SW_CENTERMARKSYMBOL_8
 10
536.784243788
 20
846.4463585722
 30
0.0
  0
INSERT
  5
455
330
1F
100
AcDbEntity
  8
FORMAT
100
AcDbBlockReference
  2
SW_CENTERMARKSYMBOL_9
 10
536.784243788
 20
869.4463585722
 30
0.0
  0
INSERT
  5
461
330
1F
100
AcDbEntity
  8
FORMAT
100
AcDbBlockReference
  2
SW_CENTERMARKSYMBOL_10
 10
1178.784243788
 20
846.4463585722
 30
0.0
  0
INSERT
  5
46D
330
1F
100
AcDbEntity
  8
FORMAT
100
AcDbBlockReference
  2
SW_CENTERMARKSYMBOL_11
 10
1178.784243788
 20
869.4463585722
 30
0.0
  0
CIRCLE
  5
46E
330
1F
100
AcDbEntity
  8
0
  6
Continuous
 62
     7
370
    18
100
AcDbCircle
 10
737.183529003
 20
858.6125002703
 30
0.0
 40
55.02010837580065
  0
MTEXT
  5
46F
330
1F
100
AcDbEntity
  8
0
  6
Continuous
 62
     7
370
    18
100
AcDbMText
 10
786.0178445603
 20
955.2890147122
 30
0.0
 40
35.0
 41
0.0
 71
     1
 72
     1
  1
C
  7
SLDTEXTSTYLE0
 73
     1
 44
1.0
  0
LINE
  5
470
330
1F
100
AcDbEntity
  8
0
  6
Continuous
 62
     7
370
    25
100
AcDbLine
 10
2476.126014798
 20
1658.6178792406
 30
0.0
 11
2476.126014798
 21
1660.3738952096
 31
0.0
  0
LINE
  5
471
330
1F
100
AcDbEntity
  8
0
  6
Continuous
 62
     7
370
    25
100
AcDbLine
 10
2446.126014798
 20
1659.3738952096
 30
0.0
 11
2446.126014798
 21
1658.6178792406
 31
0.0
  0
LINE
  5
472
330
1F
100
AcDbEntity
  8
0
  6
Continuous
 62
     7
370
    25
100
AcDbLine
 10
2407.3760147972
 20
1635.3738952096
 30
0.0
 11
2407.3760147972
 21
1605.3738952158
 31
0.0
  0
LINE
  5
473
330
1F
100
AcDbEntity
  8
0
  6
Continuous
 62
     7
370
    25
100
AcDbLine
 10
2421.3760147972
 20
1605.3738952158
 30
0.0
 11
2421.3760147972
 21
1635.3738952096
 31
0.0
  0
LINE
  5
474
330
1F
100
AcDbEntity
  8
0
  6
Continuous
 62
     7
370
    25
100
AcDbLine
 10
2419.3760147972
 20
1635.3738952096
 30
0.0
 11
2419.3760147972
 21
1635.8738952096
 31
0.0
  0
LINE
  5
475
330
1F
100
AcDbEntity
  8
0
  6
Continuous
 62
     7
370
    25
100
AcDbLine
 10
2409.3760147972
 20
1635.8738952096
 30
0.0
 11
2409.3760147972
 21
1635.3738952096
 31
0.0
  0
LINE
  5
476
330
1F
100
AcDbEntity
  8
0
  6
Continuous
 62
     7
370
    25
100
AcDbLine
 10
2446.1260147981
 20
1656.6738952097
 30
0.0
 11
2446.1260147981
 21
1645.8738952097
 31
0.0
  0
LINE
  5
477
330
1F
100
AcDbEntity
  8
0
  6
Continuous
 62
     7
370
    25
100
AcDbLine
 10
2476.126014798
 20
1636.8738952097
 30
0.0
 11
2476.126014798
 21
1656.6738952097
 31
0.0
  0
LINE
  5
478
330
1F
100
AcDbEntity
  8
0
  6
Continuous
 62
     7
370
    25
100
AcDbLine
 10
2475.126014798
 20
1635.8738952097
 30
0.0
 11
2476.126014798
 21
1636.8738952097
 31
0.0
  0
LINE
  5
479
330
1F
100
AcDbEntity
  8
0
  6
Continuous
 62
     7
370
    25
100
AcDbLine
 10
2476.126014798
 20
1656.6738952097
 30
0.0
 11
2475.926014798
 21
1656.8738952097
 31
0.0
  0
LINE
  5
47A
330
1F
100
AcDbEntity
  8
0
  6
Continuous
 62
     7
370
    25
100
AcDbLine
 10
2446.3260147981
 20
1656.8738952097
 30
0.0
 11
2446.1260147981
 21
1656.6738952097
 31
0.0
  0
LWPOLYLINE
  5
47B
330
1F
100
AcDbEntity
  8
0
  6
Continuous
 62
     7
370
    25
100
AcDbPolyline
 90
       12
 70
   128
 43
0.0
 10
2452.5403052543
 20
1657.6818762687
 10
2452.4303296188
 20
1657.3828296105
 10
2452.2457072705
 20
1657.1466170503
 10
2452.1347428726
 20
1657.056263774
 10
2452.0208996269
 20
1656.9868691145
 10
2451.9145798085
 20
1656.938020566
 10
2451.8259878433
 20
1656.90658402
 10
2451.764846869
 20
1656.8882975343
 10
2451.7404241075
 20
1656.8789595545
 10
2451.7612544124
 20
1656.8750582684
 10
2451.8341377742
 20
1656.8739692174
 10
2451.9197150999
 20
1656.8739197353
  0
LINE
  5
47C
330
1F
100
AcDbEntity
  8
0
  6
Continuous
 62
     7
370
    25
100
AcDbLine
 10
2452.723296077
 20
1658.6178792406
 30
0.0
 11
2452.5271723109
 21
1657.614703164
 31
0.0
  0
LWPOLYLINE
  5
47D
330
1F
100
AcDbEntity
  8
0
  6
Continuous
 62
     7
370
    25
100
AcDbPolyline
 90
        4
 70
   128
 43
0.0
 10
2471.3563086988
 20
1656.8739179454
 10
2471.3959172738
 20
1656.8739406305
 10
2471.4215467706
 20
1656.8749919544
 10
2471.4208182249
 20
1656.875150819
  0
ARC
  5
47E
330
1F
100
AcDbEntity
  8
0
  6
Continuous
 62
     7
370
    25
100
AcDbCircle
 10
2471.5473299364
 20
1657.8850746685
 30
0.0
 40
1.016334646529521
100
AcDbArc
 50
192.6141786487
 51
261.8326251793
  0
LWPOLYLINE
  5
47F
330
1F
100
AcDbEntity
  8
0
  6
Continuous
 62
     7
370
    25
100
AcDbPolyline
 90
        3
 70
   128
 43
0.0
 10
2445.973830066
 20
1644.8163716252
 10
2445.9096437685
 20
1644.4727642323
 10
2445.8237558558
 20
1644.0844217543
  0
LINE
  5
480
330
1F
100
AcDbEntity
  8
0
  6
Continuous
 62
     7
370
    25
100
AcDbLine
 10
2470.5555275405
 20
1657.6631207846
 30
0.0
 11
2470.3497396738
 21
1658.6178792406
 31
0.0
  0
ARC
  5
481
330
1F
100
AcDbEntity
  8
0
  6
Continuous
 62
     7
370
    25
100
AcDbCircle
 10
2443.1260147981
 20
1645.8738952097
 30
0.0
 40
3.000000000000455
100
AcDbArc
 50
347.4491686541
 51
0.0000000003
  0
LINE
  5
482
330
1F
100
AcDbEntity
  8
0
  6
Continuous
 62
     7
370
    25
100
AcDbLine
 10
2451.9022899223
 20
1658.6178792406
 30
0.0
 11
2451.6965019667
 21
1657.6631203719
 31
0.0
  0
ARC
  5
483
330
1F
100
AcDbEntity
  8
0
  6
Continuous
 62
     7
370
    25
100
AcDbCircle
 10
2450.6666296598
 20
1657.9068324352
 30
0.0
 40
1.058316156627942
100
AcDbArc
 50
282.572982315
 51
346.6864040549
  0
LINE
  5
484
330
1F
100
AcDbEntity
  8
0
  6
Continuous
 62
     7
370
    25
100
AcDbLine
 10
2403.3760147973
 20
1636.8738952096
 30
0.0
 11
2404.3760147973
 21
1635.8738952096
 31
0.0
  0
LINE
  5
485
330
1F
100
AcDbEntity
  8
0
  6
Continuous
 62
     7
370
    25
100
AcDbLine
 10
2404.3760147973
 20
1642.8738952096
 30
0.0
 11
2403.3760147973
 21
1641.8738952096
 31
0.0
  0
LINE
  5
486
330
1F
100
AcDbEntity
  8
0
  6
Continuous
 62
     7
370
    25
100
AcDbLine
 10
2403.3760147973
 20
1641.8738952096
 30
0.0
 11
2403.3760147973
 21
1636.8738952096
 31
0.0
  0
LINE
  5
487
330
1F
100
AcDbEntity
  8
0
  6
Continuous
 62
     7
370
    25
100
AcDbLine
 10
2484.1260147979
 20
1755.3738952096
 30
0.0
 11
2484.1260147979
 21
1756.3738952096
 31
0.0
  0
LINE
  5
488
330
1F
100
AcDbEntity
  8
0
  6
Continuous
 62
     7
370
    25
100
AcDbLine
 10
2401.1260147983
 20
1311.8738952096
 30
0.0
 11
2401.1260147983
 21
1588.8738952158
 31
0.0
  0
LINE
  5
489
330
1F
100
AcDbEntity
  8
0
  6
Continuous
 62
     7
370
    25
100
AcDbLine
 10
2401.1260147983
 20
1604.8738952158
 30
0.0
 11
2401.1260147983
 21
1631.8738952096
 31
0.0
  0
LINE
  5
48A
330
1F
100
AcDbEntity
  8
0
  6
Continuous
 62
     7
370
    25
100
AcDbLine
 10
2401.1260147983
 20
1311.8738952096
 30
0.0
 11
2331.1260147983
 21
1311.8738952096
 31
0.0
  0
LINE
  5
48B
330
1F
100
AcDbEntity
  8
0
  6
Continuous
 62
     7
370
    25
100
AcDbLine
 10
2331.1260147983
 20
1311.8738952096
 30
0.0
 11
2331.1260147983
 21
1606.8738952096
 31
0.0
  0
LINE
  5
48C
330
1F
100
AcDbEntity
  8
0
  6
Continuous
 62
     7
370
    25
100
AcDbLine
 10
2331.1260147983
 20
1606.8738952096
 30
0.0
 11
2361.1260147983
 21
1606.8738952096
 31
0.0
  0
LINE
  5
48D
330
1F
100
AcDbEntity
  8
0
  6
Continuous
 62
     7
370
    25
100
AcDbLine
 10
2361.1260147983
 20
1606.8738952096
 30
0.0
 11
2361.1260147983
 21
1631.8738952096
 31
0.0
  0
LINE
  5
48E
330
1F
100
AcDbEntity
  8
0
  6
Continuous
 62
     7
370
    25
100
AcDbLine
 10
2361.1260147983
 20
1631.8738952096
 30
0.0
 11
2401.1260147983
 21
1631.8738952096
 31
0.0
  0
LINE
  5
48F
330
1F
100
AcDbEntity
  8
0
  6
Continuous
 62
     7
370
    25
100
AcDbLine
 10
2401.1260147983
 20
1811.8738952096
 30
0.0
 11
2401.1260147983
 21
1755.3738952096
 31
0.0
  0
LINE
  5
490
330
1F
100
AcDbEntity
  8
0
  6
Continuous
 62
     7
370
    25
100
AcDbLine
 10
2401.1260147983
 20
1660.3738952096
 30
0.0
 11
2401.1260147983
 21
1636.8738952096
 31
0.0
  0
LINE
  5
491
330
1F
100
AcDbEntity
  8
0
  6
Continuous
 62
     7
370
    25
100
AcDbLine
 10
2401.1260147983
 20
1636.8738952096
 30
0.0
 11
2361.1260147983
 21
1636.8738952096
 31
0.0
  0
LINE
  5
492
330
1F
100
AcDbEntity
  8
0
  6
Continuous
 62
     7
370
    25
100
AcDbLine
 10
2361.1260147983
 20
1636.8738952096
 30
0.0
 11
2361.1260147983
 21
1611.8738952096
 31
0.0
  0
LINE
  5
493
330
1F
100
AcDbEntity
  8
0
  6
Continuous
 62
     7
370
    25
100
AcDbLine
 10
2331.1260147983
 20
1811.8738952096
 30
0.0
 11
2401.1260147983
 21
1811.8738952096
 31
0.0
  0
LINE
  5
494
330
1F
100
AcDbEntity
  8
0
  6
Continuous
 62
     7
370
    25
100
AcDbLine
 10
2361.1260147983
 20
1611.8738952096
 30
0.0
 11
2331.1260147983
 21
1611.8738952096
 31
0.0
  0
LINE
  5
495
330
1F
100
AcDbEntity
  8
0
  6
Continuous
 62
     7
370
    25
100
AcDbLine
 10
2331.1260147983
 20
1811.8738952096
 30
0.0
 11
2331.1260147983
 21
1611.8738952096
 31
0.0
  0
LINE
  5
496
330
1F
100
AcDbEntity
  8
0
  6
Continuous
 62
     7
370
    25
100
AcDbLine
 10
2331.1260147983
 20
1606.8738952096
 30
0.0
 11
2331.1260147983
 21
1611.8738952096
 31
0.0
  0
LINE
  5
497
330
1F
100
AcDbEntity
  8
0
  6
Continuous
 62
     7
370
    25
100
AcDbLine
 10
2401.1260147983
 20
1631.8738952096
 30
0.0
 11
2401.1260147983
 21
1636.8738952096
 31
0.0
  0
LINE
  5
498
330
1F
100
AcDbEntity
  8
0
  6
Continuous
 62
     7
370
    25
100
AcDbLine
 10
2475.6264355924
 20
1658.6178792406
 30
0.0
 11
2476.126014798
 21
1658.6178792406
 31
0.0
  0
LINE
  5
499
330
1F
100
AcDbEntity
  8
0
  6
Continuous
 62
     7
370
    25
100
AcDbLine
 10
2446.126014798
 20
1658.6178792406
 30
0.0
 11
2475.6264355924
 21
1658.6178792406
 31
0.0
  0
LINE
  5
49A
330
1F
100
AcDbEntity
  8
0
  6
Continuous
 62
     7
370
    25
100
AcDbLine
 10
2421.3760147972
 20
1635.3738952096
 30
0.0
 11
2407.3760147972
 21
1635.3738952096
 31
0.0
  0
LINE
  5
49B
330
1F
100
AcDbEntity
  8
0
  6
Continuous
 62
     7
370
    25
100
AcDbLine
 10
2476.126014798
 20
1636.8738952097
 30
0.0
 11
2446.2288153051
 21
1636.8738952097
 31
0.0
  0
LINE
  5
49C
330
1F
100
AcDbEntity
  8
0
  6
Continuous
 62
     7
370
    25
100
AcDbLine
 10
2446.2288153051
 20
1636.8738952097
 30
0.0
 11
2446.2288153051
 21
1645.8738952097
 31
0.0
  0
LINE
  5
49D
330
1F
100
AcDbEntity
  8
0
  6
Continuous
 62
     7
370
    25
100
AcDbLine
 10
2476.126014798
 20
1656.6738952097
 30
0.0
 11
2446.1260147981
 21
1656.6738952097
 31
0.0
  0
LINE
  5
49E
330
1F
100
AcDbEntity
  8
0
  6
Continuous
 62
     7
370
    25
100
AcDbLine
 10
2475.126014798
 20
1635.8738952097
 30
0.0
 11
2447.221961938
 21
1635.8738952097
 31
0.0
  0
LINE
  5
49F
330
1F
100
AcDbEntity
  8
0
  6
Continuous
 62
     7
370
    25
100
AcDbLine
 10
2447.221961938
 20
1635.8738952097
 30
0.0
 11
2446.2288153051
 21
1636.8738952097
 31
0.0
  0
LINE
  5
4A0
330
1F
100
AcDbEntity
  8
0
  6
Continuous
 62
     7
370
    25
100
AcDbLine
 10
2475.926014798
 20
1656.8738952097
 30
0.0
 11
2446.3260147981
 21
1656.8738952097
 31
0.0
  0
LWPOLYLINE
  5
4A1
330
1F
100
AcDbEntity
  8
0
  6
Continuous
 62
     7
370
    25
100
AcDbPolyline
 90
        9
 70
   128
 43
0.0
 10
2459.2498643026
 20
1656.8738952097
 10
2459.1640688299
 20
1656.8894686416
 10
2459.080945617
 20
1656.9357038738
 10
2459.0030836914
 20
1657.0111608237
 10
2458.932908208
 20
1657.1134892441
 10
2458.8726049128
 20
1657.2395019256
 10
2458.8240520645
 20
1657.3852739682
 10
2458.7887619319
 20
1657.5462650302
 10
2458.7678336922
 20
1657.7174607447
  0
ARC
  5
4A2
330
1F
100
AcDbEntity
  8
0
  6
Continuous
 62
     7
370
    25
100
AcDbCircle
 10
2457.3140242666
 20
1657.7914520757
 30
0.0
 40
0.9191498472634417
100
AcDbArc
 50
273.3737472447
 51
355.3827081636
  0
ARC
  5
4A3
330
1F
100
AcDbEntity
  8
0
  6
Continuous
 62
     7
370
    25
100
AcDbCircle
 10
2458.4990124053
 20
1658.2509180561
 30
0.0
 40
0.597362191165095
100
AcDbArc
 50
243.2554258351
 51
296.7445754991
  0
LWPOLYLINE
  5
4A4
330
1F
100
AcDbEntity
  8
0
  6
Continuous
 62
     7
370
    25
100
AcDbPolyline
 90
        3
 70
   128
 43
0.0
 10
2461.9297973573
 20
1657.1134892441
 10
2462.0242722408
 20
1656.9357038738
 10
2462.139628401
 20
1656.8738952097
  0
LINE
  5
4A5
330
1F
100
AcDbEntity
  8
0
  6
Continuous
 62
     7
370
    25
100
AcDbLine
 10
2458.7678336922
 20
1657.7174607447
 30
0.0
 11
2461.8718478926
 21
1657.7174607447
 31
0.0
  0
LWPOLYLINE
  5
4A6
330
1F
100
AcDbEntity
  8
0
  6
Continuous
 62
     7
370
    25
100
AcDbPolyline
 90
        3
 70
   128
 43
0.0
 10
2461.8718478926
 20
1657.7174607447
 10
2461.8745037393
 20
1657.3852739682
 10
2461.9297973573
 20
1657.1134892441
  0
LWPOLYLINE
  5
4A7
330
1F
100
AcDbEntity
  8
0
  6
Continuous
 62
     7
370
    25
100
AcDbPolyline
 90
        3
 70
   128
 43
0.0
 10
2462.1982278473
 20
1657.1134892421
 10
2462.199863309
 20
1657.3852739668
 10
2462.1721531593
 20
1657.7174607446
  0
LINE
  5
4A8
330
1F
100
AcDbEntity
  8
0
  6
Continuous
 62
     7
370
    25
100
AcDbLine
 10
2462.1721531593
 20
1657.7174607446
 30
0.0
 11
2465.5942862685
 21
1657.7174607446
 31
0.0
  0
LWPOLYLINE
  5
4A9
330
1F
100
AcDbEntity
  8
0
  6
Continuous
 62
     7
370
    25
100
AcDbPolyline
 90
        9
 70
   128
 43
0.0
 10
2465.5942862685
 20
1657.7174607446
 10
2465.5826187535
 20
1657.5462650301
 10
2465.5629444686
 20
1657.3852739682
 10
2465.5358762062
 20
1657.2395019255
 10
2465.5022570577
 20
1657.1134892441
 10
2465.4631341541
 20
1657.0111608237
 10
2465.4197260512
 20
1656.9357038738
 10
2465.3733847753
 20
1656.8894686416
 10
2465.3255537117
 20
1656.8738952097
  0
LWPOLYLINE
  5
4AA
330
1F
100
AcDbEntity
  8
0
  6
Continuous
 62
     7
370
    25
100
AcDbPolyline
 90
        3
 70
   128
 43
0.0
 10
2462.139628401
 20
1656.8738952097
 10
2462.1747487906
 20
1656.9357038732
 10
2462.1982278473
 20
1657.1134892421
  0
LWPOLYLINE
  5
4AB
330
1F
100
AcDbEntity
  8
0
  6
Continuous
 62
     7
370
    25
100
AcDbPolyline
 90
        3
 70
   128
 43
0.0
 10
2456.259253919
 20
1657.1134892421
 10
2456.4239854811
 20
1657.3852739668
 10
2456.49457831
 20
1657.7174607446
  0
LINE
  5
4AC
330
1F
100
AcDbEntity
  8
0
  6
Continuous
 62
     7
370
    25
100
AcDbLine
 10
2456.49457831
 20
1657.7174607446
 30
0.0
 11
2458.2301911317
 21
1657.7174607446
 31
0.0
  0
LWPOLYLINE
  5
4AD
330
1F
100
AcDbEntity
  8
0
  6
Continuous
 62
     7
370
    25
100
AcDbPolyline
 90
        3
 70
   128
 43
0.0
 10
2455.7523006429
 20
1656.8738952097
 10
2456.0244495845
 20
1656.9357038732
 10
2456.259253919
 20
1657.1134892421
  0
ARC
  5
4AE
330
1F
100
AcDbEntity
  8
0
  6
Continuous
 62
     7
370
    25
100
AcDbCircle
 10
2467.0476258225
 20
1657.8482712747
 30
0.0
 40
0.9744953823054743
100
AcDbArc
 50
187.7143350976
 51
269.1033892401
  0
LWPOLYLINE
  5
4AF
330
1F
100
AcDbEntity
  8
0
  6
Continuous
 62
     7
370
    25
100
AcDbPolyline
 90
        8
 70
   128
 43
0.0
 10
2465.5942862683
 20
1657.7174607384
 10
2465.7480825617
 20
1657.6725900704
 10
2465.8281581794
 20
1657.6597312869
 10
2465.9025777567
 20
1657.6554091127
 10
2465.9675421919
 20
1657.6598058291
 10
2466.0169964993
 20
1657.6715670978
 10
2466.0559496259
 20
1657.6907746035
 10
2466.0819499683
 20
1657.7174607447
  0
LWPOLYLINE
  5
4B0
330
1F
100
AcDbEntity
  8
0
  6
Continuous
 62
     7
370
    25
100
AcDbPolyline
 90
        3
 70
   128
 43
0.0
 10
2467.3416419046
 20
1657.1134892441
 10
2467.6168325223
 20
1656.9357038738
 10
2467.9331950575
 20
1656.8738952097
  0
LINE
  5
4B1
330
1F
100
AcDbEntity
  8
0
  6
Continuous
 62
     7
370
    25
100
AcDbLine
 10
2466.0819499683
 20
1657.7174607447
 30
0.0
 11
2467.0495558757
 21
1657.7174607447
 31
0.0
  0
LWPOLYLINE
  5
4B2
330
1F
100
AcDbEntity
  8
0
  6
Continuous
 62
     7
370
    25
100
AcDbPolyline
 90
        3
 70
   128
 43
0.0
 10
2467.0495558757
 20
1657.7174607447
 10
2467.1437055597
 20
1657.3852739682
 10
2467.3416419046
 20
1657.1134892441
  0
ARC
  5
4B3
330
1F
100
AcDbEntity
  8
0
  6
Continuous
 62
     7
370
    25
100
AcDbCircle
 10
2460.6312996754
 20
1658.1653961963
 30
0.0
 40
1.671108753492552
100
AcDbArc
 50
320.9892283136
 51
327.6243106472
  0
ARC
  5
4B4
330
1F
100
AcDbEntity
  8
0
  6
Continuous
 62
     7
370
    25
100
AcDbCircle
 10
2462.9010440632
 20
1657.9652024707
 30
0.0
 40
1.104249091992453
100
AcDbArc
 50
218.9803668019
 51
230.4712529786
  0
LINE
  5
4B5
330
1F
100
AcDbEntity
  8
0
  6
Continuous
 62
     7
370
    25
100
AcDbLine
 10
2462.0187655274
 20
1657.7049262037
 30
0.0
 11
2461.8718478926
 21
1657.7174607447
 31
0.0
  0
ARC
  5
4B6
330
1F
100
AcDbEntity
  8
0
  6
Continuous
 62
     7
370
    25
100
AcDbCircle
 10
2468.3757952066
 20
1657.8365544854
 30
0.0
 40
6.358392236806588
100
AcDbArc
 50
181.1861930227
 51
185.1068718151
  0
LINE
  5
4B7
330
1F
100
AcDbEntity
  8
0
  6
Continuous
 62
     7
370
    25
100
AcDbLine
 10
2462.1721531593
 20
1657.7174607446
 30
0.0
 11
2462.0187655274
 21
1657.7049262037
 31
0.0
  0
LWPOLYLINE
  5
4B8
330
1F
100
AcDbEntity
  8
0
  6
Continuous
 62
     7
370
    25
100
AcDbPolyline
 90
        3
 70
   128
 43
0.0
 10
2456.047107888
 20
1657.1134892441
 10
2455.9055249319
 20
1656.9357038738
 10
2455.7523006429
 20
1656.8738952097
  0
LWPOLYLINE
  5
4B9
330
1F
100
AcDbEntity
  8
0
  6
Continuous
 62
     7
370
    25
100
AcDbPolyline
 90
        9
 70
   128
 43
0.0
 10
2452.5663753685
 20
1656.8738952097
 10
2452.6142064321
 20
1656.8894686416
 10
2452.660547708
 20
1656.9357038738
 10
2452.7039558109
 20
1657.0111608237
 10
2452.7430787145
 20
1657.1134892441
 10
2452.776697863
 20
1657.2395019255
 10
2452.8037661255
 20
1657.3852739682
 10
2452.8234404103
 20
1657.5462650301
 10
2452.8351079254
 20
1657.7174607447
  0
LINE
  5
4BA
330
1F
100
AcDbEntity
  8
0
  6
Continuous
 62
     7
370
    25
100
AcDbLine
 10
2452.8351079254
 20
1657.7174607447
 30
0.0
 11
2456.257240998
 21
1657.7174607447
 31
0.0
  0
LWPOLYLINE
  5
4BB
330
1F
100
AcDbEntity
  8
0
  6
Continuous
 62
     7
370
    25
100
AcDbPolyline
 90
        3
 70
   128
 43
0.0
 10
2456.257240998
 20
1657.7174607447
 10
2456.1668472485
 20
1657.3852739682
 10
2456.047107888
 20
1657.1134892441
  0
ARC
  5
4BC
330
1F
100
AcDbEntity
  8
0
  6
Continuous
 62
     7
370
    25
100
AcDbCircle
 10
2455.5690314591
 20
1658.0128339855
 30
0.0
 40
1.018517567733109
100
AcDbArc
 50
297.994354949
 51
313.216718007
  0
ARC
  5
4BD
330
1F
100
AcDbEntity
  8
0
  6
Continuous
 62
     7
370
    25
100
AcDbCircle
 10
2455.8006632654
 20
1657.2132663747
 30
0.0
 40
0.4693195753439225
100
AcDbArc
 50
347.7252635694
 51
7.0132914382
  0
ARC
  5
4BE
330
1F
100
AcDbEntity
  8
0
  6
Continuous
 62
     7
370
    25
100
AcDbCircle
 10
2455.0489476351
 20
1657.861642052
 30
0.0
 40
1.353414193792863
100
AcDbArc
 50
334.1047902994
 51
353.3506380244
  0
LINE
  5
4BF
330
1F
100
AcDbEntity
  8
0
  6
Continuous
 62
     7
370
    25
100
AcDbLine
 10
2456.49457831
 20
1657.7174607446
 30
0.0
 11
2456.3932581259
 21
1657.7049262037
 31
0.0
  0
LINE
  5
4C0
330
1F
100
AcDbEntity
  8
0
  6
Continuous
 62
     7
370
    25
100
AcDbLine
 10
2456.3932581259
 20
1657.7049262037
 30
0.0
 11
2456.257240998
 21
1657.7174607447
 31
0.0
  0
LINE
  5
4C1
330
1F
100
AcDbEntity
  8
0
  6
Continuous
 62
     7
370
    25
100
AcDbLine
 10
2451.7526839511
 20
1656.8846395509
 30
0.0
 11
2451.6120034407
 21
1656.8738952097
 31
0.0
  0
LWPOLYLINE
  5
4C2
330
1F
100
AcDbEntity
  8
0
  6
Continuous
 62
     7
370
    25
100
AcDbPolyline
 90
        8
 70
   128
 43
0.0
 10
2452.5624302234
 20
1657.7174607384
 10
2452.5404979336
 20
1657.6725900704
 10
2452.5541812692
 20
1657.6597312869
 10
2452.5853734981
 20
1657.6554091127
 10
2452.6324590514
 20
1657.6598058291
 10
2452.688240497
 20
1657.6715670978
 10
2452.7562038621
 20
1657.6907746035
 10
2452.8351079254
 20
1657.7174607447
  0
LWPOLYLINE
  5
4C3
330
1F
100
AcDbEntity
  8
0
  6
Continuous
 62
     7
370
    25
100
AcDbPolyline
 90
        3
 70
   128
 43
0.0
 10
2467.5091139131
 20
1657.1134892421
 10
2467.3466952432
 20
1657.3852739668
 10
2467.2369143448
 20
1657.7174607446
  0
LINE
  5
4C4
330
1F
100
AcDbEntity
  8
0
  6
Continuous
 62
     7
370
    25
100
AcDbLine
 10
2467.2369143448
 20
1657.7174607446
 30
0.0
 11
2470.3409285784
 21
1657.7174607446
 31
0.0
  0
LWPOLYLINE
  5
4C5
330
1F
100
AcDbEntity
  8
0
  6
Continuous
 62
     7
370
    25
100
AcDbPolyline
 90
        9
 70
   128
 43
0.0
 10
2470.3409285784
 20
1657.7174607446
 10
2470.3618568181
 20
1657.5462650301
 10
2470.3971469507
 20
1657.3852739682
 10
2470.445699799
 20
1657.2395019255
 10
2470.5060030941
 20
1657.1134892441
 10
2470.5761785776
 20
1657.0111608237
 10
2470.6540405032
 20
1656.9357038738
 10
2470.7371637161
 20
1656.8894686416
 10
2470.8229591888
 20
1656.8738952097
  0
LWPOLYLINE
  5
4C6
330
1F
100
AcDbEntity
  8
0
  6
Continuous
 62
     7
370
    25
100
AcDbPolyline
 90
        3
 70
   128
 43
0.0
 10
2467.9331950575
 20
1656.8738952097
 10
2467.7107138471
 20
1656.9357038732
 10
2467.5091139131
 20
1657.1134892421
  0
ARC
  5
4C7
330
1F
100
AcDbEntity
  8
0
  6
Continuous
 62
     7
370
    25
100
AcDbCircle
 10
2467.6345637255
 20
1657.3148709006
 30
0.0
 40
0.3554683736883444
100
AcDbArc
 50
187.1591901882
 51
214.5082446726
  0
ARC
  5
4C8
330
1F
100
AcDbEntity
  8
0
  6
Continuous
 62
     7
370
    25
100
AcDbCircle
 10
2467.9235806469
 20
1657.9560124313
 30
0.0
 40
0.9389504768189135
100
AcDbArc
 50
226.8871512528
 51
243.8058075802
  0
LINE
  5
4C9
330
1F
100
AcDbEntity
  8
0
  6
Continuous
 62
     7
370
    25
100
AcDbLine
 10
2467.1213116595
 20
1657.7049262037
 30
0.0
 11
2467.0495558757
 21
1657.7174607447
 31
0.0
  0
ARC
  5
4CA
330
1F
100
AcDbEntity
  8
0
  6
Continuous
 62
     7
370
    25
100
AcDbCircle
 10
2468.2547074734
 20
1657.8770212103
 30
0.0
 40
1.146386562277864
100
AcDbArc
 50
188.6338504037
 51
211.9386567671
  0
LINE
  5
4CB
330
1F
100
AcDbEntity
  8
0
  6
Continuous
 62
     7
370
    25
100
AcDbLine
 10
2467.2369143448
 20
1657.7174607446
 30
0.0
 11
2467.1213116595
 21
1657.7049262037
 31
0.0
  0
LWPOLYLINE
  5
4CC
330
1F
100
AcDbEntity
  8
0
  6
Continuous
 62
     7
370
    25
100
AcDbPolyline
 90
        9
 70
   128
 43
0.0
 10
2470.3409285788
 20
1657.7174607384
 10
2470.4131597243
 20
1657.6903328732
 10
2470.4714917801
 20
1657.6709556297
 10
2470.5147582741
 20
1657.6592603762
 10
2470.5424697169
 20
1657.6553217396
 10
2470.5549311883
 20
1657.6592540545
 10
2470.5514958227
 20
1657.670947885
 10
2470.5310281739
 20
1657.6903275542
 10
2470.4929466359
 20
1657.7174607447
  0
ARC
  5
4CD
330
1F
100
AcDbEntity
  8
0
  6
Continuous
 62
     7
370
    25
100
AcDbCircle
 10
2452.6537889676
 20
1643.7977093378
 30
0.0
 40
6.752098513684089
100
AcDbArc
 50
162.0921195455
 51
171.7423680339
  0
LWPOLYLINE
  5
4CE
330
1F
100
AcDbEntity
  8
0
  6
Continuous
 62
     7
370
    25
100
AcDbPolyline
 90
       11
 70
   128
 43
0.0
 10
2446.2288153051
 20
1645.8738952097
 10
2446.2287920352
 20
1645.8737991479
 10
2446.2286124535
 20
1645.8730066772
 10
2446.2281168774
 20
1645.8707733841
 10
2446.2262475516
 20
1645.8622725161
 10
2446.2189962054
 20
1645.8291336527
 10
2446.0067860675
 20
1644.8689366332
 10
2445.7998018511
 20
1643.9870405231
 10
2445.6015767053
 20
1643.2356489369
 10
2445.2647032737
 20
1642.2772471379
 10
2444.9065256243
 20
1641.8738952097
  0
LINE
  5
4CF
330
1F
100
AcDbEntity
  8
0
  6
Continuous
 62
     7
370
    25
100
AcDbLine
 10
2446.2288153051
 20
1636.8738952097
 30
0.0
 11
2421.6299839844
 21
1636.8738952096
 31
0.0
  0
LINE
  5
4D0
330
1F
100
AcDbEntity
  8
0
  6
Continuous
 62
     7
370
    25
100
AcDbLine
 10
2421.6299839844
 20
1641.8738952096
 30
0.0
 11
2421.6299839844
 21
1636.8738952096
 31
0.0
  0
LINE
  5
4D1
330
1F
100
AcDbEntity
  8
0
  6
Continuous
 62
     7
370
    25
100
AcDbLine
 10
2444.9065256243
 20
1641.8738952097
 30
0.0
 11
2421.6299839844
 21
1641.8738952096
 31
0.0
  0
LINE
  5
4D2
330
1F
100
AcDbEntity
  8
0
  6
Continuous
 62
     7
370
    25
100
AcDbLine
 10
2422.6231306173
 20
1635.8738952096
 30
0.0
 11
2421.6299839844
 21
1636.8738952096
 31
0.0
  0
LINE
  5
4D3
330
1F
100
AcDbEntity
  8
0
  6
Continuous
 62
     7
370
    25
100
AcDbLine
 10
2447.221961938
 20
1635.8738952097
 30
0.0
 11
2422.6231306173
 21
1635.8738952096
 31
0.0
  0
ARC
  5
4D4
330
1F
100
AcDbEntity
  8
0
  6
Continuous
 62
     7
370
    25
100
AcDbCircle
 10
2450.8429160951
 20
1657.7914520757
 30
0.0
 40
0.9191498472658189
100
AcDbArc
 50
273.3737472448
 51
355.3827081649
  0
LINE
  5
4D5
330
1F
100
AcDbEntity
  8
0
  6
Continuous
 62
     7
370
    25
100
AcDbLine
 10
2422.6231306173
 20
1642.8738952096
 30
0.0
 11
2421.6299839844
 21
1641.8738952096
 31
0.0
  0
LINE
  5
4D6
330
1F
100
AcDbEntity
  8
0
  6
Continuous
 62
     7
370
    25
100
AcDbLine
 10
2422.6231306173
 20
1642.8738952096
 30
0.0
 11
2445.4744220823
 21
1642.8738952097
 31
0.0
  0
LINE
  5
4D7
330
1F
100
AcDbEntity
  8
0
  6
Continuous
 62
     7
370
    25
100
AcDbLine
 10
2421.5175141925
 20
1636.8738952096
 30
0.0
 11
2421.6299839844
 21
1636.8738952096
 31
0.0
  0
LINE
  5
4D8
330
1F
100
AcDbEntity
  8
0
  6
Continuous
 62
     7
370
    25
100
AcDbLine
 10
2421.5175141925
 20
1636.8738952096
 30
0.0
 11
2421.5175141925
 21
1641.8738952096
 31
0.0
  0
LINE
  5
4D9
330
1F
100
AcDbEntity
  8
0
  6
Continuous
 62
     7
370
    25
100
AcDbLine
 10
2421.6299839844
 20
1641.8738952096
 30
0.0
 11
2421.5175141925
 21
1641.8738952096
 31
0.0
  0
LINE
  5
4DA
330
1F
100
AcDbEntity
  8
0
  6
Continuous
 62
     7
370
    25
100
AcDbLine
 10
2422.5129102212
 20
1635.8738952096
 30
0.0
 11
2421.5175141925
 21
1636.8738952096
 31
0.0
  0
LINE
  5
4DB
330
1F
100
AcDbEntity
  8
0
  6
Continuous
 62
     7
370
    25
100
AcDbLine
 10
2422.6231306173
 20
1635.8738952096
 30
0.0
 11
2422.5129102212
 21
1635.8738952096
 31
0.0
  0
LINE
  5
4DC
330
1F
100
AcDbEntity
  8
0
  6
Continuous
 62
     7
370
    25
100
AcDbLine
 10
2421.5175141925
 20
1641.8738952096
 30
0.0
 11
2422.5129102212
 21
1642.8738952096
 31
0.0
  0
LINE
  5
4DD
330
1F
100
AcDbEntity
  8
0
  6
Continuous
 62
     7
370
    25
100
AcDbLine
 10
2422.5129102212
 20
1642.8738952096
 30
0.0
 11
2422.6231306173
 21
1642.8738952096
 31
0.0
  0
LINE
  5
4DE
330
1F
100
AcDbEntity
  8
0
  6
Continuous
 62
     7
370
    25
100
AcDbLine
 10
2404.4220545103
 20
1635.8738952096
 30
0.0
 11
2403.4266584816
 21
1636.8738952096
 31
0.0
  0
LINE
  5
4DF
330
1F
100
AcDbEntity
  8
0
  6
Continuous
 62
     7
370
    25
100
AcDbLine
 10
2421.5175141925
 20
1636.8738952096
 30
0.0
 11
2403.4266584816
 21
1636.8738952096
 31
0.0
  0
LINE
  5
4E0
330
1F
100
AcDbEntity
  8
0
  6
Continuous
 62
     7
370
    25
100
AcDbLine
 10
2422.5129102212
 20
1635.8738952096
 30
0.0
 11
2404.4220545103
 21
1635.8738952096
 31
0.0
  0
LINE
  5
4E1
330
1F
100
AcDbEntity
  8
0
  6
Continuous
 62
     7
370
    25
100
AcDbLine
 10
2403.4266584816
 20
1641.8738952096
 30
0.0
 11
2404.4220545103
 21
1642.8738952096
 31
0.0
  0
LINE
  5
4E2
330
1F
100
AcDbEntity
  8
0
  6
Continuous
 62
     7
370
    25
100
AcDbLine
 10
2421.5175141925
 20
1641.8738952096
 30
0.0
 11
2403.4266584816
 21
1641.8738952096
 31
0.0
  0
LINE
  5
4E3
330
1F
100
AcDbEntity
  8
0
  6
Continuous
 62
     7
370
    25
100
AcDbLine
 10
2404.4220545103
 20
1642.8738952096
 30
0.0
 11
2422.5129102212
 21
1642.8738952096
 31
0.0
  0
LINE
  5
4E4
330
1F
100
AcDbEntity
  8
0
  6
Continuous
 62
     7
370
    25
100
AcDbLine
 10
2403.4266584816
 20
1636.8738952096
 30
0.0
 11
2403.4266584816
 21
1641.8738952096
 31
0.0
  0
LINE
  5
4E5
330
1F
100
AcDbEntity
  8
0
  6
Continuous
 62
     7
370
    25
100
AcDbLine
 10
2403.4266584816
 20
1636.8738952096
 30
0.0
 11
2403.3760147973
 21
1636.8738952096
 31
0.0
  0
LINE
  5
4E6
330
1F
100
AcDbEntity
  8
0
  6
Continuous
 62
     7
370
    25
100
AcDbLine
 10
2404.4220545103
 20
1635.8738952096
 30
0.0
 11
2404.3760147973
 21
1635.8738952096
 31
0.0
  0
LINE
  5
4E7
330
1F
100
AcDbEntity
  8
0
  6
Continuous
 62
     7
370
    25
100
AcDbLine
 10
2403.4266584816
 20
1641.8738952096
 30
0.0
 11
2403.3760147973
 21
1641.8738952096
 31
0.0
  0
LINE
  5
4E8
330
1F
100
AcDbEntity
  8
0
  6
Continuous
 62
     7
370
    25
100
AcDbLine
 10
2404.3760147973
 20
1642.8738952096
 30
0.0
 11
2404.4220545103
 21
1642.8738952096
 31
0.0
  0
LINE
  5
4E9
330
1F
100
AcDbEntity
  8
0
  6
Continuous
 62
     7
370
    25
100
AcDbLine
 10
2401.6260147961
 20
1588.8738952158
 30
0.0
 11
2401.6260147961
 21
1588.3738952158
 31
0.0
  0
LINE
  5
4EA
330
1F
100
AcDbEntity
  8
0
  6
Continuous
 62
     7
370
    25
100
AcDbLine
 10
2401.6260147961
 20
1588.8738952158
 30
0.0
 11
2428.6260147961
 21
1588.8738952158
 31
0.0
  0
LINE
  5
4EB
330
1F
100
AcDbEntity
  8
0
  6
Continuous
 62
     7
370
    25
100
AcDbLine
 10
2428.6260147961
 20
1588.3738952158
 30
0.0
 11
2428.6260147961
 21
1588.8738952158
 31
0.0
  0
LINE
  5
4EC
330
1F
100
AcDbEntity
  8
0
  6
Continuous
 62
     7
370
    25
100
AcDbLine
 10
2401.6260147961
 20
1588.3738952158
 30
0.0
 11
2428.6260147961
 21
1588.3738952158
 31
0.0
  0
LINE
  5
4ED
330
1F
100
AcDbEntity
  8
0
  6
Continuous
 62
     7
370
    25
100
AcDbLine
 10
2401.6260147961
 20
1604.8738952158
 30
0.0
 11
2401.6260147961
 21
1588.8738952158
 31
0.0
  0
LINE
  5
4EE
330
1F
100
AcDbEntity
  8
0
  6
Continuous
 62
     7
370
    25
100
AcDbLine
 10
2428.6260147961
 20
1604.8738952158
 30
0.0
 11
2401.6260147961
 21
1604.8738952158
 31
0.0
  0
LINE
  5
4EF
330
1F
100
AcDbEntity
  8
0
  6
Continuous
 62
     7
370
    25
100
AcDbLine
 10
2428.6260147961
 20
1588.8738952158
 30
0.0
 11
2428.6260147961
 21
1604.8738952158
 31
0.0
  0
LINE
  5
4F0
330
1F
100
AcDbEntity
  8
0
  6
Continuous
 62
     7
370
    25
100
AcDbLine
 10
2428.6260147961
 20
1604.8738952158
 30
0.0
 11
2428.6260147961
 21
1605.3738952158
 31
0.0
  0
LINE
  5
4F1
330
1F
100
AcDbEntity
  8
0
  6
Continuous
 62
     7
370
    25
100
AcDbLine
 10
2401.6260147961
 20
1605.3738952158
 30
0.0
 11
2401.6260147961
 21
1604.8738952158
 31
0.0
  0
LINE
  5
4F2
330
1F
100
AcDbEntity
  8
0
  6
Continuous
 62
     7
370
    25
100
AcDbLine
 10
2428.6260147961
 20
1605.3738952158
 30
0.0
 11
2401.6260147961
 21
1605.3738952158
 31
0.0
  0
LINE
  5
4F3
330
1F
100
AcDbEntity
  8
0
  6
Continuous
 62
     7
370
    25
100
AcDbLine
 10
2401.1260147961
 20
1588.8738952158
 30
0.0
 11
2401.6260147961
 21
1588.8738952158
 31
0.0
  0
ARC
  5
4F4
330
1F
100
AcDbEntity
  8
0
  6
Continuous
 62
     7
370
    25
100
AcDbCircle
 10
2401.6260147961
 20
1588.8738952158
 30
0.0
 40
0.5
100
AcDbArc
 50
180.0
 51
270.0000000001
  0
LINE
  5
4F5
330
1F
100
AcDbEntity
  8
0
  6
Continuous
 62
     7
370
    25
100
AcDbLine
 10
2401.6260147961
 20
1604.8738952158
 30
0.0
 11
2401.1260147961
 21
1604.8738952158
 31
0.0
  0
ARC
  5
4F6
330
1F
100
AcDbEntity
  8
0
  6
Continuous
 62
     7
370
    25
100
AcDbCircle
 10
2401.6260147961
 20
1604.8738952158
 30
0.0
 40
0.5
100
AcDbArc
 50
89.9999999999
 51
180.0
  0
LINE
  5
4F7
330
1F
100
AcDbEntity
  8
0
  6
Continuous
 62
     7
370
    25
100
AcDbLine
 10
2429.1260147961
 20
1604.8738952158
 30
0.0
 11
2428.6260147961
 21
1604.8738952158
 31
0.0
  0
LINE
  5
4F8
330
1F
100
AcDbEntity
  8
0
  6
Continuous
 62
     7
370
    25
100
AcDbLine
 10
2429.1260147961
 20
1588.8738952158
 30
0.0
 11
2429.1260147961
 21
1604.8738952158
 31
0.0
  0
LINE
  5
4F9
330
1F
100
AcDbEntity
  8
0
  6
Continuous
 62
     7
370
    25
100
AcDbLine
 10
2428.6260147961
 20
1588.8738952158
 30
0.0
 11
2429.1260147961
 21
1588.8738952158
 31
0.0
  0
LINE
  5
4FA
330
1F
100
AcDbEntity
  8
0
  6
Continuous
 62
     7
370
    25
100
AcDbLine
 10
2401.1260147961
 20
1604.8738952158
 30
0.0
 11
2401.1260147961
 21
1588.8738952158
 31
0.0
  0
ARC
  5
4FB
330
1F
100
AcDbEntity
  8
0
  6
Continuous
 62
     7
370
    25
100
AcDbCircle
 10
2428.6260147961
 20
1588.8738952158
 30
0.0
 40
0.5000000000009095
100
AcDbArc
 50
270.0
 51
0.0
  0
ARC
  5
4FC
330
1F
100
AcDbEntity
  8
0
  6
Continuous
 62
     7
370
    25
100
AcDbCircle
 10
2428.6260147961
 20
1604.8738952158
 30
0.0
 40
0.4999999999997726
100
AcDbArc
 50
360.0
 51
90.0
  0
LINE
  5
4FD
330
1F
100
AcDbEntity
  8
0
  6
Continuous
 62
     7
370
    25
100
AcDbLine
 10
2461.1260147979
 20
1756.3738952096
 30
0.0
 11
2461.1260147979
 21
1755.3738952096
 31
0.0
  0
LINE
  5
4FE
330
1F
100
AcDbEntity
  8
0
  6
Continuous
 62
     7
370
    25
100
AcDbLine
 10
2402.1260147979
 20
1756.3738952096
 30
0.0
 11
2461.1260147979
 21
1756.3738952096
 31
0.0
  0
LINE
  5
4FF
330
1F
100
AcDbEntity
  8
0
  6
Continuous
 62
     7
370
    25
100
AcDbLine
 10
2402.1260147979
 20
1755.3738952096
 30
0.0
 11
2402.1260147979
 21
1756.3738952096
 31
0.0
  0
LINE
  5
500
330
1F
100
AcDbEntity
  8
0
  6
Continuous
 62
     7
370
    25
100
AcDbLine
 10
2461.1260147979
 20
1756.3738952096
 30
0.0
 11
2484.1260147979
 21
1756.3738952096
 31
0.0
  0
LINE
  5
501
330
1F
100
AcDbEntity
  8
0
  6
Continuous
 62
     7
370
    25
100
AcDbLine
 10
2458.1260147979
 20
1660.3738952096
 30
0.0
 11
2458.1260147979
 21
1659.3738952096
 31
0.0
  0
LINE
  5
502
330
1F
100
AcDbEntity
  8
0
  6
Continuous
 62
     7
370
    25
100
AcDbLine
 10
2458.1260147979
 20
1659.3738952096
 30
0.0
 11
2402.1260147979
 21
1659.3738952096
 31
0.0
  0
LINE
  5
503
330
1F
100
AcDbEntity
  8
0
  6
Continuous
 62
     7
370
    25
100
AcDbLine
 10
2402.1260147979
 20
1659.3738952096
 30
0.0
 11
2402.1260147979
 21
1660.3738952096
 31
0.0
  0
LINE
  5
504
330
1F
100
AcDbEntity
  8
0
  6
Continuous
 62
     7
370
    25
100
AcDbLine
 10
2516.1260147979
 20
1665.3738952096
 30
0.0
 11
2516.1260147979
 21
1750.3738952096
 31
0.0
  0
LINE
  5
505
330
1F
100
AcDbEntity
  8
0
  6
Continuous
 62
     7
370
    25
100
AcDbLine
 10
2401.1260147979
 20
1665.3738952096
 30
0.0
 11
2516.1260147979
 21
1665.3738952096
 31
0.0
  0
LINE
  5
506
330
1F
100
AcDbEntity
  8
0
  6
Continuous
 62
     7
370
    25
100
AcDbLine
 10
2401.1260147979
 20
1750.3738952096
 30
0.0
 11
2401.1260147979
 21
1665.3738952096
 31
0.0
  0
LINE
  5
507
330
1F
100
AcDbEntity
  8
0
  6
Continuous
 62
     7
370
    25
100
AcDbLine
 10
2516.1260147979
 20
1750.3738952096
 30
0.0
 11
2401.1260147979
 21
1750.3738952096
 31
0.0
  0
LINE
  5
508
330
1F
100
AcDbEntity
  8
0
  6
Continuous
 62
     7
370
    25
100
AcDbLine
 10
2413.1260147979
 20
1737.3738952096
 30
0.0
 11
2413.1260147979
 21
1678.3738952096
 31
0.0
  0
ARC
  5
509
330
1F
100
AcDbEntity
  8
0
  6
Continuous
 62
     7
370
    25
100
AcDbCircle
 10
2416.1260147979
 20
1678.3738952096
 30
0.0
 40
3.0
100
AcDbArc
 50
180.0
 51
270.0
  0
LINE
  5
50A
330
1F
100
AcDbEntity
  8
0
  6
Continuous
 62
     7
370
    25
100
AcDbLine
 10
2416.1260147979
 20
1675.3738952096
 30
0.0
 11
2502.1260147979
 21
1675.3738952096
 31
0.0
  0
ARC
  5
50B
330
1F
100
AcDbEntity
  8
0
  6
Continuous
 62
     7
370
    25
100
AcDbCircle
 10
2502.1260147979
 20
1678.3738952096
 30
0.0
 40
3.000000000000227
100
AcDbArc
 50
270.0
 51
0.0
  0
LINE
  5
50C
330
1F
100
AcDbEntity
  8
0
  6
Continuous
 62
     7
370
    25
100
AcDbLine
 10
2505.1260147979
 20
1678.3738952096
 30
0.0
 11
2505.1260147979
 21
1737.3738952096
 31
0.0
  0
ARC
  5
50D
330
1F
100
AcDbEntity
  8
0
  6
Continuous
 62
     7
370
    25
100
AcDbCircle
 10
2502.1260147979
 20
1737.3738952096
 30
0.0
 40
2.999999999999545
100
AcDbArc
 50
0.0
 51
90.0
  0
LINE
  5
50E
330
1F
100
AcDbEntity
  8
0
  6
Continuous
 62
     7
370
    25
100
AcDbLine
 10
2502.1260147979
 20
1740.3738952096
 30
0.0
 11
2416.1260147979
 21
1740.3738952096
 31
0.0
  0
ARC
  5
50F
330
1F
100
AcDbEntity
  8
0
  6
Continuous
 62
     7
370
    25
100
AcDbCircle
 10
2416.1260147979
 20
1737.3738952096
 30
0.0
 40
3.0
100
AcDbArc
 50
90.0
 51
180.0
  0
LINE
  5
510
330
1F
100
AcDbEntity
  8
0
  6
Continuous
 62
     7
370
    25
100
AcDbLine
 10
2401.1260147979
 20
1662.3738952096
 30
0.0
 11
2404.6260147979
 21
1662.3738952096
 31
0.0
  0
LINE
  5
511
330
1F
100
AcDbEntity
  8
0
  6
Continuous
 62
     7
370
    25
100
AcDbLine
 10
2401.1260147979
 20
1662.3738952096
 30
0.0
 11
2401.1260147979
 21
1665.3738952096
 31
0.0
  0
LINE
  5
512
330
1F
100
AcDbEntity
  8
0
  6
Continuous
 62
     7
370
    25
100
AcDbLine
 10
2516.1260147979
 20
1662.3738952096
 30
0.0
 11
2516.1260147979
 21
1665.3738952096
 31
0.0
  0
LINE
  5
513
330
1F
100
AcDbEntity
  8
0
  6
Continuous
 62
     7
370
    25
100
AcDbLine
 10
2409.6260147979
 20
1662.3738952096
 30
0.0
 11
2516.1260147979
 21
1662.3738952096
 31
0.0
  0
ARC
  5
514
330
1F
100
AcDbEntity
  8
0
  6
Continuous
 62
     7
370
    25
100
AcDbCircle
 10
2407.1260147979
 20
1661.0405618762
 30
0.0
 40
2.833333333332254
100
AcDbArc
 50
28.0724869358
 51
151.9275130642
  0
LINE
  5
515
330
1F
100
AcDbEntity
  8
0
  6
Continuous
 62
     7
370
    25
100
AcDbLine
 10
2516.1260147979
 20
1753.3738952096
 30
0.0
 11
2409.6260147979
 21
1753.3738952096
 31
0.0
  0
LINE
  5
516
330
1F
100
AcDbEntity
  8
0
  6
Continuous
 62
     7
370
    25
100
AcDbLine
 10
2516.1260147979
 20
1750.3738952096
 30
0.0
 11
2516.1260147979
 21
1753.3738952096
 31
0.0
  0
LINE
  5
517
330
1F
100
AcDbEntity
  8
0
  6
Continuous
 62
     7
370
    25
100
AcDbLine
 10
2401.1260147979
 20
1750.3738952096
 30
0.0
 11
2401.1260147979
 21
1753.3738952096
 31
0.0
  0
LINE
  5
518
330
1F
100
AcDbEntity
  8
0
  6
Continuous
 62
     7
370
    25
100
AcDbLine
 10
2404.6260147979
 20
1753.3738952096
 30
0.0
 11
2401.1260147979
 21
1753.3738952096
 31
0.0
  0
ARC
  5
519
330
1F
100
AcDbEntity
  8
0
  6
Continuous
 62
     7
370
    25
100
AcDbCircle
 10
2407.1260147979
 20
1754.7072285429
 30
0.0
 40
2.833333333332682
100
AcDbArc
 50
208.0724869358
 51
331.9275130642
  0
LINE
  5
51A
330
1F
100
AcDbEntity
  8
0
  6
Continuous
 62
     7
370
    25
100
AcDbLine
 10
2519.1260147979
 20
1665.3738952096
 30
0.0
 11
2519.1260147979
 21
1750.3738952143
 31
0.0
  0
LINE
  5
51B
330
1F
100
AcDbEntity
  8
0
  6
Continuous
 62
     7
370
    25
100
AcDbLine
 10
2516.1260147979
 20
1665.3738952096
 30
0.0
 11
2519.1260147979
 21
1665.3738952096
 31
0.0
  0
LINE
  5
51C
330
1F
100
AcDbEntity
  8
0
  6
Continuous
 62
     7
370
    25
100
AcDbLine
 10
2519.1260147979
 20
1750.3738952096
 30
0.0
 11
2516.1260147979
 21
1750.3738952096
 31
0.0
  0
ARC
  5
51D
330
1F
100
AcDbEntity
  8
0
  6
Continuous
 62
     7
370
    25
100
AcDbCircle
 10
2516.1260147979
 20
1665.3738952096
 30
0.0
 40
3.000000000000455
100
AcDbArc
 50
269.9999996402
 51
0.0
  0
ARC
  5
51E
330
1F
100
AcDbEntity
  8
0
  6
Continuous
 62
     7
370
    25
100
AcDbCircle
 10
2516.1260147979
 20
1750.3738952096
 30
0.0
 40
3.000000000000455
100
AcDbArc
 50
0.0000001799
 51
90.0
  0
LINE
  5
51F
330
1F
100
AcDbEntity
  8
0
  6
Continuous
 62
     7
370
    25
100
AcDbLine
 10
2401.1260147979
 20
1755.3738952096
 30
0.0
 11
2516.1260147979
 21
1755.3738952096
 31
0.0
  0
ARC
  5
520
330
1F
100
AcDbEntity
  8
0
  6
Continuous
 62
     7
370
    25
100
AcDbCircle
 10
2516.1260147979
 20
1750.3738952096
 30
0.0
 40
5.000000000000227
100
AcDbArc
 50
0.0
 51
90.0
  0
LINE
  5
521
330
1F
100
AcDbEntity
  8
0
  6
Continuous
 62
     7
370
    25
100
AcDbLine
 10
2521.1260147979
 20
1750.3738952096
 30
0.0
 11
2521.1260147979
 21
1665.3738952096
 31
0.0
  0
ARC
  5
522
330
1F
100
AcDbEntity
  8
0
  6
Continuous
 62
     7
370
    25
100
AcDbCircle
 10
2516.1260147979
 20
1665.3738952096
 30
0.0
 40
5.000000000000455
100
AcDbArc
 50
270.0
 51
0.0
  0
LINE
  5
523
330
1F
100
AcDbEntity
  8
0
  6
Continuous
 62
     7
370
    25
100
AcDbLine
 10
2516.1260147979
 20
1660.3738952096
 30
0.0
 11
2401.1260147979
 21
1660.3738952096
 31
0.0
  0
LINE
  5
524
330
1F
100
AcDbEntity
  8
0
  6
Continuous
 62
     7
370
    25
100
AcDbLine
 10
2401.1260147979
 20
1753.3738952096
 30
0.0
 11
2401.1260147979
 21
1755.3738952096
 31
0.0
  0
LINE
  5
525
330
1F
100
AcDbEntity
  8
0
  6
Continuous
 62
     7
370
    25
100
AcDbLine
 10
2401.1260147979
 20
1660.3738952096
 30
0.0
 11
2401.1260147979
 21
1662.3738952096
 31
0.0
  0
LINE
  5
526
330
1F
100
AcDbEntity
  8
0
  6
Continuous
 62
     7
370
    25
100
AcDbLine
 10
2446.1260147981
 20
1645.8738952097
 30
0.0
 11
2446.2288153051
 21
1645.8738952097
 31
0.0
  0
LINE
  5
527
330
1F
100
AcDbEntity
  8
0
  6
Continuous
 62
     7
370
    25
100
AcDbLine
 10
2458.822708407
 20
1658.6178792406
 30
0.0
 11
2458.7678336922
 21
1657.7174607447
 31
0.0
  0
LINE
  5
528
330
1F
100
AcDbEntity
  8
0
  6
Continuous
 62
     7
370
    25
100
AcDbLine
 10
2458.2301911312
 20
1657.7174607446
 30
0.0
 11
2458.2850658442
 21
1658.6178792406
 31
0.0
  0
LINE
  5
529
330
1F
100
AcDbEntity
  8
0
  6
Continuous
 62
     7
370
    25
100
AcDbLine
 10
2456.5902239837
 20
1658.6178792406
 30
0.0
 11
2456.49457831
 21
1657.7174607446
 31
0.0
  0
LINE
  5
52A
330
1F
100
AcDbEntity
  8
0
  6
Continuous
 62
     7
370
    25
100
AcDbLine
 10
2461.8718478926
 20
1657.7174607447
 30
0.0
 11
2461.8538067848
 21
1658.6178792406
 31
0.0
  0
LINE
  5
52B
330
1F
100
AcDbEntity
  8
0
  6
Continuous
 62
     7
370
    25
100
AcDbLine
 10
2465.5942862676
 20
1657.7174607446
 30
0.0
 11
2465.4958564621
 21
1658.6178792406
 31
0.0
  0
LINE
  5
52C
330
1F
100
AcDbEntity
  8
0
  6
Continuous
 62
     7
370
    25
100
AcDbLine
 10
2462.1541120516
 20
1658.6178792406
 30
0.0
 11
2462.1721531593
 21
1657.7174607446
 31
0.0
  0
LINE
  5
52D
330
1F
100
AcDbEntity
  8
0
  6
Continuous
 62
     7
370
    25
100
AcDbLine
 10
2465.9835201665
 20
1658.6178792406
 30
0.0
 11
2466.0819499683
 21
1657.7174607447
 31
0.0
  0
LINE
  5
52E
330
1F
100
AcDbEntity
  8
0
  6
Continuous
 62
     7
370
    25
100
AcDbLine
 10
2467.0495558757
 20
1657.7174607447
 30
0.0
 11
2466.9283962227
 21
1658.6178792406
 31
0.0
  0
LINE
  5
52F
330
1F
100
AcDbEntity
  8
0
  6
Continuous
 62
     7
370
    25
100
AcDbLine
 10
2456.257240998
 20
1657.7174607447
 30
0.0
 11
2456.3528866717
 21
1658.6178792406
 31
0.0
  0
LINE
  5
530
330
1F
100
AcDbEntity
  8
0
  6
Continuous
 62
     7
370
    25
100
AcDbLine
 10
2453.0111422932
 20
1658.6178792406
 30
0.0
 11
2452.8351079254
 21
1657.7174607447
 31
0.0
  0
LINE
  5
531
330
1F
100
AcDbEntity
  8
0
  6
Continuous
 62
     7
370
    25
100
AcDbLine
 10
2467.1157546919
 20
1658.6178792406
 30
0.0
 11
2467.2369143448
 21
1657.7174607446
 31
0.0
  0
LINE
  5
532
330
1F
100
AcDbEntity
  8
0
  6
Continuous
 62
     7
370
    25
100
AcDbLine
 10
2470.3409285775
 20
1657.7174607446
 30
0.0
 11
2470.1468530986
 21
1658.6178792406
 31
0.0
  0
LINE
  5
533
330
1F
100
AcDbEntity
  8
0
  6
Continuous
 62
     7
370
    25
100
AcDbLine
 10
2451.7590829602
 20
1657.7174607447
 30
0.0
 11
2452.5472617091
 21
1657.7174607447
 31
0.0
  0
LINE
  5
534
330
1F
100
AcDbEntity
  8
0
  6
Continuous
 62
     7
370
    25
100
AcDbLine
 10
2451.9531584358
 20
1658.6178792406
 30
0.0
 11
2451.7590829602
 21
1657.7174607447
 31
0.0
  0
LWPOLYLINE
  5
535
330
1F
100
AcDbEntity
  8
0
  6
Continuous
 62
     7
370
    25
100
AcDbPolyline
 90
        3
 70
   128
 43
0.0
 10
2451.698580232
 20
1657.6641535407
 10
2451.7020344601
 20
1657.6725760889
 10
2451.7590829602
 20
1657.7174607447
  0
LINE
  5
536
330
1F
100
AcDbEntity
  8
FORMAT
370
    25
100
AcDbLine
 10
2371.1260147983
 20
1826.2892169483
 30
0.0
 11
2371.1260147983
 21
1923.444969101
 31
0.0
  0
LINE
  5
537
330
1F
100
AcDbEntity
  8
FORMAT
370
    25
100
AcDbLine
 10
2521.1260147983
 20
1826.2892169483
 30
0.0
 11
2521.1260147983
 21
1923.444969101
 31
0.0
  0
DIMENSION
  5
538
330
1F
100
AcDbEntity
  8
FORMAT
100
AcDbDimension
  2
_D_20
 10
2521.1260147983
 20
1885.7067843805
 30
0.0
 11
2587.2705394215
 21
1885.7067843805
 31
0.0
 70
   160
  1
max. +<>
 71
     2
 42
-1.0
  3
SLDDIMSTYLE4
100
AcDbAlignedDimension
 13
2401.1260147983
 23
1811.8738952096
 33
0.0
 14
2521.1260147983
 24
1923.444969101
 34
0.0
 50
0.0
100
AcDbRotatedDimension
  0
DIMENSION
  5
549
330
1F
100
AcDbEntity
  8
FORMAT
100
AcDbDimension
  2
_D_21
 10
2371.1260147983
 20
1885.7067843805
 30
0.0
 11
2310.6210596307
 21
1885.7067843805
 31
0.0
 70
   160
  1
max. -<>
 71
     2
 42
-1.0
  3
SLDDIMSTYLE4
100
AcDbAlignedDimension
 13
2401.1260147983
 23
1811.8738952096
 33
0.0
 14
2371.1260147983
 24
1923.444969101
 34
0.0
100
AcDbRotatedDimension
  0
DIMENSION
  5
554
330
1F
100
AcDbEntity
  8
FORMAT
100
AcDbDimension
  2
_D_22
 10
2429.1260147961
 20
1513.9312418104
 30
0.0
 11
2481.5202250695
 21
1513.9312418104
 31
0.0
 70
   160
  1
<>
 71
     2
 42
-1.0
  3
SLDDIMSTYLE1
100
AcDbAlignedDimension
 13
2401.1260147983
 23
1631.8738952096
 33
0.0
 14
2429.1260147961
 24
1588.8738952158
 34
0.0
100
AcDbRotatedDimension
  0
DIMENSION
  5
55F
330
1F
100
AcDbEntity
  8
FORMAT
100
AcDbDimension
  2
_D_23
 10
2521.1260147979
 20
1452.8204122204
 30
0.0
 11
2461.1260147981
 21
1452.8204122204
 31
0.0
 70
   160
  1
<>
 71
     2
 42
-1.0
  3
SLDDIMSTYLE0
100
AcDbAlignedDimension
 13
2401.1260147983
 23
1311.8738952096
 33
0.0
 14
2521.1260147979
 24
1665.3738952096
 34
0.0
100
AcDbRotatedDimension
  0
DIMENSION
  5
568
330
1F
100
AcDbEntity
  8
FORMAT
100
AcDbDimension
  2
_D_24
 10
2284.6247063557
 20
1756.3738952096
 30
0.0
 11
2284.6247063557
 21
1696.6238952096
 31
0.0
 70
   160
  1
<>
 71
     2
 42
-1.0
  3
SLDDIMSTYLE0
100
AcDbAlignedDimension
 13
2361.1260147983
 23
1636.8738952096
 33
0.0
 14
2402.1260147979
 24
1756.3738952096
 34
0.0
 50
90.0
100
AcDbRotatedDimension
  0
DIMENSION
  5
572
330
1F
100
AcDbEntity
  8
FORMAT
100
AcDbDimension
  2
_D_25
 10
2597.9504994706
 20
1755.3738952096
 30
0.0
 11
2597.9504994706
 21
1671.8738952127
 31
0.0
 70
   160
  1
<>
 71
     2
 42
-1.0
  3
SLDDIMSTYLE0
100
AcDbAlignedDimension
 13
2428.6260147961
 23
1588.3738952158
 33
0.0
 14
2516.1260147979
 24
1755.3738952096
 34
0.0
 50
90.0
100
AcDbRotatedDimension
  0
MTEXT
  5
57C
330
1F
100
AcDbEntity
  8
FORMAT
100
AcDbMText
 10
2368.063141067
 20
1994.9915056833
 30
0.0
 40
35.0
 41
0.0
 71
     2
 72
     1
  1
A-A
  7
SLDTEXTSTYLE0
 73
     1
 44
1.0
  0
MTEXT
  5
57D
330
1F
100
AcDbEntity
  8
FORMAT
100
AcDbMText
 10
2392.2180055347
 20
1917.3590390771
 30
0.0
 40
18.5208333333
 41
0.0
 71
     1
 72
     1
  1
**
  7
SLDTEXTSTYLE0
 73
     1
 44
1.0
  0
MTEXT
  5
57E
330
1F
100
AcDbEntity
  8
FORMAT
100
AcDbMText
 10
2336.1319505545
 20
1272.3638858056
 30
0.0
 40
18.5208333333
 41
0.0
 71
     1
 72
     1
  1
** Sturztiefe
  7
SLDTEXTSTYLE0
 73
     1
 44
1.0
  0
CIRCLE
  5
57F
330
1F
100
AcDbEntity
  8
0
  6
Continuous
 62
     7
370
    18
100
AcDbCircle
 10
2368.9200762091
 20
1704.6211719537
 30
0.0
 40
169.7777296820609
  0
MTEXT
  5
580
330
1F
100
AcDbEntity
  8
0
  6
Continuous
 62
     7
370
    18
100
AcDbMText
 10
2531.5530198593
 20
1840.1327466631
 30
0.0
 40
35.0
 41
0.0
 71
     1
 72
     1
  1
B
  7
SLDTEXTSTYLE0
 73
     1
 44
1.0
  0
LINE
  5
581
330
1F
100
AcDbEntity
  8
0
  6
Continuous
 62
     7
370
    25
100
AcDbLine
 10
2408.2311467572
 20
723.1272402779
 30
0.0
 11
2408.2311467572
 21
725.5856576935
 31
0.0
  0
LINE
  5
582
330
1F
100
AcDbEntity
  8
0
  6
Continuous
 62
     7
370
    25
100
AcDbLine
 10
2366.2311450882
 20
724.1856548563
 30
0.0
 11
2366.2311450882
 21
723.1272402779
 31
0.0
  0
LINE
  5
583
330
1F
100
AcDbEntity
  8
0
  6
Continuous
 62
     7
370
    25
100
AcDbLine
 10
2311.981144671
 20
690.5856597797
 30
0.0
 11
2311.981144671
 21
648.5856581107
 31
0.0
  0
LINE
  5
584
330
1F
100
AcDbEntity
  8
0
  6
Continuous
 62
     7
370
    25
100
AcDbLine
 10
2331.5811459279
 20
648.5856581107
 30
0.0
 11
2331.5811459279
 21
690.5856597797
 31
0.0
  0
LINE
  5
585
330
1F
100
AcDbEntity
  8
0
  6
Continuous
 62
     7
370
    25
100
AcDbLine
 10
2328.7811454689
 20
690.5856597797
 30
0.0
 11
2328.7811454689
 21
691.2856611982
 31
0.0
  0
LINE
  5
586
330
1F
100
AcDbEntity
  8
0
  6
Continuous
 62
     7
370
    25
100
AcDbLine
 10
2314.7811451299
 20
691.2856611982
 30
0.0
 11
2314.7811451299
 21
690.5856597797
 31
0.0
  0
LINE
  5
587
330
1F
100
AcDbEntity
  8
0
  6
Continuous
 62
     7
370
    25
100
AcDbLine
 10
2366.2311450882
 20
720.4056638852
 30
0.0
 11
2366.2311450882
 21
705.2856582776
 31
0.0
  0
LINE
  5
588
330
1F
100
AcDbEntity
  8
0
  6
Continuous
 62
     7
370
    25
100
AcDbLine
 10
2408.2311467572
 20
692.6856640354
 30
0.0
 11
2408.2311467572
 21
720.4056638852
 31
0.0
  0
LINE
  5
589
330
1F
100
AcDbEntity
  8
0
  6
Continuous
 62
     7
370
    25
100
AcDbLine
 10
2406.83114392
 20
691.2856611982
 30
0.0
 11
2408.2311467572
 21
692.6856640354
 31
0.0
  0
LINE
  5
58A
330
1F
100
AcDbEntity
  8
0
  6
Continuous
 62
     7
370
    25
100
AcDbLine
 10
2408.2311467572
 20
720.4056638852
 30
0.0
 11
2407.9511472328
 21
720.6856581942
 31
0.0
  0
LINE
  5
58B
330
1F
100
AcDbEntity
  8
0
  6
Continuous
 62
     7
370
    25
100
AcDbLine
 10
2366.5111446126
 20
720.6856581942
 30
0.0
 11
2366.2311450882
 21
720.4056638852
 31
0.0
  0
LWPOLYLINE
  5
58C
330
1F
100
AcDbEntity
  8
0
  6
Continuous
 62
     7
370
    25
100
AcDbPolyline
 90
       12
 70
   128
 43
0.0
 10
2375.2111518128
 20
721.816838123
 10
2375.0571851923
 20
721.3981661574
 10
2374.7987148656
 20
721.0674676672
 10
2374.6433661623
 20
720.9409732
 10
2374.4839833422
 20
720.8438206092
 10
2374.335135643
 20
720.7754362003
 10
2374.211108063
 20
720.7314286009
 10
2374.1255102052
 20
720.7058209554
 10
2374.0913180007
 20
720.6927511469
 10
2374.1204799457
 20
720.687285401
 10
2374.2225167645
 20
720.6857625023
 10
2374.3423250808
 20
720.6856894866
  0
LINE
  5
58D
330
1F
100
AcDbEntity
  8
0
  6
Continuous
 62
     7
370
    25
100
AcDbLine
 10
2375.4673403992
 20
723.1272402779
 30
0.0
 11
2375.1927675052
 21
721.7227939144
 31
0.0
  0
LWPOLYLINE
  5
58E
330
1F
100
AcDbEntity
  8
0
  6
Continuous
 62
     7
370
    25
100
AcDbPolyline
 90
        4
 70
   128
 43
0.0
 10
2401.5535594268
 20
720.6856894866
 10
2401.6090096278
 20
720.6857207791
 10
2401.644891624
 20
720.6871915237
 10
2401.6438694043
 20
720.6874210015
  0
ARC
  5
58F
330
1F
100
AcDbEntity
  8
0
  6
Continuous
 62
     7
370
    25
100
AcDbCircle
 10
2401.8209575727
 20
722.1012852977
 30
0.0
 40
1.422836952144696
100
AcDbArc
 50
192.6136044467
 51
261.8336052733
  0
LWPOLYLINE
  5
590
330
1F
100
AcDbEntity
  8
0
  6
Continuous
 62
     7
370
    25
100
AcDbPolyline
 90
        3
 70
   128
 43
0.0
 10
2366.0180879129
 20
703.8051295653
 10
2365.9282264604
 20
703.324081339
 10
2365.8079826577
 20
702.7803960816
  0
LINE
  5
591
330
1F
100
AcDbEntity
  8
0
  6
Continuous
 62
     7
370
    25
100
AcDbLine
 10
2400.432466094
 20
721.7905733362
 30
0.0
 11
2400.1443618281
 21
723.1272402779
 31
0.0
  0
ARC
  5
592
330
1F
100
AcDbEntity
  8
0
  6
Continuous
 62
     7
370
    25
100
AcDbCircle
 10
2362.0310646965
 20
705.2856671173
 30
0.0
 40
4.200080391684631
100
AcDbArc
 50
347.4492632116
 51
359.9998794123
  0
LINE
  5
593
330
1F
100
AcDbEntity
  8
0
  6
Continuous
 62
     7
370
    25
100
AcDbLine
 10
2374.3179300173
 20
723.1272402779
 30
0.0
 11
2374.029828359
 21
721.7905733362
 31
0.0
  0
ARC
  5
594
330
1F
100
AcDbEntity
  8
0
  6
Continuous
 62
     7
370
    25
100
AcDbCircle
 10
2372.5880015363
 20
722.1317758759
 30
0.0
 40
1.481649000181227
100
AcDbArc
 50
282.573099882
 51
346.6861088127
  0
LINE
  5
595
330
1F
100
AcDbEntity
  8
0
  6
Continuous
 62
     7
370
    25
100
AcDbLine
 10
2306.3811463608
 20
692.6856640354
 30
0.0
 11
2307.7811465903
 21
691.2856611982
 31
0.0
  0
LINE
  5
596
330
1F
100
AcDbEntity
  8
0
  6
Continuous
 62
     7
370
    25
100
AcDbLine
 10
2307.7811465903
 20
701.0856601969
 30
0.0
 11
2306.3811463608
 21
699.6856573597
 31
0.0
  0
LINE
  5
597
330
1F
100
AcDbEntity
  8
0
  6
Continuous
 62
     7
370
    25
100
AcDbLine
 10
2306.3811463608
 20
699.6856573597
 30
0.0
 11
2306.3811463608
 21
692.6856640354
 31
0.0
  0
LINE
  5
598
330
1F
100
AcDbEntity
  8
0
  6
Continuous
 62
     7
370
    25
100
AcDbLine
 10
2419.4311433776
 20
858.5856560246
 30
0.0
 11
2419.4311433776
 21
859.9856588617
 31
0.0
  0
ARC
  5
599
330
1F
100
AcDbEntity
  8
0
  6
Continuous
 62
     7
370
    18
100
AcDbCircle
 10
2258.1428361128
 20
787.5318077383
 30
0.0
 40
237.6887829454151
100
AcDbArc
 50
257.1376749752
 51
280.9349694275
  0
LINE
  5
59A
330
1F
100
AcDbEntity
  8
0
  6
Continuous
 62
     7
370
    25
100
AcDbLine
 10
2303.2311451925
 20
554.1587117687
 30
0.0
 11
2303.2311451925
 21
625.4856608436
 31
0.0
  0
LINE
  5
59B
330
1F
100
AcDbEntity
  8
0
  6
Continuous
 62
     7
370
    25
100
AcDbLine
 10
2303.2311451925
 20
647.8856619075
 30
0.0
 11
2303.2311451925
 21
685.6856602803
 31
0.0
  0
LINE
  5
59C
330
1F
100
AcDbEntity
  8
0
  6
Continuous
 62
     7
370
    25
100
AcDbLine
 10
2205.231147383
 20
555.8071635291
 30
0.0
 11
2205.231147383
 21
650.6856623665
 31
0.0
  0
LINE
  5
59D
330
1F
100
AcDbEntity
  8
0
  6
Continuous
 62
     7
370
    25
100
AcDbLine
 10
2205.231147383
 20
650.6856623665
 30
0.0
 11
2247.2311490519
 21
650.6856623665
 31
0.0
  0
LINE
  5
59E
330
1F
100
AcDbEntity
  8
0
  6
Continuous
 62
     7
370
    25
100
AcDbLine
 10
2247.2311490519
 20
650.6856623665
 30
0.0
 11
2247.2311490519
 21
685.6856602803
 31
0.0
  0
LINE
  5
59F
330
1F
100
AcDbEntity
  8
0
  6
Continuous
 62
     7
370
    25
100
AcDbLine
 10
2247.2311490519
 20
685.6856602803
 30
0.0
 11
2303.2311451925
 21
685.6856602803
 31
0.0
  0
LINE
  5
5A0
330
1F
100
AcDbEntity
  8
0
  6
Continuous
 62
     7
370
    25
100
AcDbLine
 10
2303.2311451925
 20
937.6856598631
 30
0.0
 11
2303.2311451925
 21
858.5856560246
 31
0.0
  0
LINE
  5
5A1
330
1F
100
AcDbEntity
  8
0
  6
Continuous
 62
     7
370
    25
100
AcDbLine
 10
2303.2311451925
 20
725.5856576935
 30
0.0
 11
2303.2311451925
 21
692.6856640354
 31
0.0
  0
LINE
  5
5A2
330
1F
100
AcDbEntity
  8
0
  6
Continuous
 62
     7
370
    25
100
AcDbLine
 10
2303.2311451925
 20
692.6856640354
 30
0.0
 11
2247.2311490519
 21
692.6856640354
 31
0.0
  0
LINE
  5
5A3
330
1F
100
AcDbEntity
  8
0
  6
Continuous
 62
     7
370
    25
100
AcDbLine
 10
2247.2311490519
 20
692.6856640354
 30
0.0
 11
2247.2311490519
 21
657.6856609062
 31
0.0
  0
LINE
  5
5A4
330
1F
100
AcDbEntity
  8
0
  6
Continuous
 62
     7
370
    25
100
AcDbLine
 10
2205.231147383
 20
937.6856598631
 30
0.0
 11
2303.2311451925
 21
937.6856598631
 31
0.0
  0
LINE
  5
5A5
330
1F
100
AcDbEntity
  8
0
  6
Continuous
 62
     7
370
    25
100
AcDbLine
 10
2247.2311490519
 20
657.6856609062
 30
0.0
 11
2205.231147383
 21
657.6856609062
 31
0.0
  0
LINE
  5
5A6
330
1F
100
AcDbEntity
  8
0
  6
Continuous
 62
     7
370
    25
100
AcDbLine
 10
2205.231147383
 20
937.6856598631
 30
0.0
 11
2205.231147383
 21
657.6856609062
 31
0.0
  0
LINE
  5
5A7
330
1F
100
AcDbEntity
  8
0
  6
Continuous
 62
     7
370
    25
100
AcDbLine
 10
2205.231147383
 20
650.6856623665
 30
0.0
 11
2205.231147383
 21
657.6856609062
 31
0.0
  0
LINE
  5
5A8
330
1F
100
AcDbEntity
  8
0
  6
Continuous
 62
     7
370
    25
100
AcDbLine
 10
2303.2311451925
 20
685.6856602803
 30
0.0
 11
2303.2311451925
 21
692.6856640354
 31
0.0
  0
LINE
  5
5A9
330
1F
100
AcDbEntity
  8
0
  6
Continuous
 62
     7
370
    25
100
AcDbLine
 10
2407.5317346795
 20
723.1272402779
 30
0.0
 11
2408.2311467572
 21
723.1272402779
 31
0.0
  0
LINE
  5
5AA
330
1F
100
AcDbEntity
  8
0
  6
Continuous
 62
     7
370
    25
100
AcDbLine
 10
2366.2311450882
 20
723.1272402779
 30
0.0
 11
2407.5317346795
 21
723.1272402779
 31
0.0
  0
LINE
  5
5AB
330
1F
100
AcDbEntity
  8
0
  6
Continuous
 62
     7
370
    25
100
AcDbLine
 10
2331.5811459279
 20
690.5856597797
 30
0.0
 11
2311.981144671
 21
690.5856597797
 31
0.0
  0
LINE
  5
5AC
330
1F
100
AcDbEntity
  8
0
  6
Continuous
 62
     7
370
    25
100
AcDbLine
 10
2408.2311467572
 20
692.6856640354
 30
0.0
 11
2366.375066836
 21
692.6856640354
 31
0.0
  0
LINE
  5
5AD
330
1F
100
AcDbEntity
  8
0
  6
Continuous
 62
     7
370
    25
100
AcDbLine
 10
2366.375066836
 20
692.6856640354
 30
0.0
 11
2366.375066836
 21
705.2856582776
 31
0.0
  0
LINE
  5
5AE
330
1F
100
AcDbEntity
  8
0
  6
Continuous
 62
     7
370
    25
100
AcDbLine
 10
2408.2311467572
 20
720.4056638852
 30
0.0
 11
2366.2311450882
 21
720.4056638852
 31
0.0
  0
LINE
  5
5AF
330
1F
100
AcDbEntity
  8
0
  6
Continuous
 62
     7
370
    25
100
AcDbLine
 10
2406.83114392
 20
691.2856611982
 30
0.0
 11
2367.7654707177
 21
691.2856611982
 31
0.0
  0
LINE
  5
5B0
330
1F
100
AcDbEntity
  8
0
  6
Continuous
 62
     7
370
    25
100
AcDbLine
 10
2367.7654707177
 20
691.2856611982
 30
0.0
 11
2366.375066836
 21
692.6856640354
 31
0.0
  0
LINE
  5
5B1
330
1F
100
AcDbEntity
  8
0
  6
Continuous
 62
     7
370
    25
100
AcDbLine
 10
2407.9511472328
 20
720.6856581942
 30
0.0
 11
2366.5111446126
 21
720.6856581942
 31
0.0
  0
LWPOLYLINE
  5
5B2
330
1F
100
AcDbEntity
  8
0
  6
Continuous
 62
     7
370
    25
100
AcDbPolyline
 90
        9
 70
   128
 43
0.0
 10
2384.6045368655
 20
720.6856581942
 10
2384.4844208403
 20
720.707458593
 10
2384.3680494769
 20
720.7721922175
 10
2384.2590422673
 20
720.8778354899
 10
2384.1607944412
 20
721.0210922733
 10
2384.0763726576
 20
721.1975086108
 10
2384.0084002657
 20
721.401587464
 10
2383.9589895053
 20
721.6269764677
 10
2383.9296945675
 20
721.8666556851
  0
ARC
  5
5B3
330
1F
100
AcDbEntity
  8
0
  6
Continuous
 62
     7
370
    25
100
AcDbCircle
 10
2381.8943569147
 20
721.9702381912
 30
0.0
 40
1.28681029310403
100
AcDbArc
 50
273.3738391676
 51
355.3829493041
  0
ARC
  5
5B4
330
1F
100
AcDbEntity
  8
0
  6
Continuous
 62
     7
370
    25
100
AcDbCircle
 10
2383.5533430172
 20
722.6134309462
 30
0.0
 40
0.8362498310890503
100
AcDbArc
 50
243.2533141581
 51
296.746685842
  0
LWPOLYLINE
  5
5B5
330
1F
100
AcDbEntity
  8
0
  6
Continuous
 62
     7
370
    25
100
AcDbPolyline
 90
        3
 70
   128
 43
0.0
 10
2388.356442873
 20
721.0210922733
 10
2388.4887055798
 20
720.7721922175
 10
2388.6502058549
 20
720.6856581942
  0
LINE
  5
5B6
330
1F
100
AcDbEntity
  8
0
  6
Continuous
 62
     7
370
    25
100
AcDbLine
 10
2383.9296945675
 20
721.8666556851
 30
0.0
 11
2388.2753120108
 21
721.8666556851
 31
0.0
  0
LWPOLYLINE
  5
5B7
330
1F
100
AcDbEntity
  8
0
  6
Continuous
 62
     7
370
    25
100
AcDbPolyline
 90
        3
 70
   128
 43
0.0
 10
2388.2753120108
 20
721.8666556851
 10
2388.2790305956
 20
721.401587464
 10
2388.356442873
 20
721.0210922733
  0
LWPOLYLINE
  5
5B8
330
1F
100
AcDbEntity
  8
0
  6
Continuous
 62
     7
370
    25
100
AcDbPolyline
 90
        3
 70
   128
 43
0.0
 10
2388.7322441979
 20
721.0210922733
 10
2388.7345337613
 20
721.401587464
 10
2388.6957415684
 20
721.8666556851
  0
LINE
  5
5B9
330
1F
100
AcDbEntity
  8
0
  6
Continuous
 62
     7
370
    25
100
AcDbLine
 10
2388.6957415684
 20
721.8666556851
 30
0.0
 11
2393.4867234273
 21
721.8666556851
 31
0.0
  0
LWPOLYLINE
  5
5BA
330
1F
100
AcDbEntity
  8
0
  6
Continuous
 62
     7
370
    25
100
AcDbPolyline
 90
        9
 70
   128
 43
0.0
 10
2393.4867234273
 20
721.8666556851
 10
2393.4703887744
 20
721.6269764677
 10
2393.4428462131
 20
721.401587464
 10
2393.4049510701
 20
721.1975086108
 10
2393.3578872426
 20
721.0210922733
 10
2393.3031150444
 20
720.8778354899
 10
2393.2423399134
 20
720.7721922175
 10
2393.177465473
 20
720.707458593
 10
2393.1104996546
 20
720.6856581942
  0
LWPOLYLINE
  5
5BB
330
1F
100
AcDbEntity
  8
0
  6
Continuous
 62
     7
370
    25
100
AcDbPolyline
 90
        3
 70
   128
 43
0.0
 10
2388.6502058549
 20
720.6856581942
 10
2388.6993714912
 20
720.7721922175
 10
2388.7322441979
 20
721.0210922733
  0
LWPOLYLINE
  5
5BC
330
1F
100
AcDbEntity
  8
0
  6
Continuous
 62
     7
370
    25
100
AcDbPolyline
 90
        3
 70
   128
 43
0.0
 10
2380.4176816089
 20
721.0210922733
 10
2380.648304273
 20
721.401587464
 10
2380.747133617
 20
721.8666556851
  0
LINE
  5
5BD
330
1F
100
AcDbEntity
  8
0
  6
Continuous
 62
     7
370
    25
100
AcDbLine
 10
2380.747133617
 20
721.8666556851
 30
0.0
 11
2383.176991467
 21
721.8666556851
 31
0.0
  0
LWPOLYLINE
  5
5BE
330
1F
100
AcDbEntity
  8
0
  6
Continuous
 62
     7
370
    25
100
AcDbPolyline
 90
        3
 70
   128
 43
0.0
 10
2379.7079456343
 20
720.6856581942
 10
2380.0889545424
 20
720.7721922175
 10
2380.4176816089
 20
721.0210922733
  0
ARC
  5
5BF
330
1F
100
AcDbEntity
  8
0
  6
Continuous
 62
     7
370
    25
100
AcDbCircle
 10
2395.5214026951
 20
722.0497836181
 30
0.0
 40
1.364292486410077
100
AcDbArc
 50
187.7140525004
 51
269.1033401462
  0
LWPOLYLINE
  5
5C0
330
1F
100
AcDbEntity
  8
0
  6
Continuous
 62
     7
370
    25
100
AcDbPolyline
 90
        8
 70
   128
 43
0.0
 10
2393.4867234273
 20
721.8666556851
 10
2393.7020414813
 20
721.8038308993
 10
2393.8141466422
 20
721.7858273164
 10
2393.9183348162
 20
721.7797774449
 10
2394.0092862888
 20
721.7859316245
 10
2394.078520809
 20
721.802401878
 10
2394.1330530985
 20
721.8292925135
 10
2394.1694566353
 20
721.8666556851
  0
LWPOLYLINE
  5
5C1
330
1F
100
AcDbEntity
  8
0
  6
Continuous
 62
     7
370
    25
100
AcDbPolyline
 90
        3
 70
   128
 43
0.0
 10
2395.9330254538
 20
721.0210922733
 10
2396.3182927413
 20
720.7721922175
 10
2396.7611954851
 20
720.6856581942
  0
LINE
  5
5C2
330
1F
100
AcDbEntity
  8
0
  6
Continuous
 62
     7
370
    25
100
AcDbLine
 10
2394.1694566353
 20
721.8666556851
 30
0.0
 11
2395.5241010828
 21
721.8666556851
 31
0.0
  0
LWPOLYLINE
  5
5C3
330
1F
100
AcDbEntity
  8
0
  6
Continuous
 62
     7
370
    25
100
AcDbPolyline
 90
        3
 70
   128
 43
0.0
 10
2395.5241010828
 20
721.8666556851
 10
2395.6559152646
 20
721.401587464
 10
2395.9330254538
 20
721.0210922733
  0
ARC
  5
5C4
330
1F
100
AcDbEntity
  8
0
  6
Continuous
 62
     7
370
    25
100
AcDbCircle
 10
2386.53770938
 20
722.4943726247
 30
0.0
 40
2.340586788023022
100
AcDbArc
 50
320.9905069006
 51
327.6226575388
  0
ARC
  5
5C5
330
1F
100
AcDbEntity
  8
0
  6
Continuous
 62
     7
370
    25
100
AcDbCircle
 10
2389.7158956908
 20
722.2131921091
 30
0.0
 40
1.54553300771304
100
AcDbArc
 50
218.9786120619
 51
230.4725322909
  0
LINE
  5
5C6
330
1F
100
AcDbEntity
  8
0
  6
Continuous
 62
     7
370
    25
100
AcDbLine
 10
2388.4809972091
 20
721.8491006271
 30
0.0
 11
2388.2753120108
 21
721.8666556851
 31
0.0
  0
ARC
  5
5C7
330
1F
100
AcDbEntity
  8
0
  6
Continuous
 62
     7
370
    25
100
AcDbCircle
 10
2397.3785558347
 20
722.0332874963
 30
0.0
 40
8.899464832129505
100
AcDbArc
 50
181.1859009482
 51
185.1075672792
  0
LINE
  5
5C8
330
1F
100
AcDbEntity
  8
0
  6
Continuous
 62
     7
370
    25
100
AcDbLine
 10
2388.6957415684
 20
721.8666556851
 30
0.0
 11
2388.4809972091
 21
721.8491006271
 31
0.0
  0
LWPOLYLINE
  5
5C9
330
1F
100
AcDbEntity
  8
0
  6
Continuous
 62
     7
370
    25
100
AcDbPolyline
 90
        3
 70
   128
 43
0.0
 10
2380.120677252
 20
721.0210922733
 10
2379.9224605156
 20
720.7721922175
 10
2379.7079456343
 20
720.6856581942
  0
LWPOLYLINE
  5
5CA
330
1F
100
AcDbEntity
  8
0
  6
Continuous
 62
     7
370
    25
100
AcDbPolyline
 90
        9
 70
   128
 43
0.0
 10
2375.2476492269
 20
720.6856581942
 10
2375.3146150453
 20
720.707458593
 10
2375.3794920935
 20
720.7721922175
 10
2375.4402620091
 20
720.8778354899
 10
2375.4950342073
 20
721.0210922733
 10
2375.5421032502
 20
721.1975086108
 10
2375.5799983932
 20
721.401587464
 10
2375.6075409545
 20
721.6269764677
 10
2375.6238756074
 20
721.8666556851
  0
LINE
  5
5CB
330
1F
100
AcDbEntity
  8
0
  6
Continuous
 62
     7
370
    25
100
AcDbLine
 10
2375.6238756074
 20
721.8666556851
 30
0.0
 11
2380.4148626818
 21
721.8666556851
 31
0.0
  0
LWPOLYLINE
  5
5CC
330
1F
100
AcDbEntity
  8
0
  6
Continuous
 62
     7
370
    25
100
AcDbPolyline
 90
        3
 70
   128
 43
0.0
 10
2380.4148626818
 20
721.8666556851
 10
2380.288310845
 20
721.401587464
 10
2380.120677252
 20
721.0210922733
  0
ARC
  5
5CD
330
1F
100
AcDbEntity
  8
0
  6
Continuous
 62
     7
370
    25
100
AcDbCircle
 10
2379.4514169427
 20
722.2801016668
 30
0.0
 40
1.42583800428393
100
AcDbArc
 50
297.9940797642
 51
313.2172910585
  0
ARC
  5
5CE
330
1F
100
AcDbEntity
  8
0
  6
Continuous
 62
     7
370
    25
100
AcDbCircle
 10
2379.7755917861
 20
721.1607767144
 30
0.0
 40
0.657108121745393
100
AcDbArc
 50
347.7267317187
 51
7.0129183792
  0
ARC
  5
5CF
330
1F
100
AcDbEntity
  8
0
  6
Continuous
 62
     7
370
    25
100
AcDbCircle
 10
2378.723345735
 20
722.0684789142
 30
0.0
 40
1.894682613126642
100
AcDbArc
 50
334.1042672462
 51
353.3510203758
  0
LINE
  5
5D0
330
1F
100
AcDbEntity
  8
0
  6
Continuous
 62
     7
370
    25
100
AcDbLine
 10
2380.747133617
 20
721.8666556851
 30
0.0
 11
2380.6052876009
 21
721.8491006271
 31
0.0
  0
LINE
  5
5D1
330
1F
100
AcDbEntity
  8
0
  6
Continuous
 62
     7
370
    25
100
AcDbLine
 10
2380.6052876009
 20
721.8491006271
 30
0.0
 11
2380.4148626818
 21
721.8666556851
 31
0.0
  0
LINE
  5
5D2
330
1F
100
AcDbEntity
  8
0
  6
Continuous
 62
     7
370
    25
100
AcDbLine
 10
2374.1084819032
 20
720.7006994263
 30
0.0
 11
2373.911529903
 21
720.6856581942
 31
0.0
  0
LWPOLYLINE
  5
5D3
330
1F
100
AcDbEntity
  8
0
  6
Continuous
 62
     7
370
    25
100
AcDbPolyline
 90
        8
 70
   128
 43
0.0
 10
2375.2421261115
 20
721.8666556851
 10
2375.211423014
 20
721.8038308993
 10
2375.2305792017
 20
721.7858273164
 10
2375.2742477997
 20
721.7797774449
 10
2375.3401679291
 20
721.7859316245
 10
2375.4182608171
 20
721.802401878
 10
2375.5134106918
 20
721.8292925135
 10
2375.6238756074
 20
721.8666556851
  0
LWPOLYLINE
  5
5D4
330
1F
100
AcDbEntity
  8
0
  6
Continuous
 62
     7
370
    25
100
AcDbPolyline
 90
        3
 70
   128
 43
0.0
 10
2396.1674840493
 20
721.0210922733
 10
2395.9400975449
 20
721.401587464
 10
2395.7864047332
 20
721.8666556851
  0
LINE
  5
5D5
330
1F
100
AcDbEntity
  8
0
  6
Continuous
 62
     7
370
    25
100
AcDbLine
 10
2395.7864047332
 20
721.8666556851
 30
0.0
 11
2400.1320273919
 21
721.8666556851
 31
0.0
  0
LWPOLYLINE
  5
5D6
330
1F
100
AcDbEntity
  8
0
  6
Continuous
 62
     7
370
    25
100
AcDbPolyline
 90
        9
 70
   128
 43
0.0
 10
2400.1320273919
 20
721.8666556851
 10
2400.1613223298
 20
721.6269764677
 10
2400.2107330902
 20
721.401587464
 10
2400.278705482
 20
721.1975086108
 10
2400.3631272657
 20
721.0210922733
 10
2400.4613750918
 20
720.8778354899
 10
2400.5703823014
 20
720.7721922175
 10
2400.6867536648
 20
720.707458593
 10
2400.80686969
 20
720.6856581942
  0
LWPOLYLINE
  5
5D7
330
1F
100
AcDbEntity
  8
0
  6
Continuous
 62
     7
370
    25
100
AcDbPolyline
 90
        3
 70
   128
 43
0.0
 10
2396.7611954851
 20
720.6856581942
 10
2396.4497261985
 20
720.7721922175
 10
2396.1674840493
 20
721.0210922733
  0
ARC
  5
5D8
330
1F
100
AcDbEntity
  8
0
  6
Continuous
 62
     7
370
    25
100
AcDbCircle
 10
2396.3430079817
 20
721.3029880627
 30
0.0
 40
0.4975448815672156
100
AcDbArc
 50
187.1563651249
 51
214.5116356525
  0
ARC
  5
5D9
330
1F
100
AcDbEntity
  8
0
  6
Continuous
 62
     7
370
    25
100
AcDbCircle
 10
2396.7477408281
 20
722.2006266773
 30
0.0
 40
1.314533886744758
100
AcDbArc
 50
226.8871491224
 51
243.8057138088
  0
LINE
  5
5DA
330
1F
100
AcDbEntity
  8
0
  6
Continuous
 62
     7
370
    25
100
AcDbLine
 10
2395.6245602412
 20
721.8491006271
 30
0.0
 11
2395.5241010828
 21
721.8666556851
 31
0.0
  0
ARC
  5
5DB
330
1F
100
AcDbEntity
  8
0
  6
Continuous
 62
     7
370
    25
100
AcDbCircle
 10
2397.2112878613
 20
722.090032991
 30
0.0
 40
1.604915245175182
100
AcDbArc
 50
188.6339706115
 51
211.9390801209
  0
LINE
  5
5DC
330
1F
100
AcDbEntity
  8
0
  6
Continuous
 62
     7
370
    25
100
AcDbLine
 10
2395.7864047332
 20
721.8666556851
 30
0.0
 11
2395.6245602412
 21
721.8491006271
 31
0.0
  0
LWPOLYLINE
  5
5DD
330
1F
100
AcDbEntity
  8
0
  6
Continuous
 62
     7
370
    25
100
AcDbPolyline
 90
        9
 70
   128
 43
0.0
 10
2400.1320273919
 20
721.8666556851
 10
2400.233148907
 20
721.8286770955
 10
2400.3148117407
 20
721.8015465513
 10
2400.3753886862
 20
721.7851701752
 10
2400.4141808791
 20
721.7796522752
 10
2400.4316264136
 20
721.7851597444
 10
2400.4268178089
 20
721.8015361205
 10
2400.398164366
 20
721.8286666647
 10
2400.3448524816
 20
721.8666556851
  0
ARC
  5
5DE
330
1F
100
AcDbEntity
  8
0
  6
Continuous
 62
     7
370
    25
100
AcDbCircle
 10
2375.3788724242
 20
702.3769377734
 30
0.0
 40
9.461985523204946
100
AcDbArc
 50
162.096712413
 51
171.7377058078
  0
LWPOLYLINE
  5
5DF
330
1F
100
AcDbEntity
  8
0
  6
Continuous
 62
     7
370
    25
100
AcDbPolyline
 90
       11
 70
   128
 43
0.0
 10
2366.375066836
 20
705.2856582776
 10
2366.3750329359
 20
705.2855226771
 10
2366.3747825964
 20
705.2844170109
 10
2366.3740889473
 20
705.281287767
 10
2366.3714708133
 20
705.2693862096
 10
2366.3613190247
 20
705.2229899541
 10
2366.0642260058
 20
703.8787189499
 10
2365.7744475944
 20
702.6440653578
 10
2365.4969332112
 20
701.5921178833
 10
2365.0253092243
 20
700.2503502742
 10
2364.5238609357
 20
699.6856573597
  0
LINE
  5
5E0
330
1F
100
AcDbEntity
  8
0
  6
Continuous
 62
     7
370
    25
100
AcDbLine
 10
2366.375066836
 20
692.6856640354
 30
0.0
 11
2331.9367023489
 21
692.6856640354
 31
0.0
  0
LINE
  5
5E1
330
1F
100
AcDbEntity
  8
0
  6
Continuous
 62
     7
370
    25
100
AcDbLine
 10
2331.9367023489
 20
699.6856573597
 30
0.0
 11
2331.9367023489
 21
692.6856640354
 31
0.0
  0
LINE
  5
5E2
330
1F
100
AcDbEntity
  8
0
  6
Continuous
 62
     7
370
    25
100
AcDbLine
 10
2364.5238609357
 20
699.6856573597
 30
0.0
 11
2331.9367023489
 21
699.6856573597
 31
0.0
  0
LINE
  5
5E3
330
1F
100
AcDbEntity
  8
0
  6
Continuous
 62
     7
370
    25
100
AcDbLine
 10
2333.3271078604
 20
691.2856611982
 30
0.0
 11
2331.9367023489
 21
692.6856640354
 31
0.0
  0
LINE
  5
5E4
330
1F
100
AcDbEntity
  8
0
  6
Continuous
 62
     7
370
    25
100
AcDbLine
 10
2367.7654707177
 20
691.2856611982
 30
0.0
 11
2333.3271078604
 21
691.2856611982
 31
0.0
  0
ARC
  5
5E5
330
1F
100
AcDbEntity
  8
0
  6
Continuous
 62
     7
370
    25
100
AcDbCircle
 10
2372.8348029719
 20
721.9702429031
 30
0.0
 40
1.286815105127123
100
AcDbArc
 50
273.3739085809
 51
355.3827561237
  0
LINE
  5
5E6
330
1F
100
AcDbEntity
  8
0
  6
Continuous
 62
     7
370
    25
100
AcDbLine
 10
2333.3271078604
 20
701.0856601969
 30
0.0
 11
2331.9367023489
 21
699.6856573597
 31
0.0
  0
LINE
  5
5E7
330
1F
100
AcDbEntity
  8
0
  6
Continuous
 62
     7
370
    25
100
AcDbLine
 10
2333.3271078604
 20
701.0856601969
 30
0.0
 11
2365.318915744
 21
701.0856601969
 31
0.0
  0
LINE
  5
5E8
330
1F
100
AcDbEntity
  8
0
  6
Continuous
 62
     7
370
    25
100
AcDbLine
 10
2331.7792446656
 20
692.6856640354
 30
0.0
 11
2331.9367023489
 21
692.6856640354
 31
0.0
  0
LINE
  5
5E9
330
1F
100
AcDbEntity
  8
0
  6
Continuous
 62
     7
370
    25
100
AcDbLine
 10
2331.7792446656
 20
692.6856640354
 30
0.0
 11
2331.7792446656
 21
699.6856573597
 31
0.0
  0
LINE
  5
5EA
330
1F
100
AcDbEntity
  8
0
  6
Continuous
 62
     7
370
    25
100
AcDbLine
 10
2331.9367023489
 20
699.6856573597
 30
0.0
 11
2331.7792446656
 21
699.6856573597
 31
0.0
  0
LINE
  5
5EB
330
1F
100
AcDbEntity
  8
0
  6
Continuous
 62
     7
370
    25
100
AcDbLine
 10
2333.1727993047
 20
691.2856611982
 30
0.0
 11
2331.7792446656
 21
692.6856640354
 31
0.0
  0
LINE
  5
5EC
330
1F
100
AcDbEntity
  8
0
  6
Continuous
 62
     7
370
    25
100
AcDbLine
 10
2333.3271078604
 20
691.2856611982
 30
0.0
 11
2333.1727993047
 21
691.2856611982
 31
0.0
  0
LINE
  5
5ED
330
1F
100
AcDbEntity
  8
0
  6
Continuous
 62
     7
370
    25
100
AcDbLine
 10
2331.7792446656
 20
699.6856573597
 30
0.0
 11
2333.1727993047
 21
701.0856601969
 31
0.0
  0
LINE
  5
5EE
330
1F
100
AcDbEntity
  8
0
  6
Continuous
 62
     7
370
    25
100
AcDbLine
 10
2333.1727993047
 20
701.0856601969
 30
0.0
 11
2333.3271078604
 21
701.0856601969
 31
0.0
  0
LINE
  5
5EF
330
1F
100
AcDbEntity
  8
0
  6
Continuous
 62
     7
370
    25
100
AcDbLine
 10
2307.8456011905
 20
691.2856611982
 30
0.0
 11
2306.4520472033
 21
692.6856640354
 31
0.0
  0
LINE
  5
5F0
330
1F
100
AcDbEntity
  8
0
  6
Continuous
 62
     7
370
    25
100
AcDbLine
 10
2331.7792446656
 20
692.6856640354
 30
0.0
 11
2306.4520472033
 21
692.6856640354
 31
0.0
  0
LINE
  5
5F1
330
1F
100
AcDbEntity
  8
0
  6
Continuous
 62
     7
370
    25
100
AcDbLine
 10
2333.1727993047
 20
691.2856611982
 30
0.0
 11
2307.8456011905
 21
691.2856611982
 31
0.0
  0
LINE
  5
5F2
330
1F
100
AcDbEntity
  8
0
  6
Continuous
 62
     7
370
    25
100
AcDbLine
 10
2306.4520472033
 20
699.6856573597
 30
0.0
 11
2307.8456011905
 21
701.0856601969
 31
0.0
  0
LINE
  5
5F3
330
1F
100
AcDbEntity
  8
0
  6
Continuous
 62
     7
370
    25
100
AcDbLine
 10
2331.7792446656
 20
699.6856573597
 30
0.0
 11
2306.4520472033
 21
699.6856573597
 31
0.0
  0
LINE
  5
5F4
330
1F
100
AcDbEntity
  8
0
  6
Continuous
 62
     7
370
    25
100
AcDbLine
 10
2307.8456011905
 20
701.0856601969
 30
0.0
 11
2333.1727993047
 21
701.0856601969
 31
0.0
  0
LINE
  5
5F5
330
1F
100
AcDbEntity
  8
0
  6
Continuous
 62
     7
370
    25
100
AcDbLine
 10
2306.4520472033
 20
692.6856640354
 30
0.0
 11
2306.4520472033
 21
699.6856573597
 31
0.0
  0
LINE
  5
5F6
330
1F
100
AcDbEntity
  8
0
  6
Continuous
 62
     7
370
    25
100
AcDbLine
 10
2306.4520472033
 20
692.6856640354
 30
0.0
 11
2306.3811463608
 21
692.6856640354
 31
0.0
  0
LINE
  5
5F7
330
1F
100
AcDbEntity
  8
0
  6
Continuous
 62
     7
370
    25
100
AcDbLine
 10
2307.8456011905
 20
691.2856611982
 30
0.0
 11
2307.7811465903
 21
691.2856611982
 31
0.0
  0
LINE
  5
5F8
330
1F
100
AcDbEntity
  8
0
  6
Continuous
 62
     7
370
    25
100
AcDbLine
 10
2306.4520472033
 20
699.6856573597
 30
0.0
 11
2306.3811463608
 21
699.6856573597
 31
0.0
  0
LINE
  5
5F9
330
1F
100
AcDbEntity
  8
0
  6
Continuous
 62
     7
370
    25
100
AcDbLine
 10
2307.7811465903
 20
701.0856601969
 30
0.0
 11
2307.8456011905
 21
701.0856601969
 31
0.0
  0
LINE
  5
5FA
330
1F
100
AcDbEntity
  8
0
  6
Continuous
 62
     7
370
    25
100
AcDbLine
 10
2303.9311466111
 20
625.4856608436
 30
0.0
 11
2303.9311466111
 21
624.785659425
 31
0.0
  0
LINE
  5
5FB
330
1F
100
AcDbEntity
  8
0
  6
Continuous
 62
     7
370
    25
100
AcDbLine
 10
2303.9311466111
 20
625.4856608436
 30
0.0
 11
2341.7311456358
 21
625.4856608436
 31
0.0
  0
LINE
  5
5FC
330
1F
100
AcDbEntity
  8
0
  6
Continuous
 62
     7
370
    25
100
AcDbLine
 10
2341.7311456358
 20
624.785659425
 30
0.0
 11
2341.7311456358
 21
625.4856608436
 31
0.0
  0
LINE
  5
5FD
330
1F
100
AcDbEntity
  8
0
  6
Continuous
 62
     7
370
    25
100
AcDbLine
 10
2303.9311466111
 20
624.785659425
 30
0.0
 11
2341.7311456358
 21
624.785659425
 31
0.0
  0
LINE
  5
5FE
330
1F
100
AcDbEntity
  8
0
  6
Continuous
 62
     7
370
    25
100
AcDbLine
 10
2303.9311466111
 20
647.8856619075
 30
0.0
 11
2303.9311466111
 21
625.4856608436
 31
0.0
  0
LINE
  5
5FF
330
1F
100
AcDbEntity
  8
0
  6
Continuous
 62
     7
370
    25
100
AcDbLine
 10
2341.7311456358
 20
647.8856619075
 30
0.0
 11
2303.9311466111
 21
647.8856619075
 31
0.0
  0
LINE
  5
600
330
1F
100
AcDbEntity
  8
0
  6
Continuous
 62
     7
370
    25
100
AcDbLine
 10
2341.7311456358
 20
625.4856608436
 30
0.0
 11
2341.7311456358
 21
647.8856619075
 31
0.0
  0
LINE
  5
601
330
1F
100
AcDbEntity
  8
0
  6
Continuous
 62
     7
370
    25
100
AcDbLine
 10
2341.7311456358
 20
647.8856619075
 30
0.0
 11
2341.7311456358
 21
648.5856581107
 31
0.0
  0
LINE
  5
602
330
1F
100
AcDbEntity
  8
0
  6
Continuous
 62
     7
370
    25
100
AcDbLine
 10
2303.9311466111
 20
648.5856581107
 30
0.0
 11
2303.9311466111
 21
647.8856619075
 31
0.0
  0
LINE
  5
603
330
1F
100
AcDbEntity
  8
0
  6
Continuous
 62
     7
370
    25
100
AcDbLine
 10
2341.7311456358
 20
648.5856581107
 30
0.0
 11
2303.9311466111
 21
648.5856581107
 31
0.0
  0
LINE
  5
604
330
1F
100
AcDbEntity
  8
0
  6
Continuous
 62
     7
370
    25
100
AcDbLine
 10
2303.2311451925
 20
625.4856608436
 30
0.0
 11
2303.9311466111
 21
625.4856608436
 31
0.0
  0
ARC
  5
605
330
1F
100
AcDbEntity
  8
0
  6
Continuous
 62
     7
370
    25
100
AcDbCircle
 10
2303.9311458625
 20
625.485660095
 30
0.0
 40
0.7000006699580037
100
AcDbArc
 50
179.9999387236
 51
270.0000612764
  0
LINE
  5
606
330
1F
100
AcDbEntity
  8
0
  6
Continuous
 62
     7
370
    25
100
AcDbLine
 10
2303.9311466111
 20
647.8856619075
 30
0.0
 11
2303.2311451925
 21
647.8856619075
 31
0.0
  0
ARC
  5
607
330
1F
100
AcDbEntity
  8
0
  6
Continuous
 62
     7
370
    25
100
AcDbCircle
 10
2303.9311414109
 20
647.8856618924
 30
0.0
 40
0.6999962183558638
100
AcDbArc
 50
89.9995743527
 51
179.9999987597
  0
LINE
  5
608
330
1F
100
AcDbEntity
  8
0
  6
Continuous
 62
     7
370
    25
100
AcDbLine
 10
2342.4311457506
 20
647.8856619075
 30
0.0
 11
2341.7311456358
 21
647.8856619075
 31
0.0
  0
LINE
  5
609
330
1F
100
AcDbEntity
  8
0
  6
Continuous
 62
     7
370
    25
100
AcDbLine
 10
2342.4311457506
 20
625.4856608436
 30
0.0
 11
2342.4311457506
 21
647.8856619075
 31
0.0
  0
LINE
  5
60A
330
1F
100
AcDbEntity
  8
0
  6
Continuous
 62
     7
370
    25
100
AcDbLine
 10
2341.7311456358
 20
625.4856608436
 30
0.0
 11
2342.4311457506
 21
625.4856608436
 31
0.0
  0
LINE
  5
60B
330
1F
100
AcDbEntity
  8
0
  6
Continuous
 62
     7
370
    25
100
AcDbLine
 10
2303.2311451925
 20
647.8856619075
 30
0.0
 11
2303.2311451925
 21
625.4856608436
 31
0.0
  0
ARC
  5
60C
330
1F
100
AcDbEntity
  8
0
  6
Continuous
 62
     7
370
    25
100
AcDbCircle
 10
2341.7311450806
 20
625.485660095
 30
0.0
 40
0.7000006699581174
100
AcDbArc
 50
270.0000454452
 51
0.0000612764
  0
ARC
  5
60D
330
1F
100
AcDbEntity
  8
0
  6
Continuous
 62
     7
370
    25
100
AcDbCircle
 10
2341.7311495322
 20
647.8856618924
 30
0.0
 40
0.6999962183417666
100
AcDbArc
 50
0.0000012398
 51
90.0003189262
  0
LINE
  5
60E
330
1F
100
AcDbEntity
  8
0
  6
Continuous
 62
     7
370
    25
100
AcDbLine
 10
2387.2311459227
 20
859.9856588617
 30
0.0
 11
2387.2311459227
 21
858.5856560246
 31
0.0
  0
LINE
  5
60F
330
1F
100
AcDbEntity
  8
0
  6
Continuous
 62
     7
370
    25
100
AcDbLine
 10
2304.631145422
 20
859.9856588617
 30
0.0
 11
2387.2311459227
 21
859.9856588617
 31
0.0
  0
LINE
  5
610
330
1F
100
AcDbEntity
  8
0
  6
Continuous
 62
     7
370
    25
100
AcDbLine
 10
2304.631145422
 20
858.5856560246
 30
0.0
 11
2304.631145422
 21
859.9856588617
 31
0.0
  0
LINE
  5
611
330
1F
100
AcDbEntity
  8
0
  6
Continuous
 62
     7
370
    25
100
AcDbLine
 10
2387.2311459227
 20
859.9856588617
 30
0.0
 11
2419.4311433776
 21
859.9856588617
 31
0.0
  0
LINE
  5
612
330
1F
100
AcDbEntity
  8
0
  6
Continuous
 62
     7
370
    25
100
AcDbLine
 10
2383.031147842
 20
725.5856576935
 30
0.0
 11
2383.031147842
 21
724.1856548563
 31
0.0
  0
LINE
  5
613
330
1F
100
AcDbEntity
  8
0
  6
Continuous
 62
     7
370
    25
100
AcDbLine
 10
2383.031147842
 20
724.1856548563
 30
0.0
 11
2304.631145422
 21
724.1856548563
 31
0.0
  0
LINE
  5
614
330
1F
100
AcDbEntity
  8
0
  6
Continuous
 62
     7
370
    25
100
AcDbLine
 10
2304.631145422
 20
724.1856548563
 30
0.0
 11
2304.631145422
 21
725.5856576935
 31
0.0
  0
LINE
  5
615
330
1F
100
AcDbEntity
  8
0
  6
Continuous
 62
     7
370
    25
100
AcDbLine
 10
2464.2311507209
 20
732.5856614486
 30
0.0
 11
2464.2311507209
 21
851.5856627003
 31
0.0
  0
LINE
  5
616
330
1F
100
AcDbEntity
  8
0
  6
Continuous
 62
     7
370
    25
100
AcDbLine
 10
2303.2311451925
 20
732.5856614486
 30
0.0
 11
2464.2311507209
 21
732.5856614486
 31
0.0
  0
LINE
  5
617
330
1F
100
AcDbEntity
  8
0
  6
Continuous
 62
     7
370
    25
100
AcDbLine
 10
2303.2311451925
 20
851.5856627003
 30
0.0
 11
2303.2311451925
 21
732.5856614486
 31
0.0
  0
LINE
  5
618
330
1F
100
AcDbEntity
  8
0
  6
Continuous
 62
     7
370
    25
100
AcDbLine
 10
2464.2311507209
 20
851.5856627003
 30
0.0
 11
2303.2311451925
 21
851.5856627003
 31
0.0
  0
LINE
  5
619
330
1F
100
AcDbEntity
  8
0
  6
Continuous
 62
     7
370
    25
100
AcDbLine
 10
2320.0311453386
 20
833.3856675402
 30
0.0
 11
2320.0311453386
 21
750.7856566087
 31
0.0
  0
ARC
  5
61A
330
1F
100
AcDbEntity
  8
0
  6
Continuous
 62
     7
370
    25
100
AcDbCircle
 10
2324.2311560358
 20
750.7856692252
 30
0.0
 40
4.200010697228513
100
AcDbArc
 50
180.0001721118
 51
269.9998634621
  0
LINE
  5
61B
330
1F
100
AcDbEntity
  8
0
  6
Continuous
 62
     7
370
    25
100
AcDbLine
 10
2324.231146027
 20
746.585658528
 30
0.0
 11
2444.6311422928
 21
746.585658528
 31
0.0
  0
ARC
  5
61C
330
1F
100
AcDbEntity
  8
0
  6
Continuous
 62
     7
370
    25
100
AcDbCircle
 10
2444.631128978
 20
750.7856803543
 30
0.0
 40
4.200021826402285
100
AcDbArc
 50
270.0001816375
 51
359.999676067
  0
LINE
  5
61D
330
1F
100
AcDbEntity
  8
0
  6
Continuous
 62
     7
370
    25
100
AcDbLine
 10
2448.8311508043
 20
750.7856566087
 30
0.0
 11
2448.8311508043
 21
833.3856675402
 31
0.0
  0
ARC
  5
61E
330
1F
100
AcDbEntity
  8
0
  6
Continuous
 62
     7
370
    25
100
AcDbCircle
 10
2444.6311467846
 20
833.3856511703
 30
0.0
 40
4.200004019782924
100
AcDbArc
 50
0.000223315
 51
90.0000612763
  0
LINE
  5
61F
330
1F
100
AcDbEntity
  8
0
  6
Continuous
 62
     7
370
    25
100
AcDbLine
 10
2444.6311422928
 20
837.5856551901
 30
0.0
 11
2324.231146027
 21
837.5856551901
 31
0.0
  0
ARC
  5
620
330
1F
100
AcDbEntity
  8
0
  6
Continuous
 62
     7
370
    25
100
AcDbCircle
 10
2324.2311382292
 20
833.3856622994
 30
0.0
 40
4.199992890686277
100
AcDbArc
 50
89.9998936241
 51
179.9999285062
  0
LINE
  5
621
330
1F
100
AcDbEntity
  8
0
  6
Continuous
 62
     7
370
    25
100
AcDbLine
 10
2303.2311451925
 20
728.3856633679
 30
0.0
 11
2308.1311446919
 21
728.3856633679
 31
0.0
  0
LINE
  5
622
330
1F
100
AcDbEntity
  8
0
  6
Continuous
 62
     7
370
    25
100
AcDbLine
 10
2303.2311451925
 20
728.3856633679
 30
0.0
 11
2303.2311451925
 21
732.5856614486
 31
0.0
  0
LINE
  5
623
330
1F
100
AcDbEntity
  8
0
  6
Continuous
 62
     7
370
    25
100
AcDbLine
 10
2464.2311507209
 20
728.3856633679
 30
0.0
 11
2464.2311507209
 21
732.5856614486
 31
0.0
  0
LINE
  5
624
330
1F
100
AcDbEntity
  8
0
  6
Continuous
 62
     7
370
    25
100
AcDbLine
 10
2315.1311458392
 20
728.3856633679
 30
0.0
 11
2464.2311507209
 21
728.3856633679
 31
0.0
  0
ARC
  5
625
330
1F
100
AcDbEntity
  8
0
  6
Continuous
 62
     7
370
    25
100
AcDbCircle
 10
2311.6311452655
 20
726.5189762892
 30
0.0
 40
3.966676778562436
100
AcDbArc
 50
28.0727431864
 51
151.9272568136
  0
LINE
  5
626
330
1F
100
AcDbEntity
  8
0
  6
Continuous
 62
     7
370
    25
100
AcDbLine
 10
2464.2311507209
 20
855.7856503502
 30
0.0
 11
2315.1311458392
 21
855.7856503502
 31
0.0
  0
LINE
  5
627
330
1F
100
AcDbEntity
  8
0
  6
Continuous
 62
     7
370
    25
100
AcDbLine
 10
2464.2311507209
 20
851.5856627003
 30
0.0
 11
2464.2311507209
 21
855.7856503502
 31
0.0
  0
LINE
  5
628
330
1F
100
AcDbEntity
  8
0
  6
Continuous
 62
     7
370
    25
100
AcDbLine
 10
2303.2311451925
 20
851.5856627003
 30
0.0
 11
2303.2311451925
 21
855.7856503502
 31
0.0
  0
LINE
  5
629
330
1F
100
AcDbEntity
  8
0
  6
Continuous
 62
     7
370
    25
100
AcDbLine
 10
2308.1311446919
 20
855.7856503502
 30
0.0
 11
2303.2311451925
 21
855.7856503502
 31
0.0
  0
ARC
  5
62A
330
1F
100
AcDbEntity
  8
0
  6
Continuous
 62
     7
370
    25
100
AcDbCircle
 10
2311.6311452655
 20
857.6523584669
 30
0.0
 40
3.966686678927876
100
AcDbArc
 50
208.0730113135
 51
331.9269886865
  0
LINE
  5
62B
330
1F
100
AcDbEntity
  8
0
  6
Continuous
 62
     7
370
    25
100
AcDbLine
 10
2468.4311488016
 20
732.5856614486
 30
0.0
 11
2468.4311488016
 21
851.5856627003
 31
0.0
  0
LINE
  5
62C
330
1F
100
AcDbEntity
  8
0
  6
Continuous
 62
     7
370
    25
100
AcDbLine
 10
2464.2311507209
 20
732.5856614486
 30
0.0
 11
2468.4311488016
 21
732.5856614486
 31
0.0
  0
LINE
  5
62D
330
1F
100
AcDbEntity
  8
0
  6
Continuous
 62
     7
370
    25
100
AcDbLine
 10
2468.4311488016
 20
851.5856627003
 30
0.0
 11
2464.2311507209
 21
851.5856627003
 31
0.0
  0
ARC
  5
62E
330
1F
100
AcDbEntity
  8
0
  6
Continuous
 62
     7
370
    25
100
AcDbCircle
 10
2464.2311447819
 20
732.5856673876
 30
0.0
 40
4.200004019738678
100
AcDbArc
 50
270.0000810189
 51
359.9999189811
  0
ARC
  5
62F
330
1F
100
AcDbEntity
  8
0
  6
Continuous
 62
     7
370
    25
100
AcDbCircle
 10
2464.2311447818
 20
851.5856463304
 30
0.0
 40
4.200004019785972
100
AcDbArc
 50
0.0002233151
 51
89.9999189808
  0
LINE
  5
630
330
1F
100
AcDbEntity
  8
0
  6
Continuous
 62
     7
370
    25
100
AcDbLine
 10
2303.2311451925
 20
858.5856560246
 30
0.0
 11
2464.2311507209
 21
858.5856560246
 31
0.0
  0
ARC
  5
631
330
1F
100
AcDbEntity
  8
0
  6
Continuous
 62
     7
370
    25
100
AcDbCircle
 10
2464.2311729585
 20
851.5856849379
 30
0.0
 40
6.999971086655103
100
AcDbArc
 50
359.9998179815
 51
90.0001820185
  0
LINE
  5
632
330
1F
100
AcDbEntity
  8
0
  6
Continuous
 62
     7
370
    25
100
AcDbLine
 10
2471.2311440451
 20
851.5856627003
 30
0.0
 11
2471.2311440451
 21
732.5856614486
 31
0.0
  0
ARC
  5
633
330
1F
100
AcDbEntity
  8
0
  6
Continuous
 62
     7
370
    25
100
AcDbCircle
 10
2464.2311373456
 20
732.5856643931
 30
0.0
 40
7.000006699580172
100
AcDbArc
 50
270.0001094782
 51
359.9999758992
  0
LINE
  5
634
330
1F
100
AcDbEntity
  8
0
  6
Continuous
 62
     7
370
    25
100
AcDbLine
 10
2464.2311507209
 20
725.5856576935
 30
0.0
 11
2303.2311451925
 21
725.5856576935
 31
0.0
  0
LINE
  5
635
330
1F
100
AcDbEntity
  8
0
  6
Continuous
 62
     7
370
    25
100
AcDbLine
 10
2303.2311451925
 20
855.7856503502
 30
0.0
 11
2303.2311451925
 21
858.5856560246
 31
0.0
  0
LINE
  5
636
330
1F
100
AcDbEntity
  8
0
  6
Continuous
 62
     7
370
    25
100
AcDbLine
 10
2303.2311451925
 20
725.5856576935
 30
0.0
 11
2303.2311451925
 21
728.3856633679
 31
0.0
  0
LINE
  5
637
330
1F
100
AcDbEntity
  8
0
  6
Continuous
 62
     7
370
    25
100
AcDbLine
 10
2366.2311450882
 20
705.2856582776
 30
0.0
 11
2366.375066836
 21
705.2856582776
 31
0.0
  0
LINE
  5
638
330
1F
100
AcDbEntity
  8
0
  6
Continuous
 62
     7
370
    25
100
AcDbLine
 10
2384.006517504
 20
723.1272402779
 30
0.0
 11
2383.9296945675
 21
721.8666556851
 31
0.0
  0
LINE
  5
639
330
1F
100
AcDbEntity
  8
0
  6
Continuous
 62
     7
370
    25
100
AcDbLine
 10
2383.176991467
 20
721.8666556851
 30
0.0
 11
2383.253819619
 21
723.1272402779
 31
0.0
  0
LINE
  5
63A
330
1F
100
AcDbEntity
  8
0
  6
Continuous
 62
     7
370
    25
100
AcDbLine
 10
2380.8810391767
 20
723.1272402779
 30
0.0
 11
2380.747133617
 21
721.8666556851
 31
0.0
  0
LINE
  5
63B
330
1F
100
AcDbEntity
  8
0
  6
Continuous
 62
     7
370
    25
100
AcDbLine
 10
2388.2753120108
 20
721.8666556851
 30
0.0
 11
2388.2500537975
 21
723.1272402779
 31
0.0
  0
LINE
  5
63C
330
1F
100
AcDbEntity
  8
0
  6
Continuous
 62
     7
370
    25
100
AcDbLine
 10
2393.4867234273
 20
721.8666556851
 30
0.0
 11
2393.348921959
 21
723.1272402779
 31
0.0
  0
LINE
  5
63D
330
1F
100
AcDbEntity
  8
0
  6
Continuous
 62
     7
370
    25
100
AcDbLine
 10
2388.6704833551
 20
723.1272402779
 30
0.0
 11
2388.6957415684
 21
721.8666556851
 31
0.0
  0
LINE
  5
63E
330
1F
100
AcDbEntity
  8
0
  6
Continuous
 62
     7
370
    25
100
AcDbLine
 10
2394.0316551669
 20
723.1272402779
 30
0.0
 11
2394.1694566353
 21
721.8666556851
 31
0.0
  0
LINE
  5
63F
330
1F
100
AcDbEntity
  8
0
  6
Continuous
 62
     7
370
    25
100
AcDbLine
 10
2395.5241010828
 20
721.8666556851
 30
0.0
 11
2395.3544804199
 21
723.1272402779
 31
0.0
  0
LINE
  5
640
330
1F
100
AcDbEntity
  8
0
  6
Continuous
 62
     7
370
    25
100
AcDbLine
 10
2380.4148626818
 20
721.8666556851
 30
0.0
 11
2380.5487656338
 21
723.1272402779
 31
0.0
  0
LINE
  5
641
330
1F
100
AcDbEntity
  8
0
  6
Continuous
 62
     7
370
    25
100
AcDbLine
 10
2375.8703244223
 20
723.1272402779
 30
0.0
 11
2375.6238756074
 21
721.8666556851
 31
0.0
  0
LINE
  5
642
330
1F
100
AcDbEntity
  8
0
  6
Continuous
 62
     7
370
    25
100
AcDbLine
 10
2395.6167840703
 20
723.1272402779
 30
0.0
 11
2395.7864047332
 21
721.8666556851
 31
0.0
  0
LINE
  5
643
330
1F
100
AcDbEntity
  8
0
  6
Continuous
 62
     7
370
    25
100
AcDbLine
 10
2400.1320273919
 20
721.8666556851
 30
0.0
 11
2399.8603203638
 21
723.1272402779
 31
0.0
  0
LINE
  5
644
330
1F
100
AcDbEntity
  8
0
  6
Continuous
 62
     7
370
    25
100
AcDbLine
 10
2374.1174419714
 20
721.8666556851
 30
0.0
 11
2375.2208915843
 21
721.8666556851
 31
0.0
  0
LINE
  5
645
330
1F
100
AcDbEntity
  8
0
  6
Continuous
 62
     7
370
    25
100
AcDbLine
 10
2374.3891463919
 20
723.1272402779
 30
0.0
 11
2374.1174419714
 21
721.8666556851
 31
0.0
  0
LWPOLYLINE
  5
646
330
1F
100
AcDbEntity
  8
0
  6
Continuous
 62
     7
370
    25
100
AcDbPolyline
 90
        3
 70
   128
 43
0.0
 10
2374.0327385558
 20
721.7920232192
 10
2374.0375732376
 20
721.8038100377
 10
2374.1174419714
 20
721.8666556851
  0
LINE
  5
647
330
1F
100
AcDbEntity
  8
FORMAT
370
    25
100
AcDbLine
 10
2303.2311457138
 20
752.1856598631
 30
0.0
 11
2307.4311457138
 21
752.1856598631
 31
0.0
  0
LINE
  5
648
330
1F
100
AcDbEntity
  8
FORMAT
370
    25
100
AcDbLine
 10
2307.4311457138
 20
761.9856598631
 30
0.0
 11
2303.2311457138
 21
761.9856598631
 31
0.0
  0
LINE
  5
649
330
1F
100
AcDbEntity
  8
FORMAT
370
    25
100
AcDbLine
 10
2303.2311457138
 20
764.0856598631
 30
0.0
 11
2307.4311457138
 21
764.0856598631
 31
0.0
  0
LINE
  5
64A
330
1F
100
AcDbEntity
  8
FORMAT
370
    25
100
AcDbLine
 10
2307.4311457138
 20
778.0856598631
 30
0.0
 11
2303.2311457138
 21
778.0856598631
 31
0.0
  0
LINE
  5
64B
330
1F
100
AcDbEntity
  8
FORMAT
370
    25
100
AcDbLine
 10
2303.2311457138
 20
780.1856598631
 30
0.0
 11
2307.4311457138
 21
780.1856598631
 31
0.0
  0
LINE
  5
64C
330
1F
100
AcDbEntity
  8
FORMAT
370
    25
100
AcDbLine
 10
2307.4311457138
 20
789.9856598631
 30
0.0
 11
2303.2311457138
 21
789.9856598631
 31
0.0
  0
LINE
  5
64D
330
1F
100
AcDbEntity
  8
FORMAT
370
    25
100
AcDbLine
 10
2303.2311457138
 20
794.1856598631
 30
0.0
 11
2307.4311457138
 21
794.1856598631
 31
0.0
  0
LINE
  5
64E
330
1F
100
AcDbEntity
  8
FORMAT
370
    25
100
AcDbLine
 10
2307.4311457138
 20
803.9856598631
 30
0.0
 11
2303.2311457138
 21
803.9856598631
 31
0.0
  0
LINE
  5
64F
330
1F
100
AcDbEntity
  8
FORMAT
370
    25
100
AcDbLine
 10
2303.2311457138
 20
806.0856598631
 30
0.0
 11
2307.4311457138
 21
806.0856598631
 31
0.0
  0
LINE
  5
650
330
1F
100
AcDbEntity
  8
FORMAT
370
    25
100
AcDbLine
 10
2307.4311457138
 20
820.0856598631
 30
0.0
 11
2303.2311457138
 21
820.0856598631
 31
0.0
  0
LINE
  5
651
330
1F
100
AcDbEntity
  8
FORMAT
370
    25
100
AcDbLine
 10
2303.2311457138
 20
822.1856598631
 30
0.0
 11
2307.4311457138
 21
822.1856598631
 31
0.0
  0
LINE
  5
652
330
1F
100
AcDbEntity
  8
FORMAT
370
    25
100
AcDbLine
 10
2307.4311457138
 20
831.9856598631
 30
0.0
 11
2303.2311457138
 21
831.9856598631
 31
0.0
  0
LINE
  5
653
330
1F
100
AcDbEntity
  8
FORMAT
  6
CENTERX2
370
    25
100
AcDbLine
 10
2292.0716180315
 20
839.5114461287
 30
0.0
 11
2317.269359499
 21
839.5114461287
 31
0.0
  0
LINE
  5
654
330
1F
100
AcDbEntity
  8
FORMAT
  6
CENTERX2
370
    25
100
AcDbLine
 10
2292.0716180315
 20
839.5114461287
 30
0.0
 11
2292.0716180315
 21
745.7650101312
 31
0.0
  0
LINE
  5
655
330
1F
100
AcDbEntity
  8
FORMAT
  6
CENTERX2
370
    25
100
AcDbLine
 10
2292.0716180315
 20
745.7650101312
 30
0.0
 11
2317.269359499
 21
745.7650101312
 31
0.0
  0
LINE
  5
656
330
1F
100
AcDbEntity
  8
FORMAT
  6
CENTERX2
370
    25
100
AcDbLine
 10
2317.269359499
 20
839.5114461287
 30
0.0
 11
2317.269359499
 21
745.7650101312
 31
0.0
  0
ARC
  5
657
330
1F
100
AcDbEntity
  8
FORMAT
370
    25
100
AcDbCircle
 10
2307.4311457138
 20
757.0856598631
 30
0.0
 40
4.900000000013279
100
AcDbArc
 50
270.0
 51
90.0
  0
ARC
  5
658
330
1F
100
AcDbEntity
  8
FORMAT
370
    25
100
AcDbCircle
 10
2307.4311457138
 20
771.0856598631
 30
0.0
 40
6.999999999999886
100
AcDbArc
 50
270.0
 51
90.0
  0
ARC
  5
659
330
1F
100
AcDbEntity
  8
FORMAT
370
    25
100
AcDbCircle
 10
2307.4311457138
 20
785.0856598631
 30
0.0
 40
4.899999999999864
100
AcDbArc
 50
270.0
 51
90.0
  0
ARC
  5
65A
330
1F
100
AcDbEntity
  8
FORMAT
370
    25
100
AcDbCircle
 10
2307.4311457138
 20
799.0856598631
 30
0.0
 40
4.900000000000091
100
AcDbArc
 50
270.0
 51
90.0
  0
ARC
  5
65B
330
1F
100
AcDbEntity
  8
FORMAT
370
    25
100
AcDbCircle
 10
2307.4311457138
 20
813.0856598631
 30
0.0
 40
7.000000000000114
100
AcDbArc
 50
270.0
 51
90.0
  0
ARC
  5
65C
330
1F
100
AcDbEntity
  8
FORMAT
370
    25
100
AcDbCircle
 10
2307.4311457138
 20
827.0856598631
 30
0.0
 40
4.900000000000432
100
AcDbArc
 50
270.0
 51
90.0
  0
DIMENSION
  5
65D
330
1F
100
AcDbEntity
  8
FORMAT
100
AcDbDimension
  2
_D_26
 10
2342.4311457111
 20
523.6679516926
 30
0.0
 11
2402.780440998
 21
523.6679516926
 31
0.0
 70
   160
  1
(<>)
 71
     2
 42
-1.0
  3
SLDDIMSTYLE5
100
AcDbAlignedDimension
 13
2303.2311457143
 23
554.1587117687
 33
0.0
 14
2342.4311457111
 24
625.4856598779
 34
0.0
100
AcDbRotatedDimension
  0
DIMENSION
  5
66C
330
1F
100
AcDbEntity
  8
FORMAT
100
AcDbDimension
  2
_D_27
 10
2527.3687777082
 20
648.5856598779
 30
0.0
 11
2527.3687777082
 21
542.6992438285
 31
0.0
 70
   160
  1
(<>)
 71
     2
 42
-1.0
  3
SLDDIMSTYLE5
100
AcDbAlignedDimension
 13
2341.7311457111
 23
624.7856598779
 33
0.0
 14
2341.7311457111
 24
648.5856598779
 34
0.0
 50
90.0
100
AcDbRotatedDimension
  0
DIMENSION
  5
67A
330
1F
100
AcDbEntity
  8
FORMAT
100
AcDbDimension
  2
_D_28
 10
2583.2311440451
 20
691.2856598633
 30
0.0
 11
2583.2311440451
 21
645.0289866531
 31
0.0
 70
   160
  1
<>*
 71
     2
 42
-1.0
  3
SLDDIMSTYLE6
100
AcDbAlignedDimension
 13
2303.2311457143
 23
685.6856598631
 33
0.0
 14
2367.7654717098
 24
691.2856598633
 34
0.0
 50
90.0
100
AcDbRotatedDimension
  0
DIMENSION
  5
688
330
1F
100
AcDbEntity
  8
FORMAT
100
AcDbDimension
  2
_D_29
 10
2625.231145714
 20
725.5856598631
 30
0.0
 11
2625.231145714
 21
793.431424859
 31
0.0
 70
   160
  1
<>
 71
     2
 42
-1.0
  3
SLDDIMSTYLE5
100
AcDbAlignedDimension
 13
2406.8311457138
 23
691.2856598633
 33
0.0
 14
2464.2311457138
 24
725.5856598631
 34
0.0
 50
90.0
100
AcDbRotatedDimension
  0
DIMENSION
  5
696
330
1F
100
AcDbEntity
  8
FORMAT
100
AcDbDimension
  2
_D_30
 10
2127.3334743905
 20
685.6856598631
 30
0.0
 11
2127.3334743905
 21
586.6580669081
 31
0.0
 70
   160
  1
<>
 71
     2
 42
-1.0
  3
SLDDIMSTYLE7
100
AcDbAlignedDimension
 13
2303.9311457111
 23
648.5856598779
 33
0.0
 14
2247.2311457143
 24
685.6856598631
 34
0.0
 50
90.0
100
AcDbRotatedDimension
  0
DIMENSION
  5
6A4
330
1F
100
AcDbEntity
  8
FORMAT
100
AcDbDimension
  2
_D_31
 10
2127.3334743904
 20
725.5856598631
 30
0.0
 11
2127.3334743904
 21
796.3837179935
 31
0.0
 70
   160
  1
<>
 71
     2
 42
-1.0
  3
SLDDIMSTYLE8
100
AcDbAlignedDimension
 13
2247.2311457143
 23
685.6856598631
 33
0.0
 14
2303.2311457138
 24
725.5856598631
 34
0.0
 50
90.0
100
AcDbRotatedDimension
  0
DIMENSION
  5
6B2
330
1F
100
AcDbEntity
  8
FORMAT
100
AcDbDimension
  2
_D_32
 10
2178.1601975668
 20
725.5856598631
 30
0.0
 11
2178.1601975668
 21
789.2090216294
 31
0.0
 70
   160
  1
<>
 71
     2
 42
-1.0
  3
SLDDIMSTYLE5
100
AcDbAlignedDimension
 13
2333.3271078608
 23
701.0856598632
 33
0.0
 14
2303.2311457138
 24
725.5856598631
 34
0.0
 50
90.0
100
AcDbRotatedDimension
  0
MTEXT
  5
6BE
330
1F
100
AcDbEntity
  8
FORMAT
100
AcDbMText
 10
2339.2894985951
 20
1047.8632199173
 30
0.0
 40
35.0
 41
0.0
 71
     2
 72
     1
  1
B (1 : 5)
  7
SLDTEXTSTYLE0
 73
     1
 44
1.0
  0
MTEXT
  5
6BF
330
1F
100
AcDbEntity
  8
FORMAT
100
AcDbMText
 10
2548.1474376738
 20
943.0770771566
 30
0.0
 40
18.5208333333
 41
0.0
 71
     1
 72
     1
  1
AV 12
  7
SLDTEXTSTYLE0
 73
     1
 44
1.0
  0
LEADER
  5
6C0
330
1F
100
AcDbEntity
  8
FORMAT
100
AcDbLeader
  3
SLDDIMSTYLE3
 76
     3
 10
2403.3984829812
 20
723.1272375065
 30
0.0
 10
2500.0382648785
 20
933.780334519
 30
0.0
 10
2544.4882648785
 20
933.780334519
 30
0.0
  0
MTEXT
  5
6C1
330
1F
100
AcDbEntity
  8
FORMAT
100
AcDbMText
 10
2086.3650855446
 20
510.7586871573
 30
0.0
 40
18.5208333333
 41
0.0
 71
     1
 72
     1
  1
GB 46
  7
SLDTEXTSTYLE0
 73
     1
 44
1.0
  0
LEADER
  5
6C3
330
1F
100
AcDbEntity
  8
FORMAT
100
AcDbLeader
  3
SLDDIMSTYLE9
 76
     3
 10
2322.4577344859
 20
666.301122924
 30
0.0
 10
2204.1288299108
 20
501.9278617612
 30
0.0
 10
2159.6788299108
 20
501.9278617612
 30
0.0
  0
MTEXT
  5
6C4
330
1F
100
AcDbEntity
  8
FORMAT
100
AcDbMText
 10
1774.401619461
 20
890.732728399
 30
0.0
 40
18.5208333333
 41
0.0
 71
     1
 72
     1
  1
aufliegende Kabelzuführung (optional)
  7
SLDTEXTSTYLE0
 73
     1
 44
1.0
  0
LEADER
  5
6C5
330
1F
100
AcDbEntity
  8
FORMAT
100
AcDbLeader
  3
SLDDIMSTYLE3
 76
     3
 10
2292.0716180315
 20
820.8163475228
 30
0.0
 10
2239.0686297982
 20
881.5590436556
 30
0.0
 10
2194.6186297982
 20
881.5590436556
 30
0.0
  0
MTEXT
  5
6C6
330
1F
100
AcDbEntity
  8
FORMAT
100
AcDbMText
 10
2208.5968573242
 20
473.1480779571
 30
0.0
 40
18.5208333333
 41
0.0
 71
     1
 72
     1
  1
* Abstand Unterkante Hebel zu Oberkante Türflügel
  7
SLDTEXTSTYLE0
 73
     1
 44
1.0
  0
CIRCLE
  5
6C7
330
1F
100
AcDbEntity
  8
0
  6
Continuous
 62
     7
370
    18
100
AcDbCircle
 10
1820.6728873532
 20
255.3764408734
 30
0.0
 40
77.02814749190554
  0
ARC
  5
6C8
330
1F
100
AcDbEntity
  8
0
  6
Continuous
 62
     7
370
    25
100
AcDbCircle
 10
1832.7138831026
 20
306.9457939315
 30
0.0
 40
4.20000397967895
100
AcDbArc
 50
9.5938716623
 51
170.4061283377
  0
ARC
  5
6C9
330
1F
100
AcDbEntity
  8
0
  6
Continuous
 62
     7
370
    25
100
AcDbCircle
 10
1810.3138794309
 20
306.9458016561
 30
0.0
 40
4.54999174894965
100
AcDbArc
 50
8.8496282222
 51
171.1503717778
  0
ARC
  5
6CA
330
1F
100
AcDbEntity
  8
0
  6
Continuous
 62
     7
370
    25
100
AcDbCircle
 10
1810.3138794309
 20
200.5457927501
 30
0.0
 40
4.549993645416309
100
AcDbArc
 50
8.8497816055
 51
171.1502183945
  0
ARC
  5
6CB
330
1F
100
AcDbEntity
  8
0
  6
Continuous
 62
     7
370
    25
100
AcDbCircle
 10
1832.7138831026
 20
200.5457848358
 30
0.0
 40
4.200006065812468
100
AcDbArc
 50
9.5940400282
 51
170.4059599718
  0
ARC
  5
6CC
330
1F
100
AcDbEntity
  8
0
  6
Continuous
 62
     7
370
    25
100
AcDbCircle
 10
1810.3138794309
 20
306.945777143
 30
0.0
 40
4.549991748949667
100
AcDbArc
 50
188.8496282222
 51
351.1503717778
  0
ARC
  5
6CD
330
1F
100
AcDbEntity
  8
0
  6
Continuous
 62
     7
370
    25
100
AcDbCircle
 10
1832.7138831026
 20
306.9457848677
 30
0.0
 40
4.200003979678979
100
AcDbArc
 50
189.5938716623
 51
350.4061283377
  0
ARC
  5
6CE
330
1F
100
AcDbEntity
  8
0
  6
Continuous
 62
     7
370
    25
100
AcDbCircle
 10
1810.3138794309
 20
200.5457824608
 30
0.0
 40
4.549993645416326
100
AcDbArc
 50
188.8497816055
 51
351.1502183945
  0
ARC
  5
6CF
330
1F
100
AcDbEntity
  8
0
  6
Continuous
 62
     7
370
    25
100
AcDbCircle
 10
1832.7138831026
 20
200.5457903751
 30
0.0
 40
4.200006065812492
100
AcDbArc
 50
189.5940400282
 51
350.4059599718
  0
LINE
  5
6D0
330
1F
100
AcDbEntity
  8
0
  6
Continuous
 62
     7
370
    25
100
AcDbLine
 10
1866.2905861742
 20
317.445779386
 30
0.0
 11
1775.0551660663
 21
317.445779386
 31
0.0
  0
LINE
  5
6D1
330
1F
100
AcDbEntity
  8
0
  6
Continuous
 62
     7
370
    25
100
AcDbLine
 10
1779.8686106807
 20
190.0457924036
 30
0.0
 11
1861.4771624214
 21
190.0457924036
 31
0.0
  0
ARC
  5
6D2
330
1F
100
AcDbEntity
  8
0
  6
Continuous
 62
     7
370
    25
100
AcDbCircle
 10
1832.7100095749
 20
306.9454416563
 30
0.0
 40
4.203882053622281
100
AcDbArc
 50
0.0047394812
 51
9.5898070553
  0
ARC
  5
6D3
330
1F
100
AcDbEntity
  8
0
  6
Continuous
 62
     7
370
    25
100
AcDbCircle
 10
1810.3069122835
 20
306.946396623
 30
0.0
 40
4.543016036971984
100
AcDbArc
 50
171.1442682278
 51
180.0076582036
  0
ARC
  5
6D4
330
1F
100
AcDbEntity
  8
0
  6
Continuous
 62
     7
370
    25
100
AcDbCircle
 10
1832.7177566302
 20
306.9454416563
 30
0.0
 40
4.203882053585691
100
AcDbArc
 50
170.4101929447
 51
179.9952605188
  0
ARC
  5
6D5
330
1F
100
AcDbEntity
  8
0
  6
Continuous
 62
     7
370
    25
100
AcDbCircle
 10
1810.3130249647
 20
306.945520226
 30
0.0
 40
4.550879341237665
100
AcDbArc
 50
0.0033889076
 51
8.8514742657
  0
ARC
  5
6D6
330
1F
100
AcDbEntity
  8
0
  6
Continuous
 62
     7
370
    25
100
AcDbCircle
 10
1810.3068116716
 20
200.5464078285
 30
0.0
 40
4.542915426089261
100
AcDbArc
 50
171.1441698839
 51
180.0077565475
  0
ARC
  5
6D7
330
1F
100
AcDbEntity
  8
0
  6
Continuous
 62
     7
370
    25
100
AcDbCircle
 10
1832.7098232101
 20
200.5454294371
 30
0.0
 40
4.204068419673887
100
AcDbArc
 50
0.0049524308
 51
9.5895941057
  0
ARC
  5
6D8
330
1F
100
AcDbEntity
  8
0
  6
Continuous
 62
     7
370
    25
100
AcDbCircle
 10
1832.7179429949
 20
200.5454294371
 30
0.0
 40
4.204068419637513
100
AcDbArc
 50
170.4104058942
 51
179.9950475693
  0
ARC
  5
6D9
330
1F
100
AcDbEntity
  8
0
  6
Continuous
 62
     7
370
    25
100
AcDbCircle
 10
1810.3131262739
 20
200.5455314914
 30
0.0
 40
4.550778031589413
100
AcDbArc
 50
0.0032902231
 51
8.8515729502
  0
ARC
  5
6DA
330
1F
100
AcDbEntity
  8
0
  6
Continuous
 62
     7
370
    25
100
AcDbCircle
 10
1832.7177566302
 20
306.9461371428
 30
0.0
 40
4.20388205358751
100
AcDbArc
 50
180.0047394812
 51
189.5898070553
  0
ARC
  5
6DB
330
1F
100
AcDbEntity
  8
0
  6
Continuous
 62
     7
370
    25
100
AcDbCircle
 10
1810.3130249647
 20
306.9460585731
 30
0.0
 40
4.55087934123721
100
AcDbArc
 50
351.1485257343
 51
359.9966110924
  0
ARC
  5
6DC
330
1F
100
AcDbEntity
  8
0
  6
Continuous
 62
     7
370
    25
100
AcDbCircle
 10
1810.3069122835
 20
306.9451821761
 30
0.0
 40
4.54301603697153
100
AcDbArc
 50
179.9923417964
 51
188.8557317722
  0
ARC
  5
6DD
330
1F
100
AcDbEntity
  8
0
  6
Continuous
 62
     7
370
    25
100
AcDbCircle
 10
1832.7100095749
 20
306.9461371428
 30
0.0
 40
4.203882053623888
100
AcDbArc
 50
350.4101929447
 51
359.9952605188
  0
ARC
  5
6DE
330
1F
100
AcDbEntity
  8
0
  6
Continuous
 62
     7
370
    25
100
AcDbCircle
 10
1810.3069125411
 20
200.5451751957
 30
0.0
 40
4.543016296007217
100
AcDbArc
 50
179.9922106116
 51
188.8557316341
  0
ARC
  5
6DF
330
1F
100
AcDbEntity
  8
0
  6
Continuous
 62
     7
370
    25
100
AcDbCircle
 10
1832.7098233393
 20
200.5461457577
 30
0.0
 40
4.204068289618113
100
AcDbArc
 50
350.4104058184
 51
359.9951899475
  0
ARC
  5
6E0
330
1F
100
AcDbEntity
  8
0
  6
Continuous
 62
     7
370
    25
100
AcDbCircle
 10
1832.7179428658
 20
200.5461457577
 30
0.0
 40
4.204068289581967
100
AcDbArc
 50
180.0048100525
 51
189.5895941817
  0
ARC
  5
6E1
330
1F
100
AcDbEntity
  8
0
  6
Continuous
 62
     7
370
    25
100
AcDbCircle
 10
1810.313025113
 20
200.5460515482
 30
0.0
 40
4.550879192279335
100
AcDbArc
 50
351.1485256387
 51
359.9967426109
  0
DIMENSION
  5
6E2
330
1F
100
AcDbEntity
  8
FORMAT
100
AcDbDimension
  2
_D_33
 10
1731.5467111489
 20
200.5457888983
 30
0.0
 11
1731.5467111489
 21
138.3212952919
 31
0.0
 70
   160
  1
<>
 71
     2
 42
-1.0
  3
SLDDIMSTYLE5
100
AcDbAlignedDimension
 13
1779.8686106807
 23
190.0457888983
 33
0.0
 14
1810.3138896114
 24
200.5457888983
 34
0.0
 50
90.0
100
AcDbRotatedDimension
  0
DIMENSION
  5
6EE
330
1F
100
AcDbEntity
  8
FORMAT
100
AcDbDimension
  2
_D_34
 10
1690.2174182915
 20
306.9457888983
 30
0.0
 11
1690.2174182915
 21
253.7457888983
 31
0.0
 70
   160
  1
<>
 71
     2
 42
-1.0
  3
SLDDIMSTYLE10
100
AcDbAlignedDimension
 13
1810.3138896114
 23
200.5457888983
 33
0.0
 14
1802.2638896114
 24
306.9457888983
 34
0.0
 50
90.0
100
AcDbRotatedDimension
  0
MTEXT
  5
6F9
330
1F
100
AcDbEntity
  8
FORMAT
100
AcDbMText
 10
1817.8232798195
 20
426.2731139247
 30
0.0
 40
35.0
 41
0.0
 71
     2
 72
     1
  1
C (1 : 5)
  7
SLDTEXTSTYLE0
 73
     1
 44
1.0
  0
INSERT
  5
705
330
1F
100
AcDbEntity
  8
FORMAT
100
AcDbBlockReference
  2
SW_CENTERMARKSYMBOL_12
 10
1810.3139002925
 20
200.5457928209
 30
0.0
  0
INSERT
  5
711
330
1F
100
AcDbEntity
  8
FORMAT
100
AcDbBlockReference
  2
SW_CENTERMARKSYMBOL_13
 10
1810.3139002925
 20
306.9457893996
 30
0.0
  0
ENDSEC
  0
SECTION
  2
OBJECTS
  0
DICTIONARY
  5
C
330
0
100
AcDbDictionary
281
     1
  3
ACAD_GROUP
350
D
  3
ACAD_LAYOUT
350
1A
  3
ACAD_MLINESTYLE
350
17
  3
ACAD_PLOTSETTINGS
350
19
  3
ACAD_PLOTSTYLENAME
350
E
  3
ACAD_SCALELIST
350
47
  3
DWGPROPS
350
712
  0
DICTIONARY
  5
D
102
{ACAD_REACTORS
330
C
102
}
330
C
100
AcDbDictionary
281
     1
  0
DICTIONARY
  5
1A
102
{ACAD_REACTORS
330
C
102
}
330
C
100
AcDbDictionary
281
     1
  3
Layout1
350
1E
  3
Layout2
350
26
  3
Model
350
22
  0
DICTIONARY
  5
17
102
{ACAD_REACTORS
330
C
102
}
330
C
100
AcDbDictionary
281
     1
  3
Standard
350
18
  0
DICTIONARY
  5
19
102
{ACAD_REACTORS
330
C
102
}
330
C
100
AcDbDictionary
281
     1
  0
ACDBDICTIONARYWDFLT
  5
E
102
{ACAD_REACTORS
330
C
102
}
330
C
100
AcDbDictionary
281
     1
  3
Normal
350
F
100
AcDbDictionaryWithDefault
340
F
  0
DICTIONARY
  5
47
102
{ACAD_REACTORS
330
C
102
}
330
C
100
AcDbDictionary
281
     1
  3
A0
350
48
  3
A1
350
49
  3
A2
350
4A
  3
A3
350
4B
  3
A4
350
4C
  3
A5
350
4D
  3
A6
350
4E
  3
A7
350
4F
  3
A8
350
50
  3
A9
350
51
  3
B0
350
52
  3
B1
350
53
  3
B2
350
54
  3
B3
350
55
  3
B4
350
56
  3
B5
350
57
  3
B6
350
58
  3
B7
350
59
  3
B8
350
5A
  3
B9
350
5B
  3
C0
350
5C
  3
C1
350
5D
  3
C2
350
5E
  3
C3
350
5F
  3
C4
350
60
  3
C5
350
61
  3
C6
350
62
  3
C7
350
63
  3
C8
350
64
  3
C9
350
65
  3
D0
350
66
  3
D1
350
67
  3
D2
350
68
  0
XRECORD
  5
712
102
{ACAD_REACTORS
330
C
102
}
330
C
100
AcDbXrecord
280
     1
  1
DWGPROPS COOKIE
  2

  3

  4

  6

  7

  8
l.eckardt
  9

300
=
301
=
302
=
303
=
304
=
305
=
306
=
307
=
308
=
309
=
 40
0.0
 41
2460077.373280012
 42
2460077.373284583
  1

 90
        0
  0
LAYOUT
  5
1E
102
{ACAD_REACTORS
330
1A
102
}
330
1A
100
AcDbPlotSettings
  1

  2
none_device
  4

  6

 40
0.0
 41
0.0
 42
0.0
 43
0.0
 44
0.0
 45
0.0
 46
0.0
 47
0.0
 48
0.0
 49
0.0
140
0.0
141
0.0
142
1.0
143
1.0
 70
   688
 72
     1
 73
     0
 74
     5
  7

 75
    16
147
1.0
148
0.0
149
0.0
100
AcDbLayout
  1
Layout1
 70
     1
 71
     1
 10
0.0
 20
0.0
 11
420.0
 21
297.0
 12
0.0
 22
0.0
 32
0.0
 14
1.0000000000E+20
 24
1.0000000000E+20
 34
1.0000000000E+20
 15
-1.0000000000E+20
 25
-1.0000000000E+20
 35
-1.0000000000E+20
146
0.0
 13
0.0
 23
0.0
 33
0.0
 16
1.0
 26
0.0
 36
0.0
 17
0.0
 27
1.0
 37
0.0
 76
     0
330
1B
  0
LAYOUT
  5
26
102
{ACAD_REACTORS
330
1A
102
}
330
1A
100
AcDbPlotSettings
  1

  2
none_device
  4

  6

 40
0.0
 41
0.0
 42
0.0
 43
0.0
 44
0.0
 45
0.0
 46
0.0
 47
0.0
 48
0.0
 49
0.0
140
0.0
141
0.0
142
1.0
143
1.0
 70
   688
 72
     1
 73
     0
 74
     5
  7

 75
    16
147
1.0
148
0.0
149
0.0
100
AcDbLayout
  1
Layout2
 70
     1
 71
     2
 10
0.0
 20
0.0
 11
0.0
 21
0.0
 12
0.0
 22
0.0
 32
0.0
 14
0.0
 24
0.0
 34
0.0
 15
0.0
 25
0.0
 35
0.0
146
0.0
 13
0.0
 23
0.0
 33
0.0
 16
1.0
 26
0.0
 36
0.0
 17
0.0
 27
1.0
 37
0.0
 76
     0
330
23
  0
LAYOUT
  5
22
102
{ACAD_REACTORS
330
1A
102
}
330
1A
100
AcDbPlotSettings
  1

  2
none_device
  4
Letter_(8.50_x_11.00_Inches)
  6

 40
6.35
 41
6.35
 42
6.35000508
 43
6.35000508
 44
215.9
 45
279.4
 46
0.0
 47
0.0
 48
0.0
 49
0.0
140
0.0
141
0.0
142
1.0
143
1.0
 70
  1712
 72
     1
 73
     0
 74
     0
  7

 75
     0
147
1.0
148
0.0
149
0.0
100
AcDbLayout
  1
Model
 70
     1
 71
     0
 10
0.0
 20
0.0
 11
2940.0
 21
2079.0
 12
0.0
 22
0.0
 32
0.0
 14
0.0
 24
0.0
 34
0.0
 15
2940.0
 25
2079.0
 35
0.0
146
0.0
 13
0.0
 23
0.0
 33
0.0
 16
1.0
 26
0.0
 36
0.0
 17
0.0
 27
1.0
 37
0.0
 76
     0
330
1F
331
29
  0
MLINESTYLE
  5
18
102
{ACAD_REACTORS
330
17
102
}
330
17
100
AcDbMlineStyle
  2
Standard
 70
     0
  3

 62
   256
 51
90.0
 52
90.0
 71
     2
 49
0.5
 62
   256
  6
BYLAYER
 49
-0.5
 62
   256
  6
BYLAYER
  0
ACDBPLACEHOLDER
  5
F
102
{ACAD_REACTORS
330
E
102
}
330
E
  0
SCALE
  5
48
102
{ACAD_REACTORS
330
47
102
}
330
47
100
AcDbScale
 70
     0
300
1:1
140
1.0
141
1.0
290
     1
  0
SCALE
  5
49
102
{ACAD_REACTORS
330
47
102
}
330
47
100
AcDbScale
 70
     0
300
1:2
140
1.0
141
2.0
290
     0
  0
SCALE
  5
4A
102
{ACAD_REACTORS
330
47
102
}
330
47
100
AcDbScale
 70
     0
300
1:4
140
1.0
141
4.0
290
     0
  0
SCALE
  5
4B
102
{ACAD_REACTORS
330
47
102
}
330
47
100
AcDbScale
 70
     0
300
1:5
140
1.0
141
5.0
290
     0
  0
SCALE
  5
4C
102
{ACAD_REACTORS
330
47
102
}
330
47
100
AcDbScale
 70
     0
300
1:8
140
1.0
141
8.0
290
     0
  0
SCALE
  5
4D
102
{ACAD_REACTORS
330
47
102
}
330
47
100
AcDbScale
 70
     0
300
1:10
140
1.0
141
10.0
290
     0
  0
SCALE
  5
4E
102
{ACAD_REACTORS
330
47
102
}
330
47
100
AcDbScale
 70
     0
300
1:16
140
1.0
141
16.0
290
     0
  0
SCALE
  5
4F
102
{ACAD_REACTORS
330
47
102
}
330
47
100
AcDbScale
 70
     0
300
1:20
140
1.0
141
20.0
290
     0
  0
SCALE
  5
50
102
{ACAD_REACTORS
330
47
102
}
330
47
100
AcDbScale
 70
     0
300
1:30
140
1.0
141
30.0
290
     0
  0
SCALE
  5
51
102
{ACAD_REACTORS
330
47
102
}
330
47
100
AcDbScale
 70
     0
300
1:40
140
1.0
141
40.0
290
     0
  0
SCALE
  5
52
102
{ACAD_REACTORS
330
47
102
}
330
47
100
AcDbScale
 70
     0
300
1:50
140
1.0
141
50.0
290
     0
  0
SCALE
  5
53
102
{ACAD_REACTORS
330
47
102
}
330
47
100
AcDbScale
 70
     0
300
1:100
140
1.0
141
100.0
290
     0
  0
SCALE
  5
54
102
{ACAD_REACTORS
330
47
102
}
330
47
100
AcDbScale
 70
     0
300
2:1
140
2.0
141
1.0
290
     0
  0
SCALE
  5
55
102
{ACAD_REACTORS
330
47
102
}
330
47
100
AcDbScale
 70
     0
300
4:1
140
4.0
141
1.0
290
     0
  0
SCALE
  5
56
102
{ACAD_REACTORS
330
47
102
}
330
47
100
AcDbScale
 70
     0
300
8:1
140
8.0
141
1.0
290
     0
  0
SCALE
  5
57
102
{ACAD_REACTORS
330
47
102
}
330
47
100
AcDbScale
 70
     0
300
10:1
140
10.0
141
1.0
290
     0
  0
SCALE
  5
58
102
{ACAD_REACTORS
330
47
102
}
330
47
100
AcDbScale
 70
     0
300
100:1
140
100.0
141
1.0
290
     0
  0
SCALE
  5
59
102
{ACAD_REACTORS
330
47
102
}
330
47
100
AcDbScale
 70
     0
300
1/128" = 1'-0"
140
0.0078125
141
12.0
290
     0
  0
SCALE
  5
5A
102
{ACAD_REACTORS
330
47
102
}
330
47
100
AcDbScale
 70
     0
300
1/64" = 1'-0"
140
0.015625
141
12.0
290
     0
  0
SCALE
  5
5B
102
{ACAD_REACTORS
330
47
102
}
330
47
100
AcDbScale
 70
     0
300
1/32" = 1'-0"
140
0.03125
141
12.0
290
     0
  0
SCALE
  5
5C
102
{ACAD_REACTORS
330
47
102
}
330
47
100
AcDbScale
 70
     0
300
1/16" = 1'-0"
140
0.0625
141
12.0
290
     0
  0
SCALE
  5
5D
102
{ACAD_REACTORS
330
47
102
}
330
47
100
AcDbScale
 70
     0
300
3/32" = 1'-0"
140
0.09375
141
12.0
290
     0
  0
SCALE
  5
5E
102
{ACAD_REACTORS
330
47
102
}
330
47
100
AcDbScale
 70
     0
300
1/8" = 1'-0"
140
0.125
141
12.0
290
     0
  0
SCALE
  5
5F
102
{ACAD_REACTORS
330
47
102
}
330
47
100
AcDbScale
 70
     0
300
3/16" = 1'-0"
140
0.1875
141
12.0
290
     0
  0
SCALE
  5
60
102
{ACAD_REACTORS
330
47
102
}
330
47
100
AcDbScale
 70
     0
300
1/4" = 1'-0"
140
0.25
141
12.0
290
     0
  0
SCALE
  5
61
102
{ACAD_REACTORS
330
47
102
}
330
47
100
AcDbScale
 70
     0
300
3/8" = 1'-0"
140
0.375
141
12.0
290
     0
  0
SCALE
  5
62
102
{ACAD_REACTORS
330
47
102
}
330
47
100
AcDbScale
 70
     0
300
1/2" = 1'-0"
140
0.5
141
12.0
290
     0
  0
SCALE
  5
63
102
{ACAD_REACTORS
330
47
102
}
330
47
100
AcDbScale
 70
     0
300
3/4" = 1'-0"
140
0.75
141
12.0
290
     0
  0
SCALE
  5
64
102
{ACAD_REACTORS
330
47
102
}
330
47
100
AcDbScale
 70
     0
300
1" = 1'-0"
140
1.0
141
12.0
290
     0
  0
SCALE
  5
65
102
{ACAD_REACTORS
330
47
102
}
330
47
100
AcDbScale
 70
     0
300
1-1/2" = 1'-0"
140
1.5
141
12.0
290
     0
  0
SCALE
  5
66
102
{ACAD_REACTORS
330
47
102
}
330
47
100
AcDbScale
 70
     0
300
3" = 1'-0"
140
3.0
141
12.0
290
     0
  0
SCALE
  5
67
102
{ACAD_REACTORS
330
47
102
}
330
47
100
AcDbScale
 70
     0
300
6" = 1'-0"
140
6.0
141
12.0
290
     0
  0
SCALE
  5
68
102
{ACAD_REACTORS
330
47
102
}
330
47
100
AcDbScale
 70
     0
300
1'-0" = 1'-0"
140
12.0
141
12.0
290
     0
  0
ENDSEC
  0
EOF
